<?xml version="1.0" standalone="no"?>
<!DOCTYPE svg PUBLIC "-//W3C//DTD SVG 1.1//EN" "http://www.w3.org/Graphics/SVG/1.1/DTD/svg11.dtd" >
<svg xmlns="http://www.w3.org/2000/svg">
<metadata>
This is a custom SVG webfont generated by Font Squirrel.
Designer    : Dave Crossland
Foundry URL : http://abattis.org
</metadata>
<defs>
<font id="webfont6JLppqXM" horiz-adv-x="1300" >
<font-face units-per-em="2048" ascent="1514" descent="-534" />
<missing-glyph horiz-adv-x="560" />
<glyph unicode=" "  horiz-adv-x="560" />
<glyph unicode="&#x09;" horiz-adv-x="560" />
<glyph unicode="&#xa0;" horiz-adv-x="560" />
<glyph unicode="!" horiz-adv-x="650" d="M282 200h200l-57 -200h-200zM647 1421h170l-276 -963h-170z" />
<glyph unicode="&#x22;" horiz-adv-x="795" d="M543 1511h185l-122 -428h-185zM933 1511h185l-122 -428h-185z" />
<glyph unicode="#" horiz-adv-x="1402" d="M770 1421h160l-112 -391h358l112 391h160l-112 -391h316l-43 -150h-316l-101 -352h316l-43 -150h-316l-117 -408h-160l117 408h-358l-117 -408h-160l117 408h-316l43 150h316l101 352h-318l43 150h318zM775 880l-101 -352h358l101 352h-358z" />
<glyph unicode="$" horiz-adv-x="1200" d="M985 1511h121l-74 -260q60 0 105.5 -5.5t71.5 -12t76 -22.5l-78 -125q-123 37 -225 37q-73 0 -129 -16t-86 -41.5t-45 -46.5t-21 -42q-3 -11 -3 -21q0 -39 47 -69t114 -54t134.5 -51.5t114.5 -75.5t47 -112q0 -27 -9 -60q-13 -46 -40 -89.5t-73 -88.5t-122 -78.5 t-171 -45.5l-86 -297h-121l84 290q-142 0 -304 75l82 124q83 -40 139 -55t120 -15q58 0 104.5 7.5t89 24.5t72 49.5t42.5 79.5q4 16 4 24q0 30 -25 53t-64.5 39.5t-87.5 32t-96 35t-87.5 43.5t-64.5 62.5t-25 87.5q0 32 10 68q11 39 37.5 79t70.5 81t115.5 73.5t158.5 46.5z " />
<glyph unicode="%" horiz-adv-x="1329" d="M690 1268q-24 0 -47.5 -8t-49 -26.5t-47.5 -54t-36 -85.5q-16 -55 -16 -94q0 -56 26.5 -78t64.5 -22q24 0 47 8t48.5 27.5t49 58.5t39.5 95q14 48 14 84q0 95 -93 95zM718 1363q29 0 55 -6.5t53 -22t43 -48.5t16 -80q0 -52 -18 -114q-38 -133 -124.5 -209.5t-185.5 -76.5 q-74 0 -120 38.5t-46 123.5q0 55 20 125q25 88 77.5 151t111 91t118.5 28zM1135 527q-24 0 -47.5 -8t-49 -26.5t-47.5 -54t-36 -85.5q-15 -52 -15 -94q0 -56 26.5 -78t64.5 -22q24 0 47 8t48.5 27.5t49 58.5t39.5 95q14 48 14 83q0 53 -27.5 74.5t-66.5 21.5zM1164 623 q29 0 55.5 -6.5t53.5 -22.5t43 -49t16 -81q0 -52 -18 -113q-38 -132 -125 -208.5t-186 -76.5q-74 0 -119.5 38t-45.5 123q0 55 20 125q37 130 125 200.5t181 70.5zM1461 1421h170l-1376 -1421h-170z" />
<glyph unicode="&#x26;" horiz-adv-x="1589" d="M1120 1440q127 0 197 -54.5t70 -143.5q0 -34 -10 -67q-9 -32 -27.5 -64t-37 -57.5t-52.5 -56.5l-55 -50q-22 -19 -64.5 -49t-62.5 -43l-68 -43l-61 -40l242 -371l424 353l66 -94l-425 -359l197 -301h-203l-136 201l-88 -65q-35 -26 -99.5 -64.5t-120.5 -61.5t-132 -40 t-151 -17q-134 0 -205.5 62t-71.5 166q0 49 15 101q11 38 28.5 75t36 67.5t46.5 63.5l50 56q20 22 55 51l54 45q19 15 57 40l50 34l48 32q35 22 39 24q-2 4 -15 22.5t-16 23.5l-16 24l-16 26q-4 7 -13 24t-13 28l-10 27q-6 17 -8.5 30t-4.5 29.5t-2 32.5q0 41 13 86 q40 140 182.5 228.5t313.5 88.5zM1062 1297q-90 0 -171.5 -54.5t-102.5 -128.5q-6 -22 -6 -43q0 -25 10 -51.5t22 -43.5l35 -52q24 -34 36 -53l63 40l59 37q16 10 48.5 32t45.5 32.5t34.5 29.5t31 32.5t20 31.5t15.5 37q5 16 5 37q0 50 -38.5 83.5t-106.5 33.5zM793 671 q-148 -96 -198 -136q-123 -100 -154 -208q-9 -31 -9 -61q0 -73 51.5 -119.5t138.5 -46.5q47 0 99 15t91.5 33t91 50.5t76.5 50.5l66 50z" />
<glyph unicode="'" horiz-adv-x="405" d="M543 1511h185l-122 -428h-185z" />
<glyph unicode="(" horiz-adv-x="742" d="M1086 1479q-288 -326 -438.5 -668t-150.5 -680q0 -230 72 -455l-153 -84q-89 275 -89 559q0 222 58 425q40 138 110 282.5t155.5 271.5t163 226.5t160.5 191.5z" />
<glyph unicode=")" horiz-adv-x="742" d="M-13 -324q81 91 152.5 184t155 229.5t142 273.5t98 310t39.5 345q0 232 -70 461l152 69q89 -273 89 -552q0 -220 -58 -420q-40 -139 -111 -285.5t-158 -276t-165.5 -230.5t-160.5 -192z" />
<glyph unicode="*" horiz-adv-x="1196" d="M920 1421h170l-109 -319l316 175l43 -148l-325 -141l243 -145l-128 -148l-216 175l-73 -318h-170l109 318l-316 -175l-42 148l326 145l-244 141l127 148l216 -175z" />
<glyph unicode="+" horiz-adv-x="1400" d="M980 1233h148l-146 -506h501l-39 -138h-501l-145 -506h-148l145 506h-501l39 138h501z" />
<glyph unicode="," horiz-adv-x="570" d="M249 170h180l-270 -390h-180z" />
<glyph unicode="-" horiz-adv-x="1210" d="M384 728h860l-40 -139h-860z" />
<glyph unicode="." horiz-adv-x="570" d="M240 210h210l-60 -210h-210z" />
<glyph unicode="/" horiz-adv-x="726" d="M943 1421h170l-929 -1511h-170z" />
<glyph unicode="0" d="M1018 1287q-48 0 -100.5 -16t-114.5 -57t-118 -102t-109 -160t-88 -222q-46 -161 -46 -282q0 -86 22 -150t59 -99.5t78.5 -52t87.5 -16.5q48 0 100.5 17t115 60t119.5 107.5t111.5 170t92.5 237.5q41 143 41 255q0 84 -22.5 146.5t-60.5 97t-80 50.5t-88 16zM1062 1440 q54 0 105.5 -12.5t102.5 -43t89 -77t61.5 -120t23.5 -165.5q0 -132 -47 -296q-48 -168 -122 -301t-152.5 -214.5t-167.5 -135.5t-164 -74.5t-145 -20.5q-54 0 -105 12.5t-101 44t-87.5 79t-60.5 123t-23 169.5q0 143 51 320q46 159 118 286t150 205t166 129.5t163.5 71.5 t144.5 20z" />
<glyph unicode="1" d="M1001 1421h196l-364 -1272h330l-43 -149h-828l43 149h334l317 1108l-347 -123l-22 147z" />
<glyph unicode="2" d="M571 1334q257 97 481 97q176 0 274 -77.5t98 -199.5q0 -44 -13 -89q-21 -73 -68 -137.5t-110.5 -117t-138.5 -103.5l-157 -108q-83 -57 -162 -118.5t-159 -147.5t-141 -183h700l-43 -150h-907l27 93q74 122 165 228.5t176.5 180t173 138t162.5 113.5t137 94t104 92t56 96 q8 29 8 53q0 84 -71.5 140t-184.5 56q-143 0 -396 -82z" />
<glyph unicode="3" d="M588 1336q236 102 431 102q157 0 251 -71t94 -185q0 -39 -12 -81q-32 -111 -116.5 -198t-194.5 -125q198 -57 198 -234q0 -53 -16 -108q-62 -215 -255.5 -348t-433.5 -133q-185 0 -349 77l88 138q191 -57 308 -57q156 0 289 80t169 206q10 33 10 68q0 32 -9 60.5t-35 58 t-67 50.5t-110 34.5t-160 13.5l42 146q90 0 165.5 16.5t125 41.5t86.5 58.5t56.5 64.5t28.5 63q7 24 7 49q0 71 -58.5 116t-166.5 45q-147 0 -350 -83z" />
<glyph unicode="4" d="M1101 1421h238l-265 -927h248l-43 -150h-248l-99 -344h-164l99 344h-648l32 112zM1129 1259l-671 -765h452z" />
<glyph unicode="5" d="M642 1421h856l-43 -150h-693l-111 -388q107 13 207 13t177 -18.5t123.5 -48.5t76.5 -72.5t41 -84.5t11 -90q0 -62 -19 -128q-11 -37 -27.5 -75.5t-47.5 -86t-70 -90t-98 -84.5t-128 -71.5t-163 -48t-201 -18.5q-184 0 -356 35l76 151q141 -32 311 -32q101 0 186 20 t140.5 51.5t97.5 73t63.5 80t33.5 78.5q10 38 10 74q0 45 -16 83.5t-52 73.5t-105 55.5t-164 20.5q-105 0 -317 -24z" />
<glyph unicode="6" d="M1317 1432q52 0 122 -7l-55 -148q-52 6 -105 6q-96 0 -180.5 -18t-147 -46t-117.5 -70.5t-91.5 -83.5t-69.5 -93.5t-52 -91.5t-38 -86q74 63 169.5 100.5t197.5 37.5q157 0 246.5 -83.5t89.5 -225.5q0 -66 -21 -141q-61 -211 -241 -359t-396 -148q-47 0 -89 7.5t-89 29.5 t-81 57.5t-56 97.5t-22 144q0 114 43 266q56 196 140.5 347t179 245.5t209 155t224 84t230.5 23.5zM871 792q-129 0 -244 -89t-155 -227q-15 -54 -15 -105q0 -109 62 -182.5t168 -73.5q127 0 247.5 103.5t161.5 245.5q15 54 15 99q0 105 -67.5 167t-172.5 62z" />
<glyph unicode="7" d="M538 1421h1038l-30 -107l-1040 -1314h-198l1014 1261h-829z" />
<glyph unicode="8" d="M1015 1297q-103 0 -191.5 -60t-111.5 -140q-7 -24 -7 -48q0 -33 17 -62.5t38 -48t59.5 -37.5t60.5 -27l62 -22q127 67 191.5 117.5t84.5 118.5q8 27 8 56q0 73 -59 113t-152 40zM828 726q-150 -41 -254.5 -131t-133.5 -190q-9 -33 -9 -65q0 -91 71 -150.5t198 -59.5 q140 0 248 77.5t141 189.5q12 42 12 78q0 41 -15.5 77t-40.5 61.5t-62 47.5t-73 36.5t-82 28.5zM1056 1440q171 0 257.5 -61.5t86.5 -175.5q0 -50 -17 -110q-25 -87 -94 -157t-193 -144q187 -97 187 -282q0 -73 -31.5 -149.5t-90.5 -144t-136 -121t-175 -84.5t-201 -31 q-179 0 -290.5 85.5t-111.5 224.5q0 48 15 100q34 121 143.5 230.5t255.5 170.5q-128 76 -128 219q0 47 12 88q41 144 182 243t329 99z" />
<glyph unicode="9" d="M1079 1441q48 0 91 -8t88.5 -30.5t78.5 -58t54 -97t21 -141.5q0 -118 -44 -271q-56 -194 -139.5 -344t-178.5 -244t-209 -154.5t-223.5 -84t-229.5 -23.5q-63 0 -123 6l55 148q44 -5 106 -5q99 0 185 18.5t147.5 46t116.5 73t89.5 86t68.5 100t51 98.5l42 99 q-80 -66 -175 -98.5t-184 -32.5q-155 0 -247.5 85t-92.5 224q0 62 19 126q37 130 132.5 240t228.5 176t272 66zM1017 1301q-121 0 -243.5 -100t-158.5 -226q-12 -43 -12 -83q0 -100 68 -164t173 -64q127 0 243 88t151 211q12 42 12 84q0 104 -64 179t-169 75z" />
<glyph unicode=":" horiz-adv-x="570" d="M465 993h210l-60 -210h-210zM240 210h210l-60 -210h-210z" />
<glyph unicode=";" horiz-adv-x="570" d="M465 993h210l-60 -210h-210zM249 170h180l-270 -390h-180z" />
<glyph unicode="&#x3c;" horiz-adv-x="1073" d="M1296 1128l-44 -155l-800 -352l603 -336l-48 -165l-754 413l47 165z" />
<glyph unicode="=" horiz-adv-x="1400" d="M364 501h960l-43 -150h-960zM494 954h960l-43 -150h-960z" />
<glyph unicode="&#x3e;" horiz-adv-x="1073" d="M423 1128l750 -430l-47 -165l-992 -413l48 165l795 336l-598 352z" />
<glyph unicode="?" horiz-adv-x="1046" d="M368 200h200l-57 -200h-200zM835 1437q178 0 275 -60t97 -178q0 -48 -16 -102q-23 -82 -63 -146.5t-85.5 -107t-96.5 -79.5l-102 -70q-50 -35 -95 -74t-82.5 -97t-58.5 -131h-170q25 86 66 156t88.5 116t99.5 84.5t102.5 71.5t94.5 66.5t78.5 80t50.5 102.5q9 32 9 59 q0 32 -12 59.5t-39 52.5t-80.5 39.5t-128.5 14.5q-57 0 -131 -13.5t-126 -33.5l-17 122q158 68 342 68z" />
<glyph unicode="@" horiz-adv-x="2100" d="M1330 962q127 0 229 -59l42 65h113l-206 -716q-27 -97 -27 -139q0 -93 90 -93q37 0 82.5 26t97 80t102.5 154t88 230q49 173 49 301q0 427 -535 427q-125 0 -238.5 -28t-203 -75t-168 -112.5t-136 -136.5t-105 -151.5t-78 -152.5t-51.5 -144q-37 -132 -37 -243 q0 -116 38.5 -208.5t106.5 -151t157.5 -89.5t194.5 -31q154 0 311 67l29 -119q-201 -90 -405 -90q-51 0 -102.5 5.5t-114.5 21.5t-118 40.5t-108.5 67t-91.5 96.5t-61.5 132t-23.5 172q0 130 47 296q29 102 69.5 198t100.5 197t133 187.5t171.5 163.5t211 131.5t256.5 86 t304 31.5q633 0 633 -503q0 -157 -61 -366q-45 -156 -110.5 -276.5t-130 -188t-136.5 -110.5t-125 -56.5t-101 -13.5q-88 0 -140 47t-57 124q-152 -76 -292 -76q-147 0 -232.5 81t-85.5 225q0 74 26 166q65 226 230.5 368t368.5 142zM1318 840q-143 0 -261 -96.5 t-168 -268.5q-21 -73 -21 -132q0 -113 67 -173.5t178 -60.5q103 0 214 52l182 633q-90 46 -191 46z" />
<glyph unicode="A" horiz-adv-x="1383" d="M1042 1421h193l98 -1421h-172l-26 413h-586l-262 -413h-157zM1084 1255l-441 -693h483z" />
<glyph unicode="B" horiz-adv-x="1424" d="M830 1291l-137 -477q19 1 66 1.5t73.5 1t74.5 4t78 8t73 14t72 22t63 32t57 43.5t43.5 57.5t31.5 73.5q10 33 10 66q0 67 -52 110.5t-179 43.5h-274zM656 682l-153 -532h265q36 0 60.5 0.5t72.5 6t83 15t80 29t77.5 46.5t62 69.5t44.5 96.5q12 42 12 78q0 98 -82 151.5 t-228 53.5q-20 0 -294 -14zM697 1421h501q74 0 130.5 -15.5t89 -39.5t53 -58t27.5 -65t7 -66q0 -49 -14 -98q-25 -87 -108.5 -173.5t-156.5 -111.5q99 -19 155.5 -90t56.5 -171q0 -49 -15 -102q-9 -31 -24 -65t-43.5 -77t-65 -82t-90.5 -77.5t-117.5 -66.5t-149 -45.5 t-181.5 -17.5h-462z" />
<glyph unicode="C" horiz-adv-x="1451" d="M1396 1431q194 0 365 -76l-93 -141q-175 67 -320 67q-120 0 -236 -47.5t-206.5 -127t-157.5 -182t-99 -214.5q-26 -92 -26 -173q0 -179 113.5 -290t320.5 -111q154 0 338 60l16 -126q-235 -90 -442 -90q-134 0 -236.5 39.5t-165 109t-94 158.5t-31.5 194t31 216t87.5 217 t142 199.5t188.5 164.5t234 112t271 41z" />
<glyph unicode="D" horiz-adv-x="1606" d="M824 1271l-321 -1121h207q45 0 75 1t81.5 6t91 15t92 29t96 46t91.5 69t90 95q102 129 154 309q30 103 30 193q0 79 -23.5 143t-63.5 105.5t-88.5 66.5t-104.5 35q-42 8 -131 8h-276zM1137 1421q126 0 223.5 -23.5t160.5 -63t103.5 -96.5t57 -119t16.5 -135 q0 -107 -36 -230q-27 -93 -65.5 -179t-98.5 -175t-133.5 -159.5t-174.5 -127t-217 -83.5q-60 -14 -131 -21t-116.5 -8t-127.5 -1h-308l407 1421h440z" />
<glyph unicode="E" horiz-adv-x="1283" d="M290 0l407 1421h833l-43 -150h-663l-133 -464h608l-43 -150h-608l-145 -507h663l-43 -150h-833z" />
<glyph unicode="F" horiz-adv-x="1248" d="M824 1271l-133 -464h593l-43 -150h-593l-188 -657h-170l407 1421h823l-43 -150h-653z" />
<glyph unicode="G" horiz-adv-x="1591" d="M1330 1432q239 0 422 -121l-103 -127q-64 40 -157 69t-196 29q-105 0 -213.5 -39t-205 -109.5t-173 -178t-113.5 -235.5q-27 -96 -27 -180q0 -186 117.5 -297.5t318.5 -111.5q193 0 347 116l104 363h-404l40 140h569l-160 -558q-36 -31 -80 -60t-118 -67t-174 -61.5 t-208 -23.5q-136 0 -240 39t-167 108.5t-94.5 158t-31.5 193.5t31 216.5t87.5 217.5t142 200t188 165t231.5 112.5t267 41.5z" />
<glyph unicode="H" horiz-adv-x="1600" d="M1627 1421h170l-407 -1421h-170l189 658h-760l-189 -658h-170l407 1421h170l-175 -613h760z" />
<glyph unicode="I" horiz-adv-x="730" d="M727 1421h170l-407 -1421h-170z" />
<glyph unicode="J" horiz-adv-x="953" d="M980 1421h170l-285 -995q-31 -111 -72.5 -185t-117.5 -135q-153 -123 -374 -123q-101 0 -189 24l68 142q63 -16 136 -16q61 0 112.5 12.5t87 30t65.5 45.5t47 51t32 55.5t20.5 49t12.5 40.5z" />
<glyph unicode="K" horiz-adv-x="1417" d="M697 1421h170l-407 -1421h-170zM1493 1421h213l-795 -678l426 -743h-219l-425 729z" />
<glyph unicode="L" horiz-adv-x="1133" d="M697 1421h170l-364 -1272h638l-43 -149h-808z" />
<glyph unicode="M" horiz-adv-x="1884" d="M697 1421h240l209 -862l710 862h225l-407 -1421h-170l337 1177l-657 -770h-170l-217 770l-337 -1177h-170z" />
<glyph unicode="N" horiz-adv-x="1659" d="M697 1421h215l434 -1189l340 1189h170l-407 -1421h-215l-432 1191l-342 -1191h-170z" />
<glyph unicode="O" horiz-adv-x="1686" d="M1296 1436q230 0 365 -125t135 -345q0 -112 -37 -239q-95 -330 -343 -536t-543 -206q-104 0 -192.5 29.5t-156 87t-106 149t-38.5 207.5q0 115 38 249q95 330 340.5 529.5t537.5 199.5zM1244 1287q-91 0 -185 -34t-183 -99.5t-163 -176t-114 -249.5q-33 -117 -33 -214 q0 -177 98 -278.5t264 -101.5q71 0 145.5 21t150.5 66.5t142.5 111.5t123 163t89.5 213q33 117 33 209q0 75 -20.5 137t-55 104.5t-82 71.5t-100 42.5t-110.5 13.5z" />
<glyph unicode="P" horiz-adv-x="1339" d="M697 1421h469q37 0 61 -0.5t68.5 -5.5t75 -13.5t67.5 -27t59.5 -43.5t38.5 -64.5t16 -89.5q0 -63 -21 -134q-20 -69 -48.5 -126.5t-61 -101t-74.5 -78t-82.5 -57.5t-90.5 -40.5t-93.5 -27t-97.5 -15t-96 -7t-94 -1.5q-67 0 -162 7l-171 -596h-170zM674 746q94 -8 180 -8 q49 0 82.5 1t82.5 7t84.5 16.5t77 31.5t71 49.5t56.5 72t43 99.5q14 48 14 89q0 45 -19 77t-46 49t-70 27t-77 12t-81 2h-248z" />
<glyph unicode="Q" horiz-adv-x="1706" d="M1298 1436q129 0 226.5 -37.5t155 -104t85.5 -151t28 -185.5q0 -191 -91 -395.5t-238 -342.5l130 -179l-120 -97l-136 177q-211 -136 -454 -136q-230 0 -367.5 124.5t-137.5 349.5q0 114 38 246q63 220 198.5 387.5t313 255.5t369.5 88zM1241 1287q-88 0 -180.5 -33 t-182 -98.5t-164.5 -177t-116 -254.5q-33 -117 -33 -212q0 -181 105.5 -279.5t275.5 -98.5q163 0 310 93l-229 298l136 108l219 -301q128 137 190 353q37 129 37 235q0 81 -22.5 145.5t-58.5 105t-85.5 67.5t-99 38t-102.5 11z" />
<glyph unicode="R" horiz-adv-x="1438" d="M1524 1031q-20 -71 -55.5 -135t-88.5 -122t-128.5 -100.5t-166.5 -62.5l226 -611h-190l-215 592h-275l-170 -592h-171l407 1421h522q44 0 78.5 -3t84.5 -16.5t83.5 -37.5t58 -71.5t24.5 -112.5q0 -67 -24 -149zM674 742h245q41 0 74.5 2.5t80 11t84.5 27t76 47t67 75 t47 107.5q14 46 14 88q0 172 -250 172h-286z" />
<glyph unicode="S" horiz-adv-x="1361" d="M1232 1434q164 0 337 -57l-100 -155q-164 52 -297 52q-148 0 -268.5 -63t-148.5 -161q-7 -22 -7 -46q0 -47 33 -84t86.5 -62t117.5 -48.5t128 -51t117.5 -61t86.5 -85.5t33 -119q0 -43 -15 -96q-16 -57 -50.5 -113.5t-92.5 -112t-132 -97.5t-176 -68t-218 -26t-206 24 t-198 72l105 165q224 -93 368 -93q152 0 265.5 61t142.5 163q8 25 8 53q0 50 -33.5 89t-86.5 64.5t-117 48.5l-128 49q-65 25 -118 56.5t-86.5 82t-33.5 115.5q0 44 14 92q49 171 236.5 291.5t433.5 120.5z" />
<glyph unicode="T" horiz-adv-x="1210" d="M492 1421h1120l-43 -150h-475l-364 -1271h-170l364 1271h-475z" />
<glyph unicode="U" horiz-adv-x="1582" d="M697 1421h170l-264 -921q-27 -94 -27 -150q0 -62 29 -110q69 -113 262 -113q141 0 254 61.5t172 173.5q28 52 52 138l264 921h168l-266 -936q-13 -46 -25 -80.5t-39.5 -90.5t-59.5 -97.5t-86 -88.5t-118 -77.5t-156.5 -50.5t-201.5 -20q-80 0 -145.5 11.5t-109.5 29.5 t-77.5 44t-52 52t-29.5 57.5t-14.5 55.5t-3.5 50v20q2 68 37 187z" />
<glyph unicode="V" horiz-adv-x="1401" d="M547 1421h202l51 -1241l761 1241h187l-902 -1421h-211z" />
<glyph unicode="W" horiz-adv-x="2165" d="M547 1421h180l15 -1194l702 1194h171l28 -1194l689 1194h180l-845 -1421h-181l-33 1187l-689 -1187h-181z" />
<glyph unicode="X" horiz-adv-x="1368" d="M1494 1421h196l-643 -675l291 -746h-220l-227 599l-571 -599h-210l726 742l-259 679h206l209 -535z" />
<glyph unicode="Y" horiz-adv-x="1263" d="M507 1421h201l194 -587l538 587h190l-698 -748l-193 -673h-170l193 673z" />
<glyph unicode="Z" horiz-adv-x="1358" d="M592 1421h1086l-31 -109l-1223 -1162h917l-43 -150h-1143l32 111l1205 1160h-843z" />
<glyph unicode="[" horiz-adv-x="758" d="M683 1511h458l-42 -149h-294l-466 -1623h294l-43 -149h-458z" />
<glyph unicode="\" horiz-adv-x="726" d="M427 1421h170l63 -1511h-170z" />
<glyph unicode="]" horiz-adv-x="758" d="M483 1511h458l-551 -1921h-458l43 149h294l466 1623h-294z" />
<glyph unicode="^" horiz-adv-x="1479" d="M1167 1541l174 -286l-118 -88l-120 196l-237 -196l-66 79z" />
<glyph unicode="_" horiz-adv-x="1160" d="M193 150h860l-43 -150h-860z" />
<glyph unicode="`" horiz-adv-x="1122" d="M800 1586l415 -310l-94 -108l-427 295z" />
<glyph unicode="a" horiz-adv-x="1058" d="M781 982q160 0 230 -54t70 -153q0 -55 -21 -131l-185 -644h-116l-12 90q-150 -110 -305 -110q-117 0 -187.5 61.5t-70.5 152.5q0 30 9 62q20 71 67.5 123.5t109 84.5t145.5 51t167 26t185 7l22 75q16 54 16 93q0 130 -190 130q-96 0 -271 -43l3 118q179 61 334 61z M832 424h-60q-56 0 -97.5 -2t-99 -11t-97 -25t-73.5 -47.5t-46 -74.5q-4 -13 -4 -30q0 -52 47.5 -88.5t121.5 -36.5q126 0 245 97z" />
<glyph unicode="b" horiz-adv-x="1169" d="M619 1511h164l-171 -595q145 67 278 67q60 0 113 -15.5t100.5 -48.5t75.5 -94.5t28 -143.5q0 -85 -30 -188q-68 -238 -234.5 -375.5t-368.5 -137.5q-134 0 -242 66l-33 -46h-114zM795 847q-106 0 -217 -51l-185 -642q95 -45 193 -45q45 0 89.5 9.5t95.5 35t94.5 64.5 t82 102.5t61.5 144.5q25 85 25 157q0 65 -22 111.5t-59 70t-75.5 33.5t-82.5 10z" />
<glyph unicode="c" horiz-adv-x="986" d="M258 459q33 114 86.5 205t115.5 149.5t135.5 97t143 54.5t139.5 16q139 0 254 -59l-73 -118q-97 36 -201 36q-65 0 -124 -16t-119.5 -52.5t-109.5 -107.5t-78 -171q-25 -87 -25 -152q0 -64 22 -109.5t61 -70t83.5 -35.5t99.5 -11q90 0 192 32l7 -112q-156 -55 -295 -55 q-66 0 -123 14t-108.5 46t-81.5 92.5t-30 143.5q0 82 29 183z" />
<glyph unicode="d" horiz-adv-x="1174" d="M260 465q48 165 143.5 284.5t213.5 176.5t248 57q117 0 219 -53l166 581h164l-433 -1511h-114l-9 62q-160 -82 -308 -82q-62 0 -116.5 16.5t-101 50.5t-74 94.5t-27.5 141.5q0 82 29 182zM642 115q108 0 224 54l183 639q-92 46 -197 46q-45 0 -89.5 -9.5t-95.5 -35 t-94 -65t-82.5 -105t-63.5 -149.5q-24 -86 -24 -148q0 -65 22 -111.5t59 -70.5t76 -34.5t82 -10.5z" />
<glyph unicode="e" horiz-adv-x="1088" d="M876 982q267 0 267 -236q0 -91 -49 -265l-22 -76h-666q-10 -37 -10 -67q0 -95 73.5 -161t214.5 -66q99 0 230 35l-2 -111q-174 -55 -327 -55q-80 0 -142 15.5t-101.5 42t-65.5 65t-36.5 80.5t-10.5 92q0 83 27 175q39 135 109.5 240t156 167t175.5 93.5t179 31.5z M801 840q-126 0 -223 -93t-133 -218h503q25 87 25 148q0 163 -172 163z" />
<glyph unicode="f" horiz-adv-x="799" d="M1020 1292q-58 0 -105 -17.5t-74.5 -41t-49.5 -57t-30 -54t-15 -43.5l-33 -116h323l-37 -129h-323l-295 -1030q-37 -129 -94 -195q-58 -67 -142.5 -103.5t-183.5 -36.5q-108 0 -222 38l59 120q80 -23 147 -23q58 0 104.5 16t73.5 37t48 51.5t28.5 49t13.5 39.5l297 1037 h-139l37 129h139l31 106q39 137 98 209q59 73 145 112t184 39q105 0 222 -39l-60 -124q-81 26 -147 26z" />
<glyph unicode="g" horiz-adv-x="1162" d="M857 983q117 0 246 -79l37 59h115l-296 -1033q-9 -30 -18.5 -57t-34 -77.5t-54 -91.5t-79 -89t-107.5 -80t-141.5 -54t-178.5 -22q-149 0 -282 64l80 119q107 -46 220 -46q337 0 444 379l21 73q-145 -68 -275 -68q-63 0 -119 17.5t-102.5 53t-73.5 97t-27 143.5 q0 81 30 188q32 112 89.5 202t121 145t136.5 91.5t134 51t114 14.5zM830 850q-135 0 -246 -97t-157 -256q-22 -75 -22 -145q0 -108 58.5 -172.5t175.5 -64.5q107 0 225 55l179 626q-118 54 -213 54z" />
<glyph unicode="h" horiz-adv-x="1178" d="M846 835q-115 0 -279 -74l-218 -761h-164l434 1511h164l-179 -623q199 93 349 93q239 0 239 -215q0 -78 -39 -213l-159 -553h-168l166 580q18 66 18 109q0 146 -164 146z" />
<glyph unicode="i" horiz-adv-x="524" d="M572 1421h194l-54 -189h-194zM463 988h164l-283 -988h-164z" />
<glyph unicode="j" horiz-adv-x="520" d="M568 1421h194l-54 -189h-194zM459 988h164l-322 -1125q-13 -46 -24 -75.5t-40 -83t-65.5 -91t-100.5 -79t-146 -68.5l-25 124q182 78 232 256z" />
<glyph unicode="k" horiz-adv-x="1061" d="M609 1511h164l-433 -1511h-164zM1069 1008h181l-551 -445l288 -563h-197l-278 546z" />
<glyph unicode="l" horiz-adv-x="564" d="M633 1511h164l-433 -1511h-164z" />
<glyph unicode="m" horiz-adv-x="1712" d="M803 831q-83 0 -246 -74l-217 -757h-164l276 963h115l11 -82q205 101 333 101q149 0 201 -110q223 109 376 109q235 0 235 -206q0 -79 -34 -197l-165 -578h-164l168 587q17 62 17 105q0 139 -153 139q-92 0 -259 -75q-2 -56 -39 -187l-163 -569h-164l169 590 q16 56 16 101q0 140 -149 140z" />
<glyph unicode="n" horiz-adv-x="1163" d="M452 963h115l12 -84q217 104 371 104q230 0 230 -203q0 -81 -36 -205l-165 -575h-164l167 583q19 68 19 110q0 142 -165 142q-114 0 -278 -74l-218 -761h-164z" />
<glyph unicode="o" horiz-adv-x="1195" d="M881 982q160 0 255 -82.5t95 -234.5q0 -76 -25 -164q-69 -239 -243 -380t-385 -141q-159 0 -250.5 84.5t-91.5 235.5q0 81 26 171q67 234 237 372.5t382 138.5zM828 842q-76 0 -153.5 -37.5t-145.5 -118t-99 -188.5q-20 -71 -20 -132q0 -110 59.5 -178t166.5 -68 q128 0 242 97t158 252q20 69 20 131q0 115 -65.5 178.5t-162.5 63.5z" />
<glyph unicode="p" horiz-adv-x="1163" d="M884 982q48 0 91.5 -9.5t85 -31.5t72.5 -56t49.5 -87t18.5 -119q0 -79 -30 -187q-46 -158 -138.5 -275t-212.5 -177t-252 -60q-117 0 -219 53l-162 -564h-164l429 1494h114l9 -63q161 82 309 82zM789 846q-108 0 -222 -53l-183 -638q92 -46 196 -46q45 0 89.5 9.5 t95.5 35t94.5 64.5t82 102.5t61.5 144.5q25 85 25 156q0 65 -22 111.5t-59 70t-75.5 33.5t-82.5 10z" />
<glyph unicode="q" horiz-adv-x="1162" d="M857 983q117 0 246 -79l37 59h115l-428 -1494h-164l166 580q-149 -69 -282 -69q-61 0 -115 16t-100.5 50t-73.5 95t-27 143q0 88 30 192q36 124 103.5 223.5t150 160t170.5 92t172 31.5zM830 850q-136 0 -246 -97t-158 -262q-23 -82 -23 -148q0 -63 21 -109t57 -71 t76 -36t85 -11q108 0 222 53l179 627q-118 54 -213 54z" />
<glyph unicode="r" horiz-adv-x="789" d="M577 889q148 93 296 93q101 0 173 -39l-86 -130q-69 29 -150 29q-122 0 -248 -67l-222 -775h-164l276 963h115z" />
<glyph unicode="s" horiz-adv-x="1005" d="M862 982q21 0 39 -0.5t35 -2.5t28.5 -3t27 -4t22.5 -4.5t23 -5.5l19 -6q4 -1 22 -7l20 -7l-78 -124q-125 36 -221 36q-71 0 -126.5 -16.5t-85 -42t-44.5 -47.5t-21 -42q-3 -10 -3 -20q0 -32 33.5 -58.5t83.5 -44t108.5 -41t108.5 -48t83.5 -66.5t33.5 -95q0 -27 -9 -58 q-12 -40 -33 -77.5t-62 -78t-95 -70.5t-137 -49.5t-182 -19.5q-150 0 -309 75l80 122q91 -37 151 -52.5t121 -15.5q240 0 283 151q3 12 3 23q0 39 -45.5 67t-110.5 48.5t-130 45.5t-110.5 71t-45.5 111q0 32 10 66q10 35 32 71.5t64.5 77t97.5 71t138.5 50.5t180.5 20z" />
<glyph unicode="t" horiz-adv-x="763" d="M696 17q-154 -37 -232 -37q-205 0 -205 176q0 59 25 146l153 532h-130l37 129h130l88 308h164l-88 -308h294l-37 -129h-294l-151 -528q-16 -59 -16 -92q0 -106 117 -106q28 0 155 20z" />
<glyph unicode="u" horiz-adv-x="1164" d="M1092 963h164l-276 -963h-115l-11 83q-215 -103 -372 -103q-231 0 -231 204q0 80 36 204l165 575h164l-168 -584q-18 -59 -18 -107q0 -145 165 -145q113 0 279 75z" />
<glyph unicode="v" horiz-adv-x="980" d="M1190 963l-619 -963h-166l-65 963h180l19 -804l481 804h170z" />
<glyph unicode="w" horiz-adv-x="1654" d="M335 963h175l29 -808l480 808h157l26 -807l492 807h175l-632 -963h-161l-33 781l-477 -781h-161z" />
<glyph unicode="x" horiz-adv-x="1034" d="M340 963h189l163 -382l372 382h175l-501 -491l206 -472h-190l-155 362l-349 -362h-175l477 473z" />
<glyph unicode="y" horiz-adv-x="1049" d="M325 963h180l76 -824l523 824h170l-988 -1494h-175l333 474z" />
<glyph unicode="z" horiz-adv-x="1058" d="M422 963h735l-25 -87l-741 -747h551l-37 -129h-759l25 87l739 747h-525z" />
<glyph unicode="{" horiz-adv-x="798" d="M267 618q49 8 93.5 29t77 46.5t62.5 63t49.5 69.5t39 74.5t29.5 69.5l22 62l17 48q40 105 96.5 185.5t109 124t112 72.5t97.5 37.5t73 11.5l-7 -129q-122 -16 -220 -120q-43 -45 -77 -109t-54 -125t-49 -131t-60 -130t-87.5 -118.5t-131.5 -99.5q95 -75 95 -216 q0 -69 -29.5 -209t-29.5 -199q0 -50 14 -88q18 -48 58 -80.5t94 -39.5l-67 -129q-26 2 -53 8.5t-65.5 26.5t-67.5 50.5t-50 86.5t-21 128q0 52 12 118q4 21 16.5 76.5t19.5 99.5t7 83q0 108 -64 167q-40 37 -100 48z" />
<glyph unicode="|" horiz-adv-x="884" d="M819 1601h164l-547 -1909h-164z" />
<glyph unicode="}" horiz-adv-x="798" d="M519 1511q28 -2 56 -9t66 -27t66 -50.5t48 -86t20 -126.5q0 -63 -14 -132l-11 -52l-12 -60q-6 -28 -10 -52q-6 -42 -6 -78q0 -99 44.5 -153t118.5 -67l-39 -138q-50 -8 -95 -29t-77.5 -47.5t-62.5 -64t-49.5 -70.5t-38.5 -75.5t-29 -71.5l-23 -65l-18 -51 q-39 -102 -96.5 -180.5t-111 -121t-113.5 -70t-96 -36t-68 -10.5l7 129q122 16 220 120q49 52 86 131t63.5 155.5t61 154.5t96.5 150t151 121q-94 74 -94 214q0 68 29.5 208t29.5 201q0 51 -14 90q-18 48 -58 80.5t-94 39.5z" />
<glyph unicode="~" horiz-adv-x="1400" d="M1266 1361q12 0 23.5 3.5t22 11t19 15t18 21t15.5 23t15 27.5l13 28l14 28l13 27l103 -17q-4 -9 -18 -36l-19 -40q-6 -13 -19.5 -39t-22.5 -39l-25 -35q-15 -22 -27.5 -33.5t-31 -26.5t-36.5 -22t-40 -12.5t-46 -5.5q-44 0 -80 18.5t-59 45.5t-42.5 54t-40.5 45.5 t-44 18.5q-12 0 -23.5 -3t-21.5 -11l-20 -15q-8 -7 -18 -21l-14 -23q-6 -8 -16 -26l-13 -27q-4 -8 -13 -28t-12 -26l-104 15q4 9 17.5 36.5t19 40t19.5 38t22 38.5l24 35q16 22 29 33l31 26q18 15 36 22t40 12.5t46 5.5q44 0 80 -18.5t59 -45.5t42.5 -54t40.5 -45.5 t44 -18.5z" />
<glyph unicode="&#xa1;" horiz-adv-x="650" d="M487 863h170l-365 -1273h-170zM604 1321h200l-58 -200h-200z" />
<glyph unicode="&#xa2;" horiz-adv-x="1021" d="M354 713q62 217 204 356t339 167l79 275h121l-77 -270q107 0 225 -58l-74 -120q-100 38 -206 38q-165 0 -279 -91.5t-163 -262.5q-24 -83 -24 -152q0 -66 23 -114t63.5 -73t86.5 -36.5t100 -11.5q92 0 196 33l7 -113q-144 -51 -245 -51l-85 -294h-121l85 294 q-131 16 -207.5 91t-76.5 212q0 82 29 181z" />
<glyph unicode="&#xa3;" d="M191 135h244l151 527h-176l39 135h176l40 141q33 114 87.5 202t117 142t138 88.5t144 47.5t140.5 13q117 0 224 -38l-83 -122q-82 24 -158 24t-140 -17t-109 -49t-79.5 -68t-59 -83.5t-39 -84.5t-27.5 -82l-32 -114h530l-39 -135h-530l-151 -527h588l-39 -135h-996z" />
<glyph unicode="&#xa4;" d="M515 568q-13 39 -13 82q0 138 112 265l-119 167l161 125l119 -167q94 47 187 47q94 0 159 -47l214 165l89 -125l-214 -165q11 -36 11 -80q0 -143 -110 -266l118 -165l-161 -125l-118 165q-94 -48 -187 -48t-159 47l-214 -166l-89 125zM921 946q-82 0 -158 -60t-101 -145 q-8 -27 -8 -57q0 -64 41 -105.5t108 -41.5q82 0 158 60t100 144q9 30 9 58q0 65 -41.5 106t-107.5 41z" />
<glyph unicode="&#xa5;" d="M550 1421h185l150 -603l504 603h175l-634 -722h282l-35 -125h-289l-58 -200h289l-36 -125h-289l-71 -249h-160l71 249h-275l36 125h275l58 200h-275l35 125h268z" />
<glyph unicode="&#xa6;" horiz-adv-x="884" d="M492 460h164l-220 -768h-164zM819 1601h164l-219 -764h-164z" />
<glyph unicode="&#xa7;" horiz-adv-x="1136" d="M1062 1434q28 0 52.5 -1t47.5 -4l36 -5q15 -2 36 -8l28 -7q8 -2 31 -9.5t28 -8.5l-83 -131q-114 39 -240 39q-108 0 -191.5 -40t-103.5 -111q-4 -12 -4 -27q0 -38 35.5 -68.5t89.5 -50.5l116 -45q62 -25 115.5 -50.5t89 -68.5t35.5 -98q0 -26 -9 -58q-34 -122 -144 -208 q44 -47 44 -109q0 -27 -9 -59q-12 -43 -35 -84.5t-67.5 -86.5t-102.5 -78t-146 -55t-193 -22h-13q-185 0 -332 65l81 124q154 -60 287 -60q276 0 327 177q4 13 4 29q0 38 -35 67t-87.5 46t-113.5 39.5t-113.5 46t-87.5 67.5t-35 102q0 30 11 69q30 107 143 192 q-46 49 -46 115q0 32 10 68q14 50 51.5 100.5t100.5 98.5t165 78t227 30zM673 870q-62 -41 -78 -99q-4 -13 -4 -28q0 -28 18 -51t53 -41.5t69.5 -32t86.5 -32t84 -32.5q56 43 74 108q4 15 4 30q0 29 -17.5 51t-52.5 39t-68 29l-86 29q-51 17 -83 30z" />
<glyph unicode="&#xa8;" horiz-adv-x="1200" d="M690 1421h185l-53 -186h-185zM1139 1421h185l-53 -186h-185z" />
<glyph unicode="&#xa9;" horiz-adv-x="1760" d="M1209 1055q104 0 188 -43l-55 -87q-72 28 -150 28q-48 0 -91.5 -12t-88 -39t-80.5 -80t-58 -128q-18 -64 -18 -112q0 -90 54.5 -128t140.5 -38q67 0 144 24l7 -82q-112 -39 -216 -39q-49 0 -91 10.5t-80.5 34.5t-60.5 69t-22 107t21 133q29 103 81.5 180t116 119.5 t128 62.5t130.5 20zM1238 1248q-158 0 -313.5 -77t-269 -207t-156.5 -281q-22 -76 -22 -151q0 -180 119.5 -297t317.5 -117q158 0 313.5 77t269 207t156.5 281q22 76 22 151q0 180 -119.5 297t-317.5 117zM1276 1380q243 0 390 -144.5t147 -365.5q0 -96 -27 -187 q-40 -139 -132 -267t-213.5 -222.5t-270 -151t-294.5 -56.5q-243 0 -390 144.5t-147 365.5q0 96 27 187q53 183 190.5 343t329.5 257t390 97z" />
<glyph unicode="&#xaa;" horiz-adv-x="759" d="M828 1102l7 23q8 29 8 50q0 84 -109 84q-80 0 -174 -27l2 71q108 36 207 36q181 0 181 -125q0 -28 -15 -83l-107 -371h-70l-6 54q-87 -72 -168 -72q-73 0 -116 31.5t-43 89.5q0 22 8 52q32 112 122.5 149.5t272.5 37.5zM805 1019h-28q-43 0 -73.5 -2.5t-70.5 -11.5 t-66 -31.5t-36 -56.5q-3 -11 -3 -21q0 -31 24.5 -52.5t69.5 -21.5q74 0 149 80z" />
<glyph unicode="&#xab;" horiz-adv-x="936" d="M984 988h185l-378 -365l169 -365h-185l-150 365zM613 988h185l-378 -365l169 -365h-185l-150 365z" />
<glyph unicode="&#xac;" horiz-adv-x="1400" d="M335 732h1150l-129 -450h-148l86 301h-1002z" />
<glyph unicode="&#xad;" horiz-adv-x="1074" d="M429 728h634l-40 -139h-634z" />
<glyph unicode="&#xae;" horiz-adv-x="1232" d="M1028 1320q23 0 38.5 -2t39 -8.5t38.5 -25t21 -47.5q2 -14 2 -22q0 -37 -15.5 -78.5t-53.5 -82t-91 -56.5l49 -222h-100l-42 208h-112l-59 -208h-93l156 544h222zM1064 1561q178 0 288 -106t110 -271q0 -68 -21 -141q-40 -141 -145.5 -260.5t-246.5 -188.5t-282 -69 q-180 0 -289 107.5t-109 271.5q0 70 20 139q40 141 145.5 260.5t247 188.5t282.5 69zM1032 1450q-173 0 -328.5 -120t-203.5 -287q-16 -55 -16 -109q0 -129 86 -213.5t228 -84.5q173 0 328.5 120.5t203.5 286.5q16 55 16 109q0 129 -86 213.5t-228 84.5zM972 1240h-96 l-52 -179q47 0 63 -0.5t28 -0.5q127 0 152 87q5 20 5 32q0 61 -100 61z" />
<glyph unicode="&#xaf;" horiz-adv-x="1400" d="M755 1640h830l-42 -149h-830z" />
<glyph unicode="&#xb0;" horiz-adv-x="589" d="M687 1368q-55 0 -104 -39.5t-64 -93.5q-6 -19 -6 -38q0 -41 26 -68.5t72 -27.5q54 0 102 40.5t63 93.5q6 19 6 38q0 41 -25.5 68t-69.5 27zM712 1459q73 0 119 -45.5t46 -116.5q0 -29 -9 -62q-27 -94 -110 -159.5t-173 -65.5q-73 0 -119 45.5t-46 116.5q0 30 9 63 q27 93 110 158.5t173 65.5z" />
<glyph unicode="&#xb1;" horiz-adv-x="1400" d="M302 287h960l-39 -137h-960zM1034 1421h146l-118 -412h407l-39 -137h-407l-118 -411h-146l118 411h-407l39 137h407z" />
<glyph unicode="&#xb2;" horiz-adv-x="800" d="M807 1524q88 0 142 -40.5t54 -108.5q0 -25 -7 -50q-15 -51 -53.5 -96.5t-90.5 -83.5l-106 -76q-54 -38 -113 -92t-100 -114h343l-30 -105h-482l19 65q49 82 115.5 153.5t126 117.5t114 84t91 71.5t44.5 61.5q3 11 3 22q0 37 -32 62.5t-84 25.5q-58 0 -201 -51l-11 91 q143 63 258 63z" />
<glyph unicode="&#xb3;" horiz-adv-x="800" d="M558 1462q138 59 237 59q90 0 136 -40t46 -101q0 -56 -36.5 -111.5t-99.5 -89.5q75 -35 75 -120q0 -50 -27.5 -104t-75 -99.5t-119.5 -75.5t-152 -30q-95 0 -189 44l60 96q103 -31 163 -31q72 0 133 36.5t77 92.5q5 16 5 34q0 30 -18 49.5t-50 28t-60.5 11.5t-66.5 3 l30 103q112 0 163.5 32t63.5 75q3 10 3 20q0 30 -26.5 50t-76.5 20q-71 0 -183 -46z" />
<glyph unicode="&#xb4;" horiz-adv-x="1122" d="M1232 1585l35 -123l-596 -295l-31 108z" />
<glyph unicode="&#xb5;" horiz-adv-x="1174" d="M461 963h164l-155 -542q-23 -84 -23 -141q0 -168 171 -168q87 0 262 75l222 776h164l-276 -963h-115l-10 67q-169 -94 -313 -94q-123 0 -188 80l-132 -463h-164z" />
<glyph unicode="&#xb6;" horiz-adv-x="1338" d="M1034 1511h547l-433 -1511h-170l390 1361h-240l-390 -1361h-171l197 686q-40 0 -79.5 6t-87.5 24.5t-83.5 48.5t-60 83.5t-24.5 123.5q0 71 26 161q17 61 43.5 111.5t55.5 87t67.5 65.5t71.5 47.5t76.5 32t74.5 20t72 10t63.5 4t54.5 0.5z" />
<glyph unicode="&#xb7;" horiz-adv-x="590" d="M430 838h210l-60 -210h-210z" />
<glyph unicode="&#xb8;" horiz-adv-x="1101" d="M625 -325q3 12 3 21q0 12 -4 21.5t-14.5 17.5t-20 14t-30 14t-35.5 13l-44 14l-47 15l120 217h127l-85 -157l14 -5q14 -4 19 -6l20 -8q14 -5 21 -10l19 -12q13 -8 20 -17l14 -20q7 -11 10 -24.5t3 -29.5q0 -23 -7 -47q-21 -71 -92 -127t-165 -56q-21 0 -44.5 3.5 t-50 10.5t-42 11.5t-44 14.5t-32.5 11l52 91q144 -47 193 -47q46 0 79.5 22.5t42.5 54.5z" />
<glyph unicode="&#xb9;" horiz-adv-x="543" d="M684 1511h92l-215 -751h-113l184 643l-156 -41l2 97z" />
<glyph unicode="&#xba;" horiz-adv-x="751" d="M779 1416q-36 0 -71.5 -12.5t-73 -41t-70.5 -83t-55 -130.5q-24 -83 -24 -146q0 -84 39.5 -117.5t95.5 -33.5q35 0 69.5 12.5t73.5 42t74 90t60 145.5q21 73 21 129q0 81 -40.5 113t-98.5 32zM811 1519q40 0 75 -9t71.5 -30.5t58 -66.5t21.5 -110q0 -72 -25 -158 q-52 -182 -170.5 -287.5t-252.5 -105.5q-100 0 -161.5 52t-61.5 168q0 77 28 174q52 179 171.5 276t245.5 97z" />
<glyph unicode="&#xbb;" horiz-adv-x="936" d="M519 988l150 -365l-360 -365h-185l379 365l-170 365h186zM890 988l150 -365l-360 -365h-185l379 365l-170 365h186z" />
<glyph unicode="&#xbc;" horiz-adv-x="1800" d="M1587 1421h175l-1227 -1421h-176zM748 1421h112l-230 -803h-133l193 673l-151 -39l4 117zM1631 836h157l-153 -531h107l-31 -110h-107l-56 -195h-133l56 195h-390l25 89zM1612 688l-351 -383h241z" />
<glyph unicode="&#xbd;" horiz-adv-x="1847" d="M1587 1421h175l-1227 -1421h-176zM748 1421h112l-233 -813h-133l196 683l-151 -39l4 117zM1643 842q97 0 157 -44.5t60 -118.5q0 -30 -8 -55q-16 -56 -58.5 -106t-99.5 -92l-117 -84q-60 -42 -125 -101t-110 -125h378l-33 -116h-531l21 72q54 90 127 168.5t138 129.5 l126 92q59 42 99.5 78.5t49.5 67.5q3 12 3 24q0 40 -34.5 68t-92.5 28q-65 0 -220 -55l-13 100q162 69 283 69z" />
<glyph unicode="&#xbe;" horiz-adv-x="1950" d="M1747 1421h175l-1227 -1421h-176zM1781 836h157l-153 -531h107l-31 -110h-107l-56 -195h-133l56 195h-390l25 89zM1762 688l-351 -383h241zM606 1385q152 65 262 65q98 0 148.5 -44t50.5 -111q0 -62 -40 -123.5t-109 -98.5q83 -39 83 -127q0 -27 -10 -64 q-36 -125 -150 -203t-253 -78q-100 0 -208 49l68 106q118 -35 179 -35q78 0 145 39.5t85 101.5q6 21 6 37q0 103 -215 103l33 113q123 0 180 35.5t70 82.5q3 11 3 21q0 34 -29 56t-83 22q-79 0 -202 -51z" />
<glyph unicode="&#xbf;" horiz-adv-x="1047" d="M637 988h170q-30 -106 -30 -186q0 -69 22 -123t53 -89l63 -69q31 -33 53 -76.5t22 -97.5q0 -48 -17 -106q-30 -105 -123.5 -195.5t-201 -138.5t-197.5 -48q-104 0 -181 22t-157 66l87 122q150 -69 265 -69q128 0 220.5 66.5t118.5 158.5q10 34 10 63q0 43 -22.5 80 t-54 68.5t-63.5 68.5t-54.5 98t-22.5 139q0 108 40 246zM746 1421h200l-57 -201h-200z" />
<glyph unicode="&#xc0;" horiz-adv-x="1383" d="M1042 1421h193l98 -1421h-172l-26 413h-586l-262 -413h-157zM1084 1255l-441 -693h483zM1079 1929l415 -310l-93 -108l-427 295z" />
<glyph unicode="&#xc1;" horiz-adv-x="1383" d="M1042 1421h193l98 -1421h-172l-26 413h-586l-262 -413h-157zM1084 1255l-441 -693h483zM1487 1929l35 -123l-597 -295l-31 108z" />
<glyph unicode="&#xc2;" horiz-adv-x="1383" d="M1042 1421h193l98 -1421h-172l-26 413h-586l-262 -413h-157zM1084 1255l-441 -693h483zM1303 1924l174 -286l-119 -88l-119 196l-237 -195l-66 78z" />
<glyph unicode="&#xc3;" horiz-adv-x="1383" d="M1042 1421h193l98 -1421h-172l-26 413h-586l-262 -413h-157zM1084 1255l-441 -693h483zM1547 1878l103 -17q-4 -9 -17.5 -36.5t-19 -40t-19.5 -38t-22 -38.5l-24 -35q-16 -22 -29 -33l-31 -26q-18 -15 -36 -22t-40 -12.5t-46 -5.5q-44 0 -80 18.5t-59 45t-42.5 53 t-40.5 45t-44 18.5q-14 0 -27 -5t-23 -11t-21.5 -20t-18 -23t-17.5 -28.5t-15 -28.5l-16 -34q-11 -23 -15 -30l-103 15q4 9 17.5 36.5t19 40t19.5 38t22 38.5l24 35q16 22 29 33l31 26q18 15 36 22t40 12.5t46 5.5q44 0 80 -18.5t59 -45t42.5 -53t40.5 -45t44 -18.5 q16 0 29.5 5t26.5 18l23 22q9 9 21.5 31.5t17.5 32.5l18 38q14 28 17 35z" />
<glyph unicode="&#xc4;" horiz-adv-x="1383" d="M1042 1421h193l98 -1421h-172l-26 413h-586l-262 -413h-157zM1084 1255l-441 -693h483zM960 1897h185l-53 -185h-185zM1408 1897h185l-53 -185h-185z" />
<glyph unicode="&#xc5;" horiz-adv-x="1383" d="M1270 1873q89 0 145.5 -52.5t56.5 -134.5q0 -34 -10 -68q-22 -77 -83.5 -140.5t-140.5 -94.5l95 -1383h-172l-26 413h-586l-262 -413h-157l889 1385q-95 50 -95 160q0 56 27 114t72 105.5t110.5 78t136.5 30.5zM1242 1769q-67 0 -124.5 -44.5t-75.5 -106.5q-6 -21 -6 -42 q0 -48 31.5 -79.5t87.5 -31.5q65 0 121.5 46t74.5 107q6 21 6 41q0 47 -31 78.5t-84 31.5zM1084 1255l-441 -693h483z" />
<glyph unicode="&#xc6;" horiz-adv-x="1915" d="M671 562h457l203 709h-183zM1092 1421h1070l-43 -150h-618l-133 -464h563l-43 -150h-563l-145 -507h618l-43 -150h-788l119 414h-515l-279 -414h-162z" />
<glyph unicode="&#xc7;" horiz-adv-x="1451" d="M1007 -316q-22 -77 -97 -133.5t-169 -56.5q-37 0 -73 8t-150 45l60 104q150 -50 201 -50q43 0 73.5 21t38.5 50q3 12 3 21q0 8 -2.5 15t-8 13.5t-12 11.5t-18 10.5t-22 9.5l-27.5 10l-32 11l-38 12l-42 13l112 199q-180 42 -271 172t-91 311q0 126 43 259.5t127 256.5 t197 220t266 155.5t321 58.5q194 0 365 -76l-93 -141q-175 67 -320 67q-120 0 -236 -47.5t-206.5 -127t-157.5 -182t-99 -214.5q-26 -92 -26 -173q0 -179 113.5 -290t320.5 -111q154 0 338 60l16 -126q-235 -90 -442 -90h-28l-62 -115l9 -3q8 -2 14.5 -4t18.5 -6.5t21 -9.5 l20 -14q12 -7 20.5 -16.5t16 -21t11.5 -26.5t4 -32q0 -24 -7 -48z" />
<glyph unicode="&#xc8;" horiz-adv-x="1283" d="M1032 1929l415 -310l-94 -108l-427 295zM290 0l407 1421h833l-43 -150h-663l-133 -464h608l-43 -150h-608l-145 -507h663l-43 -150h-833z" />
<glyph unicode="&#xc9;" horiz-adv-x="1283" d="M290 0l407 1421h833l-43 -150h-663l-133 -464h608l-43 -150h-608l-145 -507h663l-43 -150h-833zM1505 1929l35 -123l-597 -295l-31 108z" />
<glyph unicode="&#xca;" horiz-adv-x="1283" d="M290 0l407 1421h833l-43 -150h-663l-133 -464h608l-43 -150h-608l-145 -507h663l-43 -150h-833zM1274 1932l174 -286l-119 -88l-119 196l-237 -195l-66 78z" />
<glyph unicode="&#xcb;" horiz-adv-x="1283" d="M290 0l407 1421h833l-43 -150h-663l-133 -464h608l-43 -150h-608l-145 -507h663l-43 -150h-833zM934 1898h185l-53 -185h-185zM1382 1898h185l-53 -185h-185z" />
<glyph unicode="&#xcc;" horiz-adv-x="730" d="M727 1421h170l-407 -1421h-170zM760 1927l415 -310l-94 -106l-428 293z" />
<glyph unicode="&#xcd;" horiz-adv-x="730" d="M727 1421h170l-407 -1421h-170zM1108 1930l35 -123l-597 -296l-30 109z" />
<glyph unicode="&#xce;" horiz-adv-x="730" d="M727 1421h170l-407 -1421h-170zM944 1924l174 -286l-120 -88l-118 196l-237 -195l-66 78z" />
<glyph unicode="&#xcf;" horiz-adv-x="670" d="M697 1421h170l-407 -1421h-170zM611 1824h185l-53 -185h-185zM1000 1824h185l-53 -185h-185z" />
<glyph unicode="&#xd0;" horiz-adv-x="1605" d="M742 1421h435q42 0 79.5 -2t98 -11.5t110 -26t103.5 -49t91 -76.5t61.5 -112t24.5 -152q0 -105 -38 -238q-43 -149 -109 -268.5t-137 -196.5t-160.5 -134t-164 -86t-164 -45.5t-145 -20t-121.5 -3.5h-371l189 658h-218l43 150h218zM869 1271l-132 -463h256l-43 -150h-256 l-146 -508h207q45 0 83 2t90 9t96.5 18.5t97 33t97 50.5t91 72.5t84.5 97.5t72.5 127.5t59.5 159.5q30 103 30 196q0 58 -12 108t-41.5 96.5t-75 79t-118 52t-164.5 19.5h-276z" />
<glyph unicode="&#xd1;" horiz-adv-x="1659" d="M697 1421h215l434 -1189l340 1189h170l-407 -1421h-215l-432 1191l-342 -1191h-170zM1271 1876q44 0 80 -18.5t59 -45t42.5 -53t40.5 -45t44 -18.5q14 0 27 5t23 11.5t21.5 20t18.5 23t18 29.5t15 29l16 34q11 23 15 30l103 -17l-18 -37l-18 -40l-20 -37.5t-22 -38.5 l-25 -35q-16 -22 -29 -33l-30 -26q-19 -15 -37 -22t-40 -12.5t-46 -5.5q-44 0 -80 18.5t-59 45t-42.5 53t-40.5 45t-44 18.5q-16 0 -29.5 -5t-26.5 -17.5t-22 -22.5t-21 -31l-18 -33q-6 -11 -18 -37l-17 -36l-103 17q2 4 21.5 45.5l24.5 51.5l26 46q20 35 31 47l34 37 q23 24 42.5 33.5t46.5 18t57 8.5z" />
<glyph unicode="&#xd2;" horiz-adv-x="1686" d="M1291 1932l415 -310l-94 -108l-427 295zM1296 1436q230 0 365 -125t135 -345q0 -112 -37 -239q-95 -330 -343 -536t-543 -206q-104 0 -192.5 29.5t-156 87t-106 149t-38.5 207.5q0 115 38 249q95 330 340.5 529.5t537.5 199.5zM1579 709q32 113 32 208q0 93 -30.5 166 t-83 116.5t-117.5 65.5t-139 22q-70 0 -143.5 -20.5t-149 -65t-141 -108.5t-121 -158t-87.5 -207q-33 -117 -33 -214q0 -177 98 -278.5t264 -101.5q71 0 145.5 21t150.5 66.5t142.5 111.5t123 163t89.5 213z" />
<glyph unicode="&#xd3;" horiz-adv-x="1686" d="M1296 1436q230 0 365 -125t135 -345q0 -112 -37 -239q-95 -330 -343 -536t-543 -206q-104 0 -192.5 29.5t-156 87t-106 149t-38.5 207.5q0 115 38 249q95 330 340.5 529.5t537.5 199.5zM1579 709q32 113 32 208q0 93 -30.5 166t-83 116.5t-117.5 65.5t-139 22 q-70 0 -143.5 -20.5t-149 -65t-141 -108.5t-121 -158t-87.5 -207q-33 -117 -33 -214q0 -177 98 -278.5t264 -101.5q71 0 145.5 21t150.5 66.5t142.5 111.5t123 163t89.5 213zM1660 1930l35 -123l-597 -296l-30 109z" />
<glyph unicode="&#xd4;" horiz-adv-x="1686" d="M1296 1436q230 0 365 -125t135 -345q0 -112 -37 -239q-95 -330 -343 -536t-543 -206q-104 0 -192.5 29.5t-156 87t-106 149t-38.5 207.5q0 115 38 249q95 330 340.5 529.5t537.5 199.5zM1579 709q32 113 32 208q0 93 -30.5 166t-83 116.5t-117.5 65.5t-139 22 q-70 0 -143.5 -20.5t-149 -65t-141 -108.5t-121 -158t-87.5 -207q-33 -117 -33 -214q0 -177 98 -278.5t264 -101.5q71 0 145.5 21t150.5 66.5t142.5 111.5t123 163t89.5 213zM1464 1924l174 -286l-119 -88l-119 196l-237 -195l-66 78z" />
<glyph unicode="&#xd5;" horiz-adv-x="1686" d="M1708 1878l103 -17l-17 -37l-20 -40q-5 -11 -19 -37.5t-23 -38.5l-24 -35q-16 -22 -28 -33l-32 -26q-18 -15 -36 -22t-40 -12.5t-46 -5.5q-44 0 -80 18.5t-59 45t-42.5 53t-40.5 45t-44 18.5q-16 0 -29.5 -5t-26.5 -17.5t-22 -22.5t-21 -31l-18 -33q-6 -11 -19 -37 l-16 -36l-103 17q4 9 17.5 36.5t19 40t19.5 38t23 38.5l24 35q15 22 28 33l31 26q18 15 36 22t40 12.5t46 5.5q44 0 80 -18.5t59 -45t42.5 -53t40.5 -45t44 -18.5q16 0 29.5 5t27.5 18l22 22q9 9 21.5 31.5t17.5 32.5l19 38q13 28 16 35zM1579 709q32 113 32 209 q0 181 -106.5 275t-263.5 94q-70 0 -143.5 -20.5t-149 -65t-141 -108.5t-121 -158t-87.5 -207q-33 -117 -33 -214q0 -177 98 -278.5t264 -101.5q71 0 145.5 21t150.5 66.5t142.5 111.5t123 163t89.5 213zM1296 1436q230 0 365 -125t135 -345q0 -112 -37 -239 q-95 -330 -343 -536t-543 -206q-104 0 -192.5 29.5t-156 87t-106 149t-38.5 207.5q0 115 38 249q95 330 340.5 529.5t537.5 199.5z" />
<glyph unicode="&#xd6;" horiz-adv-x="1686" d="M1296 1436q230 0 365 -125t135 -345q0 -112 -37 -239q-95 -330 -343 -536t-543 -206q-104 0 -192.5 29.5t-156 87t-106 149t-38.5 207.5q0 115 38 249q95 330 340.5 529.5t537.5 199.5zM1579 709q32 113 32 208q0 93 -30.5 166t-83 116.5t-117.5 65.5t-139 22 q-70 0 -143.5 -20.5t-149 -65t-141 -108.5t-121 -158t-87.5 -207q-33 -117 -33 -214q0 -177 98 -278.5t264 -101.5q71 0 145.5 21t150.5 66.5t142.5 111.5t123 163t89.5 213zM1120 1898h185l-53 -185h-185zM1569 1898h185l-53 -185h-185z" />
<glyph unicode="&#xd7;" horiz-adv-x="1299" d="M344 194l-76 105l457 355l-248 346l135 105l257 -361l456 355l75 -106l-455 -354l247 -347l-135 -105l-258 361z" />
<glyph unicode="&#xd8;" horiz-adv-x="1756" d="M1296 1436q137 0 251 -50.5t179 -152.5l234 176l44 -65l-243 -182q34 -89 34 -196q0 -116 -36 -239q-95 -330 -343 -536t-543 -206q-60 0 -115 10t-93.5 24t-74.5 36.5t-56 38t-41 39t-25 29.5l-14 20l-238 -177l-42 65l243 182q-37 89 -37 205q0 119 38 250 q95 330 340.5 529.5t537.5 199.5zM1566 1114q-46 84 -130.5 128.5t-191.5 44.5q-91 0 -185 -34t-183 -99.5t-163 -176t-114 -249.5q-33 -112 -33 -215q0 -75 18 -136zM928 134q71 0 145.5 21t150.5 66.5t142.5 111.5t123 163t89.5 213q33 117 33 210q0 62 -15 119l-982 -736 q46 -82 127.5 -125t185.5 -43z" />
<glyph unicode="&#xd9;" horiz-adv-x="1580" d="M697 1421h170l-264 -921q-26 -95 -26 -152q0 -221 289 -221q107 0 190.5 29.5t138.5 83.5t90 117t58 143l264 921h170l-269 -938q-10 -36 -18 -60t-25.5 -67t-36 -74.5t-50 -73t-66.5 -71.5t-86.5 -61.5t-109.5 -51t-135 -32t-164 -12.5q-425 0 -425 300q0 78 36 203z M1177 1927l415 -310l-94 -106l-428 293z" />
<glyph unicode="&#xda;" horiz-adv-x="1580" d="M697 1421h170l-264 -921q-26 -95 -26 -152q0 -221 289 -221q107 0 190.5 29.5t138.5 83.5t90 117t58 143l264 921h170l-269 -938q-10 -36 -18 -60t-25.5 -67t-36 -74.5t-50 -73t-66.5 -71.5t-86.5 -61.5t-109.5 -51t-135 -32t-164 -12.5q-425 0 -425 300q0 78 36 203z M1617 1930l35 -123l-597 -296l-30 109z" />
<glyph unicode="&#xdb;" horiz-adv-x="1580" d="M697 1421h170l-264 -921q-26 -95 -26 -152q0 -221 289 -221q107 0 190.5 29.5t138.5 83.5t90 117t58 143l264 921h170l-269 -938q-10 -36 -18 -60t-25.5 -67t-36 -74.5t-50 -73t-66.5 -71.5t-86.5 -61.5t-109.5 -51t-135 -32t-164 -12.5q-425 0 -425 300q0 78 36 203z M1396 1924l174 -286l-120 -88l-118 196l-237 -195l-66 78z" />
<glyph unicode="&#xdc;" horiz-adv-x="1580" d="M697 1421h170l-264 -921q-26 -95 -26 -152q0 -221 289 -221q107 0 190.5 29.5t138.5 83.5t90 117t58 143l264 921h170l-269 -938q-10 -36 -18 -60t-25.5 -67t-36 -74.5t-50 -73t-66.5 -71.5t-86.5 -61.5t-109.5 -51t-135 -32t-164 -12.5q-425 0 -425 300q0 78 36 203z M1057 1898h185l-53 -185h-185zM1506 1898h185l-53 -185h-185z" />
<glyph unicode="&#xdd;" horiz-adv-x="1263" d="M507 1421h201l194 -587l538 587h190l-698 -748l-193 -673h-170l193 673zM1424 1930l35 -123l-597 -296l-30 109z" />
<glyph unicode="&#xde;" horiz-adv-x="1326" d="M971 1008q-116 0 -225 -10l-148 -515q108 -9 193 -9h28q39 0 66 1t72 7t78 16t73.5 31t70 49.5t57 73t43.5 100.5q13 45 13 82q0 46 -20.5 79t-50.5 51t-76.5 28.5t-85 13t-88.5 2.5zM697 1421h170l-78 -274q134 13 273 13q94 0 166.5 -11.5t131.5 -38.5t90.5 -76.5 t31.5 -120.5q0 -55 -19 -122q-14 -49 -35.5 -97t-56.5 -101.5t-78.5 -97.5t-105 -81t-132.5 -56q-119 -32 -338 -32q-81 0 -162 6l-95 -332h-170z" />
<glyph unicode="&#xdf;" horiz-adv-x="1251" d="M996 1430q130 0 195 -71t65 -173q0 -44 -12 -85q-19 -65 -60 -117t-88.5 -85t-93.5 -61t-81.5 -59.5t-45.5 -66.5q-4 -13 -4 -28q0 -31 25.5 -55t64 -38t83 -34t83 -42t64 -63.5t25.5 -97.5q0 -40 -15 -93q-9 -33 -27 -68t-52 -75.5t-78 -71.5t-110.5 -51.5t-144.5 -20.5 q-144 0 -289 47l63 116q148 -31 230 -31q191 0 234 152q7 24 7 46q0 39 -25 68t-62 44l-81 35q-44 19 -81 38t-62 55.5t-25 85.5q0 33 12 75q17 61 58 109t88 79l94 59q46 28 83 63t49 76q7 24 7 48q0 63 -45 103.5t-108 40.5q-19 0 -41.5 -4t-59 -20.5t-68.5 -43t-64 -77 t-51 -116.5l-293 -1022h-164l293 1023q25 86 68.5 156t95.5 116t112.5 77t118 44.5t113.5 13.5z" />
<glyph unicode="&#xe0;" horiz-adv-x="1058" d="M780 981q161 0 230.5 -53.5t69.5 -152.5q0 -60 -22 -135l-183 -640h-116l-12 90q-150 -110 -305 -110q-117 0 -187.5 61.5t-70.5 152.5q0 30 9 62q20 71 67.5 123.5t109 84t145.5 51t167 26t185 6.5l22 76q16 54 16 93q0 130 -190 130q-96 0 -271 -43l3 118 q176 60 333 60zM832 424h-60q-56 0 -97.5 -2t-98.5 -11t-96.5 -25t-73.5 -47.5t-46 -74.5q-4 -13 -4 -30q0 -52 47 -88.5t121 -36.5q126 0 245 97zM879 1539l260 -339l-110 -105l-272 330z" />
<glyph unicode="&#xe1;" horiz-adv-x="1058" d="M1107 1549l58 -114l-462 -329l-48 104zM832 424h-60q-56 0 -97.5 -2t-98.5 -11t-96.5 -25t-73.5 -47.5t-46 -74.5q-4 -13 -4 -30q0 -52 47 -88.5t121 -36.5q126 0 245 97zM780 981q161 0 230.5 -53.5t69.5 -152.5q0 -60 -22 -135l-183 -640h-116l-12 90 q-150 -110 -305 -110q-117 0 -187.5 61.5t-70.5 152.5q0 30 9 62q20 71 67.5 123.5t109 84t145.5 51t167 26t185 6.5l22 76q16 54 16 93q0 130 -190 130q-96 0 -271 -43l3 118q176 60 333 60z" />
<glyph unicode="&#xe2;" horiz-adv-x="1058" d="M962 1490l165 -301l-119 -92l-112 206l-236 -205l-63 82zM832 424h-60q-56 0 -97.5 -2t-98.5 -11t-96.5 -25t-73.5 -47.5t-46 -74.5q-4 -13 -4 -30q0 -52 47 -88.5t121 -36.5q126 0 245 97zM780 981q161 0 230.5 -53.5t69.5 -152.5q0 -60 -22 -135l-183 -640h-116l-12 90 q-150 -110 -305 -110q-117 0 -187.5 61.5t-70.5 152.5q0 30 9 62q20 71 67.5 123.5t109 84t145.5 51t167 26t185 6.5l22 76q16 54 16 93q0 130 -190 130q-96 0 -271 -43l3 118q176 60 333 60z" />
<glyph unicode="&#xe3;" horiz-adv-x="1057" d="M1202 1444l103 -17l-42 -87q-45 -92 -87 -136q-68 -72 -154 -72q-43 0 -78 19.5t-57.5 47t-41.5 55t-39.5 47t-42.5 19.5q-12 0 -23 -3.5t-21 -11t-18.5 -15t-16.5 -18.5l-14 -20l-12 -22l-9 -18l-8 -16q-5 -11 -5 -12l-24 -52l-104 15l42 88l20 41q6 13 31 50t48 58 t61.5 39.5t80.5 18.5q43 0 78 -19.5t57 -47t40.5 -55t39.5 -47t43 -19.5q10 0 20.5 3.5t19 8t17.5 13t15.5 15.5t14 18t12 18.5t10.5 19t8 16.5t6 14l5 10zM832 424h-60q-56 0 -97.5 -2t-98.5 -11t-96.5 -25t-73.5 -47.5t-46 -74.5q-4 -13 -4 -30q0 -52 47 -88.5t121 -36.5 q126 0 245 97zM780 981q161 0 230.5 -53.5t69.5 -152.5q0 -60 -22 -135l-183 -640h-116l-12 90q-150 -110 -305 -110q-117 0 -187.5 61.5t-70.5 152.5q0 30 9 62q20 71 67.5 123.5t109 84t145.5 51t167 26t185 6.5l22 76q16 54 16 93q0 130 -190 130q-96 0 -271 -43l3 118 q176 60 333 60z" />
<glyph unicode="&#xe4;" horiz-adv-x="1062" d="M1106 1421h185l-54 -186h-185zM663 1421h185l-53 -186h-185zM836 424h-60q-56 0 -98 -2t-100 -11t-97.5 -25t-74 -47.5t-46.5 -74.5q-4 -13 -4 -30q0 -52 47.5 -88.5t122.5 -36.5q127 0 247 97zM782 981q162 0 232.5 -54t70.5 -153q0 -59 -22 -134l-184 -640h-116l-12 90 q-150 -110 -306 -110q-118 0 -189.5 62t-71.5 153q0 29 9 61q20 71 67.5 123.5t109.5 84t147 51t168 26t186 6.5l22 76q16 54 16 92q0 131 -192 131q-98 0 -273 -43l3 118q177 60 335 60z" />
<glyph unicode="&#xe5;" horiz-adv-x="1061" d="M969 1482q-54 0 -102.5 -42t-65.5 -100q-6 -22 -6 -44q0 -43 24 -70.5t68 -27.5q53 0 101 43t64 99q6 22 6 43q0 43 -24 71t-65 28zM994 1573q71 0 115.5 -46t44.5 -119q0 -34 -10 -68q-28 -97 -111 -165t-172 -68q-71 0 -115.5 46t-44.5 118q0 35 10 69q28 96 111 164.5 t172 68.5zM835 424h-60q-56 0 -98 -2t-99.5 -11t-97 -25t-74 -47.5t-46.5 -74.5q-4 -13 -4 -30q0 -52 47 -88.5t122 -36.5q127 0 247 97zM782 981q161 0 231.5 -54t70.5 -153q0 -59 -22 -134l-184 -640h-116l-12 90q-150 -110 -306 -110q-118 0 -189 61.5t-71 152.5 q0 30 9 62q20 71 67.5 123.5t109 84t146.5 51t168 26t186 6.5l22 76q16 56 16 93q0 130 -191 130q-98 0 -273 -43l3 118q177 60 335 60z" />
<glyph unicode="&#xe6;" horiz-adv-x="1650" d="M360 268q-4 -13 -4 -30q0 -54 50.5 -90.5t122.5 -36.5q125 0 239 92l63 220q-171 0 -274 -20.5t-142.5 -52t-54.5 -82.5zM1383 839q-118 0 -213 -86t-130 -206h476q21 74 21 130q0 162 -154 162zM447 919q181 62 347 62q116 0 181 -45.5t79 -126.5q86 78 191 125t207 47 q239 0 239 -254q0 -116 -53 -304h-642q-12 -42 -12 -80q0 -102 76 -166.5t203 -64.5q75 0 212 35l-5 -111q-165 -56 -307 -56q-107 0 -192.5 37t-126.5 113q-157 -150 -385 -150q-117 0 -195.5 61t-78.5 156q0 30 9 63q31 110 143.5 186.5t290.5 93.5q89 9 239 9l15 49 q14 47 14 92q0 155 -183 155q-93 0 -259 -42z" />
<glyph unicode="&#xe7;" horiz-adv-x="988" d="M573 -326q3 12 3 22q0 11 -4 20.5t-14 17.5t-19.5 14t-29.5 14l-34 12l-42 14l-46 16l96 176q-113 18 -184.5 87.5t-71.5 202.5q0 80 29 182q33 114 86.5 205t116 149.5t135.5 97t142.5 54.5t140.5 16q140 0 256 -59l-73 -118q-97 36 -202 36q-51 0 -98.5 -9t-99 -33.5 t-94.5 -62t-80.5 -100t-60.5 -142.5q-24 -83 -24 -152q0 -64 22 -109.5t61 -70t83.5 -35.5t99.5 -11q90 0 194 32l7 -112q-141 -49 -264 -54l-59 -110q1 0 14 -4t18.5 -6.5t19 -7.5t21 -10.5t19.5 -13t19 -16.5l14 -20q7 -11 10 -24.5t3 -29.5q0 -22 -7 -47 q-21 -71 -91 -127t-162 -56q-21 0 -44 3.5t-49 10.5l-42 12q-15 4 -42.5 14t-31.5 11l52 91q140 -47 187 -47q45 0 78 22.5t42 54.5z" />
<glyph unicode="&#xe8;" horiz-adv-x="1088" d="M876 982q267 0 267 -236q0 -91 -49 -265l-22 -76h-666q-10 -37 -10 -67q0 -95 73.5 -161t214.5 -66q99 0 230 35l-2 -111q-174 -55 -327 -55q-80 0 -142 15.5t-101.5 42t-65.5 65t-36.5 80.5t-10.5 92q0 83 27 175q39 135 109.5 240t156 167t175.5 93.5t179 31.5z M801 840q-126 0 -223 -93t-133 -218h503q25 87 25 148q0 163 -172 163zM897 1549l258 -339l-108 -104l-273 329z" />
<glyph unicode="&#xe9;" horiz-adv-x="1088" d="M876 982q267 0 267 -236q0 -91 -49 -265l-22 -76h-666q-10 -37 -10 -67q0 -95 73.5 -161t214.5 -66q99 0 230 35l-2 -111q-174 -55 -327 -55q-80 0 -142 15.5t-101.5 42t-65.5 65t-36.5 80.5t-10.5 92q0 83 27 175q39 135 109.5 240t156 167t175.5 93.5t179 31.5z M801 840q-126 0 -223 -93t-133 -218h503q25 87 25 148q0 163 -172 163zM1205 1549l58 -114l-462 -329l-48 104z" />
<glyph unicode="&#xea;" horiz-adv-x="1088" d="M876 982q267 0 267 -236q0 -91 -49 -265l-22 -76h-666q-10 -37 -10 -67q0 -95 73.5 -161t214.5 -66q99 0 230 35l-2 -111q-174 -55 -327 -55q-80 0 -142 15.5t-101.5 42t-65.5 65t-36.5 80.5t-10.5 92q0 83 27 175q39 135 109.5 240t156 167t175.5 93.5t179 31.5z M801 840q-126 0 -223 -93t-133 -218h503q25 87 25 148q0 163 -172 163zM1047 1490l165 -301l-119 -92l-113 206l-235 -205l-62 82z" />
<glyph unicode="&#xeb;" horiz-adv-x="1095" d="M880 982q269 0 269 -236q0 -91 -49 -265l-22 -76h-670q-10 -37 -10 -67q0 -95 74 -161t216 -66q100 0 233 35l-3 -111q-176 -55 -329 -55q-100 0 -172 23t-112 65.5t-58 93.5t-18 114q0 83 27 174q31 109 84 198.5t116 150.5t136 103t145 61t143 19zM804 840 q-128 0 -226.5 -93t-134.5 -218h512q24 82 24 146q0 165 -175 165zM699 1421h185l-53 -186h-185zM1142 1421h185l-54 -186h-185z" />
<glyph unicode="&#xec;" horiz-adv-x="516" d="M459 988h164l-283 -988h-164zM534 1549l266 -324l-107 -100l-280 315z" />
<glyph unicode="&#xed;" horiz-adv-x="516" d="M459 988h164l-283 -988h-164zM912 1549l59 -109l-461 -315l-50 100z" />
<glyph unicode="&#xee;" horiz-adv-x="522" d="M459 988h164l-283 -988h-164zM691 1490l140 -286l-116 -88l-91 186l-202 -185l-63 78z" />
<glyph unicode="&#xef;" horiz-adv-x="523" d="M463 988h164l-283 -988h-164zM392 1421h185l-53 -185h-185zM761 1421h185l-53 -185h-185z" />
<glyph unicode="&#xf0;" horiz-adv-x="1236" d="M424 481q-18 -60 -18 -122q0 -110 60.5 -177.5t160.5 -67.5q32 0 65.5 7.5t77.5 29t84.5 55.5t82 93.5t73.5 136.5q34 80 65 193l18 62q-149 116 -283 116q-126 0 -235.5 -91t-150.5 -235zM922 1458q148 -45 246 -145l210 105l27 -95l-176 -87q71 -111 71 -255 q0 -121 -50 -294q-24 -83 -49 -153t-60 -144.5t-73.5 -133t-90.5 -111.5t-110.5 -88.5t-133.5 -56t-160 -20.5q-175 0 -260.5 84.5t-85.5 221.5q0 105 48.5 221.5t128 213t192.5 159.5t230 63q141 0 299 -109q8 54 8 97q0 126 -69 222l-204 -103l-26 95l162 82 q-71 64 -171 103z" />
<glyph unicode="&#xf1;" horiz-adv-x="1164" d="M452 963h115l12 -84q217 104 371 104q231 0 231 -204q0 -80 -36 -204l-165 -575h-165l167 583q19 68 19 110q0 142 -165 142q-114 0 -278 -74l-218 -761h-164zM1286 1449l103 -17l-42 -88q-45 -92 -87 -136q-68 -72 -154 -72q-43 0 -78 19.5t-57.5 47t-41.5 55t-39.5 47 t-42.5 19.5q-12 0 -23 -3.5t-20.5 -10.5t-18 -15t-16.5 -19l-14 -20q-6 -8 -12 -20.5t-9.5 -19t-8 -16.5t-4.5 -11l-25 -53l-103 16l42 88l20 40q6 13 31 50.5t47.5 58t61 39t80.5 18.5q43 0 78 -19.5t57 -47t40.5 -55t39 -47t42.5 -19.5q10 0 20.5 3.5t19 8.5t17.5 13 t15.5 15.5t14 18.5t12 18.5t10 18.5t8 16.5t7 14.5t4.5 10z" />
<glyph unicode="&#xf2;" horiz-adv-x="1195" d="M881 982q160 0 255 -82.5t95 -234.5q0 -76 -25 -164q-69 -239 -243 -380t-385 -141q-159 0 -250.5 84.5t-91.5 235.5q0 81 26 171q67 234 237 372.5t382 138.5zM828 842q-76 0 -153.5 -37.5t-145.5 -118t-99 -188.5q-20 -71 -20 -132q0 -110 59.5 -178t166.5 -68 q128 0 242 97t158 252q20 69 20 131q0 115 -65.5 178.5t-162.5 63.5zM964 1549l258 -339l-108 -104l-272 329z" />
<glyph unicode="&#xf3;" horiz-adv-x="1195" d="M881 982q160 0 255 -82.5t95 -234.5q0 -76 -25 -164q-69 -239 -243 -380t-385 -141q-159 0 -250.5 84.5t-91.5 235.5q0 81 26 171q67 234 237 372.5t382 138.5zM828 842q-76 0 -153.5 -37.5t-145.5 -118t-99 -188.5q-20 -71 -20 -132q0 -110 59.5 -178t166.5 -68 q128 0 242 97t158 252q20 69 20 131q0 115 -65.5 178.5t-162.5 63.5zM1137 1549l57 -114l-462 -329l-48 104z" />
<glyph unicode="&#xf4;" horiz-adv-x="1195" d="M881 982q160 0 255 -82.5t95 -234.5q0 -76 -25 -164q-69 -239 -243 -380t-385 -141q-159 0 -250.5 84.5t-91.5 235.5q0 81 26 171q67 234 237 372.5t382 138.5zM828 842q-76 0 -153.5 -37.5t-145.5 -118t-99 -188.5q-20 -71 -20 -132q0 -110 59.5 -178t166.5 -68 q128 0 242 97t158 252q20 69 20 131q0 115 -65.5 178.5t-162.5 63.5zM1040 1490l163 -301l-116 -92l-113 206l-236 -205l-62 82z" />
<glyph unicode="&#xf5;" horiz-adv-x="1198" d="M1266 1448l103 -17q-3 -7 -22 -47l-25 -52q-6 -13 -25.5 -47.5t-31.5 -48.5l-34 -38q-22 -24 -41.5 -34t-46.5 -19t-56 -9q-43 0 -78 19.5t-57 47t-41 55t-39.5 47t-42.5 19.5q-13 0 -26 -5t-22.5 -12t-21 -20.5t-18.5 -24t-17 -30.5l-16 -30l-16 -34l-14 -32l-104 15 q3 7 22 47l25 52q6 13 25.5 47.5t31.5 48.5l34 38q22 24 41.5 34t46.5 19t56 9q43 0 78 -19.5t57 -47t41 -55t39.5 -47t42.5 -19.5q15 0 28.5 5t27 18.5t22 23.5t20.5 33l18 34q6 10 19.5 39.5t16.5 36.5zM829 842q-77 0 -154.5 -37.5t-145.5 -118t-99 -188.5 q-20 -71 -20 -131q0 -111 60 -179t168 -68q129 0 243 96.5t158 252.5q20 69 20 130q0 115 -66 179t-164 64zM883 982q160 0 255.5 -83t95.5 -235q0 -75 -25 -163q-69 -239 -243 -380t-386 -141q-160 0 -252 84.5t-92 236.5q0 80 26 170q67 233 237.5 372t383.5 139z" />
<glyph unicode="&#xf6;" horiz-adv-x="1203" d="M886 982q162 0 257.5 -83t95.5 -235q0 -75 -25 -163q-69 -239 -244 -380t-388 -141q-161 0 -253.5 84.5t-92.5 236.5q0 80 26 170q67 234 238.5 372.5t385.5 138.5zM832 842q-77 0 -155.5 -37.5t-147 -118t-99.5 -188.5q-20 -71 -20 -131q0 -111 60.5 -179t169.5 -68 q130 0 245.5 97t159.5 252q20 72 20 129q0 116 -67 180t-166 64zM722 1421h185l-53 -186h-185zM1165 1421h185l-53 -186h-185z" />
<glyph unicode="&#xf7;" horiz-adv-x="1400" d="M956 1233h195l-56 -195h-195zM682 278h195l-56 -195h-195zM333 727h1150l-39 -139h-1150z" />
<glyph unicode="&#xf8;" horiz-adv-x="1194" d="M1300 970l42 -56l-141 -110q29 -63 29 -144q0 -74 -25 -161q-68 -238 -241 -378.5t-384 -140.5q-188 0 -277 117l-143 -112l-41 56l147 116q-30 68 -30 149q0 79 26 167q67 233 237 371t381 138q193 0 285 -119zM828 842q-88 0 -167.5 -44.5t-133.5 -114t-85.5 -153.5 t-31.5 -164q0 -50 11 -88l596 469q-62 95 -189 95zM1046 683l-597 -469q60 -94 187 -94q91 0 172 46.5t134 118t84 155.5t31 161q0 43 -11 82z" />
<glyph unicode="&#xf9;" horiz-adv-x="1164" d="M1100 988h164l-284 -988h-115l-11 83q-215 -103 -372 -103q-229 0 -229 206q0 85 37 212l169 590h164l-173 -602q-19 -65 -19 -113q0 -146 164 -146q114 0 280 77zM913 1549l263 -324l-107 -100l-277 315z" />
<glyph unicode="&#xfa;" horiz-adv-x="1164" d="M1100 988h164l-284 -988h-115l-11 83q-215 -103 -372 -103q-229 0 -229 206q0 85 37 212l169 590h164l-173 -602q-19 -65 -19 -113q0 -146 164 -146q114 0 280 77zM1195 1549l59 -109l-457 -315l-50 100z" />
<glyph unicode="&#xfb;" horiz-adv-x="1164" d="M1100 988h164l-284 -988h-115l-11 83q-215 -103 -372 -103q-229 0 -229 206q0 85 37 212l169 590h164l-173 -602q-19 -65 -19 -113q0 -146 164 -146q114 0 280 77zM1027 1490l169 -286l-117 -88l-116 196l-232 -195l-64 78z" />
<glyph unicode="&#xfc;" horiz-adv-x="1170" d="M1105 988h164l-283 -988h-115l-11 83q-217 -103 -375 -103q-232 0 -232 207q0 80 37 211l169 590h164l-173 -602q-19 -65 -19 -112q0 -147 167 -147q114 0 282 77zM679 1421h185l-53 -186h-185zM1120 1421h185l-53 -186h-185z" />
<glyph unicode="&#xfd;" horiz-adv-x="1039" d="M332 988h170l72 -838l527 838h170l-995 -1519h-175l343 493zM1200 1549l59 -109l-458 -315l-50 100z" />
<glyph unicode="&#xfe;" horiz-adv-x="1206" d="M840 837q-260 0 -369 -382q-26 -92 -26 -156q0 -182 192 -182q39 0 82.5 11t92.5 37t92.5 65t81.5 101t60 138q20 67 20 129q0 113 -65 176t-161 63zM909 978q148 0 239 -84.5t91 -234.5q0 -75 -25 -162q-65 -226 -236 -373t-365 -147q-74 0 -137.5 27.5t-102.5 79.5 l-176 -615h-164l560 1952h164l-161 -561q136 118 313 118z" />
<glyph unicode="&#xff;" horiz-adv-x="1043" d="M332 988h170l73 -838l531 838h170l-1000 -1519h-175l344 493zM627 1421h185l-53 -186h-185zM1070 1421h185l-53 -186h-185z" />
<glyph unicode="&#x152;" horiz-adv-x="1998" d="M1414 1271h-57q-125 0 -190 -10q-208 -31 -361 -179.5t-220 -380.5q-30 -104 -30 -192q0 -215 166 -310q53 -31 108.5 -40t136.5 -9h126zM742 1224q67 54 144.5 92.5t144 58.5t151.5 30.5t143.5 13t143.5 2.5h776l-43 -150h-618l-133 -464h563l-43 -150h-563l-145 -507 h618l-43 -150h-865q-122 0 -213 11.5t-164 46.5q-220 107 -220 385q0 118 41 260q97 338 325 521z" />
<glyph unicode="&#x153;" horiz-adv-x="1776" d="M617 118q83 0 158.5 46.5t125.5 118t79 157t29 164.5q0 103 -50.5 168t-151.5 65q-125 0 -231 -98.5t-149 -249.5q-20 -67 -20 -134q0 -107 55 -172t155 -65zM1501 831q-120 0 -213.5 -92.5t-130.5 -219.5h478q26 93 26 154q0 158 -160 158zM1576 972q252 0 252 -232 q0 -98 -50 -270l-22 -75h-638q-9 -33 -9 -67q0 -92 68.5 -156t207.5 -64q88 0 215 35l-5 -111q-159 -55 -310 -55q-261 0 -320 181q-173 -178 -406 -178q-154 0 -239 82.5t-85 230.5q0 84 28 181q66 231 229.5 367t370.5 136q123 0 200 -50.5t104 -143.5q56 60 118.5 100.5 t119 58t96 24t75.5 6.5z" />
<glyph unicode="&#x178;" horiz-adv-x="1263" d="M507 1421h201l194 -587l538 587h190l-698 -748l-193 -673h-170l193 673zM1337 1898h185l-53 -185h-185zM887 1898h185l-53 -185h-185z" />
<glyph unicode="&#x2c6;" horiz-adv-x="1479" d="M1167 1541l174 -286l-118 -88l-120 196l-237 -195l-66 78z" />
<glyph unicode="&#x2dc;" horiz-adv-x="1400" d="M1270 1361q15 0 29 4.5t29 15.5t26 20.5t28 29.5l27 33l31 38l31 41l92 -47q-5 -7 -27.5 -36.5t-31.5 -39.5l-30 -38q-22 -26 -35 -38l-35 -32q-21 -21 -38.5 -31t-40 -21.5t-45 -16t-45.5 -4.5q-44 0 -79 18.5t-57.5 45.5t-42 54t-42 45.5t-47.5 18.5q-17 0 -35 -8 t-31 -17t-33 -31t-30 -35l-36 -46l-36 -47l-92 47l32 40l35 46q9 12 34.5 42t40.5 42l40 34q26 22 46.5 31t47 16.5t52.5 7.5q44 0 79 -18.5t57.5 -45.5t42 -54t42 -45.5t47.5 -18.5z" />
<glyph unicode="&#x2000;" horiz-adv-x="966" />
<glyph unicode="&#x2001;" horiz-adv-x="1932" />
<glyph unicode="&#x2002;" horiz-adv-x="966" />
<glyph unicode="&#x2003;" horiz-adv-x="1932" />
<glyph unicode="&#x2004;" horiz-adv-x="644" />
<glyph unicode="&#x2005;" horiz-adv-x="483" />
<glyph unicode="&#x2006;" horiz-adv-x="322" />
<glyph unicode="&#x2007;" horiz-adv-x="322" />
<glyph unicode="&#x2008;" horiz-adv-x="241" />
<glyph unicode="&#x2009;" horiz-adv-x="386" />
<glyph unicode="&#x200a;" horiz-adv-x="107" />
<glyph unicode="&#x2010;" horiz-adv-x="1210" d="M384 728h860l-40 -139h-860z" />
<glyph unicode="&#x2011;" horiz-adv-x="1210" d="M384 728h860l-40 -139h-860z" />
<glyph unicode="&#x2013;" horiz-adv-x="1159" d="M209 728h1159l-40 -139h-1159z" />
<glyph unicode="&#x2014;" horiz-adv-x="1384" d="M209 728h1384l-40 -139h-1384z" />
<glyph unicode="&#x2018;" horiz-adv-x="450" d="M523 1511h195l1 -433h-195z" />
<glyph unicode="&#x2019;" horiz-adv-x="450" d="M598 1511h195l-249 -433h-195z" />
<glyph unicode="&#x201a;" horiz-adv-x="450" d="M227 217h195l-249 -433h-195z" />
<glyph unicode="&#x201c;" horiz-adv-x="830" d="M598 1511h195l-249 -433h-195zM978 1511h195l-249 -433h-195z" />
<glyph unicode="&#x201d;" horiz-adv-x="830" d="M598 1511h195l-249 -433h-195zM978 1511h195l-249 -433h-195z" />
<glyph unicode="&#x201e;" horiz-adv-x="830" d="M226 214h195l-249 -433h-195zM606 214h195l-249 -433h-195z" />
<glyph unicode="&#x2022;" horiz-adv-x="640" d="M437 863h260l-74 -260h-260z" />
<glyph unicode="&#x2026;" horiz-adv-x="1720" d="M1370 210h210l-60 -210h-210zM805 210h210l-60 -210h-210zM240 210h210l-60 -210h-210z" />
<glyph unicode="&#x202f;" horiz-adv-x="386" />
<glyph unicode="&#x2039;" horiz-adv-x="565" d="M612 988h186l-378 -365l169 -365h-185l-150 365z" />
<glyph unicode="&#x203a;" horiz-adv-x="565" d="M333 988h185l151 -365l-359 -365h-186l379 365z" />
<glyph unicode="&#x205f;" horiz-adv-x="483" />
<glyph unicode="&#x20ac;" horiz-adv-x="1335" d="M417 504h-222l37 130h204q1 2 6.5 27t11.5 48.5t19.5 62.5t30.5 76h-147l37 130h176q125 209 318.5 331t411.5 122q173 0 327 -76l-88 -141q-156 67 -285 67q-146 0 -282.5 -82.5t-234.5 -220.5h451l-37 -130h-491q-51 -102 -70 -214h436l-37 -130h-408 q6 -163 102 -265.5t274 -102.5q138 0 307 60l11 -126q-212 -90 -401 -90q-218 0 -338.5 128.5t-120.5 343.5q0 16 2 52z" />
<glyph unicode="&#x2122;" horiz-adv-x="1424" d="M653 943h-98l140 488h-175l23 80h448l-23 -80h-175zM1123 1511h116l81 -317l257 317h120l-163 -568h-98l128 446l-244 -294h-68l-65 298l-129 -450h-98z" />
</font>
</defs>
</svg>
