<?xml version="1.0" standalone="no"?>
<!DOCTYPE svg PUBLIC "-//W3C//DTD SVG 1.1//EN" "http://www.w3.org/Graphics/SVG/1.1/DTD/svg11.dtd" >
<svg xmlns="http://www.w3.org/2000/svg">
<metadata>
This is a custom SVG webfont generated by Font Squirrel.
Designer    : Lauren Thompson
</metadata>
<defs>
<font id="webfontcnPIK67c" horiz-adv-x="1250" >
<font-face units-per-em="2048" ascent="1638" descent="-410" />
<missing-glyph horiz-adv-x="708" />
<glyph unicode=" "  horiz-adv-x="708" />
<glyph unicode="&#x09;" horiz-adv-x="708" />
<glyph unicode="&#xa0;" horiz-adv-x="708" />
<glyph unicode="!" horiz-adv-x="430" d="M305.5 139q21.5 -26 13.5 -63q-7 -38 -38.5 -64t-68.5 -26t-58.5 26t-14.5 64q8 37 39.5 63t68.5 26t58.5 -26zM569 1600l-258 -1324h-90l258 1324h90z" />
<glyph unicode="&#x22;" horiz-adv-x="575" d="M554 997l117 600h90l-117 -600h-90zM319 997l117 600h90l-117 -600h-90z" />
<glyph unicode="#" horiz-adv-x="1653" d="M955 985h230l197 445h90l-197 -445h445l-41 -90h-445l-102 -230h445l-40 -90h-445l-197 -445h-90l197 445h-230l-197 -445h-90l197 445h-445l40 90h445l102 230h-445l41 90h445l197 445h90zM1144 895h-230l-102 -230h230z" />
<glyph unicode="$" horiz-adv-x="1011" d="M722 856l-129 -667q102 15 193 91q112 94 139 228q25 133 -50 227q-60 74 -153 121zM740 1413q-64 -10 -119 -57q-72 -60 -89 -146t32 -146q33 -42 93 -79zM639 891q-95 45 -148 112q-70 85 -46 207q23 119 126 205q86 73 186 84l32 163h90l-32 -165q85 -15 139 -81 q38 -46 46 -108l-84 -31q-8 46 -35 80q-34 40 -83 53l-90 -464q126 -53 206 -151q96 -119 64 -287q-34 -170 -176 -289q-120 -101 -258 -117l-28 -140h-90l27 139q-141 11 -228 118q-76 96 -71 226l88 30q-10 -115 56 -196q65 -81 172 -92z" />
<glyph unicode="%" horiz-adv-x="1221" d="M1362 1314l-1173 -1311l-64 51l1173 1311zM697 1147.5q54 -67.5 36 -163.5q-19 -96 -99.5 -163.5t-176.5 -67.5t-150.5 67.5t-35.5 163.5q18 96 99 163.5t177 67.5t150 -67.5zM530 1128q-60 0 -110.5 -42t-61.5 -102q-12 -60 22 -102t94 -42q59 0 109.5 42t62.5 102 q11 60 -23 102t-93 42zM1180.5 547.5q54.5 -67.5 35.5 -163.5t-99.5 -163.5t-176.5 -67.5t-150.5 67.5t-35.5 163.5t99.5 163.5t176.5 67.5t150.5 -67.5zM1013 528q-60 0 -110 -42t-62 -102t22 -102t94 -42q59 0 109.5 42t62.5 102t-22.5 102t-93.5 42z" />
<glyph unicode="&#x26;" horiz-adv-x="1304" d="M979 331q-12 5 -23 12q-42 27 -100 102q-39 44 -57 55q-20 12 -42 12q-13 0 -25 -3q-38 -10 -63 -42q-17 -22 -21 -44q-2 -12 -1 -25q3 -36 29 -52q17 -10 50 -10q18 0 42 3l-25 -82q-27 -7 -52 -7q-40 0 -74 21q-53 33 -58 104q-3 25 2 48q8 44 41 86q49 64 123 83 q26 7 50 7q44 0 80 -24q36 -22 87 -89q48 -53 72 -68q27 -17 59 -17q18 0 37 5q54 14 90 61q23 31 30 63q3 17 1 35q-4 51 -44 78q-25 16 -60 16q-25 0 -56 -8l16 89q30 8 58 8q53 0 98 -29q70 -44 77 -131q2 -30 -3 -58q-11 -55 -50 -105q-59 -78 -152 -102q-27 -7 -51 -8 q-54 -108 -157 -194q-166 -140 -362 -140t-308 139t-74 336q38 196 204 342q113 101 273 151q-66 31 -126 111.5t-32 221.5q27 138 145 237.5t259 99.5q140 0 221 -99q45 -53 53 -119l-87 -32q-9 49 -42 90q-59 72 -162 72t-190 -72.5t-107 -176.5q-20 -103 36 -178 t111.5 -98t145.5 -24l-17 -84l-72 -2q-227 -41 -360.5 -161t-164.5 -279q-31 -160 60 -273t251 -113q159 0 294 113q79 66 123 148z" />
<glyph unicode="'" horiz-adv-x="340" d="M319 997l117 600h90l-117 -600h-90z" />
<glyph unicode="(" horiz-adv-x="703" d="M919 1628q-147 -62 -282 -199q-226 -228 -303 -629q-79 -402 58 -630q82 -137 205 -202l-17 -85q-156 58 -255 223q-155 254 -69 694q85 439 338 694q164 165 343 223z" />
<glyph unicode=")" horiz-adv-x="703" d="M433 1717q157 -58 256 -223q155 -255 69 -694q-85 -440 -339 -694q-163 -165 -342 -223l17 85q147 65 283 202q225 228 303 630q78 401 -58 629q-83 137 -206 199z" />
<glyph unicode="*" horiz-adv-x="800" d="M445 1384l174 122l52 -74l-193 -135l193 -135l-52 -74l-174 122v-213h-90v214l-175 -123l-52 74l193 135l-193 135l52 74l175 -123v214h90v-213z" />
<glyph unicode="+" horiz-adv-x="1050" d="M480 547h-355v90h355v355h90v-355h355v-90h-355v-355h-90v355z" />
<glyph unicode="," horiz-adv-x="379" d="M311 166l-260 -385h-84l178 385h166z" />
<glyph unicode="-" horiz-adv-x="840" d="M248 637h590l-17 -90h-590z" />
<glyph unicode="&#xad;" horiz-adv-x="840" d="M248 637h590l-17 -90h-590z" />
<glyph unicode="." horiz-adv-x="380" d="M280.5 139q21.5 -26 13.5 -63q-7 -38 -38.5 -64t-68.5 -26t-58.5 26t-14.5 64q8 37 39.5 63t68.5 26t58.5 -26z" />
<glyph unicode="/" horiz-adv-x="727" d="M985 1600h103l-1036 -1600h-102z" />
<glyph unicode="0" d="M1283 1051q37 188 -70.5 320.5t-295.5 132.5t-346.5 -132.5t-195.5 -320.5l-103 -530q-36 -188 71 -320.5t295 -132.5t347 132.5t195 320.5zM1275 521q-44 -227 -236 -388t-420 -161q-227 0 -356.5 161t-85.5 388l103 530q44 227 236.5 388t419.5 161q228 0 357 -161 t85 -388z" />
<glyph unicode="1" d="M1028 1600l-311 -1600h-90l280 1442h-95l154 158h62z" />
<glyph unicode="2" d="M452 434l334 218q146 96 278.5 215t162.5 277q31 159 -59 271t-249 112q-157 0 -292 -112q-115 -96 -154 -229l-85 33q52 150 185 262q167 141 364 141q198 0 310.5 -140t73.5 -338q-38 -197 -203 -344q-113 -101 -258 -196l-328 -214q-182 -119 -257 -300h841l-17 -90 h-943q106 310 296 434z" />
<glyph unicode="3" d="M743 893l-75 2l18 90q93 1 157 24t147.5 97t103.5 176q20 103 -38 174.5t-160 71.5q-101 0 -188 -71q-48 -41 -77 -92l-79 34q36 70 101 123q120 100 261 100q143 0 223 -100.5t53 -239.5q-27 -142 -119 -223.5t-163 -108.5q134 -48 210 -150q108 -147 70 -344 q-39 -198 -205.5 -338t-364.5 -140q-197 0 -310 141q-89 112 -83 262l98 33q-12 -133 65 -229q91 -112 248 -112q159 0 293 112t165 271q30 158 -55.5 277t-295.5 160z" />
<glyph unicode="4" d="M1144 1600h90l-203 -1042h153l-17 -90h-153l-91 -468h-90l91 468h-660zM1106 1406l-670 -848h505z" />
<glyph unicode="5" d="M497 1103q53 16 117 30q67 11 127 11q110 0 204 -35q211 -77 281 -284q43 -129 17 -264q-16 -84 -59 -169q-112 -225 -341 -336q-139 -67 -273 -67q-85 0 -168 27q-169 55 -244 194l78 71q60 -126 212 -175q68 -22 138 -22q112 0 228 56q191 92 286 280q36 72 49 142 q22 112 -14 219q-59 172 -234 238q-75 28 -172 28q-127 0 -292 -49l-60 63l283 507l6 32h500l-17 -90h-425z" />
<glyph unicode="6" d="M275 521q-36 -188 71 -320.5t295 -132.5t347 132.5t195 320.5q37 188 -70 321t-295 133t-347 -133t-196 -321zM455 940q176 131 381 131q228 0 357.5 -161t84.5 -389q-44 -227 -235.5 -388t-419.5 -161q-227 0 -357 161q-125 155 -89 371h-6q79 353 282.5 577t490.5 488 l33 31h124l-52 -50q-320 -294 -516 -513q-42 -46 -78 -97z" />
<glyph unicode="7" d="M1030.5 1046q-319.5 -294 -516 -513t-267.5 -533h-94q79 353 282.5 577t490.5 488t362 445h-841l17 90h943q-57 -260 -376.5 -554z" />
<glyph unicode="8" d="M638 75h2q20 -2 40 -2q159 0 293 112t164 271q31 158 -55 277q-83 116 -284 158q-217 -42 -346 -158q-132 -119 -163 -277q-30 -159 60 -271t249 -112q20 0 40 2zM621 -20q-20 -2 -41 -2q-198 0 -310.5 140t-74.5 338q39 197 204 344q115 102 269 150 q-61 27 -121.5 108.5t-32.5 223.5q27 139 146 239.5t262 100.5h36q143 0 223 -100.5t53 -239.5q-28 -142 -119.5 -223.5t-162.5 -108.5q134 -48 209 -150q109 -147 70 -344q-38 -198 -204.5 -338t-364.5 -140q-20 0 -41 2zM921 1527q-8 1 -17 1q-102 0 -188 -71.5 t-106 -174.5q-20 -102 35 -176t110 -97q28 -11 63 -17q37 6 69 17q63 23 147 97t104 176q20 103 -38 174.5t-160 71.5q-9 0 -17 -1h-2z" />
<glyph unicode="9" d="M1280 1051q37 188 -70.5 320.5t-295.5 132.5t-346.5 -132.5t-195.5 -320.5q-36 -188 71 -321t295 -133t347 133t195 321zM1101 632q-177 -131 -382 -131q-228 0 -357 161t-85 389q44 227 236 388t420 161q227 0 357 -161q125 -155 89 -371h6q-79 -353 -282.5 -577 t-490.5 -488q-18 -16 -33 -31h-124q24 25 51 50q320 294 517 513q42 46 78 97z" />
<glyph unicode=":" horiz-adv-x="430" d="M425.5 756q21.5 -26 13.5 -63q-7 -38 -38.5 -64t-68.5 -26t-58.5 26t-14.5 64q8 37 39.5 63t68.5 26t58.5 -26zM305.5 139q21.5 -26 13.5 -63q-7 -38 -38.5 -64t-68.5 -26t-58.5 26t-14.5 64q8 37 39.5 63t68.5 26t58.5 -26z" />
<glyph unicode=";" horiz-adv-x="477" d="M384 166l-260 -385h-84l178 385h166zM425 756q21 -26 14 -63q-7 -38 -38.5 -64t-68.5 -26t-58.5 26t-14.5 64q7 37 39 63t69 26t58 -26z" />
<glyph unicode="&#x37e;" horiz-adv-x="477" d="M384 166l-260 -385h-84l178 385h166zM425 756q21 -26 14 -63q-7 -38 -38.5 -64t-68.5 -26t-58.5 26t-14.5 64q7 37 39 63t69 26t58 -26z" />
<glyph unicode="&#x3c;" horiz-adv-x="1349" d="M1249 145l-1149 418l1149 418v-96l-886 -322l886 -322v-96z" />
<glyph unicode="=" horiz-adv-x="1050" d="M125 797h800v-90h-800v90zM125 477h800v-90h-800v90z" />
<glyph unicode="&#x3e;" horiz-adv-x="1349" d="M100 241l886 322l-886 322v96l1149 -418l-1149 -418v96z" />
<glyph unicode="?" horiz-adv-x="956" d="M416.5 139q21.5 -26 13.5 -63q-7 -38 -38.5 -64t-68.5 -26t-58.5 26t-14.5 64q8 37 39.5 63t68.5 26t58.5 -26zM504 589q-56 -82 -72 -166q-13 -64 -2 -129l-89 -29q-12 80 3 158q20 104 88 204q113 167 298 289q113 92 170 178q37 53 47 108q8 41 2 82q-16 98 -100 143 q-48 25 -102 25q-41 0 -86 -15q-104 -34 -167 -126q-35 -52 -45 -105l-87 4l1 8q13 65 57 129q87 127 228 173q62 20 118 20q74 0 139 -34q114 -61 135 -192q9 -57 -2 -113q-14 -74 -63 -146q-86 -127 -249 -237q-137 -103 -222 -229z" />
<glyph unicode="@" horiz-adv-x="1626" d="M1182 483l25 132q-2 75 -48 132q-66 83 -182 83t-213.5 -82.5t-120.5 -199.5q-22 -115 43.5 -197t181.5 -82t214 82q68 57 100 132zM1147 313q-146 -127 -297 -127q-150 0 -236.5 107t-57.5 255q30 151 157.5 258t277.5 107q151 0 247 -127l23 114h81l-126 -648 q9 -43 46 -43q44 0 143.5 110.5t122.5 227.5q49 251 -95 429.5t-395 178.5t-463 -178.5t-261 -429.5t94 -428.5t394 -177.5q172 0 261 49l45 -60q-134 -70 -322 -70q-284 0 -447 202t-108 485q55 284 297 486.5t526 202.5q285 0 446.5 -202.5t106.5 -486.5 q-25 -127 -145.5 -272t-232.5 -145q-13 0 -25 2q-82 18 -73 100z" />
<glyph unicode="A" horiz-adv-x="1291" d="M1027 703l-114 671l-374 -671h488zM1042 613h-554l-342 -613h-96l914 1637l277 -1637h-95z" />
<glyph unicode="B" horiz-adv-x="1066" d="M730 1600v1h15q123 0 193.5 -87.5t46.5 -210.5q-24 -124 -172 -231q108 -23 186 -132q128 -161 84 -389q-44 -227 -236 -393q-179 -154 -387 -157v-1h-310l311 1600h269zM435 1005l-178 -915h220v-1q169 11 315 137q160 137 196 325q37 188 -70.5 321t-295.5 133h-187z M534 1510l-80 -409h217q76 7 139 56q72 56 89 146q18 90 -31.5 148.5t-139.5 58.5h-194z" />
<glyph unicode="C" horiz-adv-x="1595" d="M1476 255l56 -61q-275 -213 -592 -213q-340 0 -533 239.5t-127 579.5q66 339 352 579t626 240q317 0 510 -213l-80 -62q-171 183 -448 183q-301 0 -555 -213t-313 -514q-59 -302 113 -515t473 -213q277 0 518 183z" />
<glyph unicode="D" horiz-adv-x="1199" d="M533 1506l-275 -1413h7q356 0 584 192q255 213 314 515q58 301 -113 515q-154 191 -510 191h-7zM551 1598h7q395 0 569 -218q193 -241 128 -580q-67 -340 -353 -580q-260 -218 -655 -218h-7v-2h-90l311 1600h90v-2z" />
<glyph unicode="E" horiz-adv-x="1075" d="M1261 1600l-17 -90h-710l-130 -665h710l-17 -90h-710l-130 -665h710l-17 -90h-800l311 1600h800z" />
<glyph unicode="F" horiz-adv-x="975" d="M1161 1600l-17 -90h-610l-130 -665h610l-17 -90h-610l-147 -755h-90l311 1600h700z" />
<glyph unicode="G" horiz-adv-x="1620" d="M1527 199q-270 -218 -587 -218q-340 0 -533 239.5t-127 579.5q66 339 352 579t626 240q317 0 510 -213l-80 -62q-171 183 -448 183q-301 0 -555 -213t-313 -514q-59 -302 113 -515t473 -213q258 0 485 159l95 488h90z" />
<glyph unicode="H" horiz-adv-x="1150" d="M379 717l-139 -717h-90l311 1600h90l-154 -793h670l154 793h90l-311 -1600h-90l139 717h-670z" />
<glyph unicode="I" horiz-adv-x="430" d="M571 1600l-311 -1600h-90l311 1600h90z" />
<glyph unicode="J" horiz-adv-x="857" d="M756 274q-24 -122 -120 -202q-101 -86 -222 -86t-189.5 85.5t-48.5 187.5l93 23q-17 -88 31 -147t131 -59t155 59q64 54 80 137q2 8 3 17l254 1311h90z" />
<glyph unicode="K" horiz-adv-x="1097" d="M391 775l-151 -775h-90l311 1600h90l-132 -681l643 681h116l-605 -644l434 -956h-111l-396 884z" />
<glyph unicode="L" horiz-adv-x="950" d="M150 0l311 1600h90l-294 -1510h620l-17 -90h-710z" />
<glyph unicode="M" horiz-adv-x="1707" d="M564 1600l399 -1040l802 1040h103l-5 -7l-310 -1593h-90l279 1437l-814 -1054l-405 1054l-279 -1437h-90l310 1593l-3 7h103z" />
<glyph unicode="N" horiz-adv-x="1311" d="M461 1600h99l545 -1423l277 1423h90l-311 -1600h-90l-552 1437l-279 -1437h-90z" />
<glyph unicode="O" horiz-adv-x="1892" d="M1795.5 1382.5q193.5 -240.5 127.5 -580.5t-353 -580.5t-627 -240.5t-534 240.5t-128 580.5t353.5 580.5t627.5 240.5t533.5 -240.5zM1244 1531q-302 0 -557 -213.5t-314 -515.5t113 -516t474 -214t557 214t314 516t-113 515.5t-474 213.5z" />
<glyph unicode="P" horiz-adv-x="1089" d="M348 555l-108 -555h-90l311 1600h420q178 -25 281 -153q124 -153 82 -369q-43 -217 -225.5 -370t-398.5 -153h-272zM533 1509l-167 -863h272q178 0 329 126.5t186 305.5q34 179 -68 305t-280 126h-272z" />
<glyph unicode="Q" horiz-adv-x="1892" d="M1244 1531q-302 0 -557 -213.5t-314 -515.5t113 -516t474 -214t557 214t314 516t-113 515.5t-474 213.5zM934 -19q-334 3 -525 241q-194 240 -128 580t353.5 580.5t627.5 240.5t533.5 -240.5t127.5 -580.5t-353 -580q-207 -174 -442 -222q5 -2 10 -3q69 -20 178 -98 q75 -45 107 -55q20 -6 40 -6q36 0 73 19q59 30 87 88q8 16 12 32h91q-8 -27 -21 -55q-45 -94 -140 -142q-60 -31 -118 -31q-33 0 -65 10q-57 16 -153 86q-91 54 -132 66q-28 8 -56 8q-50 0 -101 -26q-82 -42 -120 -123q-6 -12 -9 -24h-91q6 24 18 49q56 116 174 176z" />
<glyph unicode="R" horiz-adv-x="1089" d="M533 1509l-167 -863h272q178 0 329 126.5t186 305.5q34 179 -68 305t-280 126h-272zM647 556q-13 -1 -27 -1h-272l-108 -555h-90l311 1600h420q178 -25 281 -153q124 -153 82 -369q-43 -217 -225 -370q-127 -106 -270 -139l258 -569h-111z" />
<glyph unicode="S" horiz-adv-x="1042" d="M720 886q-160 57 -239.5 156t-52.5 240q27 138 145.5 237.5t259.5 99.5q140 0 220 -99q45 -53 53 -119l-87 -32q-8 49 -41 90q-59 72 -162 72t-190.5 -72.5t-107.5 -176.5q-20 -103 39 -176q55 -67 164 -123q180 -62 285 -193q113 -138 75 -334q-39 -197 -205 -336 t-362 -139t-308 140q-89 111 -82 258l91 31q-12 -130 66 -227q92 -113 251 -113q160 0 294.5 113t166.5 273q30 159 -61 272q-79 99 -212 158z" />
<glyph unicode="T" horiz-adv-x="1000" d="M839 1510l-294 -1510h-90l294 1510h-405l17 90h900l-17 -90h-405z" />
<glyph unicode="U" horiz-adv-x="1345" d="M1415 1600h91l-223 -1150q-61 -183 -214 -311q-182 -153 -398 -153q-217 0 -340.5 153t-81.5 369l212 1092h91l-212 -1092q-35 -178 67 -304.5t281 -126.5t329.5 126.5t185.5 304.5z" />
<glyph unicode="V" horiz-adv-x="1291" d="M456 1600l233 -1374l767 1374h96l-914 -1637l-277 1637h95z" />
<glyph unicode="W" horiz-adv-x="1672" d="M838 240l264 1360h90l-264 -1360q15 -43 42 -77q73 -87 197 -87t232 88.5t132 213.5l237 1222h90l-239 -1230q-33 -156 -167 -268q-138 -116 -302 -116q-163 0 -257 115q-17 20 -29 41q-20 -21 -45 -41q-138 -115 -301 -115q-164 0 -257 116q-91 112 -64 268l239 1230h90 l-237 -1222q-24 -125 49 -213.5t197 -88.5t231 87q41 34 72 77z" />
<glyph unicode="X" horiz-adv-x="1218" d="M50 0l678 879l-276 721h103l241 -632l489 632h103l-558 -721l338 -879h-103l-303 790l-610 -790h-102z" />
<glyph unicode="Y" horiz-adv-x="1291" d="M726 647l-365 953h103l326 -853l659 853h103l-736 -953l-126 -647h-90z" />
<glyph unicode="Z" horiz-adv-x="1327" d="M1316 1510h-872l17 90h1027l-1167 -1510h873l-17 -90h-1027z" />
<glyph unicode="[" horiz-adv-x="560" d="M159 -285h220l-17 -90h-310l384 1975h310l-18 -90h-220z" />
<glyph unicode="\" horiz-adv-x="727" d="M777 0h-102l-414 1600h103z" />
<glyph unicode="]" horiz-adv-x="560" d="M638 1510h-220l18 90h310l-384 -1975h-310l17 90h220z" />
<glyph unicode="^" horiz-adv-x="921" d="M513 1600l308 -534h-104l-256 443l-256 -443h-105l309 534h104z" />
<glyph unicode="_" horiz-adv-x="1050" d="M19 -30h1000l-17 -90h-1000z" />
<glyph unicode="`" horiz-adv-x="629" d="M566 1287l127 -187h-84l-209 187h166z" />
<glyph unicode="a" horiz-adv-x="1360" d="M1210 0h-90l39 200q-33 -35 -70 -67q-193 -161 -421 -161q-227 0 -356.5 161t-85.5 388q44 228 236.5 389t419.5 161q228 0 358 -161q25 -32 44 -67l27 139h90zM1204 432l34 178q1 132 -79 232q-108 133 -296 133t-346.5 -133t-195.5 -321q-36 -188 71 -320.5t295 -132.5 t347 133q119 100 170 231z" />
<glyph unicode="b" horiz-adv-x="1359" d="M461 1600h90l-147 -756q32 34 70 66q192 161 419 161q228 0 357.5 -161t84.5 -389q-44 -227 -235.5 -388t-419.5 -161q-227 0 -357 161q-26 32 -44 66l-39 -199h-90zM360 615l-37 -188q1 -128 80 -226q107 -133 295 -133t347 132.5t195 320.5q37 188 -70 321t-295 133 t-347 -133q-117 -98 -168 -227z" />
<glyph unicode="c" horiz-adv-x="1177" d="M1038 236l88 -34q-33 -36 -72 -69q-193 -161 -421 -161q-227 0 -356.5 161t-85.5 389q44 227 236.5 388t419.5 161q228 0 358 -161q26 -33 46 -68l-102 -35l-25 36q-108 132 -296 132q-187 0 -345.5 -132.5t-195.5 -320.5q-36 -188 71 -321t294 -133q188 0 347 133 q20 17 39 35z" />
<glyph unicode="d" horiz-adv-x="1360" d="M1210 0h-90l39 200q-33 -35 -70 -67q-193 -161 -421 -161q-227 0 -356.5 161t-85.5 388q44 228 236.5 389t419.5 161q228 0 358 -161q25 -32 44 -67l147 757h90zM1204 432l34 178q1 132 -79 232q-108 133 -296 133t-346.5 -133t-195.5 -321q-36 -188 71 -320.5 t295 -132.5t347 133q119 100 170 231z" />
<glyph unicode="e" horiz-adv-x="1177" d="M373 184q104 -116 279 -116q188 0 347 133q20 17 39 35l88 -34q-33 -36 -72 -69q-193 -161 -421 -161q-227 0 -356.5 161t-85.5 389q44 227 236.5 388t419.5 161q195 0 318 -117q20 -20 40 -44q7 -9 13 -18l-81 -68zM1083 885q-100 90 -255 90q-187 0 -345.5 -132.5 t-195.5 -320.5q-30 -155 37 -272z" />
<glyph unicode="f" horiz-adv-x="523" d="M453 892l-238 -1220h-90l238 1220h-100l18 90h100l52 266q27 111 122 191q96 76 203 76q56 0 114 -21l-43 -80q-39 18 -78 18q-71 0 -145 -57q-66 -55 -85 -133l-50 -260h200l-18 -90h-200z" />
<glyph unicode="g" horiz-adv-x="1364" d="M1238 615q-1 129 -79 227q-108 133 -296 133t-346.5 -133t-195.5 -321q-36 -188 71 -321t295 -133t347 133q116 97 167 225zM1155 195q-31 -32 -66 -62q-193 -161 -421 -161q-227 0 -356.5 161t-85.5 388q44 228 236.5 388.5t419.5 160.5q228 0 358 -160q25 -32 44 -67 l27 139h90l-149 -763q-43 -221 -230 -378q-192 -161 -419 -161q-228 0 -358 161q-27 33 -46 69l102 34q11 -18 25 -35q107 -133 295 -133q187 0 346 133q145 121 188 286z" />
<glyph unicode="h" horiz-adv-x="1059" d="M461 1600h90l-130 -669q135 110 295 110q174 0 262 -109t59 -275l-128 -657h-90l126 649q24 125 -49 213.5t-197 88.5t-231 -87q-48 -40 -76 -83l-152 -781h-90z" />
<glyph unicode="i" horiz-adv-x="430" d="M451 982l-191 -982h-90l191 982h90zM532 1304q21 -26 14 -63q-7 -38 -38.5 -64t-68.5 -26t-58.5 26t-14.5 64q7 37 39 63t69 26t58 -26z" />
<glyph unicode="j" horiz-adv-x="455" d="M22 -138q124 14 148 136l191 984h90l-191 -982q-41 -211 -255 -228zM532.5 1304q21.5 -26 14.5 -63q-8 -38 -39.5 -64t-68.5 -26t-58.5 26t-13.5 64q7 37 38.5 63t68.5 26t58.5 -26z" />
<glyph unicode="k" horiz-adv-x="823" d="M820 982l-300 -300l253 -682h-112l-214 610l-110 -109l-97 -501h-90l272 1400h90l-147 -755l339 337h116z" />
<glyph unicode="l" horiz-adv-x="390" d="M551 1600l-311 -1600h-90l311 1600h90z" />
<glyph unicode="m" horiz-adv-x="1375" d="M341 982h90l-5 -23q100 81 217 81q121 0 190 -85q18 -23 30 -50q22 26 51 50q101 85 222 85t190 -85q65 -82 46 -197l-147 -758h-90l147 758h1q12 78 -33 133q-48 59 -131 59t-154 -59t-88 -147l-145 -744h-90l147 758h1q12 78 -33 133q-48 59 -131 59t-154 -59 q-62 -51 -83 -125l-149 -766h-90z" />
<glyph unicode="n" horiz-adv-x="1071" d="M388 763l-148 -763h-90l191 982h90l-12 -63q146 122 309 122q174 0 262 -109t59 -275l-128 -657h-90l126 649q24 125 -49 213.5t-197 88.5t-231 -87q-59 -49 -92 -101z" />
<glyph unicode="o" horiz-adv-x="1278" d="M847 1071q228 0 357 -161t85 -389q-44 -227 -236 -388t-420 -161q-227 0 -356.5 161t-85.5 388q44 228 236.5 389t419.5 161zM481.5 842q-158.5 -133 -195.5 -321q-36 -188 71 -320.5t295 -132.5t347 132.5t195 320.5q37 188 -70.5 321t-295.5 133t-346.5 -133z" />
<glyph unicode="p" horiz-adv-x="1334" d="M341 982h90l-27 -138q32 34 70 66q192 160 419 160q228 0 357 -160.5t85 -388.5q-44 -227 -236 -388t-420 -161q-227 0 -356 161q-26 32 -44 66l-112 -574h-90zM359 615l-36 -188q1 -129 80 -227q107 -133 295 -133t347 133t195 321q37 188 -70.5 321t-295.5 133 t-346 -133q-117 -98 -169 -227z" />
<glyph unicode="q" horiz-adv-x="1335" d="M1112 -375h-90l112 575q-33 -35 -70 -67q-193 -161 -421 -161q-227 0 -356.5 161t-85.5 388q44 228 236.5 388.5t419.5 160.5q228 0 358 -160q25 -32 44 -67l27 139h90zM1179 432l34 178q1 132 -79 232q-108 133 -296 133t-346.5 -133t-195.5 -321q-36 -188 71 -321 t295 -133t347 133q119 100 170 232z" />
<glyph unicode="r" horiz-adv-x="599" d="M341 982h90l-35 -179q36 40 80 77q142 119 268 125l-19 -98q-85 -4 -194 -95q-153 -127 -192 -305l-99 -507h-90z" />
<glyph unicode="s" horiz-adv-x="802" d="M519 505q-103 62 -139 106q-55 69 -37 166q20 98 102.5 167.5t179.5 69.5q98 0 149 -64q50 -63 34 -143l-1 -5l-84 -31q5 76 -25 114t-91 38q-60 0 -111.5 -42.5t-63.5 -103.5q-11 -60 23 -103q21 -25 92 -76q114 -70 158 -124q68 -86 45 -205q-24 -122 -125.5 -207.5 t-222.5 -85.5t-189.5 85.5t-48.5 187.5l93 23q-17 -88 31 -147t131 -59t154 59t88 144q16 83 -32 142q-25 32 -110 94z" />
<glyph unicode="t" horiz-adv-x="670" d="M480 982l82 418h90l-82 -418h200l-17 -90h-200l-173 -892h-90l173 892h-200l17 90h200z" />
<glyph unicode="u" horiz-adv-x="1099" d="M553 -14q-184 0 -272 109t-59 275l120 614h90l-118 -606q-24 -125 49 -213q73 -89 206 -89q124 0 232 88.5t132 213.5l118 606h90l-120 -614q-35 -166 -165 -275t-303 -109z" />
<glyph unicode="v" horiz-adv-x="1064" d="M564 164l537 818h104l-678 -1009l-286 1009h104z" />
<glyph unicode="w" horiz-adv-x="1375" d="M693 260l140 722h90l-136 -700q-17 -88 31 -147t131 -59t155 59q65 55 84 133h-1l139 714h90l-139 -714q-26 -115 -123 -196q-101 -86 -222 -86t-190 86q-18 23 -30 48q-22 -25 -51 -48q-101 -86 -222 -86t-190 86q-65 81 -47 196l139 714h90l-139 -714h-1 q-11 -78 35 -133q47 -59 130 -59t155 59q60 51 82 125z" />
<glyph unicode="x" horiz-adv-x="871" d="M932 982l-338 -438l-4 -5l2 -5l204 -534h-104l-170 443l-342 -443h-105l413 534l4 5l-2 5l-168 438h104l133 -347l268 347h105z" />
<glyph unicode="y" horiz-adv-x="1005" d="M520 88l-312 -463h-88l373 556l-227 801h102l189 -704l463 704h101l-601 -895v1z" />
<glyph unicode="z" horiz-adv-x="1000" d="M828 878h-507l17 90h662l-69 -90l-610 -788h546l-17 -90h-700l69 90z" />
<glyph unicode="{" horiz-adv-x="866" d="M252 653q8 -3 19 -3q46 0 132 44q128 66 189 195q33 72 48 152q9 44 12 90q0 72 12 135q13 67 40 126q52 112 166 170q73 38 144 38q19 0 37 -3l-14 -75q-18 3 -36 3q-52 0 -106 -27q-83 -43 -121 -126q-26 -55 -40 -125q-6 -30 -9 -64q1 -76 -13 -149q-17 -85 -53 -165 q-75 -158 -232 -239q-18 -9 -38 -17l31 -18q126 -81 139 -239q5 -80 -11 -165q-14 -73 -45 -149q-10 -34 -15 -64q-14 -70 -10 -125q6 -83 73 -125q46 -28 99 -28q16 0 33 2l-14 -74q-20 -3 -39 -3q-71 0 -129 38q-91 58 -99 171q-5 59 8 126q12 63 40 134q15 46 24 90 q15 80 10 152q-11 129 -113 195q-68 44 -114 44q-11 0 -21 -3z" />
<glyph unicode="|" horiz-adv-x="390" d="M240 1600v-1975h-90v1975h90z" />
<glyph unicode="}" horiz-adv-x="866" d="M852 572q-8 3 -19 3q-46 0 -131 -44q-128 -66 -189 -195q-33 -72 -49 -152q-8 -44 -11 -90q0 -71 -12 -134q-13 -67 -41 -126q-52 -113 -166 -171q-73 -38 -144 -38q-19 0 -37 3l14 74q17 -2 33 -2q53 0 109 28q84 42 122 125q25 55 39 125q6 30 9 64q-1 76 13 149 q17 85 54 165q74 158 231 239l38 18q-16 8 -31 17q-125 81 -139 239q-5 80 11 165q14 73 45 149q10 34 16 64q13 70 9 125q-6 83 -73 126q-43 27 -95 27q-18 0 -37 -3l15 75q19 3 38 3q71 0 129 -38q92 -58 100 -170q4 -59 -9 -126q-12 -63 -40 -135q-15 -46 -23 -90 q-16 -80 -11 -152q11 -129 113 -195q69 -44 115 -44q11 0 20 3z" />
<glyph unicode="~" horiz-adv-x="1277" d="M638 861q188 -109 273 -109q15 0 27 3q77 23 108 100q15 38 15 77l91 -14q-4 -48 -23 -97q-46 -111 -156 -148q-25 -8 -56 -8q-105 0 -278 99q-190 109 -274 109q-14 0 -26 -3q-77 -23 -108 -100q-15 -39 -16 -77l-90 14q2 48 22 97q46 111 157 148q25 8 55 8 q106 0 279 -99z" />
<glyph unicode="&#xa1;" horiz-adv-x="430" d="M436.5 1465q-21.5 26 -14.5 63q8 38 39.5 64t68.5 26t58.5 -26t13.5 -64q-7 -37 -38.5 -63t-68.5 -26t-58.5 26zM173 4l257 1324h90l-257 -1324h-90z" />
<glyph unicode="&#xa2;" horiz-adv-x="1013" d="M688 705q143 2 266 105q16 13 34 31l81 -32q-33 -35 -64 -62q-154 -129 -335 -131l-30 -154h-90l32 161q-127 23 -207 124q-106 130 -70 315q36 184 192 315q120 100 255 124l32 161h90l-30 -154q179 -2 283 -131q21 -27 40 -61l-93 -33l-22 32q-83 102 -226 104z M735 1410q-100 -22 -187 -95q-125 -105 -154 -253t56 -252q59 -74 149 -96z" />
<glyph unicode="&#xa3;" horiz-adv-x="1130" d="M556 555q-1 -21 -3 -43q-3 -22 -7 -44q-40 -204 -249 -405q134 45 255 45q72 0 140 -16q95 -23 184 -23q80 0 154 18v-89q-85 -20 -172 -20q-89 0 -179 22q-94 21 -169 21q-68 0 -120 -17q-111 -38 -219 -87l-67 103q145 110 185 149q133 128 165 292q4 22 6 44 q3 25 4 50h-228l17 90h209q-7 95 -38 189q-76 180 -58 343q2 19 5 38q27 139 141 249q127 123 293 138q19 1 38 1q139 0 232 -92q103 -105 87 -267q-2 -23 -6 -44q-12 -63 -44 -114l-80 29q23 43 33 95q3 14 5 28q12 123 -68 203q-70 70 -176 70q-14 0 -28 -1 q-127 -11 -225 -106q-86 -84 -107 -189q-3 -15 -5 -30q-12 -113 29 -256q59 -138 66 -284h197l-17 -90h-180z" />
<glyph unicode="&#xa4;" horiz-adv-x="1112" d="M587 1462q125 89 270 89t236 -89l166 139l51 -64l-166 -139q68 -108 40 -253t-138 -253l112 -139l-76 -64l-112 139q-126 -89 -271 -89t-235 89l-166 -139l-52 64l166 139q-68 108 -40 253t138 253l-112 139l77 64zM1016 1398q-68 63 -176 63t-202 -63q-20 -13 -39 -29 q-21 -17 -37 -35q-79 -81 -100 -189t26 -189q10 -18 24 -34q13 -17 28 -30q69 -63 177 -63t201 63q21 13 41 30q19 16 35 34q79 81 100 189t-26 189q-10 18 -22 35q-14 16 -30 29z" />
<glyph unicode="&#xa5;" horiz-adv-x="1291" d="M796 755l653 845h103l-654 -845h294l-17 -90h-346l-14 -18l-20 -102h356l-17 -90h-356l-88 -455h-90l88 455h-354l17 90h354l20 102l-6 18h-344l17 90h292l-323 845h103l322 -845h10z" />
<glyph unicode="&#xa6;" horiz-adv-x="390" d="M240 1600v-849h-90v849h90zM240 474v-849h-90v849h90z" />
<glyph unicode="&#xa7;" horiz-adv-x="1158" d="M948 345q14 14 32 29q75 63 106 223q31 159 -60 272q-80 99 -213 158q-159 57 -239 156q-35 43 -49 94q-14 -14 -32 -29q-75 -63 -106 -223q-31 -159 60 -272q80 -99 213 -158q159 -57 239 -156q35 -43 49 -94zM515 1362q0 29 6 61q27 138 145.5 237.5t259.5 99.5 q140 0 221 -99q44 -53 53 -119l-88 -32q-8 49 -41 90q-59 72 -162 72t-190 -72.5t-108 -176.5q-20 -103 39 -176q55 -67 164 -123q180 -62 286 -193q112 -138 74 -334q-38 -197 -145 -286q-43 -36 -71 -51q0 -29 -6 -61q-27 -138 -145.5 -237.5t-259.5 -99.5q-140 0 -221 99 q-44 53 -53 119l88 32q8 -49 41 -90q59 -72 162 -72t190 72.5t108 176.5q20 103 -39 176q-55 67 -164 123q-180 62 -286 193q-112 138 -74 334q38 197 145 286q43 36 71 51z" />
<glyph unicode="&#xa8;" horiz-adv-x="730" d="M832.5 1304q21.5 -26 13.5 -63q-7 -38 -38.5 -64t-68.5 -26t-58.5 26t-14.5 64q8 37 39.5 63t68.5 26t58.5 -26zM532.5 1304q21.5 -26 13.5 -63q-7 -38 -38.5 -64t-68.5 -26t-58.5 26t-14.5 64q8 37 39.5 63t68.5 26t58.5 -26z" />
<glyph unicode="&#xa9;" horiz-adv-x="1405" d="M917 442l68 -25q-20 -28 -40 -48q-97 -97 -234 -97t-234 97t-97 234t97 234t234 97t234 -97q20 -20 40 -48l-68 -25q-11 14 -21 25q-77 76 -185 76t-185 -76.5t-77 -185.5q0 -108 77 -185t185 -77t185 77q10 10 21 24zM1124 1028q176 -176 176 -425t-176 -425t-424 -176 q-249 0 -425 176t-176 425t176 425t425 176q248 0 424 -176zM700 1133q-220 0 -375 -155t-155 -375q0 -219 155 -374.5t375 -155.5q219 0 374 155.5t155 374.5q0 220 -155 375t-374 155z" />
<glyph unicode="&#xaa;" horiz-adv-x="878" d="M314 944h575l-6 -31h-606l122 628h31zM986 1071h-55l16 85q-2 -3 -20 -19q-96 -79 -208 -79q-113 0 -176.5 79.5t-41.5 191.5t116.5 191.5t207.5 79.5q112 0 176 -79q12 -16 13 -19l11 55h55zM973 1286l16 85q1 62 -38 109q-50 62 -138 62q-89 0 -163.5 -62.5 t-91.5 -150.5q-17 -89 33 -151t139 -62q88 0 163 62q57 47 80 108z" />
<glyph unicode="&#xab;" horiz-adv-x="980" d="M190 462l518 460l-20 -104l-400 -356l262 -356l-21 -105zM534 462l525 460l-20 -104l-400 -356l262 -356l-21 -105z" />
<glyph unicode="&#xae;" horiz-adv-x="1161" d="M467 1371v-378h116q78 0 133.5 55.5t55.5 133.5t-55.5 133.5t-133.5 55.5h-116zM730 721l-138 215h-125v-155h-55v644h198q86 -12 146 -72q71 -71 71 -172q0 -102 -71 -174q-50 -49 -104 -62l130 -200q53 30 98 74q124 125 124 300q0 176 -124 300t-299 124 q-176 0 -300 -124t-124 -300q0 -175 124 -300q59 -58 129 -89q28 -13 58 -21q53 -14 113 -14q78 0 149 26zM581 638q-200 0 -340.5 141t-140.5 340t140.5 340t340.5 141q198 0 339 -141t141 -340t-141 -340q-49 -49 -137.5 -95t-201.5 -46z" />
<glyph unicode="&#xaf;" horiz-adv-x="840" d="M382 1327h590l-17 -90h-590z" />
<glyph unicode="&#xb0;" horiz-adv-x="762" d="M544.5 1532.5q67.5 -67.5 67.5 -163.5t-67.5 -163.5t-163.5 -67.5t-163.5 67.5t-67.5 163.5t67.5 163.5t163.5 67.5t163.5 -67.5zM381 1529q-66 0 -113 -47t-47 -113t47 -113t113 -47t113 47t47 113t-47 113t-113 47z" />
<glyph unicode="&#xb1;" horiz-adv-x="1050" d="M480 547h-355v90h355v355h90v-355h355v-90h-355v-355h-90v355zM125 90h800v-90h-800v90z" />
<glyph unicode="&#xb2;" d="M452 434l334 218q146 96 278.5 215t162.5 277q31 159 -59 271t-249 112q-157 0 -292 -112q-115 -96 -154 -229l-85 33q52 150 185 262q167 141 364 141q198 0 310.5 -140t73.5 -338q-38 -197 -203 -344q-113 -101 -258 -196l-328 -214q-182 -119 -257 -300h841l-17 -90 h-943q106 310 296 434z" />
<glyph unicode="&#xb3;" d="M743 893l-75 2l18 90q93 1 157 24t147.5 97t103.5 176q20 103 -38 174.5t-160 71.5q-101 0 -188 -71q-48 -41 -77 -92l-79 34q36 70 101 123q120 100 261 100q143 0 223 -100.5t53 -239.5q-27 -142 -119 -223.5t-163 -108.5q134 -48 210 -150q108 -147 70 -344 q-39 -198 -205.5 -338t-364.5 -140q-197 0 -310 141q-89 112 -83 262l98 33q-12 -133 65 -229q91 -112 248 -112q159 0 293 112t165 271q30 158 -55.5 277t-295.5 160z" />
<glyph unicode="&#xb4;" horiz-adv-x="629" d="M729 1287l-281 -187h-84l199 187h166z" />
<glyph unicode="&#xb5;" horiz-adv-x="1046" d="M829 111l-13 -11q-130 -109 -304 -109q-160 0 -252 110l-93 -476h-90l264 1357h90l-142 -731q11 -43 44 -83q73 -87 197 -87t232 89q69 57 104 130l133 682h88l-191 -982h-88z" />
<glyph unicode="&#xb6;" horiz-adv-x="1135" d="M1126 1602l-384 -1977h-90l199 1021h-152q-216 0 -339.5 153t-81.5 370q42 216 225 369q153 128 341 153h80v1h491l-18 -90h-88l-384 -1977h-90l384 1977h-93z" />
<glyph unicode="&#xb7;" horiz-adv-x="403" d="M421 854q18 -22 12 -54t-33 -54t-58 -22q-32 0 -50 22t-12 54t33 54t59 22q31 0 49 -22z" />
<glyph unicode="&#x2219;" horiz-adv-x="403" d="M421 854q18 -22 12 -54t-33 -54t-58 -22q-32 0 -50 22t-12 54t33 54t59 22q31 0 49 -22z" />
<glyph unicode="&#xb8;" horiz-adv-x="582" d="M299 0l-19 -35q108 0 125 -42q7 -20 3 -41q-5 -25 -25 -53q-38 -53 -87 -69q-41 -13 -84 -13h-16q-52 3 -78 23l48 37q10 -4 33 -6h9q20 0 43 6q30 8 47 31q9 13 11 23q1 9 -1 16q-20 28 -51 32q-12 1 -29 1q-29 0 -75 -4l76 94h70z" />
<glyph unicode="&#xb9;" d="M1028 1600l-311 -1600h-90l280 1442h-95l154 158h62z" />
<glyph unicode="&#xba;" horiz-adv-x="914" d="M745 1116q109 5 179 62q74 62 91 151q17 88 -33 151q-47 57 -154 62q-110 -5 -178 -62q-75 -63 -92 -151q-17 -89 34 -151q45 -57 153 -62zM719 1058q-113 0 -176.5 79.5t-41.5 191.5t116.5 191.5t207.5 79.5h29q113 0 176.5 -79.5t41.5 -191.5t-116.5 -191.5 t-207.5 -79.5h-29zM314 944h575l-6 -31h-606l122 628h31z" />
<glyph unicode="&#xbb;" horiz-adv-x="980" d="M451 1l20 105l401 356l-262 356l20 104l340 -460zM100 1l20 105l401 356l-262 356l20 104l347 -460z" />
<glyph unicode="&#xbf;" horiz-adv-x="956" d="M763 1015q56 82 72 166q13 64 2 129l89 29q12 -80 -3 -158q-20 -104 -89 -204q-112 -167 -297 -289q-113 -92 -170 -178q-37 -53 -47 -108q-8 -41 -2 -82q16 -98 100 -143q48 -25 102 -25q41 0 86 15q104 34 167 126q35 52 45 105l87 -4l-1 -8q-13 -65 -57 -129 q-87 -127 -228 -173q-62 -20 -118 -20q-74 0 -139 34q-115 61 -135 192q-9 57 2 113q14 74 63 146q86 127 249 237q137 103 222 229zM850.5 1465q-21.5 26 -13.5 63q7 38 38.5 64t68.5 26t58.5 -26t14.5 -64q-8 -37 -39.5 -63t-68.5 -26t-58.5 26z" />
<glyph unicode="&#xc0;" horiz-adv-x="1291" d="M1027 703l-114 671l-374 -671h488zM1042 613h-554l-342 -613h-96l914 1637l277 -1637h-95zM889 1886l126 -187h-84l-208 187h166z" />
<glyph unicode="&#xc1;" horiz-adv-x="1291" d="M1027 703l-114 671l-374 -671h488zM1042 613h-554l-342 -613h-96l914 1637l277 -1637h-95zM1302 1886l-282 -187h-84l200 187h166z" />
<glyph unicode="&#xc2;" horiz-adv-x="1291" d="M1027 703l-114 671l-374 -671h488zM1042 613h-554l-342 -613h-96l914 1637l277 -1637h-95zM1052 1842l193 -234h-104l-159 143l-203 -143h-105l274 234h104z" />
<glyph unicode="&#xc3;" horiz-adv-x="1291" d="M1027 703l-114 671l-374 -671h488zM1042 613h-554l-342 -613h-96l914 1637l277 -1637h-95zM985 1773q63 -60 112 -60h5q51 3 86 84h69q-46 -129 -128 -152q-22 -6 -43 -6q-57 0 -106 46q-64 59 -113 59h-5q-51 -3 -86 -84h-70q47 129 129 152q22 6 43 6q57 0 107 -45z " />
<glyph unicode="&#xc4;" horiz-adv-x="1291" d="M1027 703l-114 671l-374 -671h488zM1042 613h-554l-342 -613h-96l914 1637l277 -1637h-95zM911.5 1812q21.5 -26 14.5 -63q-7 -38 -39 -64t-69 -26t-58 26t-14 64q7 37 38.5 63t68.5 26t58.5 -26zM1211.5 1812q21.5 -26 14.5 -63q-7 -38 -39 -64t-69 -26t-58 26t-14 64 q7 37 38.5 63t68.5 26t58.5 -26z" />
<glyph unicode="&#xc5;" horiz-adv-x="1291" d="M1027 703l-114 671l-374 -671h488zM949 1611h20q18 3 33 16q21 17 25 40q5 24 -9 41t-37 17q-24 0 -44 -17t-25 -41q-4 -23 9 -40q12 -14 28 -16zM979 1549l262 -1549h-95l-104 613h-554l-342 -613h-96l865 1549q-29 8 -49 32q-29 36 -19 86q10 51 53 87t94 36 q50 0 79 -36t19 -87q-10 -50 -53 -86q-28 -24 -60 -32z" />
<glyph unicode="&#xc6;" horiz-adv-x="1758" d="M1797 845l-17 -90h-710l-130 -665h710l-17 -90h-800l119 613h-339l-392 -613h-96l1007 1600h812l-17 -90h-710l-130 -665h710zM970 703l138 712l-444 -712h306z" />
<glyph unicode="&#xc7;" horiz-adv-x="1595" d="M913 -19q-321 10 -505 240q-194 239 -128 579q66 339 352 579t626 240q317 0 510 -213l-80 -62q-171 183 -448 183q-301 0 -555 -213t-313 -514q-59 -302 113 -515t473 -213q277 0 518 183l56 -61q-255 -198 -547 -212l-14 -27q108 0 125 -42q7 -20 3 -41q-5 -25 -25 -53 q-38 -53 -87 -69q-42 -13 -85 -13h-16q-51 3 -77 23l48 37q10 -4 33 -6h9q20 0 43 6q30 8 47 31q9 13 11 23q1 9 -1 16q-20 28 -51 32q-12 1 -29 1q-29 0 -75 -4z" />
<glyph unicode="&#xc8;" horiz-adv-x="1075" d="M1261 1600l-17 -90h-710l-130 -665h710l-17 -90h-710l-130 -665h710l-17 -90h-800l311 1600h800zM858 1855l126 -187h-84l-208 187h166z" />
<glyph unicode="&#xc9;" horiz-adv-x="1075" d="M1261 1600l-17 -90h-710l-130 -665h710l-17 -90h-710l-130 -665h710l-17 -90h-800l311 1600h800zM1130 1855l-282 -187h-84l200 187h166z" />
<glyph unicode="&#xca;" horiz-adv-x="1075" d="M1261 1600l-17 -90h-710l-130 -665h710l-17 -90h-710l-130 -665h710l-17 -90h-800l311 1600h800zM967 1892l192 -234h-104l-158 143l-204 -143h-105l275 234h104z" />
<glyph unicode="&#xcb;" horiz-adv-x="1075" d="M1261 1600l-17 -90h-710l-130 -665h710l-17 -90h-710l-130 -665h710l-17 -90h-800l311 1600h800zM817.5 1822q21.5 -26 14.5 -63q-7 -38 -39 -64t-69 -26t-58 26t-14 64q7 37 38.5 63t68.5 26t58.5 -26zM1117.5 1822q21.5 -26 14.5 -63q-7 -38 -39 -64t-69 -26t-58 26 t-14 64q7 37 38.5 63t68.5 26t58.5 -26z" />
<glyph unicode="&#xcc;" horiz-adv-x="430" d="M571 1600l-311 -1600h-90l311 1600h90zM453 1855l126 -187h-84l-208 187h166z" />
<glyph unicode="&#xcd;" horiz-adv-x="430" d="M571 1600l-311 -1600h-90l311 1600h90zM865 1855l-282 -187h-84l200 187h166z" />
<glyph unicode="&#xce;" horiz-adv-x="430" d="M571 1600l-311 -1600h-90l311 1600h90zM621 1842l193 -234h-104l-159 143l-203 -143h-105l274 234h104z" />
<glyph unicode="&#xcf;" horiz-adv-x="430" d="M571 1600l-311 -1600h-90l311 1600h90zM482.5 1822q21.5 -26 14.5 -63q-7 -38 -39 -64t-69 -26t-58 26t-14 64q7 37 38.5 63t68.5 26t58.5 -26zM782.5 1822q21.5 -26 14.5 -63q-7 -38 -39 -64t-69 -26t-58 26t-14 64q7 37 38.5 63t68.5 26t58.5 -26z" />
<glyph unicode="&#xd0;" horiz-adv-x="1284" d="M374 845l147 755h90v-2h7q395 0 569 -218q194 -241 128 -580q-66 -340 -353 -580q-259 -218 -654 -218h-7l-1 -2h-90l147 755h-160l17 90h160zM464 845h370l-17 -90h-370l-129 -662h7q356 0 585 192q254 213 313 515q58 301 -113 515q-154 191 -510 191h-7z" />
<glyph unicode="&#xd1;" horiz-adv-x="1311" d="M461 1600h99l545 -1423l277 1423h90l-311 -1600h-90l-552 1437l-279 -1437h-90zM995 1773q63 -60 112 -60h5q51 3 86 84h69q-46 -129 -128 -152q-22 -6 -43 -6q-57 0 -106 46q-64 59 -113 59h-5q-51 -3 -86 -84h-70q47 129 129 152q22 6 43 6q57 0 107 -45z" />
<glyph unicode="&#xd2;" horiz-adv-x="1892" d="M1795.5 1382.5q193.5 -240.5 127.5 -580.5t-353 -580.5t-627 -240.5t-534 240.5t-128 580.5t353.5 580.5t627.5 240.5t533.5 -240.5zM1244 1531q-302 0 -557 -213.5t-314 -515.5t113 -516t474 -214t557 214t314 516t-113 515.5t-474 213.5zM1254 1855l126 -187h-84 l-208 187h166z" />
<glyph unicode="&#xd3;" horiz-adv-x="1892" d="M1795.5 1382.5q193.5 -240.5 127.5 -580.5t-353 -580.5t-627 -240.5t-534 240.5t-128 580.5t353.5 580.5t627.5 240.5t533.5 -240.5zM1244 1531q-302 0 -557 -213.5t-314 -515.5t113 -516t474 -214t557 214t314 516t-113 515.5t-474 213.5zM1526 1855l-282 -187h-84 l200 187h166z" />
<glyph unicode="&#xd4;" horiz-adv-x="1892" d="M1795.5 1382.5q193.5 -240.5 127.5 -580.5t-353 -580.5t-627 -240.5t-534 240.5t-128 580.5t353.5 580.5t627.5 240.5t533.5 -240.5zM1244 1531q-302 0 -557 -213.5t-314 -515.5t113 -516t474 -214t557 214t314 516t-113 515.5t-474 213.5zM1363 1892l192 -234h-104 l-158 143l-204 -143h-105l275 234h104z" />
<glyph unicode="&#xd5;" horiz-adv-x="1892" d="M1795.5 1382.5q193.5 -240.5 127.5 -580.5t-353 -580.5t-627 -240.5t-534 240.5t-128 580.5t353.5 580.5t627.5 240.5t533.5 -240.5zM1244 1531q-302 0 -557 -213.5t-314 -515.5t113 -516t474 -214t557 214t314 516t-113 515.5t-474 213.5zM1290 1793q63 -60 112 -60h5 q51 3 86 84h69q-46 -129 -128 -152q-22 -6 -43 -6q-57 0 -106 46q-64 59 -113 59h-5q-50 -3 -86 -84h-70q47 129 129 152q22 6 43 6q57 0 107 -45z" />
<glyph unicode="&#xd6;" horiz-adv-x="1892" d="M1795.5 1382.5q193.5 -240.5 127.5 -580.5t-353 -580.5t-627 -240.5t-534 240.5t-128 580.5t353.5 580.5t627.5 240.5t533.5 -240.5zM1244 1531q-302 0 -557 -213.5t-314 -515.5t113 -516t474 -214t557 214t314 516t-113 515.5t-474 213.5zM1213.5 1822 q21.5 -26 14.5 -63q-7 -38 -38.5 -64t-68.5 -26t-58.5 26t-14.5 64q7 37 38.5 63t68.5 26t58.5 -26zM1513.5 1822q21.5 -26 14.5 -63q-7 -38 -38.5 -64t-68.5 -26t-58.5 26t-14.5 64q7 37 38.5 63t68.5 26t58.5 -26z" />
<glyph unicode="&#xd7;" horiz-adv-x="1050" d="M525 528l-251 -251l-64 64l251 251l-251 251l64 64l251 -251l251 251l63 -64l-251 -251l251 -251l-63 -64z" />
<glyph unicode="&#xd8;" horiz-adv-x="1892" d="M1501 1483q-113 48 -257 48q-302 0 -557 -213.5t-314 -515.5t114 -516q62 -77 141 -127zM702 121q114 -49 258 -49q302 0 557 214t314 516t-113 516q-63 77 -142 126zM1631 1528q92 -56 165 -145q193 -241 127 -581t-353 -580.5t-627 -240.5q-165 0 -295 57l-122 -184 l-75 38l122 184q-92 56 -164 146q-194 240 -128 580t353.5 580.5t627.5 240.5q165 0 295 -57l121 184l75 -38z" />
<glyph unicode="&#xd9;" horiz-adv-x="1345" d="M1415 1600h91l-223 -1150q-61 -183 -214 -311q-182 -153 -398 -153q-217 0 -340.5 153t-81.5 369l212 1092h91l-212 -1092q-35 -178 67 -304.5t281 -126.5t329.5 126.5t185.5 304.5zM980 1855l126 -187h-84l-208 187h166z" />
<glyph unicode="&#xda;" horiz-adv-x="1345" d="M1415 1600h91l-223 -1150q-61 -183 -214 -311q-182 -153 -398 -153q-217 0 -340.5 153t-81.5 369l212 1092h91l-212 -1092q-35 -178 67 -304.5t281 -126.5t329.5 126.5t185.5 304.5zM1253 1855l-282 -187h-84l200 187h166z" />
<glyph unicode="&#xdb;" horiz-adv-x="1345" d="M1079 1842l193 -234h-104l-158 143l-204 -143h-105l274 234h104zM1415 1600h91l-223 -1150q-61 -183 -214 -311q-182 -153 -398 -153q-217 0 -340.5 153t-81.5 369l212 1092h91l-212 -1092q-35 -178 67 -304.5t281 -126.5t329.5 126.5t185.5 304.5z" />
<glyph unicode="&#xdc;" horiz-adv-x="1345" d="M1415 1600h91l-223 -1150q-61 -183 -214 -311q-182 -153 -398 -153q-217 0 -340.5 153t-81.5 369l212 1092h91l-212 -1092q-35 -178 67 -304.5t281 -126.5t329.5 126.5t185.5 304.5zM939 1812q21 -26 14 -63q-7 -38 -38.5 -64t-68.5 -26t-58.5 26t-14.5 64q7 37 39 63 t69 26t58 -26zM1239 1812q21 -26 14 -63q-7 -38 -38.5 -64t-68.5 -26t-58.5 26t-14.5 64q7 37 39 63t69 26t58 -26z" />
<glyph unicode="&#xdd;" horiz-adv-x="1291" d="M726 647l-365 953h103l326 -853l659 853h103l-736 -953l-126 -647h-90zM1226 1855l-282 -187h-84l200 187h166z" />
<glyph unicode="&#xde;" horiz-adv-x="1124" d="M497 1323h330q178 -25 281 -153q124 -153 82 -369q-42 -217 -225 -370t-399 -153h-272l-54 -278h-90l311 1600h90zM312 369h272q178 0 329 126.5t186 305.5q34 179 -68 305t-280 126h-272z" />
<glyph unicode="&#xe0;" horiz-adv-x="1360" d="M1210 0h-90l39 200q-33 -35 -70 -67q-193 -161 -421 -161q-227 0 -356.5 161t-85.5 388q44 228 236.5 389t419.5 161q228 0 358 -161q25 -32 44 -67l27 139h90zM1204 432l34 178q1 132 -79 232q-108 133 -296 133t-346.5 -133t-195.5 -321q-36 -188 71 -320.5t295 -132.5 t347 133q119 100 170 231zM864 1287l127 -187h-84l-209 187h166z" />
<glyph unicode="&#xe1;" horiz-adv-x="1360" d="M1137 1287l-281 -187h-84l199 187h166zM1210 0h-90l39 200q-33 -35 -70 -67q-193 -161 -421 -161q-227 0 -356.5 161t-85.5 388q44 228 236.5 389t419.5 161q228 0 358 -161q25 -32 44 -67l27 139h90zM1204 432l34 178q1 132 -79 232q-108 133 -296 133t-346.5 -133 t-195.5 -321q-36 -188 71 -320.5t295 -132.5t347 133q119 100 170 231z" />
<glyph unicode="&#xe2;" horiz-adv-x="1360" d="M973 1324l193 -234h-104l-158 143l-204 -143h-105l274 234h104zM1210 0h-90l39 200q-33 -35 -70 -67q-193 -161 -421 -161q-227 0 -356.5 161t-85.5 388q44 228 236.5 389t419.5 161q228 0 358 -161q25 -32 44 -67l27 139h90zM1204 432l34 178q1 132 -79 232 q-108 133 -296 133t-346.5 -133t-195.5 -321q-36 -188 71 -320.5t295 -132.5t347 133q119 100 170 231z" />
<glyph unicode="&#xe3;" horiz-adv-x="1360" d="M1210 0h-90l39 200q-33 -35 -70 -67q-193 -161 -421 -161q-227 0 -356.5 161t-85.5 388q44 228 236.5 389t419.5 161q228 0 358 -161q25 -32 44 -67l27 139h90zM1204 432l34 178q1 132 -79 232q-108 133 -296 133t-346.5 -133t-195.5 -321q-36 -188 71 -320.5t295 -132.5 t347 133q119 100 170 231zM906 1255q63 -60 112 -60h5q51 3 86 84h69q-46 -129 -128 -152q-22 -6 -43 -6q-57 0 -106 46q-64 59 -113 59h-5q-50 -3 -86 -84h-70q47 129 129 152q23 6 44 6q57 0 106 -45z" />
<glyph unicode="&#xe4;" horiz-adv-x="1360" d="M1210 0h-90l39 200q-33 -35 -70 -67q-193 -161 -421 -161q-227 0 -356.5 161t-85.5 388q44 228 236.5 389t419.5 161q228 0 358 -161q25 -32 44 -67l27 139h90zM1204 432l34 178q1 132 -79 232q-108 133 -296 133t-346.5 -133t-195.5 -321q-36 -188 71 -320.5t295 -132.5 t347 133q119 100 170 231zM834.5 1304q21.5 -26 14.5 -63q-7 -38 -38.5 -64t-68.5 -26t-58.5 26t-14.5 64q7 37 38.5 63t68.5 26t58.5 -26zM1134.5 1304q21.5 -26 14.5 -63q-7 -38 -38.5 -64t-68.5 -26t-58.5 26t-14.5 64q7 37 38.5 63t68.5 26t58.5 -26z" />
<glyph unicode="&#xe5;" horiz-adv-x="1360" d="M1204 432l34 178q1 132 -79 232q-108 133 -296 133t-346.5 -133t-195.5 -321q-36 -188 71 -320.5t295 -132.5t347 133q119 100 170 231zM908 1237q-24 0 -44 -17t-25 -41q-4 -23 9.5 -40t37.5 -17q23 0 43.5 17t24.5 40q5 24 -9 41t-37 17zM929 1069q195 -15 311 -159 q25 -32 44 -67l27 139h90l-191 -982h-90l39 200q-33 -35 -70 -67q-193 -161 -421 -161q-227 0 -356.5 161t-85.5 388q44 228 237 389q167 140 360 158q-17 9 -30 25q-29 36 -19 86q10 51 53 87t94 36q50 0 79 -36t19 -87q-10 -50 -53 -86q-18 -15 -37 -24z" />
<glyph unicode="&#xe6;" horiz-adv-x="2171" d="M1181 739q-19 55 -57 103q-108 133 -296 133t-346.5 -133t-195.5 -321q-36 -188 71 -320.5t295 -132.5t347 133q57 48 98 102q45 60 72 129l34 178q1 69 -22 129zM2102 663q-12 103 -73 179q-108 133 -296 133t-346 -133q-33 -27 -59 -55l-24 -124h798zM1225 256 q15 -29 37 -55q107 -133 295 -133t347 133q27 23 52 48l90 -34q-23 -28 -87 -82q-193 -161 -421 -161q-214 0 -341 143l-22 -115h-90l39 200q-33 -35 -70 -67q-193 -161 -421 -161q-227 0 -356.5 161t-85.5 388q44 228 236.5 389t419.5 161q228 0 358 -161q25 -32 44 -67 l27 139h90l-11 -54q183 143 397 143q228 0 358 -161q114 -143 82 -338l-906 1z" />
<glyph unicode="&#xe7;" horiz-adv-x="1177" d="M603 -27q-205 10 -326 160q-130 161 -86 389q44 227 236.5 388t419.5 161q228 0 358 -161q26 -33 46 -68l-102 -35l-25 36q-108 132 -296 132q-187 0 -345.5 -132.5t-195.5 -320.5q-36 -188 71 -321t294 -133q188 0 347 133q20 17 39 35l88 -34q-33 -36 -72 -69 q-173 -145 -375 -159l-9 -16q109 0 125 -42q8 -20 3 -42q-4 -25 -25 -52q-38 -53 -87 -69q-42 -13 -84 -13h-16q-51 3 -78 23l49 37q9 -4 33 -6h9q20 0 43 6q30 8 46 31q10 13 12 24q1 8 -1 15q-21 28 -52 32q-12 1 -28 1q-29 0 -75 -4z" />
<glyph unicode="&#xe8;" horiz-adv-x="1266" d="M373 184q104 -116 279 -116q188 0 347 133q20 17 39 35l88 -34q-33 -36 -72 -69q-193 -161 -421 -161q-227 0 -356.5 161t-85.5 389q44 227 236.5 388t419.5 161q195 0 318 -117q20 -20 40 -44q7 -9 13 -18l-81 -68zM1083 885q-100 90 -255 90q-187 0 -345.5 -132.5 t-195.5 -320.5q-30 -155 37 -272zM830 1287l127 -187h-84l-209 187h166z" />
<glyph unicode="&#xe9;" horiz-adv-x="1266" d="M1102 1287l-281 -187h-84l199 187h166zM373 184q104 -116 279 -116q188 0 347 133q20 17 39 35l88 -34q-33 -36 -72 -69q-193 -161 -421 -161q-227 0 -356.5 161t-85.5 389q44 227 236.5 388t419.5 161q195 0 318 -117q20 -20 40 -44q7 -9 13 -18l-81 -68zM1083 885 q-100 90 -255 90q-187 0 -345.5 -132.5t-195.5 -320.5q-30 -155 37 -272z" />
<glyph unicode="&#xea;" horiz-adv-x="1266" d="M939 1324l193 -234h-104l-158 143l-204 -143h-105l274 234h104zM373 184q104 -116 279 -116q188 0 347 133q20 17 39 35l88 -34q-33 -36 -72 -69q-193 -161 -421 -161q-227 0 -356.5 161t-85.5 389q44 227 236.5 388t419.5 161q195 0 318 -117q20 -20 40 -44q7 -9 13 -18 l-81 -68zM1083 885q-100 90 -255 90q-187 0 -345.5 -132.5t-195.5 -320.5q-30 -155 37 -272z" />
<glyph unicode="&#xeb;" horiz-adv-x="1266" d="M373 184q104 -116 279 -116q188 0 347 133q20 17 39 35l88 -34q-33 -36 -72 -69q-193 -161 -421 -161q-227 0 -356.5 161t-85.5 389q44 227 236.5 388t419.5 161q195 0 318 -117q20 -20 40 -44q7 -9 13 -18l-81 -68zM1083 885q-100 90 -255 90q-187 0 -345.5 -132.5 t-195.5 -320.5q-30 -155 37 -272zM799.5 1304q21.5 -26 14.5 -63q-7 -38 -38.5 -64t-68.5 -26t-58.5 26t-14.5 64q7 37 38.5 63t68.5 26t58.5 -26zM1099.5 1304q21.5 -26 14.5 -63q-7 -38 -38.5 -64t-68.5 -26t-58.5 26t-14.5 64q7 37 38.5 63t68.5 26t58.5 -26z" />
<glyph unicode="&#xec;" horiz-adv-x="430" d="M342 1287l127 -187h-84l-209 187h166zM451 982l-191 -982h-90l191 982h90z" />
<glyph unicode="&#xed;" horiz-adv-x="430" d="M754 1287l-281 -187h-84l199 187h166zM451 982l-191 -982h-90l191 982h90z" />
<glyph unicode="&#xee;" horiz-adv-x="430" d="M520 1324l193 -234h-104l-158 143l-204 -143h-105l274 234h104zM451 982l-191 -982h-90l191 982h90z" />
<glyph unicode="&#xef;" horiz-adv-x="430" d="M451 982l-191 -982h-90l191 982h90zM382 1304q21 -26 14 -63q-7 -38 -38.5 -64t-68.5 -26t-58.5 26t-14.5 64q7 37 39 63t69 26t58 -26zM682 1304q21 -26 14 -63q-7 -38 -38.5 -64t-68.5 -26t-58.5 26t-14.5 64q7 37 39 63t69 26t58 -26z" />
<glyph unicode="&#xf0;" horiz-adv-x="1278" d="M286 521q-36 -188 71 -320.5t295 -132.5t347 132.5t195 320.5q37 188 -70.5 321t-295.5 133t-346.5 -133t-195.5 -321zM1146 971q31 -27 59 -61q128 -161 84 -389q-44 -227 -236 -388t-420 -161q-227 0 -356.5 161t-85.5 388q44 228 236.5 389t419.5 161q33 0 64 -3 l-42 60h-168l18 90h87l-82 115h128l93 -115h164l-18 -90h-73z" />
<glyph unicode="&#xf1;" horiz-adv-x="1071" d="M774 1255q63 -60 112 -60h5q51 3 87 84h69q-46 -129 -129 -152q-22 -6 -43 -6q-57 0 -106 46q-64 59 -113 59h-5q-50 -3 -86 -84h-70q47 129 130 152q22 6 43 6q57 0 106 -45zM388 763l-148 -763h-90l191 982h90l-12 -63q146 122 309 122q174 0 262 -109t59 -275 l-128 -657h-90l126 649q24 125 -49 213.5t-197 88.5t-231 -87q-59 -49 -92 -101z" />
<glyph unicode="&#xf2;" horiz-adv-x="1278" d="M847 1071q228 0 357 -161t85 -389q-44 -227 -236 -388t-420 -161q-227 0 -356.5 161t-85.5 388q44 228 236.5 389t419.5 161zM481.5 842q-158.5 -133 -195.5 -321q-36 -188 71 -320.5t295 -132.5t347 132.5t195 320.5q37 188 -70.5 321t-295.5 133t-346.5 -133zM836 1287 l127 -187h-84l-209 187h166z" />
<glyph unicode="&#xf3;" horiz-adv-x="1278" d="M1108 1287l-281 -187h-84l199 187h166zM847 1071q228 0 357 -161t85 -389q-44 -227 -236 -388t-420 -161q-227 0 -356.5 161t-85.5 388q44 228 236.5 389t419.5 161zM481.5 842q-158.5 -133 -195.5 -321q-36 -188 71 -320.5t295 -132.5t347 132.5t195 320.5 q37 188 -70.5 321t-295.5 133t-346.5 -133z" />
<glyph unicode="&#xf4;" horiz-adv-x="1278" d="M945 1324l193 -234h-104l-158 143l-204 -143h-105l274 234h104zM847 1071q228 0 357 -161t85 -389q-44 -227 -236 -388t-420 -161q-227 0 -356.5 161t-85.5 388q44 228 236.5 389t419.5 161zM481.5 842q-158.5 -133 -195.5 -321q-36 -188 71 -320.5t295 -132.5t347 132.5 t195 320.5q37 188 -70.5 321t-295.5 133t-346.5 -133z" />
<glyph unicode="&#xf5;" horiz-adv-x="1278" d="M847 1071q228 0 357 -161t85 -389q-44 -227 -236 -388t-420 -161q-227 0 -356.5 161t-85.5 388q44 228 236.5 389t419.5 161zM481.5 842q-158.5 -133 -195.5 -321q-36 -188 71 -320.5t295 -132.5t347 132.5t195 320.5q37 188 -70.5 321t-295.5 133t-346.5 -133zM878 1255 q63 -60 112 -60h5q51 3 86 84h69q-46 -129 -128 -152q-22 -6 -43 -6q-57 0 -106 46q-64 59 -113 59h-5q-50 -3 -86 -84h-70q47 129 129 152q23 6 44 6q57 0 106 -45z" />
<glyph unicode="&#xf6;" horiz-adv-x="1278" d="M847 1071q228 0 357 -161t85 -389q-44 -227 -236 -388t-420 -161q-227 0 -356.5 161t-85.5 388q44 228 236.5 389t419.5 161zM481.5 842q-158.5 -133 -195.5 -321q-36 -188 71 -320.5t295 -132.5t347 132.5t195 320.5q37 188 -70.5 321t-295.5 133t-346.5 -133z M805.5 1304q21.5 -26 14.5 -63q-7 -38 -38.5 -64t-68.5 -26t-58.5 26t-14.5 64q7 37 38.5 63t68.5 26t58.5 -26zM1105.5 1304q21.5 -26 14.5 -63q-7 -38 -38.5 -64t-68.5 -26t-58.5 26t-14.5 64q7 37 38.5 63t68.5 26t58.5 -26z" />
<glyph unicode="&#xf7;" horiz-adv-x="1050" d="M125 659h800v-90h-800v90zM588.5 877q26.5 -26 26.5 -63q0 -38 -26.5 -64t-63.5 -26t-63.5 26t-26.5 64q0 37 26.5 63t63.5 26t63.5 -26zM588.5 477q26.5 -26 26.5 -63q0 -38 -26.5 -64t-63.5 -26t-63.5 26t-26.5 64q0 37 26.5 63t63.5 26t63.5 -26z" />
<glyph unicode="&#xf8;" horiz-adv-x="1278" d="M1009 937q-79 39 -181 39q-188 0 -346.5 -133t-195.5 -321q-36 -188 71 -320q21 -28 47 -49zM1077 891l-605 -783q78 -39 180 -39q188 0 347 132.5t195 320.5q37 188 -70 321q-22 27 -47 48zM340 70q-34 28 -63 64q-130 161 -86 388q44 228 236.5 389t419.5 161 q129 0 227 -52l163 212l71 -41l-167 -216q35 -28 64 -64q128 -161 84 -389q-44 -227 -236 -388t-420 -161q-129 0 -225 52l-165 -213l-71 38z" />
<glyph unicode="&#xf9;" horiz-adv-x="1099" d="M553 -14q-184 0 -272 109t-59 275l120 614h90l-118 -606q-24 -125 49 -213q73 -89 206 -89q124 0 232 88.5t132 213.5l118 606h90l-120 -614q-35 -166 -165 -275t-303 -109zM747 1287l126 -187h-84l-208 187h166z" />
<glyph unicode="&#xfa;" horiz-adv-x="1099" d="M553 -14q-184 0 -272 109t-59 275l120 614h90l-118 -606q-24 -125 49 -213q73 -89 206 -89q124 0 232 88.5t132 213.5l118 606h90l-120 -614q-35 -166 -165 -275t-303 -109zM1020 1287l-282 -187h-84l200 187h166z" />
<glyph unicode="&#xfb;" horiz-adv-x="1099" d="M553 -14q-184 0 -272 109t-59 275l120 614h90l-118 -606q-24 -125 49 -213q73 -89 206 -89q124 0 232 88.5t132 213.5l118 606h90l-120 -614q-35 -166 -165 -275t-303 -109zM856 1324l192 -234h-104l-158 143l-204 -143h-105l275 234h104z" />
<glyph unicode="&#xfc;" horiz-adv-x="1099" d="M553 -14q-184 0 -272 109t-59 275l120 614h90l-118 -606q-24 -125 49 -213q73 -89 206 -89q124 0 232 88.5t132 213.5l118 606h90l-120 -614q-35 -166 -165 -275t-303 -109zM717.5 1304q21.5 -26 14.5 -63q-8 -38 -39.5 -64t-68.5 -26t-58.5 26t-13.5 64q7 37 38.5 63 t68.5 26t58.5 -26zM1017.5 1304q21.5 -26 14.5 -63q-8 -38 -39.5 -64t-68.5 -26t-58.5 26t-13.5 64q7 37 38.5 63t68.5 26t58.5 -26z" />
<glyph unicode="&#xfd;" horiz-adv-x="1005" d="M972 1287l-281 -187h-84l199 187h166zM520 88l-312 -463h-88l373 556l-227 801h102l189 -704l463 704h101l-601 -895v1z" />
<glyph unicode="&#xfe;" horiz-adv-x="1334" d="M342 633l-44 -224q6 -118 79 -209q108 -133 296 -133t346.5 133t195.5 321q36 188 -71 321t-295 133t-347 -133q-108 -91 -160 -209zM384 849q30 32 64 61q193 160 420 160q228 0 357 -160.5t85 -388.5q-44 -227 -236 -388t-420 -161q-227 0 -357 161q-23 29 -41 61 l-107 -552h-90l342 1758h90z" />
<glyph unicode="&#xff;" horiz-adv-x="1005" d="M520 88l-312 -463h-88l373 556l-227 801h102l189 -704l463 704h101l-601 -895v1zM669.5 1304q21.5 -26 14.5 -63q-7 -38 -38.5 -64t-68.5 -26t-58.5 26t-14.5 64q7 37 38.5 63t68.5 26t58.5 -26zM969.5 1304q21.5 -26 14.5 -63q-7 -38 -38.5 -64t-68.5 -26t-58.5 26 t-14.5 64q7 37 38.5 63t68.5 26t58.5 -26z" />
<glyph unicode="&#x152;" horiz-adv-x="2295" d="M1624 1510q76 -52 137 -127q181 -226 134 -538h439l-17 -90h-439q-76 -310 -343 -533q-94 -79 -193 -132h846l-18 -90h-1000q-124 -19 -262 -19q-340 0 -534 240.5t-128 580.5t353.5 580.5t627.5 240.5q138 0 254 -23h1000l-17 -90h-840zM1803 845q40 274 -120 473 q-63 77 -142 126q-39 24 -82 42q-111 45 -250 45q-302 0 -557 -213.5t-314 -515.5t113 -516t474 -214q139 0 268 45q49 18 98 42q99 49 192 127q234 197 303 469l10 47q4 22 7 43z" />
<glyph unicode="&#x153;" horiz-adv-x="2127" d="M286 521q-36 -188 71 -320.5t295 -132.5t347 132.5t195 320.5q37 188 -70.5 321t-295.5 133t-346.5 -133t-195.5 -321zM1277 779q19 -55 23 -116h758q-12 103 -73 179q-108 133 -296 133t-346 -133q-36 -30 -66 -63zM1176 263q18 -32 42 -62q107 -133 295 -133t347 133 q27 23 52 48l90 -34q-23 -28 -87 -82q-193 -161 -421 -161q-227 0 -356 161q-19 23 -33 47l-51 -47q-193 -161 -421 -161q-227 0 -356.5 161t-85.5 388q44 228 236.5 389t419.5 161q228 0 358 -161q17 -23 33 -47q23 24 51 47q192 161 419 161q228 0 358 -161 q114 -143 82 -338l-851 1q-3 -26 -8 -52q-27 -142 -113 -258z" />
<glyph unicode="&#x178;" horiz-adv-x="1291" d="M726 647l-365 953h103l326 -853l659 853h103l-736 -953l-126 -647h-90zM913.5 1822q21.5 -26 14.5 -63q-7 -38 -39 -64t-69 -26t-58 26t-14 64q7 37 38.5 63t68.5 26t58.5 -26zM1213.5 1822q21.5 -26 14.5 -63q-7 -38 -39 -64t-69 -26t-58 26t-14 64q7 37 38.5 63 t68.5 26t58.5 -26z" />
<glyph unicode="&#x2c6;" horiz-adv-x="811" d="M711 1324l193 -234h-104l-158 143l-204 -143h-105l274 234h104z" />
<glyph unicode="&#x2dc;" horiz-adv-x="825" d="M651 1255q63 -60 112 -60h5q51 3 87 84h69q-46 -129 -129 -152q-22 -6 -43 -6q-57 0 -106 46q-64 59 -113 59h-5q-50 -3 -86 -84h-70q47 129 130 152q22 6 43 6q57 0 106 -45z" />
<glyph unicode="&#x2000;" horiz-adv-x="946" />
<glyph unicode="&#x2001;" horiz-adv-x="1892" />
<glyph unicode="&#x2002;" horiz-adv-x="946" />
<glyph unicode="&#x2003;" horiz-adv-x="1892" />
<glyph unicode="&#x2004;" horiz-adv-x="630" />
<glyph unicode="&#x2005;" horiz-adv-x="473" />
<glyph unicode="&#x2006;" horiz-adv-x="315" />
<glyph unicode="&#x2007;" horiz-adv-x="315" />
<glyph unicode="&#x2008;" horiz-adv-x="236" />
<glyph unicode="&#x2009;" horiz-adv-x="378" />
<glyph unicode="&#x200a;" horiz-adv-x="105" />
<glyph unicode="&#x2010;" horiz-adv-x="840" d="M248 637h590l-17 -90h-590z" />
<glyph unicode="&#x2011;" horiz-adv-x="840" d="M248 637h590l-17 -90h-590z" />
<glyph unicode="&#x2013;" horiz-adv-x="871" d="M50 637h771v-90h-771v90z" />
<glyph unicode="&#x2014;" horiz-adv-x="1507" d="M50 637h1407v-90h-1407v90z" />
<glyph unicode="&#x2018;" horiz-adv-x="280" d="M447 1461q22 -5 37 -23q21 -26 13 -64q-7 -37 -38.5 -63t-68.5 -26t-58.5 26t-14.5 63q4 21 15 39l136 198h65z" />
<glyph unicode="&#x2019;" horiz-adv-x="280" d="M396 1435q-22 5 -35 23q-22 26 -15 64q7 37 38.5 63t68.5 26t58.5 -26t14.5 -63q-4 -21 -15 -39l-136 -198h-65z" />
<glyph unicode="&#x201a;" horiz-adv-x="280" d="M114 -13q-22 5 -35 23q-22 26 -15 64q7 37 38.5 63t68.5 26t58.5 -26t14.5 -63q-4 -21 -15 -39l-136 -198h-65z" />
<glyph unicode="&#x201c;" horiz-adv-x="532" d="M699 1461q22 -5 37 -23q21 -26 13 -64q-7 -37 -38.5 -63t-68.5 -26t-58.5 26t-14.5 63q4 21 15 39l136 198h65zM447 1461q22 -5 37 -23q21 -26 13 -64q-7 -37 -38.5 -63t-68.5 -26t-58.5 26t-14.5 63q4 21 15 39l136 198h65z" />
<glyph unicode="&#x201d;" horiz-adv-x="532" d="M648 1435q-22 5 -35 23q-22 26 -15 64q7 37 38.5 63t68.5 26t58.5 -26t14.5 -63q-4 -21 -15 -39l-136 -198h-65zM396 1435q-22 5 -35 23q-22 26 -15 64q7 37 38.5 63t68.5 26t58.5 -26t14.5 -63q-4 -21 -15 -39l-136 -198h-65z" />
<glyph unicode="&#x201e;" horiz-adv-x="532" d="M366 -13q-22 5 -35 23q-22 26 -15 64q7 37 38.5 63t68.5 26t58.5 -26t14.5 -63q-4 -21 -15 -39l-136 -198h-65zM114 -13q-22 5 -35 23q-22 26 -15 64q7 37 38.5 63t68.5 26t58.5 -26t14.5 -63q-4 -21 -15 -39l-136 -198h-65z" />
<glyph unicode="&#x2022;" horiz-adv-x="2934" d="M1442 1480h4q178 0 178 -182q0 -34 -50 -140v-8l70 -188h-406v6q64 152 64 204q-42 90 -42 126q34 182 182 182zM1510 34q-4 32 -20 58q-14 24 -26 50q-34 -26 -34 -74q0 -22 14 -46t36 -24q28 4 30 36zM1546 574v-8l154 -70l20 8v6q-36 68 -84 92q-90 -14 -90 -28z M1182 510v-6l28 -8l146 70v8q0 14 -84 28q-34 0 -90 -92zM1258 658l14 -14h308l70 6v8h-392zM972 826l-36 -36v-28l8 -6v-8q28 10 42 36v28zM1902 812q0 -32 56 -64l8 8v34l-50 42q-14 0 -14 -20zM2000 860v-76l64 -22h6v8q0 56 -62 90h-8zM832 762h6l64 22v76h-8 q-62 -32 -62 -98zM1944 910l-6 -8v-6l14 -14l14 14zM950 910l-14 -22l8 -6h6l14 14zM2078 916v-6q0 -86 112 -126l6 6v14q-48 70 -112 112h-6zM706 804v-6l6 -8v-6q112 40 112 126v6h-6q-64 -42 -112 -112zM2008 938v-8l14 -14h6l22 22v6l-14 14h-8zM852 944v-6l22 -22h6 l14 14v8l-20 20h-8zM2162 986v-20q0 -90 118 -106h98v14q-26 30 -98 56q0 20 -84 36l-28 20h-6zM524 874v-14h90q90 0 126 78v48h-6l-112 -48q0 -14 -78 -42zM782 1014l-6 -6v-42h20l14 14v14q0 10 -28 20zM2092 1008v-28l14 -14h20v34l-20 22zM2148 1056l20 -20h22l14 14 l-14 48h-22q-20 -6 -20 -42zM712 1098l-14 -56l8 -6h28l14 14l-22 48h-14zM2350 1120v-14l22 -22h90l14 14v8l-104 20zM426 1106v-8l14 -14h90l22 22v14h-14v6zM1006 1196v-20q68 -454 196 -490l-188 510h-8zM1720 728h8q98 0 168 448q-6 48 -22 48q-42 -56 -154 -462v-34z M2120 1322v-20l70 -28l20 42v6h-90zM692 1322v-6l20 -42l70 28v20h-90zM1020 1350v-6l224 -644h406q92 254 190 608l-70 112q-162 250 -162 274h-336zM1224 1714l-64 -84q-174 -216 -196 -280h8l6 -6h8q0 34 90 132l162 224zM1630 1708l182 -288q56 -84 90 -84l28 22 l-258 384zM1706 1764v-22q194 -256 232 -286v6q-174 262 -232 302zM950 1448h22q192 228 238 302q-22 0 -22 20h-6q-112 -112 -112 -154q-120 -132 -120 -168zM2126 34q-4 32 -20 58q-14 24 -26 50q-34 -26 -34 -74q0 -22 14 -46t38 -24q28 4 28 36zM300 88v-116q0 -4 4 -13 t36 -17q-32 -10 -86 -43q-17 -10 -33 -10q-36 0 -71 51q20 10 28 15t8 9v180q0 22 -34 32q88 42 126 68q18 -2 22 -52v-2q14 6 26 12l116 42q8 -42 18 -76t20 -99q2 -12 2 -24q0 -54 -37 -111q-45 -70 -127 -142q52 96 52 179q0 22 -4 44q-18 101 -30 127q-36 -26 -36 -54z M1312 -57v201q0 22 -34 32q88 42 126 68q14 -30 28 -52q12 4 24 10l114 42q8 -42 30 -114q10 -33 10 -61q0 -31 -12 -55q-28 -60 -96 -96q-44 -22 -76 -30v-58q0 -6 4 -15t36 -15q-32 -12 -85 -45q-16 -10 -32 -10q-37 0 -73 53q20 8 28 14t8 8v121q-31 -11 -82 -43 q-12 -7 -24 -7q-25 0 -44 37v144q-4 30 -34 70q-10 -14 -14 -38v-132q0 -4 4 -13t36 -17q-32 -10 -86 -44q-13 -7 -24 -7q-26 0 -44 37v144q-4 30 -34 70q-18 -14 -18 -38v-132q0 -4 4 -13t18 -17q-14 -10 -68 -43q-17 -10 -33 -10q-36 0 -71 51l27 15q9 5 9 9v180 q0 22 -34 32q86 42 126 68q18 -2 22 -52v-2q12 6 26 12l86 42q2 -8 28 -42q8 -8 12 -16q18 8 38 16l86 42q0 -8 26 -41t26 -51v-180q0 -4 4 -13q4 -8 32 -16zM1182 1806h546q28 -22 252 -330q56 -60 56 -90v-14l-50 -182l14 -42l-28 -42h8q118 48 118 132v8q-20 24 -20 48 q0 78 132 78h8q104 0 210 -140q68 -56 258 -112v-28q-20 0 -20 -14l6 -8v-6q-6 -28 -42 -28h-14l-216 -14q-32 28 -106 28l-62 28l-8 -22q26 -84 120 -84l20 -6q78 6 78 20v8l-14 20v8l28 -14l34 6h112l42 8l22 -8v-14q0 -40 -204 -70l-126 8v-22q114 -34 190 -34h42v-8 q-52 -70 -162 -70h-28q-70 0 -160 36v-8q0 -36 160 -90q0 -28 -76 -36q-44 0 -190 64q0 -34 70 -92l-20 -14l-134 42v-6l22 -56l-28 -8q-38 0 -134 126l-62 -308v-6h-742q-38 0 -84 294q-74 -94 -120 -106l-28 8l22 62h-8q-86 -42 -132 -42l-14 22q70 42 70 84h-8 q-128 -64 -188 -64q-70 8 -70 36q160 54 160 90v8h-6q-72 -36 -154 -36h-28q-110 0 -162 70v8h42q76 0 190 34v22l-140 -8q-190 34 -190 70v14h14v8l50 -8h112l28 -6l34 14v-8l-14 -20v-8q0 -14 70 -20q148 12 148 104l-8 8q-52 -28 -140 -36q0 -10 -28 -20l-216 14h-14 q-36 0 -42 28l6 20l-20 8v28q224 62 294 146q74 106 174 106h8q132 0 132 -78q0 -24 -20 -48v-8q22 -126 112 -126l-70 302q24 0 84 90zM2608 112q-18 -8 -38 -20q-9 20 -9 40q0 19 9 38q8 16 28 26q6 2 10 4v66q0 64 38 112t128 54q-52 -56 -52 -158v-86q24 10 44 22 q9 -20 9 -39q0 -20 -9 -39q-8 -16 -28 -26q-8 -4 -16 -4v-88q3 -31 26 -31q14 0 36 11q-26 -54 -76 -91q-17 -12 -37 -12q-42 0 -99 49q20 10 28 15t8 9v148zM2372 88v-116q0 -4 4 -13t36 -17q-30 -10 -84 -43q-17 -10 -33 -10q-37 0 -73 51q20 10 28 15t8 9v180 q0 22 -34 32q88 42 126 68q18 -2 22 -52v-2l28 12l114 42q8 -42 18 -76q12 -34 21 -99q2 -11 2 -22q0 -55 -37 -113q-44 -70 -128 -142q52 96 52 179q0 22 -4 44q-18 101 -30 127q-34 -26 -34 -54h-2zM2188 244q6 -42 28 -114q11 -33 11 -61q0 -31 -13 -55q-28 -60 -96 -96 q-63 -32 -103 -32h-8q-41 4 -67 72q-13 38 -13 71q0 37 15 69q28 62 130 104zM1742 196q8 4 18 8l114 42q8 -42 18 -76q12 -34 21 -79q2 -9 2 -20q0 -40 -27 -99q-34 -74 -122 -140q42 81 42 149q0 26 -6 50q-22 87 -34 113q-18 -12 -26 -26v-146q0 -4 4 -13t36 -17 q-32 -10 -86 -43q-17 -10 -33 -10q-36 0 -71 51q20 10 28 15t8 9v384q0 22 -34 34q88 42 125 53q19 -29 43 -57q-20 -4 -20 -22v-160zM668 -198q-2 3 -5 3q-4 0 -11 -7q-53 -53 -103 -53q-16 0 -32 6q-64 23 -64 88v2q1 67 69 97q-8 22 -8 26v180q0 22 -34 32q88 42 126 68 q18 -2 22 -52v-220q2 -17 13 -17t33 19v170q0 22 -34 32q88 42 126 68q18 -2 22 -52v-180q0 -51 -79 -87t-125 -36h-5q-43 0 -53 -33q-2 -8 -2 -15q0 -22 25 -32q10 -4 21 -4q28 0 68 23q34 20 63 20q18 0 33 -8q18 -8 30 -32q5 -10 5 -20q0 -13 -9 -26q-16 -16 -33 -16 q-8 0 -17 4q-26 16 -42 52z" />
<glyph unicode="&#x2026;" horiz-adv-x="2148" d="M253.5 139q26.5 -26 26.5 -63q0 -38 -26.5 -64t-63.5 -26t-63.5 26t-26.5 64q0 37 26.5 63t63.5 26t63.5 -26zM936.5 139q26.5 -26 26.5 -63q0 -38 -26.5 -64t-63.5 -26t-63.5 26t-26.5 64q0 37 26.5 63t63.5 26t63.5 -26zM1619.5 139q26.5 -26 26.5 -63q0 -38 -26.5 -64 t-63.5 -26t-63.5 26t-26.5 64q0 37 26.5 63t63.5 26t63.5 -26z" />
<glyph unicode="&#x202f;" horiz-adv-x="378" />
<glyph unicode="&#x2039;" horiz-adv-x="629" d="M190 462l518 460l-20 -104l-400 -356l262 -356l-21 -105z" />
<glyph unicode="&#x203a;" horiz-adv-x="629" d="M100 1l20 105l401 356l-262 356l20 104l340 -460z" />
<glyph unicode="&#x205f;" horiz-adv-x="473" />
<glyph unicode="&#x20ac;" horiz-adv-x="1450" d="M440 885l33 166q44 227 236 388t419 161q228 0 357 -161l-80 -67q-107 132 -295 132t-347 -132.5t-195 -320.5l-33 -166h657l-35 -90h-639l-24 -120h615l-35 -90h-597l-12 -64q-37 -188 70.5 -320.5t295.5 -132.5t346 133q98 82 150 185h98q-61 -142 -194 -253 q-191 -161 -419 -161q-227 0 -357 161t-85 388l12 64h-168l35 90h150l24 120h-126l35 90h108z" />
<glyph unicode="&#x2122;" horiz-adv-x="1251" d="M497 1556h-158v-604h-57v604h-182v52h453l267 -409l266 409h65l-9 -13v-643h-56v556l-266 -410l-267 410v-556h-56v604z" />
</font>
</defs>
</svg>
