<?xml version="1.0" standalone="no"?>
<!DOCTYPE svg PUBLIC "-//W3C//DTD SVG 1.1//EN" "http://www.w3.org/Graphics/SVG/1.1/DTD/svg11.dtd" >
<svg xmlns="http://www.w3.org/2000/svg">
<metadata>
This is a custom SVG webfont generated by Font Squirrel.
Designer    : Lauren Thompson
</metadata>
<defs>
<font id="webfontUDqIeLnk" horiz-adv-x="1259" >
<font-face units-per-em="2048" ascent="1638" descent="-410" />
<missing-glyph horiz-adv-x="708" />
<glyph unicode=" "  horiz-adv-x="708" />
<glyph unicode="&#x09;" horiz-adv-x="708" />
<glyph unicode="&#xa0;" horiz-adv-x="708" />
<glyph unicode="!" horiz-adv-x="460" d="M336 165.5q25 -30.5 17 -73.5q-9 -44 -46 -74.5t-80 -30.5t-68 30.5t-16 74.5q8 43 45 73.5t80 30.5t68 -30.5zM585 1516l-245 -1262h-126l245 1262h126z" />
<glyph unicode="&#x22;" horiz-adv-x="593" d="M519 917l116 596h127l-116 -596h-127zM303 917l116 596h127l-116 -596h-127z" />
<glyph unicode="#" horiz-adv-x="1598" d="M953 950h167l182 410h128l-182 -410h409l-57 -127h-409l-74 -167h410l-58 -127h-409l-182 -409h-128l182 409h-166l-182 -409h-129l183 409h-410l57 127h410l73 167h-409l57 127h409l182 410h129zM1063 823h-167l-73 -167h166z" />
<glyph unicode="$" horiz-adv-x="992" d="M717 775l-108 -554q62 9 139 74q95 80 118 194q22 114 -43 194q-52 65 -106 92zM691 1296q-24 -4 -70 -42q-58 -49 -72 -119q-13 -70 25 -119q30 -36 53 -51zM600 827q-78 38 -130 102q-68 85 -45 206q23 119 125 204q86 73 166 82l29 152h127l-30 -155q67 -12 121 -78 q38 -46 49 -127l-120 -45q-11 59 -34 87q-26 32 -41 36l-74 -384q107 -45 184 -138q93 -116 62 -280q-33 -165 -171 -281q-118 -98 -233 -112l-25 -131h-127l25 130q-118 9 -202 113q-75 93 -69 238l128 43q-12 -126 45 -195q55 -69 122 -76z" />
<glyph unicode="%" horiz-adv-x="1180" d="M1318 1236l-1111 -1242l-91 72l1111 1242zM693 1093.5q55 -68.5 36 -166.5q-18 -97 -100 -165.5t-179 -68.5q-98 0 -153 68.5t-37 165.5q19 98 101 166.5t180 68.5q97 0 152 -68.5zM517 1038q-47 0 -85.5 -32.5t-47.5 -78.5t17 -78t73 -32q45 0 83.5 32t47.5 78t-17 78.5 t-71 32.5zM1138 541.5q55 -68.5 36 -166.5q-19 -97 -100.5 -165.5t-178.5 -68.5q-98 0 -153.5 68.5t-36.5 165.5q19 98 101 166.5t180 68.5q97 0 152 -68.5zM962 486q-47 0 -85.5 -32.5t-47.5 -78.5t17 -78t73 -32q45 0 83.5 32t47.5 78t-17 78.5t-71 32.5z" />
<glyph unicode="&#x26;" horiz-adv-x="1257" d="M903 314l-5 4q-42 27 -96 98q-35 38 -49 47q-13 8 -28 8q-9 0 -18 -2q-25 -7 -41 -28q-12 -16 -15 -30q-1 -8 0 -17q1 -24 18 -34q11 -7 36 -7q15 0 64 6l-36 -118q-42 -11 -68 -11q-43 0 -79 22q-56 35 -62 109q-2 26 3 50q9 46 43 90q51 67 128 87q27 7 52 7 q47 0 84 -25q36 -22 84 -85q41 -47 62 -59q20 -13 43 -13q14 0 29 4q41 10 68 45q18 24 22 48q3 12 1 26q-2 38 -33 59q-19 11 -45 11q-20 0 -74 -14l23 127q47 13 76 13q55 0 102 -29q70 -45 78 -134q2 -31 -4 -59q-11 -57 -51 -108q-60 -80 -154 -104q-28 -7 -37 -8 q-45 -89 -144 -172q-160 -135 -350 -135q-189 0 -297.5 134t-71.5 325q37 189 196 329q109 97 204 127q-17 7 -75.5 86t-31.5 217q26 136 142.5 234t255.5 98q138 0 217 -97q45 -52 56 -138l-123 -45q-11 61 -39 96q-49 60 -135 60q-85 0 -157.5 -60.5t-89.5 -147.5 q-17 -86 30.5 -150t94.5 -83.5t148 -20.5l-23 -120l-87 -3q-199 -36 -315 -140.5t-143 -241.5q-27 -139 51.5 -236.5t216.5 -97.5q137 0 254 98q68 57 95 108z" />
<glyph unicode="'" horiz-adv-x="377" d="M303 917l116 596h127l-116 -596h-127z" />
<glyph unicode="(" horiz-adv-x="707" d="M900 1506q-144 -61 -265 -183q-202 -204 -272 -565q-70 -362 52 -566q74 -122 193 -186l-24 -123q-177 66 -271 223q-146 239 -66 652q80 412 319 652q156 157 358 223z" />
<glyph unicode=")" horiz-adv-x="707" d="M417 1633q177 -66 271 -223q146 -240 66 -652q-80 -413 -320 -652q-154 -157 -357 -223l24 123q144 64 265 186q202 204 272 566q70 361 -52 565q-73 122 -194 183z" />
<glyph unicode="*" horiz-adv-x="818" d="M472 1338l144 100l73 -104l-170 -119l170 -119l-73 -104l-144 101v-176h-126v177l-145 -102l-73 104l170 119l-170 119l73 104l145 -101v176h126v-175z" />
<glyph unicode="+" horiz-adv-x="1030" d="M452 503h-327v127h327v327h126v-327h327v-127h-327v-326h-126v326z" />
<glyph unicode="," horiz-adv-x="421" d="M359 197l-268 -398h-120l184 398h204z" />
<glyph unicode="-" horiz-adv-x="837" d="M248 630h587l-25 -127h-587z" />
<glyph unicode="&#xad;" horiz-adv-x="837" d="M248 630h587l-25 -127h-587z" />
<glyph unicode="." horiz-adv-x="410" d="M311 165.5q25 -30.5 17 -73.5q-9 -44 -46 -74.5t-80 -30.5t-68 30.5t-16 74.5q8 43 45 73.5t80 30.5t68 -30.5z" />
<glyph unicode="/" horiz-adv-x="729" d="M931 1516h143l-982 -1516h-142z" />
<glyph unicode="0" horiz-adv-x="1206" d="M1191 989q32 164 -61.5 279.5t-257.5 115.5t-302.5 -115.5t-170.5 -279.5l-95 -488q-32 -164 62 -279t258 -115t302 115t170 279zM1227 501q-42 -218 -226 -372.5t-403 -154.5q-218 0 -342.5 154.5t-82.5 372.5l95 488q43 218 227.5 372.5t402.5 154.5q219 0 343 -154.5 t81 -372.5z" />
<glyph unicode="1" horiz-adv-x="1302" d="M1064 1516l-295 -1516h-127l258 1327h-110l184 189h90z" />
<glyph unicode="2" horiz-adv-x="1220" d="M442 436l312 204q133 87 250 192.5t144 241.5q27 138 -51 234.5t-215 96.5q-136 0 -252 -97q-99 -83 -141 -225l-119 46q57 163 185 271q162 136 353 136t299.5 -135t71.5 -327q-37 -189 -197 -331q-105 -94 -240 -182l-302 -198q-160 -104 -214 -236h769l-25 -127h-915 q109 319 287 436z" />
<glyph unicode="3" horiz-adv-x="1220" d="M718 822l-88 2l24 126q103 1 157.5 20.5t126 82.5t88.5 148q17 86 -31.5 145.5t-132.5 59.5t-157 -59q-39 -34 -76 -98l-110 47q46 89 111 142q118 98 257 98q140 0 219 -99t52 -236q-27 -139 -117 -219t-101 -84q76 -27 149 -125q104 -142 67 -331q-37 -192 -198 -327 t-352 -135t-300 136q-86 108 -79 271l136 46q-13 -142 54 -225q78 -97 214 -97q137 0 252.5 96.5t141.5 234.5q27 136 -48 240t-259 140z" />
<glyph unicode="4" horiz-adv-x="1238" d="M1101 1516h117l-187 -959h141l-24 -126h-141l-84 -431h-127l84 431h-623zM1036 1236l-535 -679h403z" />
<glyph unicode="5" horiz-adv-x="1219" d="M541 1071q4 2 66 15q63 10 120 10q105 0 195 -33q202 -74 269 -272q42 -123 16 -253q-15 -80 -56 -162q-108 -215 -328 -322q-132 -64 -261 -64q-82 0 -161 26q-162 52 -242 201l109 99q63 -133 196 -175q59 -20 120 -20q98 0 200 49q168 81 249 245q32 63 44 124 q19 98 -12 191q-52 151 -206 209q-66 24 -151 24q-114 0 -274 -48l-73 76l266 477l10 48h504l-25 -127h-397z" />
<glyph unicode="6" horiz-adv-x="1207" d="M308 501q-32 -164 61.5 -279t257.5 -115t302 115t170 279t-61.5 280t-257.5 116t-302 -116t-170 -280zM806 1029q219 0 343 -154.5t81 -373.5q-42 -218 -226 -372.5t-403 -154.5q-218 0 -342 155q-120 149 -89 335h-7q79 354 269 563t456 453l38 36h170l-84 -83 q-294 -269 -474 -470q71 66 268 66z" />
<glyph unicode="7" horiz-adv-x="1220" d="M1004.5 973q-296.5 -273 -474.5 -471t-247 -502h-130q79 354 269 563.5t452.5 450.5t317.5 375h-768l25 127h912q-60 -270 -356.5 -543z" />
<glyph unicode="8" horiz-adv-x="1211" d="M626 113h4q18 -2 35 -2q137 0 252.5 96.5t142.5 234.5q27 136 -48 240q-73 101 -246 137q-188 -36 -301 -137q-115 -104 -142 -240q-27 -138 51.5 -234.5t215.5 -96.5q17 0 36 2zM603 -19q-18 -1 -38 -1q-191 0 -300 135t-72 327q37 189 197 331q110 98 197 125 q-10 4 -69 84t-32 219q26 137 143.5 236t258.5 99h33q141 0 219.5 -99t52.5 -236q-27 -139 -117 -219t-102 -84q77 -27 149 -125q104 -142 67 -331q-37 -192 -197.5 -327t-352.5 -135q-19 0 -37 1zM877 1405q-7 1 -14 1q-85 0 -156 -59.5t-88 -145.5q-17 -85 30 -148t93 -82 q23 -9 50 -14q28 5 55 14q54 19 125 82t88 148q17 86 -31 145.5t-133 59.5q-7 0 -14 -1h-5z" />
<glyph unicode="9" horiz-adv-x="1207" d="M1189 989q31 164 -62.5 279.5t-257.5 115.5t-302.5 -115.5t-169.5 -279.5q-32 -164 61.5 -280t257.5 -116t302.5 116t170.5 280zM690 461q-219 0 -343 154.5t-81 373.5q42 218 226 372.5t403 154.5q218 0 343 -155q119 -148 89 -334h6q-79 -355 -269 -564t-456 -453 q-14 -14 -38 -36h-170l84 83q294 269 474 470q-71 -66 -268 -66z" />
<glyph unicode=":" horiz-adv-x="460" d="M336 165.5q25 -30.5 17 -73.5q-9 -44 -46 -74.5t-80 -30.5t-68 30.5t-16 74.5q8 43 45 73.5t80 30.5t68 -30.5zM446 733q25 -30 17 -73q-9 -45 -45.5 -75t-79.5 -30t-68.5 30t-16.5 75q8 43 45 73t80 30t68 -30z" />
<glyph unicode=";" horiz-adv-x="519" d="M432 197l-268 -398h-120l184 398h204zM449.5 733q25.5 -30 16.5 -73q-8 -45 -45 -75t-80 -30t-68 30t-17 75q9 43 45.5 73t79.5 30t68.5 -30z" />
<glyph unicode="&#x37e;" horiz-adv-x="519" d="M432 197l-268 -398h-120l184 398h204zM449.5 733q25.5 -30 16.5 -73q-8 -45 -45 -75t-80 -30t-68 30t-17 75q9 43 45.5 73t79.5 30t68.5 -30z" />
<glyph unicode="&#x3c;" horiz-adv-x="1343" d="M1243 124l-1143 416l1143 416v-135l-772 -281l772 -281v-135z" />
<glyph unicode="=" horiz-adv-x="1030" d="M125 777h780v-127h-780v127zM125 483h780v-127h-780v127z" />
<glyph unicode="&#x3e;" horiz-adv-x="1343" d="M100 259l773 281l-773 281v135l1143 -416l-1143 -416v135z" />
<glyph unicode="?" horiz-adv-x="946" d="M438 165.5q25 -30.5 17 -73.5q-9 -44 -46 -74.5t-80 -30.5t-68 30.5t-16 74.5q8 43 45 73.5t80 30.5t68 -30.5zM518 554q-48 -71 -62 -143q-11 -55 1 -132l-126 -41q-15 98 0 173q19 101 85 197q107 159 281 273q99 81 149 157q31 44 40 90q7 34 1 68q-13 82 -83 119 q-40 21 -85 21q-34 0 -71 -13q-87 -28 -138 -104q-30 -44 -43 -111l-124 6l6 29q12 65 57 128q85 125 224 170q61 20 116 20q73 0 137 -34q112 -60 132 -189q9 -56 -1 -111q-14 -73 -63 -144q-82 -121 -236 -225q-122 -92 -197 -204z" />
<glyph unicode="@" horiz-adv-x="1560" d="M1102 469l23 116q-2 61 -41 109q-55 70 -152 70q-98 0 -180 -69.5t-102 -168.5q-18 -97 37 -166t153 -69q97 0 179 69q58 48 83 109zM1059 255q-97 -84 -245 -84q-147 0 -231.5 105t-56.5 250q29 148 154.5 253t272.5 105q148 0 212 -84l14 72h119l-120 -614 q5 -22 24 -22q29 0 114 94.5t104 194.5q43 222 -83.5 380t-348.5 158t-410 -158t-231 -380t83.5 -378.5t348.5 -156.5q152 0 244 51l67 -88q-155 -82 -334 -82q-270 0 -425.5 192.5t-103.5 461.5q53 271 283 463.5t501 192.5t425 -192.5t101 -463.5q-24 -123 -141 -264 t-232 -141q-14 0 -27 2q-92 20 -82 113z" />
<glyph unicode="A" d="M957 691l-89 531l-297 -531h386zM979 564h-479l-315 -564h-135l889 1592l270 -1592h-135z" />
<glyph unicode="B" horiz-adv-x="1044" d="M692 1516v1h36q123 0 192.5 -87t45.5 -209q-24 -125 -129 -200q64 -14 139 -119q123 -154 81 -373q-43 -218 -226 -377q-173 -148 -352 -151v-1h-329l295 1516h247zM457 925l-155 -798h202q123 8 250 118q140 120 172 284t-61.5 280t-257.5 116h-150zM547 1389l-65 -332 h176q63 6 113 46q58 45 72 118q15 73 -25.5 120.5t-114.5 47.5h-156z" />
<glyph unicode="C" horiz-adv-x="1540" d="M1401 286l78 -85q-281 -218 -582 -218q-321 0 -504 226.5t-120 548.5q62 321 333 548t592 227q301 0 498 -217l-112 -87q-164 176 -411 176q-267 0 -493 -189.5t-278 -457.5q-53 -269 100 -458.5t420 -189.5q247 0 479 176z" />
<glyph unicode="D" horiz-adv-x="1167" d="M546 1386l-244 -1256q303 0 505 170q226 189 278 458q52 268 -100 458q-136 170 -439 170zM571 1514h-16q373 0 539 -207q183 -228 120 -549q-62 -322 -333 -549q-247 -207 -620 -207h16v-2h-127l295 1516h127z" />
<glyph unicode="E" horiz-adv-x="1055" d="M1225 1516l-25 -127h-653l-110 -568h653l-25 -126h-653l-110 -568h653l-25 -127h-780l295 1516h780z" />
<glyph unicode="F" horiz-adv-x="963" d="M1133 1516l-25 -127h-561l-110 -568h561l-25 -126h-561l-135 -695h-127l295 1516h688z" />
<glyph unicode="G" horiz-adv-x="1565" d="M1462 196q-264 -213 -565 -213q-321 0 -504 226.5t-120 548.5q62 321 333 548t592 227q301 0 498 -217l-112 -87q-164 176 -411 176q-267 0 -493 -189.5t-278 -457.5q-53 -269 100 -458.5t420 -189.5q230 0 423 135l89 460h127z" />
<glyph unicode="H" horiz-adv-x="1126" d="M405 660l-128 -660h-127l295 1516h127l-142 -730h572l142 730h127l-295 -1516h-127l128 660h-572z" />
<glyph unicode="I" horiz-adv-x="467" d="M592 1516l-295 -1516h-127l295 1516h127z" />
<glyph unicode="J" horiz-adv-x="855" d="M754 274q-24 -121 -119 -201q-102 -86 -222 -86q-121 0 -189 85t-45 205l133 33q-20 -100 19 -148t107 -48q67 0 125 48q51 43 64 110q2 6 2 15l239 1229h127z" />
<glyph unicode="K" horiz-adv-x="1090" d="M418 727l-141 -727h-127l295 1516h127l-114 -583l551 583h161l-578 -615l409 -901h-155l-357 798z" />
<glyph unicode="L" horiz-adv-x="937" d="M150 0l295 1516h127l-270 -1389h570l-25 -127h-697z" />
<glyph unicode="M" horiz-adv-x="1670" d="M590 1516l359 -935l721 935h145l-26 -34l-288 -1482h-127l245 1262l-719 -932l-359 932l-245 -1262h-126l288 1482l-13 34h145z" />
<glyph unicode="N" horiz-adv-x="1274" d="M445 1516h126l478 -1249l243 1249h127l-295 -1516h-117l-485 1262l-245 -1262h-127z" />
<glyph unicode="O" horiz-adv-x="1805" d="M1706.5 1309.5q183.5 -227.5 121.5 -549.5q-63 -322 -335 -549.5t-594 -227.5t-505.5 227.5t-120.5 549.5q62 322 334 549.5t594 227.5t505.5 -227.5zM1176 1409q-268 0 -495 -190t-279 -459q-53 -269 100 -459.5t421 -190.5q269 0 496 190.5t280 459.5q52 269 -101 459 t-422 190z" />
<glyph unicode="P" horiz-adv-x="1062" d="M376 511l-99 -511h-127l295 1516h410q172 -24 271 -147q119 -147 78 -355q-41 -209 -216.5 -356t-383.5 -147h-228zM547 1388l-146 -750h228q155 0 286.5 110t161.5 266q30 155 -58.5 264.5t-243.5 109.5h-228z" />
<glyph unicode="Q" horiz-adv-x="1805" d="M1176 1409q-268 0 -495 -190t-279 -459q-53 -269 100 -459.5t421 -190.5q269 0 496 190.5t280 459.5q52 269 -101 459t-422 190zM799 -17q-224 2 -405 228q-184 227 -121 549q62 322 334 549.5t594 227.5t505.5 -227.5t121.5 -549.5q-63 -322 -335 -549 q-196 -165 -345 -195l113 -68q67 -40 94 -48q15 -5 30 -5q28 0 57 15q46 23 67 68q6 12 14 45h128q-13 -51 -26 -79q-46 -95 -142 -144q-60 -31 -120 -31q-33 0 -65 10q-55 16 -146 81q-82 49 -117 59q-23 6 -46 6q-40 0 -81 -21q-66 -34 -97 -100q-5 -9 -14 -38h-127 q14 48 26 73q54 116 172 176z" />
<glyph unicode="R" horiz-adv-x="1062" d="M547 1388l-146 -750h228q155 0 286.5 110t161.5 266q30 155 -58.5 264.5t-243.5 109.5h-228zM604 511h-228l-99 -511h-127l295 1516h410q172 -24 271 -147q119 -147 78 -355q-41 -209 -216 -356q-122 -102 -229 -127l242 -531h-155z" />
<glyph unicode="S" horiz-adv-x="1013" d="M684 816q-152 54 -229 150.5t-50 234.5q26 136 142.5 234t255.5 98q138 0 217 -97q45 -52 56 -138l-124 -45q-10 61 -39 96q-48 60 -134 60t-158 -60.5t-89 -147.5q-17 -85 32 -146q48 -59 144 -108q169 -58 270 -183q108 -133 71 -322q-37 -191 -197.5 -325t-349.5 -134 q-190 0 -298 135q-86 107 -79 267l130 44q-11 -139 55 -223q79 -98 216 -98q138 0 254.5 97.5t143.5 236.5q27 137 -51 234q-71 88 -189 140z" />
<glyph unicode="T" horiz-adv-x="972" d="M819 1389l-270 -1389h-126l270 1389h-373l25 127h872l-25 -127h-373z" />
<glyph unicode="U" horiz-adv-x="1305" d="M1323 1516h127l-210 -1081q-59 -178 -206 -301q-175 -147 -383 -147q-209 0 -327.5 147.5t-78.5 354.5l200 1027h128l-200 -1027q-30 -154 59 -264t244 -110q156 0 286.5 110t160.5 264z" />
<glyph unicode="V" d="M479 1516l207 -1222l682 1222h136l-889 -1592l-270 1592h134z" />
<glyph unicode="W" horiz-adv-x="1602" d="M786 248l247 1268h127l-247 -1268q11 -32 34 -60q62 -74 167 -74t196 75t112 181l223 1146h127l-224 -1154q-33 -152 -163 -262q-135 -113 -295 -113q-159 0 -251 112l-15 17l-23 -17q-134 -112 -293 -112q-160 0 -250 113q-89 110 -62 262l224 1154h127l-223 -1146 q-21 -106 41 -181t167 -75q106 0 197 74q34 28 57 60z" />
<glyph unicode="X" horiz-adv-x="1205" d="M50 0l641 831l-262 685h145l213 -559l433 559h146l-530 -685l319 -831h-146l-271 705l-543 -705h-145z" />
<glyph unicode="Y" horiz-adv-x="1272" d="M691 611l-346 905h146l292 -763l588 763h146l-699 -905l-119 -611h-127z" />
<glyph unicode="Z" horiz-adv-x="1321" d="M1222 1389h-786l25 127h1005l-1073 -1389h787l-25 -127h-1005z" />
<glyph unicode="[" horiz-adv-x="579" d="M210 -218h202l-25 -127h-329l362 1861h329l-25 -127h-202z" />
<glyph unicode="\" horiz-adv-x="729" d="M779 0h-142l-392 1516h143z" />
<glyph unicode="]" horiz-adv-x="579" d="M597 1389h-202l25 127h329l-362 -1861h-329l25 127h202z" />
<glyph unicode="^" horiz-adv-x="939" d="M531 1516l309 -535h-147l-223 385l-223 -385h-147l310 535h121z" />
<glyph unicode="_" horiz-adv-x="1014" d="M28 16h964l-24 -126h-964z" />
<glyph unicode="`" horiz-adv-x="716" d="M617 1228l146 -216h-133l-241 216h228z" />
<glyph unicode="a" horiz-adv-x="1317" d="M1167 0h-127l27 139q-201 -165 -420 -165q-218 0 -342.5 154.5t-82.5 372.5q43 219 227.5 373.5t402.5 154.5q219 0 356 -165l16 83h127zM1122 422l31 159q1 113 -69 200q-94 116 -258 116t-302.5 -116t-170.5 -280t62 -279t258 -115t302 115q104 88 147 200z" />
<glyph unicode="b" horiz-adv-x="1316" d="M445 1516h127l-127 -650q201 163 419 163q219 0 343 -154.5t81 -373.5q-42 -218 -226 -372.5t-403 -154.5q-218 0 -355 164l-27 -138h-127zM391 586l-33 -169q1 -109 69 -195q94 -115 258 -115t302.5 115t169.5 279q32 164 -61.5 280t-257.5 116t-302 -116 q-102 -85 -145 -195z" />
<glyph unicode="c" horiz-adv-x="1154" d="M987 265l120 -46q-54 -59 -91 -90q-185 -155 -404 -155q-218 0 -342.5 154.5t-81.5 373.5q42 218 226.5 372.5t402.5 154.5q219 0 344 -154q25 -32 56 -89l-139 -48q-17 28 -29 44q-94 115 -258 115q-163 0 -301.5 -115.5t-169.5 -279.5q-32 -164 61.5 -279.5 t256.5 -115.5q164 0 302 115q18 15 47 43z" />
<glyph unicode="d" horiz-adv-x="1317" d="M1167 0h-127l27 139q-201 -165 -420 -165q-218 0 -342.5 154.5t-82.5 372.5q43 219 227.5 373.5t402.5 154.5q219 0 356 -165l127 652h127zM1122 422l31 159q1 113 -69 200q-94 116 -258 116t-302.5 -116t-170.5 -280t62 -279t258 -115t302 115q104 88 147 200z" />
<glyph unicode="e" horiz-adv-x="1154" d="M408 192q78 -85 230 -85q164 0 302 115q18 15 47 43l120 -46q-54 -59 -91 -90q-185 -155 -404 -155q-218 0 -342.5 154.5t-81.5 373.5q42 218 226.5 372.5t402.5 154.5q187 0 306 -112q20 -19 38 -42q6 -9 24 -33l-92 -77zM996 834q-70 63 -205 63q-163 0 -301.5 -115.5 t-169.5 -279.5q-27 -135 20 -217z" />
<glyph unicode="f" horiz-adv-x="534" d="M469 821l-238 -1162h-127l238 1162h-92l24 126h92l44 224q27 111 122 191q97 76 204 76q55 0 131 -28l-64 -117q-51 24 -83 24q-56 0 -117 -46q-53 -44 -68 -107l-42 -217h184l-24 -126h-184z" />
<glyph unicode="g" horiz-adv-x="1321" d="M1153 586q-1 110 -69 195q-94 116 -258 116t-302.5 -116t-170.5 -280t62 -279.5t258 -115.5t302 116q100 84 145 193zM1058 131l-7 -2q-185 -155 -404 -155q-218 0 -342.5 154.5t-82.5 372.5q43 219 227.5 373t402.5 154q219 0 356 -164l16 83h127l-141 -724 q-41 -212 -221 -363q-184 -154 -402 -154q-219 0 -344 154q-25 32 -56 90l138 46q18 -27 30 -42q94 -116 258 -116q163 0 301 116q125 105 144 177z" />
<glyph unicode="h" horiz-adv-x="1042" d="M445 1516h127l-114 -586q88 72 244 72q169 0 254.5 -107t57.5 -268l-122 -627h-127l120 619q21 106 -41 181t-167 75t-196 -74q-40 -34 -61 -65l-143 -736h-127z" />
<glyph unicode="i" horiz-adv-x="460" d="M477 947l-184 -947h-127l184 947h127zM544.5 1237.5q25.5 -30.5 16.5 -73.5q-8 -44 -45 -74.5t-80 -30.5t-68 30.5t-17 74.5q9 43 45.5 73.5t79.5 30.5t68.5 -30.5z" />
<glyph unicode="j" horiz-adv-x="479" d="M33 -85q113 13 131 105l180 927h127l-180 -925q-41 -214 -283 -234zM539 1237.5q25 -30.5 16 -73.5q-8 -44 -45 -74.5t-80 -30.5t-68 30.5t-17 74.5q9 43 46 73.5t80 30.5t68 -30.5z" />
<glyph unicode="k" horiz-adv-x="833" d="M843 947l-300 -300l240 -647h-154l-191 544l-69 -69l-92 -475h-127l259 1332h127l-127 -654l270 269h164z" />
<glyph unicode="l" horiz-adv-x="427" d="M572 1516l-295 -1516h-127l295 1516h127z" />
<glyph unicode="m" horiz-adv-x="1333" d="M334 947h127l2 9q55 45 172 45q120 0 188 -85l17 -21l26 21q102 85 222 85q121 0 188 -85q65 -81 47 -196l-140 -720h-127l144 741q6 41 -30 85q-39 48 -107 48q-67 0 -125 -48t-72 -120l-137 -706h-126l144 741h-1q6 41 -29 85q-40 48 -107 48q-68 0 -124 -48 q-51 -41 -68 -100l-141 -726h-127z" />
<glyph unicode="n" horiz-adv-x="1053" d="M417 719l-140 -719h-127l184 947h127l-5 -27q98 82 257 82q169 0 254.5 -107t57.5 -268l-122 -627h-126l120 619q21 106 -41.5 181t-167.5 75t-196 -74q-50 -42 -75 -82z" />
<glyph unicode="o" horiz-adv-x="1234" d="M817 1029q219 0 343 -154.5t81 -373.5q-42 -218 -226 -372.5t-403 -154.5q-218 0 -342.5 154.5t-82.5 372.5q43 219 227.5 373.5t402.5 154.5zM488.5 781q-138.5 -116 -170.5 -280t62 -279t258 -115t302 115t170 279t-61.5 280t-257.5 116t-302.5 -116z" />
<glyph unicode="p" horiz-adv-x="1291" d="M334 947h127l-16 -81q201 162 419 162q219 0 343 -154t81 -373q-42 -218 -226 -372.5t-403 -154.5q-218 0 -355 164l-94 -483h-127zM391 586l-33 -169q1 -110 69 -195q94 -116 258 -116t302.5 115.5t169.5 279.5q32 164 -61.5 280t-257.5 116t-302 -116 q-102 -85 -145 -195z" />
<glyph unicode="q" horiz-adv-x="1292" d="M1075 -345h-127l94 484q-201 -165 -420 -165q-218 0 -342.5 154.5t-82.5 372.5q43 219 227.5 373t402.5 154q219 0 356 -164l16 83h127zM1097 422l31 159q1 113 -69 200q-94 116 -258 116t-302.5 -116t-170.5 -280t62 -279.5t258 -115.5t302 116q104 87 147 200z" />
<glyph unicode="r" horiz-adv-x="611" d="M334 947h127l-22 -116q163 132 311 139l-27 -135q-91 -4 -184 -82q-133 -110 -167 -265l-95 -488h-127z" />
<glyph unicode="s" horiz-adv-x="799" d="M497 468q-96 58 -130 101q-57 69 -38 168q20 99 103.5 169.5t181.5 70.5q99 0 152 -66q51 -64 35 -147l-4 -19l-121 -45q6 91 -17 120t-70 29q-46 0 -85 -32.5t-49 -79.5q-8 -46 18 -79q17 -22 80 -67q107 -65 149 -117q68 -86 45 -205q-24 -121 -125 -206t-221 -85 q-121 0 -189 85t-45 205l133 33q-20 -101 19 -148.5t107 -47.5q67 0 124.5 47.5t71.5 116.5q13 68 -26 116q-23 27 -99 83z" />
<glyph unicode="t" horiz-adv-x="675" d="M458 947l75 385h127l-75 -385h184l-24 -126h-184l-160 -821h-127l160 821h-184l24 126h184z" />
<glyph unicode="u" horiz-adv-x="1079" d="M543 -13q-179 0 -265 106.5t-58 268.5l115 587h127l-113 -579q-21 -106 42 -180q61 -76 175 -76q105 0 196 75t112 181l113 579h127l-115 -587q-34 -162 -161 -268q-127 -107 -295 -107z" />
<glyph unicode="v" horiz-adv-x="1057" d="M572 225l474 722h145l-674 -1001l-283 1001h145z" />
<glyph unicode="w" horiz-adv-x="1333" d="M654 262l133 685h126l-129 -666q-14 -71 25 -119t106 -48q68 0 126 48q53 44 63 85l136 700h127l-132 -679q-26 -115 -123 -195q-100 -86 -221 -86q-120 0 -206 106q-127 -106 -247 -106q-121 0 -189 86q-65 80 -47 195l132 679h127l-136 -700q-6 -41 32 -85 q37 -48 105 -48q67 0 126 48q49 41 66 100z" />
<glyph unicode="x" horiz-adv-x="889" d="M948 947l-331 -429l198 -518h-147l-148 386l-298 -386h-147l401 518l-165 429h146l114 -297l230 297h147z" />
<glyph unicode="y" horiz-adv-x="1007" d="M246 -345h-129l358 534l-216 758h143l166 -617l406 617h141z" />
<glyph unicode="z" horiz-adv-x="1004" d="M773 808h-450l25 127h669l-624 -808h486l-25 -127h-704z" />
<glyph unicode="{" horiz-adv-x="861" d="M290 642q36 0 109 38q109 56 162 166q29 63 43 134q7 39 9 79q0 68 12 128q12 64 39 121q52 112 165 170q73 38 144 38q20 0 56 -6l-22 -114q-39 7 -54 7q-42 0 -86 -22q-68 -35 -99 -102q-23 -48 -35 -110q-5 -26 -7 -55q1 -71 -13 -141q-15 -81 -50 -157 q-73 -154 -217 -231q114 -76 127 -230q5 -76 -10 -157q-14 -70 -43 -141q-8 -29 -13 -55q-12 -62 -9 -110q5 -67 60 -101q37 -23 80 -23q13 0 53 5l-22 -112q-38 -6 -58 -6q-71 0 -129 38q-90 58 -98 171q-5 57 7 121q12 60 38 127q14 40 21 79q14 71 9 134q-9 110 -96 166 q-59 38 -95 38z" />
<glyph unicode="|" horiz-adv-x="427" d="M277 1516v-1861h-127v1861h127z" />
<glyph unicode="}" horiz-adv-x="861" d="M838 529q-36 0 -110 -38q-109 -56 -161 -166q-28 -63 -42 -134q-8 -39 -10 -79q0 -67 -12 -127q-12 -64 -39 -121q-52 -113 -166 -171q-72 -38 -143 -38q-19 0 -56 6l22 112q38 -5 51 -5q43 0 89 23q68 34 99 101q22 48 34 110q5 26 9 55q-1 71 12 141q16 81 51 157 q73 154 217 230q-114 77 -127 231q-6 76 10 157q14 70 42 141q8 29 13 55q12 62 9 110q-5 67 -60 102q-35 22 -77 22q-15 0 -57 -7l22 114q40 6 59 6q71 0 128 -38q92 -58 100 -170q4 -57 -8 -121q-12 -60 -38 -128q-13 -40 -21 -79q-13 -71 -10 -134q10 -110 97 -166 q59 -38 95 -38z" />
<glyph unicode="~" horiz-adv-x="1241" d="M631 833q168 -97 240 -97q11 0 19 2q60 18 85 79q12 31 12 88l129 -20q-5 -68 -24 -116q-46 -111 -157 -149q-27 -8 -59 -8q-102 0 -266 94q-170 97 -241 97q-11 0 -19 -2q-60 -18 -84 -79q-13 -32 -14 -88l-127 20q3 67 23 116q46 111 158 149q26 8 57 8q103 0 268 -94z " />
<glyph unicode="&#xa1;" horiz-adv-x="460" d="M419.5 1354q-25.5 30 -16.5 74q8 44 45 74.5t80 30.5t68 -30.5t17 -74.5q-9 -44 -45.5 -74t-79.5 -30t-68.5 30zM169 4l245 1262h127l-245 -1262h-127z" />
<glyph unicode="&#xa2;" horiz-adv-x="1005" d="M693 693q101 1 207 90q13 11 41 39l114 -45q-53 -57 -83 -83q-150 -125 -303 -127l-28 -142h-127l30 152q-106 19 -183 117q-103 126 -68 305q34 178 186 305q116 97 229 117l29 152h127l-27 -142q152 -2 253 -127q20 -26 51 -81l-131 -47q-17 28 -27 40q-71 88 -171 89z M683 1292q-57 -13 -132 -76q-108 -90 -132 -217q-25 -127 48 -216q50 -64 102 -76z" />
<glyph unicode="&#xa3;" horiz-adv-x="1112" d="M575 511q-4 -37 -8 -58q-38 -196 -171 -325q43 15 158 15q69 0 135 -15q83 -21 163 -21q71 0 161 22l-1 -125q-102 -24 -184 -24q-85 0 -169 21q-85 18 -152 18q-59 0 -102 -14q-101 -35 -216 -87l-81 125q151 114 186 149q117 111 144 254q4 19 6 39q2 22 2 26h-213 l24 126h186q-4 58 -31 141q-72 170 -55 325q2 18 5 37q27 136 137 243q124 120 287 135q18 1 36 1q136 0 226 -90q101 -103 86 -260q-1 -22 -5 -43q-13 -63 -56 -132l-112 40q31 57 39 101q3 12 4 24q10 104 -57 172q-59 59 -149 59q-12 0 -24 -1q-107 -9 -190 -89 q-74 -72 -91 -160l-4 -26q-10 -100 25 -227q56 -129 61 -250h186l-24 -126h-162z" />
<glyph unicode="&#xa4;" horiz-adv-x="1101" d="M591 1397q104 74 246 74q141 0 217 -74l154 129l72 -90l-154 -129q57 -90 29 -232q-27 -141 -119 -231l104 -129l-107 -90l-104 129q-105 -74 -246 -74q-142 0 -217 74l-154 -129l-73 90l154 129q-56 90 -29 231q28 142 119 232l-104 129l108 90zM962 1291 q-59 53 -150 53q-92 0 -171 -53l-34 -25q-17 -14 -32 -30q-66 -69 -84 -161q-18 -91 22 -160q8 -15 20 -29q11 -15 24 -26q59 -53 151 -53q91 0 170 53q18 11 35 26q17 13 31 29q66 69 84 160q18 92 -22 161q-9 16 -19 30q-11 13 -25 25z" />
<glyph unicode="&#xa5;" horiz-adv-x="1272" d="M781 754l589 762h146l-601 -777h254l-24 -127h-327l-14 -67h327l-24 -126h-327l-81 -419h-127l81 419h-326l24 126h326l14 67h-326l24 127h253l-298 777h146z" />
<glyph unicode="&#xa6;" horiz-adv-x="427" d="M277 1516v-825h-127v825h127zM277 480v-825h-127v825h127z" />
<glyph unicode="&#xa7;" horiz-adv-x="1125" d="M919 381l4 1q61 51 88 189q27 137 -51 235q-71 88 -189 140q-150 54 -227 149q-34 42 -39 60h-4q-61 -52 -88 -190q-27 -137 51 -235q71 -88 189 -140q151 -54 227 -149q35 -42 39 -60zM486 1286q0 14 6 45q26 136 142.5 234t255.5 98q138 0 218 -97q44 -53 55 -138 l-123 -46q-11 62 -39 96q-49 60 -135 60q-85 0 -157.5 -60t-89.5 -147q-17 -85 33 -146q48 -59 144 -108q169 -59 269 -183q108 -133 71 -323t-142 -278q-42 -35 -55 -43q-1 -14 -7 -45q-26 -136 -143 -234t-256 -98q-138 0 -217 97q-44 53 -55 139l124 45q10 -62 38 -96 q49 -60 135 -60t158 60.5t89 146.5t-32 146q-48 59 -144 109q-169 58 -270 182q-108 134 -71 323q37 190 142 279q42 35 56 42z" />
<glyph unicode="&#xa8;" horiz-adv-x="736" d="M821 1237.5q25 -30.5 17 -73.5q-9 -44 -46 -74.5t-80 -30.5t-68 30.5t-16 74.5q8 43 45 73.5t80 30.5t68 -30.5zM545 1237.5q25 -30.5 17 -73.5q-9 -44 -46 -74.5t-80 -30.5t-68 30.5t-16 74.5q8 43 45 73.5t80 30.5t68 -30.5z" />
<glyph unicode="&#xa9;" horiz-adv-x="1353" d="M866 455l105 -39q-36 -50 -56 -70q-96 -96 -231 -96t-230.5 96t-95.5 231t95.5 230.5t230.5 95.5t231 -95q20 -20 56 -71l-105 -38q-19 25 -28 34q-64 63 -154 63t-154.5 -64t-64.5 -155q0 -90 64.5 -154.5t154.5 -64.5t155 64q8 8 27 33zM1079.5 983.5 q168.5 -168.5 168.5 -406.5t-168.5 -406.5t-405.5 -168.5q-238 0 -406.5 168.5t-168.5 406.5t168.5 406.5t406.5 168.5q237 0 405.5 -168.5zM674 1042q-193 0 -329.5 -136t-136.5 -329t136.5 -329.5t329.5 -136.5q192 0 328.5 136.5t136.5 329.5t-136.5 329t-328.5 136z" />
<glyph unicode="&#xaa;" horiz-adv-x="868" d="M350 912h529l-14 -72h-602l121 622h73zM959 985h-95l6 28q-66 -40 -178 -40q-113 0 -176.5 80t-41.5 192q21 112 115.5 191.5t207.5 79.5q112 0 158 -62l5 22h95zM907 1207l15 74q1 49 -31 87q-40 51 -112 51q-73 0 -134 -51t-75 -123q-14 -73 27 -123.5t114 -50.5 q72 0 132 50q47 39 64 86z" />
<glyph unicode="&#xab;" horiz-adv-x="970" d="M187 447l540 479l-31 -160l-359 -319l235 -319l-31 -161zM503 447l547 478l-31 -159l-359 -319l235 -319l-31 -160z" />
<glyph unicode="&#xae;" horiz-adv-x="1128" d="M482 1261v-303h84q63 0 107.5 44.5t44.5 106.5q0 63 -44.5 107.5t-107.5 44.5h-84zM668 697l-105 164h-81v-102h-95v596h206q88 -12 148 -73q72 -71 72 -173q0 -103 -72 -176q-50 -50 -76 -56l92 -140q28 16 67 54q108 109 108 260q0 153 -108 261t-259 108 q-153 0 -261 -108t-108 -261q0 -151 108 -260q51 -50 112 -77q24 -12 50 -18q46 -13 99 -13q67 0 103 14zM565 587q-194 0 -329.5 136t-135.5 328q0 193 135.5 329t329.5 136q191 0 327 -136t136 -329q0 -192 -136 -328q-48 -47 -133 -91.5t-194 -44.5z" />
<glyph unicode="&#xaf;" horiz-adv-x="837" d="M371 1265h587l-25 -127h-587z" />
<glyph unicode="&#xb0;" horiz-adv-x="769" d="M550.5 1447.5q68.5 -68.5 68.5 -166.5q0 -97 -68.5 -165.5t-165.5 -68.5q-98 0 -166.5 68.5t-68.5 165.5q0 98 68.5 166.5t166.5 68.5q97 0 165.5 -68.5zM385 1407q-52 0 -89 -37t-37 -89q0 -51 37 -88t89 -37q51 0 88 37t37 88q0 52 -37 89t-88 37z" />
<glyph unicode="&#xb1;" horiz-adv-x="1030" d="M452 503h-327v127h327v327h126v-327h327v-127h-327v-326h-126v326zM125 127h780v-127h-780v127z" />
<glyph unicode="&#xb2;" horiz-adv-x="1220" d="M442 436l312 204q133 87 250 192.5t144 241.5q27 138 -51 234.5t-215 96.5q-136 0 -252 -97q-99 -83 -141 -225l-119 46q57 163 185 271q162 136 353 136t299.5 -135t71.5 -327q-37 -189 -197 -331q-105 -94 -240 -182l-302 -198q-160 -104 -214 -236h769l-25 -127h-915 q109 319 287 436z" />
<glyph unicode="&#xb3;" horiz-adv-x="1220" d="M718 822l-88 2l24 126q103 1 157.5 20.5t126 82.5t88.5 148q17 86 -31.5 145.5t-132.5 59.5t-157 -59q-39 -34 -76 -98l-110 47q46 89 111 142q118 98 257 98q140 0 219 -99t52 -236q-27 -139 -117 -219t-101 -84q76 -27 149 -125q104 -142 67 -331q-37 -192 -198 -327 t-352 -135t-300 136q-86 108 -79 271l136 46q-13 -142 54 -225q78 -97 214 -97q137 0 252.5 96.5t141.5 234.5q27 136 -48 240t-259 140z" />
<glyph unicode="&#xb4;" horiz-adv-x="716" d="M805 1228l-325 -216h-133l230 216h228z" />
<glyph unicode="&#xb5;" horiz-adv-x="1030" d="M769 71q-94 -79 -263 -79q-156 0 -217 71l-79 -408h-127l251 1292h127l-134 -689q9 -32 35 -66q63 -73 168 -73t197 75q58 48 87 107l125 646h125l-184 -947h-125z" />
<glyph unicode="&#xb6;" horiz-adv-x="1096" d="M1085 1474l-354 -1819h-127l183 939h-118q-208 0 -326.5 147.5t-78.5 355.5q41 208 217 356q147 123 328 147h53v1h496l-24 -127h-81l-354 -1819h-127l354 1819h-41z" />
<glyph unicode="&#xb7;" horiz-adv-x="435" d="M442.5 823.5q22.5 -26.5 15.5 -65.5q-8 -39 -40.5 -65.5t-69.5 -26.5q-39 0 -61 26.5t-14 65.5q7 39 39 65.5t71 26.5q37 0 59.5 -26.5z" />
<glyph unicode="&#x2219;" horiz-adv-x="435" d="M442.5 823.5q22.5 -26.5 15.5 -65.5q-8 -39 -40.5 -65.5t-69.5 -26.5q-39 0 -61 26.5t-14 65.5q7 39 39 65.5t71 26.5q37 0 59.5 -26.5z" />
<glyph unicode="&#xb8;" horiz-adv-x="619" d="M364 44l-17 -32q81 0 100 -50q8 -24 3 -49q-5 -28 -26 -58q-41 -57 -95 -75q-42 -13 -85 -13h-15q-54 3 -103 41l81 62q17 -8 35 -9h7q15 0 34 5q18 4 28 17q1 2 1 4q2 6 -3 15q-5 12 -26 14q-9 1 -24 1q-26 0 -110 -7l107 134h108z" />
<glyph unicode="&#xb9;" horiz-adv-x="1302" d="M1064 1516l-295 -1516h-127l258 1327h-110l184 189h90z" />
<glyph unicode="&#xba;" horiz-adv-x="901" d="M725 1071q91 4 147 50q60 51 74 124q14 72 -26 123q-38 46 -127 51q-92 -5 -147 -51q-62 -51 -76 -123q-14 -73 27 -124q38 -46 128 -50zM692 973q-113 0 -176.5 80t-41.5 192q21 112 115.5 191.5t207.5 79.5h27q113 0 176.5 -79.5t42.5 -191.5q-22 -112 -116.5 -192 t-207.5 -80h-27zM350 912h529l-14 -72h-602l121 622h73z" />
<glyph unicode="&#xbb;" horiz-adv-x="970" d="M417 -33l31 161l358 319l-234 319l31 160l354 -479zM94 -32l31 160l358 319l-234 319l31 159l360 -478z" />
<glyph unicode="&#xbf;" horiz-adv-x="946" d="M723 965q49 71 63 144q11 55 -2 132l126 41q16 -98 1 -173q-20 -101 -86 -198q-107 -158 -280 -273q-99 -81 -151 -156q-30 -45 -38 -90q-7 -34 -3 -68q14 -82 84 -119q40 -21 85 -21q34 0 72 12q86 29 138 105q29 43 42 110l124 -5l-5 -29q-13 -65 -57 -128 q-85 -125 -224 -171q-61 -19 -116 -19q-73 0 -138 33q-112 60 -132 190q-9 55 2 111q14 73 62 144q82 121 237 225q121 91 196 203zM804 1354q-25 30 -17 74q9 44 45.5 74.5t79.5 30.5t68 -30.5t16 -74.5q-8 -44 -44.5 -74t-79.5 -30t-68 30z" />
<glyph unicode="&#xc0;" d="M891 1879l146 -216h-133l-241 216h228zM957 691l-89 531l-297 -531h386zM979 564h-479l-315 -564h-135l889 1592l270 -1592h-135z" />
<glyph unicode="&#xc1;" d="M1326 1879l-325 -216h-133l230 216h228zM957 691l-89 531l-297 -531h386zM979 564h-479l-315 -564h-135l889 1592l270 -1592h-135z" />
<glyph unicode="&#xc2;" d="M957 691l-89 531l-297 -531h386zM979 564h-479l-315 -564h-135l889 1592l270 -1592h-135zM1040 1839l214 -260h-157l-140 126l-178 -126h-157l304 260h114z" />
<glyph unicode="&#xc3;" d="M957 691l-89 531l-297 -531h386zM979 564h-479l-315 -564h-135l889 1592l270 -1592h-135zM982 1770q53 -50 90 -50h4q30 2 63 77h107q-56 -158 -146 -183q-24 -6 -46 -6q-60 0 -110 47q-54 49 -92 49h-4q-29 -1 -63 -77h-107q58 158 148 183q23 7 45 7q60 0 111 -47z" />
<glyph unicode="&#xc4;" d="M957 691l-89 531l-297 -531h386zM979 564h-479l-315 -564h-135l889 1592l270 -1592h-135zM917 1804.5q25 -30.5 16 -73.5q-8 -44 -45 -74.5t-80 -30.5t-68 30.5t-17 74.5q9 43 46 73.5t80 30.5t68 -30.5zM1193 1804.5q25 -30.5 16 -73.5q-8 -44 -45 -74.5t-80 -30.5 t-68 30.5t-17 74.5q9 43 46 73.5t80 30.5t68 -30.5z" />
<glyph unicode="&#xc5;" d="M957 691l-89 531l-297 -531h386zM919 1526h15q7 1 15 8q11 10 13 22q3 13 -4.5 22t-19.5 9q-13 0 -24 -9t-14 -22q-2 -12 6 -22q6 -7 13 -8zM966 1432l243 -1432h-135l-95 564h-479l-315 -564h-135l799 1432q-10 3 -31 29q-31 40 -21 95q11 56 58.5 95.5t103.5 39.5 q55 0 86.5 -39.5t20.5 -95.5q-10 -55 -58 -95q-31 -26 -42 -29z" />
<glyph unicode="&#xc6;" horiz-adv-x="1693" d="M1728 821l-25 -126h-653l-110 -568h653l-25 -127h-780l110 564h-276l-361 -564h-136l954 1516h784l-25 -127h-653l-110 -568h653zM922 691l103 526l-329 -526h226z" />
<glyph unicode="&#xc7;" horiz-adv-x="1540" d="M834 -16q-266 8 -441 226q-183 226 -120 548q62 321 333 548t592 227q301 0 498 -217l-112 -87q-164 176 -411 176q-267 0 -493 -189.5t-278 -457.5q-53 -269 100 -458.5t420 -189.5q247 0 479 176l78 -85q-262 -204 -524 -217l10 19q81 0 101 -50q8 -24 4 -49 q-6 -28 -27 -59q-41 -56 -95 -74q-42 -13 -85 -13h-16q-53 3 -102 41l80 61q19 -7 35 -8h8q15 0 34 4q17 5 28 18q4 7 5 11v2q-12 18 -33 20q-9 1 -24 1q-26 0 -111 -7z" />
<glyph unicode="&#xc8;" horiz-adv-x="1055" d="M1225 1516l-25 -127h-653l-110 -568h653l-25 -126h-653l-110 -568h653l-25 -127h-780l295 1516h780zM861 1851l147 -216h-134l-241 216h228z" />
<glyph unicode="&#xc9;" horiz-adv-x="1055" d="M1225 1516l-25 -127h-653l-110 -568h653l-25 -126h-653l-110 -568h653l-25 -127h-780l295 1516h780zM1167 1851l-325 -216h-134l231 216h228z" />
<glyph unicode="&#xca;" horiz-adv-x="1055" d="M1225 1516l-25 -127h-653l-110 -568h653l-25 -126h-653l-110 -568h653l-25 -127h-780l295 1516h780zM951 1835l213 -260h-157l-138 126l-180 -126h-157l305 260h114z" />
<glyph unicode="&#xcb;" horiz-adv-x="1055" d="M1225 1516l-25 -127h-653l-110 -568h653l-25 -126h-653l-110 -568h653l-25 -127h-780l295 1516h780zM828.5 1814q25.5 -30 16.5 -74q-8 -44 -45 -74.5t-80 -30.5t-68 30.5t-17 74.5q9 44 45.5 74t79.5 30t68.5 -30zM1104.5 1814q25.5 -30 16.5 -74q-8 -44 -45 -74.5 t-80 -30.5t-68 30.5t-17 74.5q9 44 45.5 74t79.5 30t68.5 -30z" />
<glyph unicode="&#xcc;" horiz-adv-x="512" d="M514 1851l146 -216h-133l-241 216h228zM615 1516l-295 -1516h-126l295 1516h126z" />
<glyph unicode="&#xcd;" horiz-adv-x="512" d="M946 1851l-325 -216h-133l230 216h228zM614 1516l-295 -1516h-127l295 1516h127z" />
<glyph unicode="&#xce;" horiz-adv-x="490" d="M603 1516l-295 -1516h-127l295 1516h127zM655 1839l213 -260h-157l-139 126l-178 -126h-157l304 260h114z" />
<glyph unicode="&#xcf;" horiz-adv-x="436" d="M576 1516l-295 -1516h-127l295 1516h127zM506.5 1814q25.5 -30 16.5 -74q-8 -44 -45 -74.5t-80 -30.5t-68 30.5t-17 74.5q9 44 45.5 74t79.5 30t68.5 -30zM782.5 1814q25.5 -30 16.5 -74q-8 -44 -45 -74.5t-80 -30.5t-68 30.5t-17 74.5q9 44 45.5 74t79.5 30t68.5 -30z " />
<glyph unicode="&#xd0;" horiz-adv-x="1239" d="M356 821l136 695h127l-1 -2h-16q373 0 539 -207q183 -228 120 -549q-62 -322 -333 -549q-247 -207 -620 -207h16v-2h-127l135 695h-147l24 126h147zM483 821h340l-24 -126h-340l-110 -565q303 0 505 170q227 189 279 458q52 268 -101 458q-136 170 -439 170z" />
<glyph unicode="&#xd1;" horiz-adv-x="1274" d="M445 1516h126l478 -1249l243 1249h127l-295 -1516h-117l-485 1262l-245 -1262h-127zM990 1770q53 -50 90 -50h4q30 2 63 77h106q-55 -158 -145 -183q-24 -6 -46 -6q-60 0 -111 47q-54 49 -91 49h-4q-29 -1 -63 -77h-108q58 158 148 183q24 7 46 7q60 0 111 -47z" />
<glyph unicode="&#xd2;" horiz-adv-x="1805" d="M1224 1851l146 -216h-133l-241 216h228zM1706.5 1309.5q183.5 -227.5 121.5 -549.5q-63 -322 -335 -549.5t-594 -227.5t-505.5 227.5t-120.5 549.5q62 322 334 549.5t594 227.5t505.5 -227.5zM1176 1409q-268 0 -495 -190t-279 -459q-53 -269 100 -459.5t421 -190.5 q269 0 496 190.5t280 459.5q52 269 -101 459t-422 190z" />
<glyph unicode="&#xd3;" horiz-adv-x="1805" d="M1529 1851l-325 -216h-133l230 216h228zM1706.5 1309.5q183.5 -227.5 121.5 -549.5q-63 -322 -335 -549.5t-594 -227.5t-505.5 227.5t-120.5 549.5q62 322 334 549.5t594 227.5t505.5 -227.5zM1176 1409q-268 0 -495 -190t-279 -459q-53 -269 100 -459.5t421 -190.5 q269 0 496 190.5t280 459.5q52 269 -101 459t-422 190z" />
<glyph unicode="&#xd4;" horiz-adv-x="1805" d="M1706.5 1309.5q183.5 -227.5 121.5 -549.5q-63 -322 -335 -549.5t-594 -227.5t-505.5 227.5t-120.5 549.5q62 322 334 549.5t594 227.5t505.5 -227.5zM1176 1409q-268 0 -495 -190t-279 -459q-53 -269 100 -459.5t421 -190.5q269 0 496 190.5t280 459.5q52 269 -101 459 t-422 190zM1322 1885l214 -260h-157l-139 126l-179 -126h-156l303 260h114z" />
<glyph unicode="&#xd5;" horiz-adv-x="1805" d="M1706.5 1309.5q183.5 -227.5 121.5 -549.5q-63 -322 -335 -549.5t-594 -227.5t-505.5 227.5t-120.5 549.5q62 322 334 549.5t594 227.5t505.5 -227.5zM1176 1409q-268 0 -495 -190t-279 -459q-53 -269 100 -459.5t421 -190.5q269 0 496 190.5t280 459.5q52 269 -101 459 t-422 190zM1259 1789q53 -51 91 -51h4q29 2 63 78h106q-57 -158 -147 -183q-23 -7 -45 -7q-61 0 -111 47q-53 50 -90 50h-4q-30 -2 -63 -77h-108q58 158 147 183q25 6 47 6q60 0 110 -46z" />
<glyph unicode="&#xd6;" horiz-adv-x="1805" d="M1706.5 1309.5q183.5 -227.5 121.5 -549.5q-63 -322 -335 -549.5t-594 -227.5t-505.5 227.5t-120.5 549.5q62 322 334 549.5t594 227.5t505.5 -227.5zM1176 1409q-268 0 -495 -190t-279 -459q-53 -269 100 -459.5t421 -190.5q269 0 496 190.5t280 459.5q52 269 -101 459 t-422 190zM1190.5 1814q25.5 -30 16.5 -74q-8 -44 -45 -74.5t-80 -30.5t-67.5 30.5t-16.5 74.5q9 44 45 74t79 30t68.5 -30zM1466.5 1814q25.5 -30 16.5 -74q-8 -44 -45 -74.5t-80 -30.5t-67.5 30.5t-16.5 74.5q9 44 45 74t79 30t68.5 -30z" />
<glyph unicode="&#xd7;" horiz-adv-x="1062" d="M531 477l-231 -231l-90 90l231 231l-231 231l90 90l231 -231l231 231l89 -91l-231 -230l231 -231l-89 -90z" />
<glyph unicode="&#xd8;" horiz-adv-x="1805" d="M1385 1374q-80 35 -209 35q-268 0 -495 -190t-279 -459q-53 -269 100 -459q56 -69 108 -102zM714 145q81 -35 209 -35q269 0 496 190.5t280 459.5q52 269 -100 459q-57 69 -110 101zM1567 1437q71 -43 139 -127q184 -228 122 -550q-63 -322 -335 -549.5t-594 -227.5 q-156 0 -262 46l-113 -171l-104 54l113 170q-72 44 -139 129q-184 227 -121 549q62 322 334 549.5t594 227.5q156 0 262 -46l112 170l105 -53z" />
<glyph unicode="&#xd9;" horiz-adv-x="1305" d="M1323 1516h127l-210 -1081q-59 -178 -206 -301q-175 -147 -383 -147q-209 0 -327.5 147.5t-78.5 354.5l200 1027h128l-200 -1027q-30 -154 59 -264t244 -110q156 0 286.5 110t160.5 264zM973 1851l147 -216h-133l-241 216h227z" />
<glyph unicode="&#xda;" horiz-adv-x="1305" d="M1280 1851l-325 -216h-133l230 216h228zM1323 1516h127l-210 -1081q-59 -178 -206 -301q-175 -147 -383 -147q-209 0 -327.5 147.5t-78.5 354.5l200 1027h128l-200 -1027q-30 -154 59 -264t244 -110q156 0 286.5 110t160.5 264z" />
<glyph unicode="&#xdb;" horiz-adv-x="1305" d="M1323 1516h127l-210 -1081q-59 -178 -206 -301q-175 -147 -383 -147q-209 0 -327.5 147.5t-78.5 354.5l200 1027h128l-200 -1027q-30 -154 59 -264t244 -110q156 0 286.5 110t160.5 264zM1064 1839l213 -260h-157l-138 126l-180 -126h-156l304 260h114z" />
<glyph unicode="&#xdc;" horiz-adv-x="1305" d="M1216 1804.5q25 -30.5 17 -73.5q-9 -44 -46 -74.5t-80 -30.5t-68 30.5t-16 74.5q8 43 45 73.5t80 30.5t68 -30.5zM940 1804.5q25 -30.5 17 -73.5q-9 -44 -46 -74.5t-80 -30.5t-68 30.5t-16 74.5q8 43 45 73.5t80 30.5t68 -30.5zM1323 1516h127l-210 -1081 q-59 -178 -206 -301q-175 -147 -383 -147q-209 0 -327.5 147.5t-78.5 354.5l200 1027h128l-200 -1027q-30 -154 59 -264t244 -110q156 0 286.5 110t160.5 264z" />
<glyph unicode="&#xdd;" horiz-adv-x="1272" d="M1263 1851l-325 -216h-133l230 216h228zM691 611l-346 905h146l292 -763l588 763h146l-699 -905l-119 -611h-127z" />
<glyph unicode="&#xde;" horiz-adv-x="1097" d="M522 1261h283q172 -24 272 -147q118 -147 78 -355q-41 -209 -216.5 -356t-383.5 -147h-228l-50 -256h-127l295 1516h127zM351 383h228q155 0 286.5 110t162.5 266q30 155 -59 264.5t-244 109.5h-228z" />
<glyph unicode="&#xe0;" horiz-adv-x="1317" d="M1167 0h-127l27 139q-201 -165 -420 -165q-218 0 -342.5 154.5t-82.5 372.5q43 219 227.5 373.5t402.5 154.5q219 0 356 -165l16 83h127zM1122 422l31 159q1 113 -69 200q-94 116 -258 116t-302.5 -116t-170.5 -280t62 -279t258 -115t302 115q104 88 147 200zM855 1328 l146 -216h-133l-241 216h228z" />
<glyph unicode="&#xe1;" horiz-adv-x="1317" d="M1181 1328l-325 -216h-133l230 216h228zM1167 0h-127l27 139q-201 -165 -420 -165q-218 0 -342.5 154.5t-82.5 372.5q43 219 227.5 373.5t402.5 154.5q219 0 356 -165l16 83h127zM1122 422l31 159q1 113 -69 200q-94 116 -258 116t-302.5 -116t-170.5 -280t62 -279 t258 -115t302 115q104 88 147 200z" />
<glyph unicode="&#xe2;" horiz-adv-x="1317" d="M1167 0h-127l27 139q-201 -165 -420 -165q-218 0 -342.5 154.5t-82.5 372.5q43 219 227.5 373.5t402.5 154.5q219 0 356 -165l16 83h127zM1122 422l31 159q1 113 -69 200q-94 116 -258 116t-302.5 -116t-170.5 -280t62 -279t258 -115t302 115q104 88 147 200zM963 1362 l212 -259h-157l-138 125l-179 -125h-157l305 259h114z" />
<glyph unicode="&#xe3;" horiz-adv-x="1317" d="M1167 0h-127l27 139q-201 -165 -420 -165q-218 0 -342.5 154.5t-82.5 372.5q43 219 227.5 373.5t402.5 154.5q219 0 356 -165l16 83h127zM1122 422l31 159q1 113 -69 200q-94 116 -258 116t-302.5 -116t-170.5 -280t62 -279t258 -115t302 115q104 88 147 200zM907 1294 q53 -51 91 -51h4q29 2 62 78h107q-57 -158 -147 -183q-23 -7 -46 -7q-60 0 -110 47q-53 50 -91 50h-3q-31 -2 -63 -77h-108q57 158 147 183q23 6 46 6q60 0 111 -46z" />
<glyph unicode="&#xe4;" horiz-adv-x="1317" d="M1118 1337.5q25 -30.5 17 -73.5q-9 -44 -46 -74.5t-80 -30.5t-68 30.5t-16 74.5q8 43 45 73.5t80 30.5t68 -30.5zM842 1337.5q25 -30.5 17 -73.5q-9 -44 -46 -74.5t-80 -30.5t-68 30.5t-16 74.5q8 43 45 73.5t80 30.5t68 -30.5zM1167 0h-127l27 139q-201 -165 -420 -165 q-218 0 -342.5 154.5t-82.5 372.5q43 219 227.5 373.5t402.5 154.5q219 0 356 -165l16 83h127zM1122 422l31 159q1 113 -69 200q-94 116 -258 116t-302.5 -116t-170.5 -280t62 -279t258 -115t302 115q104 88 147 200z" />
<glyph unicode="&#xe5;" horiz-adv-x="1317" d="M1122 422l31 159q1 113 -69 200q-94 116 -258 116t-302.5 -116t-170.5 -280t62 -279t258 -115t302 115q104 88 147 200zM868 1138q-13 0 -24 -9t-14 -22q-2 -12 5.5 -21.5t20.5 -9.5q12 0 23 9.5t13 21.5q3 13 -4.5 22t-19.5 9zM938 1012h2q145 0 256 -137l12 -11l16 83 h127l-184 -947h-127l27 139q6 7 7 8q-2 0 -23 -18q-185 -155 -404 -155q-218 0 -342.5 154.5t-82.5 372.5q43 219 228 374q160 134 298 137q-33 40 -22 95q11 56 58.5 95.5t103.5 39.5q55 0 87 -39.5t21 -95.5q-11 -55 -58 -95z" />
<glyph unicode="&#xe6;" horiz-adv-x="2057" d="M1099 691q-16 48 -50 90q-94 116 -258 116t-302.5 -116t-170.5 -280t62 -279t258 -115t302 115q50 42 86 90q39 52 61 109l31 160q0 58 -19 110zM1941 654q-6 61 -60 127q-93 116 -257 116t-302 -116q-29 -24 -46 -42l-17 -85h682zM1184 265q10 -20 29 -42 q94 -116 258 -116t301 115q25 21 59 55l120 -45q-41 -52 -103 -103q-184 -155 -403 -155q-206 0 -298 104l-15 -78h-127l27 139q-201 -165 -420 -165q-218 0 -342.5 154.5t-82.5 372.5q43 219 227.5 373.5t402.5 154.5q219 0 356 -165l16 83h127l-4 -21q132 103 338 103 q219 0 343 -154q110 -138 75 -349l-834 1z" />
<glyph unicode="&#xe7;" horiz-adv-x="1154" d="M547 -23q-161 8 -277 152q-125 154 -82 373q42 218 226.5 372.5t402.5 154.5q219 0 344 -154q25 -32 56 -89l-139 -48q-17 28 -29 44q-94 115 -258 115q-163 0 -301.5 -115.5t-169.5 -279.5q-32 -164 61.5 -279.5t256.5 -115.5q164 0 302 115q18 15 47 43l120 -46 q-54 -59 -91 -90q-150 -125 -298 -125q-16 0 -32 1q71 -15 90 -44t14 -55q-6 -29 -28 -58q-40 -56 -94 -74q-42 -13 -84 -13h-15q-55 3 -105 40l82 62q18 -7 36 -9h7q16 0 34 5q17 5 26 18q2 4 3 8q1 7 -3 13q-6 9 -27 12q-9 1 -23 1q-26 0 -111 -8z" />
<glyph unicode="&#xe8;" horiz-adv-x="1243" d="M408 192q78 -85 230 -85q164 0 302 115q18 15 47 43l120 -46q-54 -59 -91 -90q-185 -155 -404 -155q-218 0 -342.5 154.5t-81.5 373.5q42 218 226.5 372.5t402.5 154.5q187 0 306 -112q20 -19 38 -42q6 -9 24 -33l-92 -77zM996 834q-70 63 -205 63q-163 0 -301.5 -115.5 t-169.5 -279.5q-27 -135 20 -217zM831 1328l146 -216h-133l-241 216h228z" />
<glyph unicode="&#xe9;" horiz-adv-x="1243" d="M1136 1328l-325 -216h-133l230 216h228zM408 192q78 -85 230 -85q164 0 302 115q18 15 47 43l120 -46q-54 -59 -91 -90q-185 -155 -404 -155q-218 0 -342.5 154.5t-81.5 373.5q42 218 226.5 372.5t402.5 154.5q187 0 306 -112q20 -19 38 -42q6 -9 24 -33l-92 -77z M996 834q-70 63 -205 63q-163 0 -301.5 -115.5t-169.5 -279.5q-27 -135 20 -217z" />
<glyph unicode="&#xea;" horiz-adv-x="1243" d="M408 192q78 -85 230 -85q164 0 302 115q18 15 47 43l120 -46q-54 -59 -91 -90q-185 -155 -404 -155q-218 0 -342.5 154.5t-81.5 373.5q42 218 226.5 372.5t402.5 154.5q187 0 306 -112q20 -19 38 -42q6 -9 24 -33l-92 -77zM996 834q-70 63 -205 63q-163 0 -301.5 -115.5 t-169.5 -279.5q-27 -135 20 -217zM931 1362l212 -259h-157l-138 125l-179 -125h-157l305 259h114z" />
<glyph unicode="&#xeb;" horiz-adv-x="1243" d="M408 192q78 -85 230 -85q164 0 302 115q18 15 47 43l120 -46q-54 -59 -91 -90q-185 -155 -404 -155q-218 0 -342.5 154.5t-81.5 373.5q42 218 226.5 372.5t402.5 154.5q187 0 306 -112q20 -19 38 -42q6 -9 24 -33l-92 -77zM996 834q-70 63 -205 63q-163 0 -301.5 -115.5 t-169.5 -279.5q-27 -135 20 -217zM807.5 1337.5q24.5 -30.5 16.5 -73.5q-9 -44 -45.5 -74.5t-79.5 -30.5t-68 30.5t-16 74.5q8 43 45 73.5t80 30.5t67.5 -30.5zM1083.5 1337.5q24.5 -30.5 16.5 -73.5q-9 -44 -45.5 -74.5t-79.5 -30.5t-68 30.5t-16 74.5q8 43 45 73.5 t80 30.5t67.5 -30.5z" />
<glyph unicode="&#xec;" horiz-adv-x="512" d="M412 1328l146 -216h-133l-241 216h228zM504 947l-184 -947h-126l184 947h126z" />
<glyph unicode="&#xed;" horiz-adv-x="512" d="M844 1328l-325 -216h-133l230 216h228zM503 947l-184 -947h-127l184 947h127z" />
<glyph unicode="&#xee;" horiz-adv-x="490" d="M562 1362l213 -259h-157l-139 125l-178 -125h-157l304 259h114zM492 947l-184 -947h-127l184 947h127z" />
<glyph unicode="&#xef;" horiz-adv-x="436" d="M690 1337.5q25 -30.5 17 -73.5q-9 -44 -46 -74.5t-80 -30.5t-68 30.5t-16 74.5q8 43 45 73.5t80 30.5t68 -30.5zM414 1337.5q25 -30.5 17 -73.5q-9 -44 -46 -74.5t-80 -30.5t-68 30.5t-16 74.5q8 43 45 73.5t80 30.5t68 -30.5zM465 947l-184 -947h-127l184 947h127z" />
<glyph unicode="&#xf0;" horiz-adv-x="1234" d="M318 501q-32 -164 62 -279t258 -115t302 115t170 279t-61.5 280t-257.5 116t-302.5 -116t-170.5 -280zM1105 932q29 -25 56 -57q123 -155 80 -374q-42 -218 -226 -372.5t-403 -154.5q-218 0 -342.5 154.5t-82.5 372.5q43 219 227.5 373.5t409.5 157.5l-5 6h-166l24 127 h52l-75 105h177l85 -105h163l-24 -127h-35z" />
<glyph unicode="&#xf1;" horiz-adv-x="1053" d="M417 719l-140 -719h-127l184 947h127l-5 -27q98 82 257 82q169 0 254.5 -107t57.5 -268l-122 -627h-126l120 619q21 106 -41.5 181t-167.5 75t-196 -74q-50 -42 -75 -82zM787 1294q53 -51 91 -51h4q29 2 62 78h107q-57 -158 -147 -183q-23 -7 -46 -7q-60 0 -110 47 q-53 50 -90 50h-4q-31 -2 -63 -77h-108q57 158 147 183q23 6 46 6q60 0 111 -46z" />
<glyph unicode="&#xf2;" horiz-adv-x="1234" d="M817 1029q219 0 343 -154.5t81 -373.5q-42 -218 -226 -372.5t-403 -154.5q-218 0 -342.5 154.5t-82.5 372.5q43 219 227.5 373.5t402.5 154.5zM488.5 781q-138.5 -116 -170.5 -280t62 -279t258 -115t302 115t170 279t-61.5 280t-257.5 116t-302.5 -116zM836 1328 l147 -216h-133l-241 216h227z" />
<glyph unicode="&#xf3;" horiz-adv-x="1234" d="M1142 1328l-325 -216h-133l230 216h228zM817 1029q219 0 343 -154.5t81 -373.5q-42 -218 -226 -372.5t-403 -154.5q-218 0 -342.5 154.5t-82.5 372.5q43 219 227.5 373.5t402.5 154.5zM488.5 781q-138.5 -116 -170.5 -280t62 -279t258 -115t302 115t170 279t-61.5 280 t-257.5 116t-302.5 -116z" />
<glyph unicode="&#xf4;" horiz-adv-x="1234" d="M817 1029q219 0 343 -154.5t81 -373.5q-42 -218 -226 -372.5t-403 -154.5q-218 0 -342.5 154.5t-82.5 372.5q43 219 227.5 373.5t402.5 154.5zM488.5 781q-138.5 -116 -170.5 -280t62 -279t258 -115t302 115t170 279t-61.5 280t-257.5 116t-302.5 -116zM936 1362 l213 -259h-157l-138 125l-180 -125h-157l305 259h114z" />
<glyph unicode="&#xf5;" horiz-adv-x="1234" d="M817 1029q219 0 343 -154.5t81 -373.5q-42 -218 -226 -372.5t-403 -154.5q-218 0 -342.5 154.5t-82.5 372.5q43 219 227.5 373.5t402.5 154.5zM488.5 781q-138.5 -116 -170.5 -280t62 -279t258 -115t302 115t170 279t-61.5 280t-257.5 116t-302.5 -116zM878 1294 q53 -51 91 -51h4q29 2 62 78h107q-57 -158 -147 -183q-23 -7 -46 -7q-60 0 -110 47q-53 50 -91 50h-4q-30 -2 -62 -77h-108q57 158 147 183q23 6 46 6q60 0 111 -46z" />
<glyph unicode="&#xf6;" horiz-adv-x="1234" d="M1089 1337.5q25 -30.5 17 -73.5q-9 -44 -46 -74.5t-80 -30.5t-68 30.5t-16 74.5q8 43 45 73.5t80 30.5t68 -30.5zM813 1337.5q25 -30.5 17 -73.5q-9 -44 -46 -74.5t-80 -30.5t-68 30.5t-16 74.5q8 43 45 73.5t80 30.5t68 -30.5zM817 1029q219 0 343 -154.5t81 -373.5 q-42 -218 -226 -372.5t-403 -154.5q-218 0 -342.5 154.5t-82.5 372.5q43 219 227.5 373.5t402.5 154.5zM488.5 781q-138.5 -116 -170.5 -280t62 -279t258 -115t302 115t170 279t-61.5 280t-257.5 116t-302.5 -116z" />
<glyph unicode="&#xf7;" horiz-adv-x="1030" d="M125 650h780v-127h-780v127zM589 894.5q31 -30.5 31 -73.5q0 -44 -31 -74.5t-74 -30.5t-74 30.5t-31 74.5q0 43 31 73.5t74 30.5t74 -30.5zM589 426.5q31 -30.5 31 -73.5q0 -44 -31 -74.5t-74 -30.5t-74 30.5t-31 74.5q0 43 31 73.5t74 30.5t74 -30.5z" />
<glyph unicode="&#xf8;" horiz-adv-x="1234" d="M929 874q-49 24 -138 24q-164 0 -302.5 -116t-170.5 -280t62 -279q19 -24 25 -28zM1025 810l-525 -679q49 -24 138 -24q164 0 302 115.5t170 279.5t-61 280q-20 24 -24 28zM316 80q-19 15 -46 50q-125 154 -83 372q43 219 227.5 373.5t402.5 154.5q124 0 201 -41l151 196 l101 -58l-156 -202q19 -15 47 -49q123 -155 80 -374q-42 -218 -226 -372.5t-403 -154.5q-124 0 -200 41l-151 -196l-103 54z" />
<glyph unicode="&#xf9;" horiz-adv-x="1079" d="M543 -13q-179 0 -265 106.5t-58 268.5l115 587h127l-113 -579q-21 -106 42 -180q61 -76 175 -76q105 0 196 75t112 181l113 579h127l-115 -587q-34 -162 -161 -268q-127 -107 -295 -107zM758 1328l147 -216h-133l-241 216h227z" />
<glyph unicode="&#xfa;" horiz-adv-x="1079" d="M543 -13q-179 0 -265 106.5t-58 268.5l115 587h127l-113 -579q-21 -106 42 -180q61 -76 175 -76q105 0 196 75t112 181l113 579h127l-115 -587q-34 -162 -161 -268q-127 -107 -295 -107zM1065 1328l-325 -216h-134l231 216h228z" />
<glyph unicode="&#xfb;" horiz-adv-x="1079" d="M543 -13q-179 0 -265 106.5t-58 268.5l115 587h127l-113 -579q-21 -106 42 -180q61 -76 175 -76q105 0 196 75t112 181l113 579h127l-115 -587q-34 -162 -161 -268q-127 -107 -295 -107zM858 1362l214 -259h-157l-139 125l-179 -125h-157l304 259h114z" />
<glyph unicode="&#xfc;" horiz-adv-x="1079" d="M1012 1337.5q25 -30.5 17 -73.5q-9 -44 -46 -74.5t-80 -30.5t-68 30.5t-16 74.5q8 43 45 73.5t80 30.5t68 -30.5zM736 1337.5q25 -30.5 17 -73.5q-9 -44 -46 -74.5t-80 -30.5t-68 30.5t-16 74.5q8 43 45 73.5t80 30.5t68 -30.5zM543 -13q-179 0 -265 106.5t-58 268.5 l115 587h127l-113 -579q-21 -106 42 -180q61 -76 175 -76q105 0 196 75t112 181l113 579h127l-115 -587q-34 -162 -161 -268q-127 -107 -295 -107z" />
<glyph unicode="&#xfd;" horiz-adv-x="1007" d="M1028 1328l-325 -216h-133l230 216h228zM483 6l-237 -351h-129l358 534l-216 758h143l166 -617l406 617h141l-632 -942v1z" />
<glyph unicode="&#xfe;" horiz-adv-x="1292" d="M373 602l-39 -201q4 -100 69 -179q94 -116 258 -116q163 0 301 115.5t170 279.5t-61.5 280t-256.5 116q-164 0 -302 -116q-96 -79 -139 -179zM425 869q197 159 415 159t342.5 -154t81.5 -373q-42 -218 -226.5 -372.5t-402.5 -154.5t-353 160l-90 -463h-127l323 1661h127z " />
<glyph unicode="&#xff;" horiz-adv-x="1007" d="M483 6l-237 -351h-129l358 534l-216 758h143l166 -617l406 617h141l-632 -942v1zM699.5 1337.5q24.5 -30.5 16.5 -73.5q-9 -44 -45.5 -74.5t-79.5 -30.5t-68 30.5t-16 74.5q8 43 45 73.5t80 30.5t67.5 -30.5zM975.5 1337.5q24.5 -30.5 16.5 -73.5q-9 -44 -45.5 -74.5 t-79.5 -30.5t-68 30.5t-16 74.5q8 43 45 73.5t80 30.5t67.5 -30.5z" />
<glyph unicode="&#x152;" horiz-adv-x="2173" d="M1602 1389q12 -8 69 -79q172 -214 131 -489h405l-24 -126h-405q-67 -273 -320 -484q-89 -75 -106 -84h721l-25 -127h-941q-114 -17 -243 -17q-322 0 -505.5 227.5t-120.5 549.5q62 322 334 549.5t594 227.5q129 0 237 -21h940l-25 -127h-716zM1670 798q35 244 -106 421 q-57 69 -127 112q-35 22 -73 38q-99 40 -223 40q-268 0 -495 -190t-279 -459q-53 -269 100 -459.5t421 -190.5q124 0 239 40q44 16 87 38q88 43 170 113q209 175 270 417l10 42q3 20 6 38z" />
<glyph unicode="&#x153;" horiz-adv-x="2016" d="M318 501q-32 -164 62 -279t258 -115t302 115t170 279t-61.5 280t-257.5 116t-302.5 -116t-170.5 -280zM1234 737q13 -41 16 -83h651q-7 61 -60 127q-94 116 -258 116t-302 -116q-31 -26 -47 -44zM1142 266q9 -17 30 -44q94 -115 258 -115t302 115q24 21 59 55l119 -45 q-41 -52 -102 -103q-185 -155 -404 -155q-218 0 -342 155q-18 22 -19 24q-2 -2 -27 -24q-185 -155 -404 -155q-218 0 -342.5 154.5t-82.5 372.5q43 219 227.5 373.5t402.5 154.5q219 0 344 -154q17 -22 17 -24q3 2 29 24q184 154 402 154q219 0 344 -154q109 -138 75 -349 h-782l-5 -25q-26 -136 -99 -235z" />
<glyph unicode="&#x178;" horiz-adv-x="1272" d="M1209 1855.5q25 -30.5 17 -73.5q-9 -44 -46 -74.5t-80 -30.5t-68 30.5t-16 74.5q8 43 45 73.5t80 30.5t68 -30.5zM933 1855.5q25 -30.5 17 -73.5q-9 -44 -46 -74.5t-80 -30.5t-68 30.5t-16 74.5q8 43 45 73.5t80 30.5t68 -30.5zM691 611l-346 905h146l292 -763l588 763 h146l-699 -905l-119 -611h-127z" />
<glyph unicode="&#x2c6;" horiz-adv-x="871" d="M753 1362l213 -259h-157l-139 125l-178 -125h-157l304 259h114z" />
<glyph unicode="&#x2dc;" horiz-adv-x="835" d="M678 1294q53 -51 91 -51h4q29 2 62 78h107q-57 -158 -147 -183q-23 -7 -46 -7q-60 0 -110 47q-53 50 -91 50h-3q-30 -2 -63 -77h-108q58 158 148 183q23 6 46 6q60 0 110 -46z" />
<glyph unicode="&#x2000;" horiz-adv-x="943" />
<glyph unicode="&#x2001;" horiz-adv-x="1886" />
<glyph unicode="&#x2002;" horiz-adv-x="943" />
<glyph unicode="&#x2003;" horiz-adv-x="1886" />
<glyph unicode="&#x2004;" horiz-adv-x="628" />
<glyph unicode="&#x2005;" horiz-adv-x="471" />
<glyph unicode="&#x2006;" horiz-adv-x="314" />
<glyph unicode="&#x2007;" horiz-adv-x="314" />
<glyph unicode="&#x2008;" horiz-adv-x="235" />
<glyph unicode="&#x2009;" horiz-adv-x="377" />
<glyph unicode="&#x200a;" horiz-adv-x="104" />
<glyph unicode="&#x2010;" horiz-adv-x="837" d="M248 630h587l-25 -127h-587z" />
<glyph unicode="&#x2011;" horiz-adv-x="837" d="M248 630h587l-25 -127h-587z" />
<glyph unicode="&#x2013;" horiz-adv-x="853" d="M50 630h753v-127h-753v127z" />
<glyph unicode="&#x2014;" horiz-adv-x="1438" d="M50 630h1338v-127h-1338v127z" />
<glyph unicode="&#x2018;" horiz-adv-x="311" d="M475 1382q2 0 19 -21q25 -31 16 -75q-8 -43 -45 -73.5t-80 -30.5t-68 30.5t-17 73.5q5 24 17 45l135 195h105z" />
<glyph unicode="&#x2019;" horiz-adv-x="311" d="M363 1326q-3 1 -19 22q-25 30 -16 74q8 44 44.5 74t79.5 30q44 0 68.5 -30t16.5 -74q-5 -23 -17 -45l-135 -195h-105z" />
<glyph unicode="&#x201a;" horiz-adv-x="311" d="M104 -6q-3 1 -19 22q-25 30 -16 74q8 43 44.5 73.5t79.5 30.5q44 0 68.5 -30.5t16.5 -73.5q-5 -23 -17 -45l-135 -195h-105z" />
<glyph unicode="&#x201c;" horiz-adv-x="542" d="M475 1382q2 0 19 -21q25 -31 16 -75q-8 -43 -45 -73.5t-80 -30.5t-68 30.5t-17 73.5q5 24 17 45l135 195h105zM706 1382q3 0 20 -21q24 -31 15 -75q-8 -43 -44.5 -73.5t-79.5 -30.5t-68 30.5t-17 73.5q5 24 17 45l135 195h105z" />
<glyph unicode="&#x201d;" horiz-adv-x="542" d="M363 1326q-3 1 -19 22q-25 30 -16 74q8 44 44.5 74t79.5 30q44 0 68.5 -30t16.5 -74q-5 -23 -17 -45l-135 -195h-105zM595 1326q-3 1 -19 22q-25 30 -16 74q8 44 44.5 74t79.5 30t68 -30t17 -74q-5 -23 -17 -45l-135 -195h-105z" />
<glyph unicode="&#x201e;" horiz-adv-x="542" d="M104 -6q-3 1 -19 22q-25 30 -16 74q8 43 44.5 73.5t79.5 30.5q44 0 68.5 -30.5t16.5 -73.5q-5 -23 -17 -45l-135 -195h-105zM336 -6q-3 1 -19 22q-25 30 -16 74q8 43 44.5 73.5t79.5 30.5t68 -30.5t17 -73.5q-5 -23 -17 -45l-135 -195h-105z" />
<glyph unicode="&#x2022;" horiz-adv-x="2930" d="M298 88v-116q0 -4 4 -13t36 -17q-32 -10 -86 -43q-17 -10 -33 -10q-36 0 -71 51q20 10 28 15t8 9v180q0 22 -34 32q88 42 126 68q18 -2 22 -52v-2q14 6 26 12l116 42q8 -42 18 -76t20 -99q2 -12 2 -24q0 -54 -37 -111q-45 -70 -127 -142q52 96 52 179q0 22 -4 44 q-18 101 -30 127q-36 -26 -36 -54zM666 -198q-2 3 -5 3q-4 0 -11 -7q-53 -53 -103 -53q-16 0 -32 6q-64 23 -64 88v2q1 67 69 97q-8 22 -8 26v180q0 22 -34 32q88 42 126 68q18 -2 22 -52v-220q2 -17 13 -17t33 19v170q0 22 -34 32q88 42 126 68q18 -2 22 -52v-180 q0 -51 -79 -87t-125 -36h-5q-43 0 -53 -33q-2 -8 -2 -15q0 -22 25 -32q10 -4 21 -4q28 0 68 23q34 20 63 20q18 0 33 -8q18 -8 30 -32q5 -10 5 -20q0 -13 -9 -26q-16 -16 -33 -16q-8 0 -17 4q-26 16 -42 52zM1508 34q-4 32 -20 58q-14 24 -26 50q-34 -26 -34 -74 q0 -22 14 -46t36 -24q28 4 30 36zM1740 196q8 4 18 8l114 42q8 -42 18 -76q12 -34 21 -79q2 -9 2 -20q0 -40 -27 -99q-34 -74 -122 -140q42 81 42 149q0 26 -6 50q-22 87 -34 113q-18 -12 -26 -26v-146q0 -4 4 -13t36 -17q-32 -10 -86 -43q-17 -10 -33 -10q-36 0 -71 51 q20 10 28 15t8 9v384q0 22 -34 34q88 42 125 52q19 -28 43 -56q-20 -4 -20 -22v-160zM2186 244q6 -42 28 -114q11 -33 11 -61q0 -31 -13 -55q-28 -60 -96 -96q-63 -32 -103 -32h-8q-41 4 -67 72q-13 38 -13 71q0 37 15 69q28 62 130 104zM2124 34q-4 32 -20 58 q-14 24 -26 50q-34 -26 -34 -74q0 -22 14 -46t38 -24q28 4 28 36zM2370 88v-116q0 -4 4 -13t36 -17q-30 -10 -84 -43q-17 -10 -33 -10q-37 0 -73 51q20 10 28 15t8 9v180q0 22 -34 32q88 42 126 68q18 -2 22 -52v-2l28 12l114 42q8 -42 18 -76q12 -34 21 -99q2 -11 2 -22 q0 -55 -37 -113q-44 -70 -128 -142q52 96 52 179q0 22 -4 44q-18 101 -30 127q-34 -26 -34 -54h-2zM2606 112q-18 -8 -38 -20q-9 20 -9 40q0 19 9 38q8 16 28 26q6 2 10 4v66q0 64 38 112t128 54q-52 -56 -52 -158v-86q24 10 44 22q9 -20 9 -39q0 -20 -9 -39q-8 -16 -28 -26 q-8 -4 -16 -4v-88q3 -31 26 -31q14 0 36 11q-26 -54 -76 -91q-17 -12 -37 -12q-42 0 -99 49q20 10 28 15t8 9v148zM1180 1806h546q28 -22 252 -330q56 -60 56 -90v-14l-50 -182l14 -42l-28 -42h8q118 48 118 132v8q-20 24 -20 48q0 78 132 78h8q104 0 210 -140 q68 -56 258 -112v-28q-20 0 -20 -14l6 -8v-6q-6 -28 -42 -28h-14l-216 -14q-32 28 -106 28l-62 28l-8 -22q26 -84 120 -84l20 -6q78 6 78 20v8l-14 20v8l28 -14l34 6h112l42 8l22 -8v-14q0 -40 -204 -70l-126 8v-22q114 -34 190 -34h42v-8q-52 -70 -162 -70h-28 q-70 0 -160 36v-8q0 -36 160 -90q0 -28 -76 -36q-44 0 -190 64q0 -34 70 -92l-20 -14l-134 42v-6l22 -56l-28 -8q-38 0 -134 126l-62 -308v-6h-742q-38 0 -84 294q-74 -94 -120 -106l-28 8l22 62h-8q-86 -42 -132 -42l-14 22q70 42 70 84h-8q-128 -64 -188 -64q-70 8 -70 36 q160 54 160 90v8h-6q-72 -36 -154 -36h-28q-110 0 -162 70v8h42q76 0 190 34v22l-140 -8q-190 34 -190 70v14h14v8l50 -8h112l28 -6l34 14v-8l-14 -20v-8q0 -14 70 -20q148 12 148 104l-8 8q-52 -28 -140 -36q0 -10 -28 -20l-216 14h-14q-36 0 -42 28l6 20l-20 8v28 q224 62 294 146q74 106 174 106h8q132 0 132 -78q0 -24 -20 -48v-8q22 -126 112 -126l-70 302q24 0 84 90zM948 1448h22q192 228 238 302q-22 0 -22 20h-6q-112 -112 -112 -154q-120 -132 -120 -168zM1704 1764v-22q194 -256 232 -286v6q-174 262 -232 302zM1628 1708 l182 -288q56 -84 90 -84l28 22l-258 384zM1222 1714l-64 -84q-174 -216 -196 -280h8l6 -6h8q0 34 90 132l162 224zM1018 1350v-6l224 -644h406q92 254 190 608l-70 112q-162 250 -162 274h-336zM1440 1480h4q178 0 178 -182q0 -34 -50 -140v-8l70 -188h-406v6q64 152 64 204 q-42 90 -42 126q34 182 182 182zM690 1322v-6l20 -42l70 28v20h-90zM2118 1322v-20l70 -28l20 42v6h-90zM1718 728h8q98 0 168 448q-6 48 -22 48q-42 -56 -154 -462v-34zM1004 1196v-20q68 -454 196 -490l-188 510h-8zM424 1106v-8l14 -14h90l22 22v14h-14v6zM2348 1120v-14 l22 -22h90l14 14v8l-104 20zM710 1098l-14 -56l8 -6h28l14 14l-22 48h-14zM2146 1056l20 -20h22l14 14l-14 48h-22q-20 -6 -20 -42zM2090 1008v-28l14 -14h20v34l-20 22zM780 1014l-6 -6v-42h20l14 14v14q0 10 -28 20zM522 874v-14h90q90 0 126 78v48h-6l-112 -48 q0 -14 -78 -42zM2160 986v-20q0 -90 118 -106h98v14q-26 30 -98 56q0 20 -84 36l-28 20h-6zM850 944v-6l22 -22h6l14 14v8l-20 20h-8zM2006 938v-8l14 -14h6l22 22v6l-14 14h-8zM704 804v-6l6 -8v-6q112 40 112 126v6h-6q-64 -42 -112 -112zM2076 916v-6q0 -86 112 -126l6 6 v14q-48 70 -112 112h-6zM948 910l-14 -22l8 -6h6l14 14zM1942 910l-6 -8v-6l14 -14l14 14zM830 762h6l64 22v76h-8q-62 -32 -62 -98zM1998 860v-76l64 -22h6v8q0 56 -62 90h-8zM1900 812q0 -32 56 -64l8 8v34l-50 42q-14 0 -14 -20zM970 826l-36 -36v-28l8 -6v-8 q28 10 42 36v28zM1256 658l14 -14h308l70 6v8h-392zM1180 510v-6l28 -8l146 70v8q0 14 -84 28q-34 0 -90 -92zM1544 574v-8l154 -70l20 8v6q-36 68 -84 92q-90 -14 -90 -28zM1310 -57v201q0 22 -34 32q88 42 126 68q14 -30 28 -52q12 4 24 10l114 42q8 -42 30 -114 q10 -33 10 -61q0 -31 -12 -55q-28 -60 -96 -96q-44 -22 -76 -30v-58q0 -6 4 -15t36 -15q-32 -12 -85 -45q-16 -10 -32 -10q-37 0 -73 53q20 8 28 14t8 8v121q-31 -11 -82 -43q-12 -7 -24 -7q-25 0 -44 37v144q-4 30 -34 70q-10 -14 -14 -38v-132q0 -4 4 -13t36 -17 q-32 -10 -86 -44q-13 -7 -24 -7q-26 0 -44 37v144q-4 30 -34 70q-18 -14 -18 -38v-132q0 -4 4 -13t18 -17q-14 -10 -68 -43q-17 -10 -33 -10q-36 0 -71 51l27 15q9 5 9 9v180q0 22 -34 32q86 42 126 68q18 -2 22 -52v-2q12 6 26 12l86 42q2 -8 28 -42q8 -8 12 -16 q18 8 38 16l86 42q0 -8 26 -41t26 -51v-180q0 -4 4 -13q4 -8 32 -16z" />
<glyph unicode="&#x2026;" horiz-adv-x="2068" d="M311 165.5q25 -30.5 17 -73.5q-9 -44 -46 -74.5t-80 -30.5t-68 30.5t-16 74.5q8 43 45 73.5t80 30.5t68 -30.5zM939 165.5q25 -30.5 17 -73.5q-9 -44 -46 -74.5t-80 -30.5t-68 30.5t-16 74.5q8 43 45 73.5t80 30.5t68 -30.5zM1567.5 165.5q24.5 -30.5 16.5 -73.5 q-9 -44 -45.5 -74.5t-79.5 -30.5q-44 0 -68.5 30.5t-15.5 74.5q8 43 44.5 73.5t80.5 30.5q43 0 67.5 -30.5z" />
<glyph unicode="&#x202f;" horiz-adv-x="377" />
<glyph unicode="&#x2039;" horiz-adv-x="647" d="M187 447l540 479l-31 -160l-359 -319l235 -319l-31 -161z" />
<glyph unicode="&#x203a;" horiz-adv-x="647" d="M94 -33l31 161l358 319l-234 319l31 160l354 -479z" />
<glyph unicode="&#x205f;" horiz-adv-x="471" />
<glyph unicode="&#x20ac;" horiz-adv-x="1405" d="M426 858l26 131q42 218 227 372.5t402 154.5q219 0 356 -170l-111 -93q-107 131 -271 131q-163 0 -301 -115.5t-170 -279.5l-26 -131h609l-49 -127h-584l-13 -66h570l-50 -127h-545l-7 -37q-32 -164 61.5 -279t256.5 -115q164 0 303 115q86 72 138 177h135 q-71 -164 -199 -270q-184 -155 -403 -155q-217 0 -342 154.5t-82 372.5l7 37h-159l50 127h134l13 66h-120l49 127h95z" />
<glyph unicode="&#x2122;" horiz-adv-x="1231" d="M465 1432h-101v-556h-97v556h-167v91h451l233 -358l233 358l86 1v-648h-96v459l-223 -343l-223 343v-459h-96v556z" />
</font>
</defs>
</svg>
