<?xml version="1.0" standalone="no"?>
<!DOCTYPE svg PUBLIC "-//W3C//DTD SVG 1.1//EN" "http://www.w3.org/Graphics/SVG/1.1/DTD/svg11.dtd" >
<svg xmlns="http://www.w3.org/2000/svg">
<metadata>
This is a custom SVG webfont generated by Font Squirrel.
Designer    : La Tipomatika (Digital Type Foundry)
Foundry     : La Tipomatika
</metadata>
<defs>
<font id="webfontbasxopSl" horiz-adv-x="596" >
<font-face units-per-em="1000" ascent="800" descent="-200" />
<missing-glyph horiz-adv-x="257" />
<glyph unicode=" "  horiz-adv-x="257" />
<glyph unicode="&#x09;" horiz-adv-x="257" />
<glyph unicode="&#xa0;" horiz-adv-x="257" />
<glyph unicode="!" horiz-adv-x="176" d="M103 15q0 -10 -6.5 -17t-16.5 -7t-17 7t-7 17t7 16.5t17 6.5q21 0 23 -23zM62 99v592h36v-592h-36z" />
<glyph unicode="&#x22;" horiz-adv-x="217" d="M47 554l-11 137h48l7 -63l-38 -80zM122 554l-11 137h48l7 -63l-38 -80z" />
<glyph unicode="#" horiz-adv-x="714" d="M32 221l36 44h106l52 143h-194l35 44h175l71 192h45l-70 -192h240l71 192h45l-70 -192h116l-35 -44h-97l-53 -143h186l-36 -44h-166l-79 -221h-46l80 221h-241l-79 -221h-46l80 221h-126zM272 408l-53 -143h241l52 143h-240z" />
<glyph unicode="$" horiz-adv-x="466" d="M211 366v286q-55 -11 -93.5 -50t-38.5 -89q0 -52 37 -93t95 -54zM253 318v-283q56 8 95.5 45.5t39.5 89.5q0 53 -38 95t-97 53zM211 737h42v-43q105 0 174 -77l-34 -27q-55 65 -140 65v-296q78 -15 129 -67t51 -119q0 -70 -51.5 -120.5t-128.5 -59.5v-59h-42v57 q-4 1 -11 1q-107 11 -164 93l34 27q22 -33 60 -56t81 -23v290q-77 14 -126.5 66t-49.5 120q0 71 49.5 121.5t126.5 61.5v45z" />
<glyph unicode="&#x26;" horiz-adv-x="597" d="M248 0q-88 0 -147.5 55.5t-59.5 132.5q0 120 157 193l26 12l-18 21q-46 50 -61 81t-15 61q0 55 43.5 97t112.5 42q63 0 104.5 -38.5t41.5 -93.5q0 -87 -125 -156l-22 -12l165 -206l14 28q23 45 32 85l50 -11q-27 -85 -61 -134l-2 -20l1 -3l20 -30q6 -8 17 -19.5t29 -26.5 v-51q-29 18 -83 82l-15 18l-16 -18q-80 -91 -188 -89zM383 561q0 44 -28.5 74t-73.5 30q-42 0 -72.5 -29t-30.5 -71q2 -46 39 -88l50 -58l15 8q58 34 79.5 63.5t21.5 70.5zM241 370l-16 -10q-131 -77 -131 -167q0 -59 44 -108t109 -49q45 -1 91.5 26.5t74.5 69.5l8 12z" />
<glyph unicode="'" horiz-adv-x="121" d="M54 623l-7 63l48 5l7 -63l-74 -78l-6 6z" />
<glyph unicode="(" horiz-adv-x="260" d="M158 695l19 -49q-38 -47 -60.5 -143.5t-22.5 -213.5q0 -129 26.5 -231t69.5 -143l-25 -42q-53 52 -86 165t-33 251q0 132 31 242t81 164z" />
<glyph unicode=")" horiz-adv-x="246" d="M71 646l19 49q50 -54 81 -164t31 -242q0 -138 -33 -251t-86 -165l-25 42q43 41 69.5 143t26.5 231q0 117 -22.5 213.5t-60.5 143.5z" />
<glyph unicode="*" horiz-adv-x="471" d="M257 510v-122h-42v121l-86 -85l-30 29l86 87h-120v41h121l-86 86l29 30l86 -86v122h42v-122l86 86l30 -29l-86 -86h122v-42h-122l86 -87l-29 -29z" />
<glyph unicode="+" horiz-adv-x="452" d="M248 273v-152h-42v152h-151v42h151v151h42v-151h152v-42h-152z" />
<glyph unicode="," horiz-adv-x="173" d="M78 0l-1 64h48l1 -64l-83 -69l-5 6z" />
<glyph unicode="-" horiz-adv-x="421" d="M386 273h-345v42h345v-42z" />
<glyph unicode="." horiz-adv-x="145" d="M43 0l-1 64h64l1 -64h-64z" />
<glyph unicode="/" horiz-adv-x="378" d="M342 691l-251 -691h-46l252 691h45z" />
<glyph unicode="0" horiz-adv-x="586" d="M84 344q0 -129 62.5 -220t149.5 -91q88 0 149.5 90.5t61.5 220.5q0 129 -61.5 219t-149.5 90q-87 0 -149.5 -90.5t-62.5 -218.5zM42 344q0 145 75 248t179 103q105 0 178.5 -102.5t73.5 -248.5t-73.5 -249.5t-178.5 -103.5q-104 0 -179 104t-75 249z" />
<glyph unicode="1" horiz-adv-x="263" d="M66 558l-30 29l126 104h42l1 -691h-42l-1 637z" />
<glyph unicode="2" horiz-adv-x="475" d="M374 337l-262 -296h321l1 -41h-377l-1 41l291 326q44 49 44 114q0 73 -51 122.5t-125 49.5q-70 0 -122 -49l-30 30q68 61 152 61q90 0 154 -63t64 -151q0 -83 -59 -144z" />
<glyph unicode="3" horiz-adv-x="431" d="M26 60l29 29q52 -59 133 -59q70 0 119.5 45t49.5 108q0 57 -45 100t-110 49h-93v42h93q66 4 111.5 44t45.5 95q0 59 -49.5 100t-118.5 41q-86 0 -136 -55l-29 30q61 66 165 66q88 0 150.5 -53t62.5 -129q0 -52 -33 -95.5t-85 -65.5q52 -24 82.5 -69.5t30.5 -99.5 q0 -81 -61.5 -137.5t-149.5 -56.5q-99 0 -162 71z" />
<glyph unicode="4" horiz-adv-x="473" d="M291 254h-254v42h2l228 395l36 -20l-217 -375h205v154h42v-154h99v-42h-99l1 -254h-42z" />
<glyph unicode="5" horiz-adv-x="504" d="M91 352h-42l24 339h369v-42h-327l-24 -224q62 70 156 70q93 0 157.5 -72t64.5 -174q0 -103 -64 -176t-157 -73q-53 0 -100 26.5t-77 71.5l29 29q24 -39 62.5 -62t84.5 -23q75 0 127.5 60.5t52.5 146.5t-52.5 145.5t-127.5 59.5q-51 0 -93 -28t-63 -74z" />
<glyph unicode="6" horiz-adv-x="506" d="M473 207v-9q0 -87 -61 -146.5t-148 -59.5q-83 0 -142.5 57.5t-63.5 141.5v3q-4 42 -4 160q0 98 13 163q15 75 72.5 126t133.5 53q112 0 179 -87l-42 -26q-24 33 -60 52t-76 19q-62 0 -110.5 -43t-59.5 -107q-13 -71 -13 -162q0 -5 0.5 -15t0.5 -15q26 42 70 67.5t96 27.5 q88 0 151 -57t64 -143zM432 205q-2 68 -50.5 114.5t-117.5 46.5t-117 -51t-48 -120q0 -67 49.5 -115t117.5 -48t117 48.5t49 115.5v9z" />
<glyph unicode="7" horiz-adv-x="443" d="M45 0l301 649h-280v42h350l-321 -691h-50z" />
<glyph unicode="8" horiz-adv-x="459" d="M32 191q0 59 31 108t81 74q-41 22 -65.5 62t-24.5 87q0 71 52 122t125 51q75 0 127.5 -50.5t52.5 -122.5q0 -48 -24.5 -87.5t-66.5 -61.5q52 -25 82.5 -73.5t30.5 -108.5q0 -83 -59 -141.5t-143 -58.5q-82 0 -140.5 59t-58.5 141zM96 522q0 -53 40 -91.5t95 -38.5 q57 0 97 38.5t40 91.5q0 55 -40 93t-97 38q-56 0 -95.5 -38t-39.5 -93zM74 191q0 -64 46.5 -111t110.5 -47q66 0 113 47t47 111q0 66 -46.5 113t-113.5 47q-64 0 -110.5 -47t-46.5 -113z" />
<glyph unicode="9" horiz-adv-x="489" d="M38 481v7q0 86 61 147t147 61t146 -58.5t64 -142.5v-3q3 -40 3 -168q0 -89 -12 -153q-15 -78 -76.5 -128t-142.5 -50q-48 0 -93 22.5t-75 59.5l41 33q51 -72 134 -72q65 0 113 41t62 105q11 77 11 158v34q-28 -42 -74.5 -66.5t-102.5 -24.5q-83 0 -143.5 57.5 t-62.5 140.5zM78 483q4 -66 52 -112.5t114 -46.5q71 0 120.5 48.5t49.5 118.5q0 66 -50.5 114t-116.5 48q-70 0 -119.5 -50.5t-49.5 -119.5z" />
<glyph unicode=":" horiz-adv-x="182" d="M61 0l-1 64h64l1 -64h-64zM60 436v64h64v-64h-64z" />
<glyph unicode=";" horiz-adv-x="169" d="M67 0l-1 64h48l1 -64l-83 -69l-5 6zM60 436v64h64v-64h-64z" />
<glyph unicode="&#x3c;" horiz-adv-x="330" d="M28 248l243 246l31 -29l-215 -217l215 -212l-30 -31z" />
<glyph unicode="=" horiz-adv-x="440" d="M69 394v44h335v-44h-335zM69 200v44h335v-44h-335z" />
<glyph unicode="&#x3e;" horiz-adv-x="336" d="M69 494l243 -246l-244 -243l-30 31l215 212l-215 217z" />
<glyph unicode="?" horiz-adv-x="410" d="M232 0h-44l-92 321v41h94q58 1 98.5 43t40.5 101q0 61 -41.5 104.5t-100.5 43.5q-78 0 -121 -72l-29 29q24 38 64 61t86 23q76 0 129.5 -55.5t53.5 -133.5q0 -75 -53 -130t-127 -55h-53zM206 -96q0 12 8 19t19 7q26 0 26 -26q0 -12 -7 -20.5t-19 -8.5q-11 0 -19 8.5 t-8 20.5z" />
<glyph unicode="@" horiz-adv-x="754" d="M510 185q23 0 59 29.5t56 70.5q11 22 18.5 62.5t7.5 67.5q0 95 -71.5 162t-183.5 67q-128 0 -213 -89t-85 -223q0 -131 81.5 -205t226.5 -74q86 0 151 30t97 78l2 2h63l-5 -9q-35 -64 -116 -108.5t-191 -44.5q-163 0 -261 84.5t-98 240.5q0 159 97.5 264t253.5 105 q125 0 214 -76.5t89 -204.5q0 -95 -58 -179t-142 -94q-58 3 -74 30q-35 -33 -84 -33q-53 0 -90 38t-37 92q0 55 38 92t93 37h80v12v-14q0 114 -47 114q-41 0 -69 -10l-5 -1l-11 44l5 1q35 11 80 11h1q82 -3 88 -150l1 13q-2 -79 -2 -151q0 -7 -1.5 -22t-1 -23t3.5 -17.5 t13 -14t27 -4.5zM434 268v89h-86q-40 0 -67.5 -25.5t-27.5 -63.5q0 -37 26.5 -63.5t64.5 -26.5q37 0 63.5 26.5t26.5 63.5z" />
<glyph unicode="A" d="M197 329h213l-107 288zM32 0l254 691h35l256 -691h-44l-108 287h-243l-106 -287h-44z" />
<glyph unicode="B" horiz-adv-x="512" d="M274 2l-17 -2h-203l-1 691h42h179q75 -1 129 -51.5t54 -118.5q0 -50 -27 -91t-72 -64q52 -22 82.5 -68t30.5 -102q0 -79 -57 -136t-140 -58zM274 651h-18h-161v-262h179q59 2 100 39.5t41 92.5q0 51 -41 89t-100 41zM256 42h18q65 3 110 48t45 106q0 59 -45 103t-110 48 h-179v-305h161z" />
<glyph unicode="C" horiz-adv-x="590" d="M557 599l-28 -31v3q-79 82 -186 82q-111 0 -191 -90t-80 -218t78 -219.5t193 -91.5q103 0 184 81l28 -28q-91 -96 -212 -96q-125 0 -219.5 105t-94.5 249q0 141 92 245.5t222 104.5q126 0 214 -96z" />
<glyph unicode="D" horiz-adv-x="575" d="M292 649h-213v-607h215v2q82 2 139.5 90.5t57.5 212.5q0 123 -58 212t-141 90zM38 0l-1 691h42h213q100 -1 170.5 -101.5t70.5 -242.5t-69.5 -242.5t-169.5 -102.5l1 -2h-257z" />
<glyph unicode="E" horiz-adv-x="485" d="M391 389v-42h-305v-305h357l1 -42h-399l-1 691h399v-40h-357v-262h305z" />
<glyph unicode="F" horiz-adv-x="487" d="M395 389v-42h-305l1 -347h-42l-1 691h399v-39h-357v-263h305z" />
<glyph unicode="G" horiz-adv-x="604" d="M556 88v-3q-91 -94 -215 -94q-130 0 -223 103t-93 248q0 146 93 249.5t223 103.5q124 0 215 -96l-28 -29q-79 82 -187 82q-114 0 -194 -90.5t-80 -219.5q0 -128 80.5 -219.5t193.5 -91.5q99 0 173 71v198h-191v40h233v-252z" />
<glyph unicode="H" horiz-adv-x="558" d="M472 347h-381l1 -347h-42l-1 691h42v-302h381v302h42l1 -691h-42z" />
<glyph unicode="I" horiz-adv-x="138" d="M91 691l1 -691h-42l-1 691h42z" />
<glyph unicode="J" horiz-adv-x="305" d="M244 691v-523q0 -72 -38.5 -124.5t-90.5 -52.5q-44 0 -81 42l27 29q26 -29 54 -29q36 0 61 38t25 95v525h43z" />
<glyph unicode="K" horiz-adv-x="583" d="M44 691h42v-376l322 376h57l-258 -300l335 -391h-54l-308 359l-94 -109l1 -250h-42z" />
<glyph unicode="L" horiz-adv-x="453" d="M86 691v-649h337l1 -42h-379l-1 691h42z" />
<glyph unicode="M" horiz-adv-x="623" d="M305 305l224 386h43l1 -691h-43l-1 610l-212 -365h-26l-215 365l1 -610h-42l-1 691h42z" />
<glyph unicode="N" horiz-adv-x="537" d="M47 691h41l358 -607v607h42l1 -691h-42l-359 610l1 -610h-41z" />
<glyph unicode="O" horiz-adv-x="690" d="M530 570q-74 82 -187 82t-192 -89.5t-79 -217.5q0 -130 78.5 -220.5t192.5 -90.5q116 0 195 90.5t79 220.5q0 136 -87 225zM561 88q-89 -97 -218 -97q-128 0 -221 102.5t-93 251.5q0 145 92 247.5t222 102.5q134 0 224 -101.5t90 -248.5q0 -156 -96 -257z" />
<glyph unicode="P" horiz-adv-x="480" d="M252 346h-157l1 -346h-42l-1 691h199q81 0 138 -50t57 -120q0 -73 -57 -124t-138 -51zM249 651h-154v-263h157q63 0 107.5 38.5t44.5 94.5q0 53 -45 91.5t-107 38.5h-3z" />
<glyph unicode="Q" horiz-adv-x="665" d="M498 581q-73 78 -171 78q-103 0 -177.5 -85t-74.5 -206q0 -117 73 -201.5t177 -87.5q-2 18 -15 30.5t-32 11.5v36q34 1 58 -20.5t29 -55.5q90 18 152 99.5t62 187.5q0 129 -81 213zM526 133q-66 -73 -161 -87q4 -32 17 -53t29 -21q20 0 31 23l28 -24q-28 -38 -59 -38 q-30 0 -54 31.5t-30 77.5q-118 3 -204 97.5t-86 228.5q0 138 86 232.5t204 94.5q119 0 205.5 -95t86.5 -232q0 -139 -93 -235z" />
<glyph unicode="R" horiz-adv-x="474" d="M87 347h-2l1 -347h-42l-1 691h198q82 0 139 -50t57 -121q0 -72 -57 -122.5t-139 -50.5h-99l306 -347h-54zM239 652h-154v-263h156q64 0 109 38t45 93q0 54 -45.5 93t-108.5 39h-2z" />
<glyph unicode="S" horiz-adv-x="485" d="M45 85l34 27q53 -79 157 -79q65 0 113 39.5t48 96.5q0 58 -43 100.5t-108 50.5h-3q-86 8 -142.5 62.5t-56.5 127.5q0 78 62 131t151 53q111 0 179 -77l-34 -27q-54 65 -145 65q-67 0 -118 -41.5t-51 -99.5t46 -102.5t114 -50.5q84 -11 139 -64.5t55 -123.5 q0 -76 -60.5 -129t-147.5 -53q-59 0 -109.5 26t-79.5 68z" />
<glyph unicode="T" horiz-adv-x="575" d="M535 651h-225l1 -651h-42l-1 651h-226v40h268h225v-40z" />
<glyph unicode="U" horiz-adv-x="598" d="M88 691v-518q4 -58 65.5 -98.5t147.5 -40.5q83 0 143.5 40.5t64.5 98.5v518h42v-518q-3 -75 -76.5 -128.5t-173.5 -53.5q-103 0 -178 53.5t-80 128.5v518h45z" />
<glyph unicode="V" horiz-adv-x="639" d="M299 0l-256 691h44l233 -629l233 629h44l-254 -691h-44z" />
<glyph unicode="W" horiz-adv-x="915" d="M863 691l-253 -691h-46l-110 295l-107 -295h-45l-256 691h44l234 -629l108 295l-123 334h44l101 -275l132 -354l232 629h45z" />
<glyph unicode="X" horiz-adv-x="541" d="M244 354l-197 337h47l180 -302l178 302h49l-202 -344l203 -347h-49l-185 312l-182 -312h-47z" />
<glyph unicode="Y" horiz-adv-x="681" d="M588 691h56l-283 -378l1 -313h-43l-1 313l-283 378h57l246 -338z" />
<glyph unicode="Z" horiz-adv-x="548" d="M513 691l-403 -649h368l1 -42h-415h-29l404 649h-376v42h415h35z" />
<glyph unicode="[" horiz-adv-x="210" d="M149 47q0 -5 17 -5l1 -42q-20 0 -40.5 13.5t-20.5 33.5v242q0 19 -12.5 32t-31.5 13h-20v42h20q19 0 31.5 13t12.5 32v225v2v3q3 18 20.5 29t39.5 11v-43q-17 0 -17 -2v-237q-5 -13 -17 -23t-26 -10v-42q33 0 43 -32v-255z" />
<glyph unicode="\" horiz-adv-x="371" d="M297 0l-253 691h45l254 -691h-46z" />
<glyph unicode="]" horiz-adv-x="183" d="M48 47v255q6 32 40 32l2 42q-16 0 -27.5 9.5t-14.5 23.5v237q-3 2 -20 2v43q25 0 41 -11t19 -29l2 -3v-2v-225q0 -19 11.5 -32t29.5 -13h21v-42h-21q-18 0 -29.5 -12.5t-11.5 -32.5v-242q0 -19 -19.5 -33t-41.5 -14l-1 42q12 0 20 5z" />
<glyph unicode="^" horiz-adv-x="551" d="M31 448l246 243l243 -244l-31 -30l-212 215l-217 -215z" />
<glyph unicode="_" horiz-adv-x="513" d="M462 0h-420l-1 42h420z" />
<glyph unicode="`" horiz-adv-x="204" d="M140 553l-109 87h66l66 -87h-23z" />
<glyph unicode="a" horiz-adv-x="406" d="M323 0l-1 40q-50 -50 -121 -50q-66 0 -113.5 44.5t-47.5 106.5q0 66 49 109t119 43h114v22q0 62 -29.5 105t-76.5 44h-1q-65 0 -116 -15l-10 40q59 17 126 17h1q59 -2 101.5 -51.5t46.5 -119.5v-10q-2 -86 -2 -169q0 -149 8 -156h-47zM322 141v111h-114q-53 0 -89 -31 t-36 -80q0 -45 34.5 -76.5t83.5 -31.5q50 0 85.5 31.5t35.5 76.5z" />
<glyph unicode="b" horiz-adv-x="523" d="M100 410v-316q0 -24 44.5 -42.5t106.5 -19.5q81 2 139.5 65.5t58.5 151.5q0 87 -58.5 151t-139.5 64q-58 0 -101.5 -15.5t-49.5 -38.5zM100 30l1 -30h-49q5 8 9 94v597h42v-224q55 39 148 39q99 0 169.5 -76t70.5 -181q0 -106 -70 -181.5t-170 -77.5q-95 5 -151 40z" />
<glyph unicode="c" horiz-adv-x="478" d="M434 428l-30 -31q-57 67 -142 67q-82 0 -139.5 -63t-57.5 -153q0 -89 57.5 -152t139.5 -63t140 64l30 -29q-74 -77 -170 -77q-98 0 -168.5 75.5t-70.5 181.5t70.5 182t168.5 76q101 0 172 -78z" />
<glyph unicode="d" horiz-adv-x="534" d="M439 411q-6 22 -48 37.5t-100 15.5q-83 -2 -141 -64t-58 -148q0 -88 58 -151.5t141 -66.5h2q61 3 103.5 21t42.5 41v315zM439 3v29q-50 -34 -148 -39q-100 2 -170 77t-70 182q0 105 70.5 179t169.5 75h2h-2q93 0 148 -39v224h42v-595q0 -87 7 -93h-49z" />
<glyph unicode="e" horiz-adv-x="456" d="M239 32q54 0 130 37l17 -37q-49 -27 -120 -40h-1q-8 -1 -26 -1q-83 0 -143.5 69.5t-66.5 169.5v19q0 106 58.5 182t140.5 76q83 0 140 -73t57 -180v-24h-353q5 -83 52.5 -140t114.5 -58zM72 271h313q-6 82 -51 137.5t-106 55.5q-60 0 -104.5 -56t-51.5 -137z" />
<glyph unicode="f" horiz-adv-x="328" d="M305 693l-12 -41q-9 2 -36 2q-44 -1 -74.5 -42t-30.5 -97v-26h132v-43h-132l1 -446h-39q-1 295 -1 446h-76v43h74q1 0 1 7l-1 19v12q4 69 46 118.5t100 49.5q32 0 48 -2z" />
<glyph unicode="g" horiz-adv-x="551" d="M211 116q7 2 23 2q84 0 142.5 -46t58.5 -112t-58.5 -113t-142.5 -47q-82 0 -141 47.5t-59 112.5q0 44 28.5 81t75.5 57q-11 19 -11 47q0 35 21 54q-74 53 -74 134q0 72 58 122.5t141 50.5q33 0 75 -11h173l-41 -42h-63q55 -47 55 -120q0 -71 -58 -121t-141 -50 q-18 0 -44.5 6t-37.5 6q-33 0 -33 -27q0 -32 35 -32q4 0 10 0.5t8 0.5zM74 -40q0 -49 47.5 -84.5t112.5 -35.5q68 0 115 35.5t47 84.5t-47.5 84.5t-114.5 35.5q-64 0 -112 -36t-48 -84zM115 333q0 -54 46.5 -92.5t111.5 -38.5q67 0 113.5 38.5t46.5 92.5q0 56 -46 94.5 t-114 38.5q-66 0 -112 -38.5t-46 -94.5z" />
<glyph unicode="h" horiz-adv-x="455" d="M46 693h42v-264q51 78 139 78q70 0 118 -53t50 -129l3 -322h-42v322q-2 59 -41 100t-94 41q-49 0 -87 -36.5t-46 -89.5l1 -340h-42z" />
<glyph unicode="i" horiz-adv-x="177" d="M66 0l-1 500h41l1 -500h-41zM57 650q0 11 8.5 19t20.5 8q11 0 20 -8.5t9 -18.5t-9 -18.5t-20 -8.5q-12 0 -20.5 8t-8.5 19z" />
<glyph unicode="j" horiz-adv-x="354" d="M196 645q0 12 7.5 19.5t20.5 7.5q10 0 18 -7.5t8 -19.5q0 -11 -8 -19t-18 -8q-12 0 -20 8t-8 19zM52 -194l4 39q8 0 22.5 -1.5t21.5 -1.5l2 3q43 0 72.5 39.5t29.5 94.5v522h42v-532q-5 -68 -46 -116.5t-98 -50.5h-2q-10 0 -28 2t-20 2z" />
<glyph unicode="k" horiz-adv-x="440" d="M103 691v-357l191 160h64l-152 -126l211 -368h-49l-194 338l-71 -59l1 -279h-47q4 8 4 45v646h42z" />
<glyph unicode="l" horiz-adv-x="162" d="M107 691l1 -691h-42l-1 691h42z" />
<glyph unicode="m" horiz-adv-x="739" d="M83 500v-47v-26q51 78 137 78q51 0 93 -31t63 -80q19 56 62.5 84.5t90.5 28.5q70 0 118 -52.5t50 -129.5l2 -323h-42v323q-2 58 -40.5 99t-91.5 41q-50 0 -88 -36.5t-46 -88.5v-338h-42v321q-1 59 -40 99.5t-94 40.5q-49 0 -86.5 -36t-45.5 -89l1 -338h-42l-1 451 q0 44 -5 49h47z" />
<glyph unicode="n" horiz-adv-x="433" d="M81 496v-40v-27q51 79 139 79q70 0 118.5 -53t50.5 -130l3 -325h-42l-1 325q-1 59 -40.5 100t-93.5 41q-50 0 -88 -36t-46 -90l1 -340h-42l-1 454q0 37 -5 42h47z" />
<glyph unicode="o" horiz-adv-x="513" d="M64 247q0 -89 56.5 -152t136.5 -63q78 0 133.5 63t55.5 152q0 90 -55.5 153.5t-133.5 63.5q-80 0 -136.5 -63.5t-56.5 -153.5zM22 247q0 107 69 183t166 76q96 0 164 -76t68 -183q0 -106 -68 -181.5t-164 -75.5q-97 0 -166 75.5t-69 181.5z" />
<glyph unicode="p" horiz-adv-x="506" d="M81 87q5 -21 48.5 -36.5t101.5 -17.5q83 2 141 65.5t58 153.5q0 89 -58.5 151.5t-140.5 62.5q-62 0 -106 -17t-44 -41v-321zM81 499v-30q62 40 150 40q101 -2 171 -76.5t70 -180.5q0 -108 -70.5 -184t-170.5 -76q-91 0 -149 39v-226h-41v603q-3 83 -10 91h50z" />
<glyph unicode="q" horiz-adv-x="513" d="M415 470v24h40v-689h-40v244q-56 -39 -146 -39h3h-3q-95 2 -163 74.5t-68 173.5q0 102 68 175t163 73q92 0 146 -36zM415 103v305q0 24 -42 41t-101 17h-3q-79 0 -135 -61t-56 -147t56 -146t135 -62q57 0 99 15.5t47 37.5z" />
<glyph unicode="r" horiz-adv-x="279" d="M249 503l-10 -41q-7 2 -19 2q-50 0 -87.5 -36t-45.5 -90l1 -338h-42l-1 452q0 46 -5 49h47v-74q51 79 138 79q16 0 24 -3z" />
<glyph unicode="s" horiz-adv-x="417" d="M374 443l-34 -25q-47 45 -126 45q-52 0 -86 -24t-34 -62q0 -36 35 -66.5t89 -38.5q68 -10 112.5 -52.5t44.5 -95.5q0 -58 -47.5 -95t-115.5 -37q-47 0 -91 17.5t-69 47.5l32 25q49 -49 125 -49q53 0 88.5 25.5t35.5 65.5q0 38 -35 69.5t-88 39.5q-68 10 -113.5 52 t-45.5 94q0 56 49 91t118 35q45 0 87 -17t69 -45z" />
<glyph unicode="t" horiz-adv-x="340" d="M125 691h42v-198h135v-43h-135l1 -450h-40q-1 297 -1 450h-76v43h74v198z" />
<glyph unicode="u" horiz-adv-x="450" d="M356 0l-1 46v24q-23 -36 -59.5 -57.5t-78.5 -21.5q-69 0 -117 53.5t-50 130.5l-3 5v318h41v-318l2 -5q2 -58 41 -99.5t93 -41.5q50 0 87.5 37t43.5 89v340h42v-452q0 -44 6 -48h-47z" />
<glyph unicode="v" horiz-adv-x="500" d="M226 0l-202 500h45l179 -442l178 442h48l-203 -500h-45z" />
<glyph unicode="w" horiz-adv-x="705" d="M675 500l-203 -500l-46 3l-78 195l-82 -198l-46 3l-201 497h45l179 -442l80 198l-98 244h48l176 -442l178 442h48z" />
<glyph unicode="x" horiz-adv-x="444" d="M190 259l-153 241h53l128 -206l131 206h52l-155 -249l156 -251h-50l-137 216l-132 -216h-50z" />
<glyph unicode="y" horiz-adv-x="535" d="M53 -195l5 43q1 -2 4 -3.5t4 -2.5h2q3 0 11 -0.5t12 -0.5q36 0 69 24.5t51 67.5l40 99l-193 474h45l169 -422l166 422h45l-192 -471l-44 -117l-2 -9q-23 -51 -65.5 -80t-90.5 -29q-16 0 -36 5z" />
<glyph unicode="z" horiz-adv-x="452" d="M46 0l-1 43l312 414h-309v43h364v-43l-312 -414h312l1 -43h-367z" />
<glyph unicode="{" horiz-adv-x="223" d="M149 47q0 -5 17 -5l1 -42q-20 0 -40.5 13.5t-20.5 33.5v242q0 19 -12.5 32t-31.5 13h-20v42h20q19 0 31.5 13t12.5 32v225v2v3q3 18 20.5 29t39.5 11v-43q-17 0 -17 -2v-237q-5 -13 -17 -23t-26 -10v-42q33 0 43 -32v-255z" />
<glyph unicode="|" horiz-adv-x="131" d="M56 1v716h26v-716h-26z" />
<glyph unicode="}" horiz-adv-x="188" d="M48 47v255q6 32 40 32l2 42q-16 0 -27.5 9.5t-14.5 23.5v237q-3 2 -20 2v43q25 0 41 -11t19 -29l2 -3v-2v-225q0 -19 11.5 -32t29.5 -13h21v-42h-21q-18 0 -29.5 -12.5t-11.5 -32.5v-242q0 -19 -19.5 -33t-41.5 -14l-1 42q12 0 20 5z" />
<glyph unicode="~" horiz-adv-x="347" d="M165 305q-18 6 -40 6q-49 0 -76 -22l-17 31q36 25 92 25q20 0 50.5 -10t49.5 -10q51 0 78 22l14 -30q-36 -26 -89 -26q-36 0 -62 14z" />
<glyph unicode="&#xa1;" horiz-adv-x="160" d="M57 671q0 10 6.5 17t16.5 7t17 -7t7 -17t-7 -16.5t-17 -6.5q-21 0 -23 23zM98 588l1 -588h-36l-1 588h36z" />
<glyph unicode="&#xa2;" horiz-adv-x="478" d="M240 504v68h47v-68q85 -9 147 -76l-30 -31q-48 56 -117 65v-428q66 9 115 63l30 -29q-65 -66 -145 -75v-68h-47v68q-90 8 -153.5 82t-63.5 173q0 100 63 173.5t154 82.5zM65 248q0 -82 50.5 -143.5t124.5 -70.5v428q-75 -9 -125 -70t-50 -144z" />
<glyph unicode="&#xa3;" horiz-adv-x="556" d="M370 301h-183v-259h337l1 -42h-379l-1 301h-120v42h120v348h42v-348h183v-42z" />
<glyph unicode="&#xa5;" horiz-adv-x="681" d="M172 148v44h146v38h-146v44h146v39l-283 378h57l246 -338l250 338h56l-283 -378v-39h146v-44h-146v-38h146v-44h-146l1 -148h-43l-1 148h-146z" />
<glyph unicode="&#xa6;" horiz-adv-x="131" d="M82 410h-26v307h26v-307zM56 344h26v-343h-26v343z" />
<glyph unicode="&#xa7;" horiz-adv-x="356" d="M275 478l-18 -40q-40 20 -82 20q-25 0 -43 -7q27 -48 81 -74q52 -25 82.5 -67t30.5 -87q0 -49 -41 -87q2 -16 2 -23q0 -55 -41.5 -88.5t-97.5 -33.5q-48 0 -96 24l18 35q39 -18 77 -18q42 0 70.5 21.5t28.5 59.5q-26 -11 -61 -11q-50 0 -95 23l18 37q41 -19 79 -19 q25 0 50 10q-23 50 -81 78q-52 24 -84 67.5t-32 87.5q0 53 42 84q-3 14 -3 26q0 53 39.5 84t97.5 31q49 0 97 -22l-18 -40q-39 20 -81 20q-39 0 -66 -20t-27 -54v-4q25 9 56 9q46 0 98 -22zM276 191q8 16 8 34q0 33 -25 66t-66 52q-62 28 -94 84q-16 -16 -16 -45 q0 -31 25 -63t67 -52q65 -30 94 -87q3 3 7 11z" />
<glyph unicode="&#xa8;" horiz-adv-x="263" d="M38 650q0 11 8.5 19t20.5 8q11 0 20 -8.5t9 -18.5t-9 -18.5t-20 -8.5q-12 0 -20.5 8t-8.5 19zM172 650q0 11 8.5 19t20.5 8q11 0 20 -8.5t9 -18.5t-9 -18.5t-20 -8.5q-12 0 -20.5 8t-8.5 19z" />
<glyph unicode="&#xaa;" horiz-adv-x="179" d="M158 320h-34v6q-14 -10 -37 -10q-26 0 -44 17t-18 42q0 23 18.5 39.5t45.5 16.5h35v6q0 17 -9.5 30.5t-22.5 13.5q-28 0 -45 -6l-5 25q21 6 50 6q23 0 39 -19.5t17 -49.5q-1 -28 -1 -56q0 -50 11 -61zM124 407h-37q-15 0 -26 -10t-11 -22q0 -13 11 -23t26 -10 q14 0 25.5 10t11.5 23v32z" />
<glyph unicode="&#xab;" horiz-adv-x="532" d="M199 278l264 223l28 -32l-233 -196l194 -231l-32 -28zM29 278l264 223l28 -32l-233 -196l194 -231l-32 -28z" />
<glyph unicode="&#xac;" horiz-adv-x="662" d="M622 387v-224h-42v182h-539v42h581z" />
<glyph unicode="&#xad;" horiz-adv-x="421" d="M386 273h-345v42h345v-42z" />
<glyph unicode="&#xb0;" horiz-adv-x="250" d="M54 596q0 -26 22.5 -47.5t50.5 -21.5q24 0 45 22t21 47q0 28 -21 51t-45 23q-28 0 -50.5 -22.5t-22.5 -51.5zM26 596q0 43 28.5 71t72.5 28q39 0 67 -28.5t28 -70.5q0 -39 -28 -67t-67 -28q-43 0 -72 28t-29 67z" />
<glyph unicode="&#xb1;" horiz-adv-x="452" d="M399 154h-345v42h345v-42zM248 460v-152h-42v152h-151v42h151v151h42v-151h152v-42h-152z" />
<glyph unicode="&#xb2;" horiz-adv-x="280" d="M78 347h164v-30h-209v30l155 173q24 26 24 59q0 34 -27 59.5t-61 25.5q-36 0 -67 -31l-24 25q42 37 91 37t83.5 -34t34.5 -82q0 -43 -31 -82z" />
<glyph unicode="&#xb3;" horiz-adv-x="265" d="M37 374h8q28 -32 68 -32q32 0 57 22t25 52q0 28 -23 50.5t-52 25.5h-54v31h54q29 2 52.5 23t23.5 47t-25 47t-57 21q-43 0 -73 -33l-23 24q36 39 96 39q48 0 81.5 -28.5t33.5 -69.5q0 -60 -56 -86q53 -37 53 -91q0 -43 -33 -73.5t-80 -30.5q-58 0 -95 42z" />
<glyph unicode="&#xb4;" horiz-adv-x="209" d="M175 640l-109 -87h-23l66 87h66z" />
<glyph unicode="&#xb6;" horiz-adv-x="382" d="M332 690v-688h-40v688h40zM268 691l1 -691h-78l-1 362q-68 0 -116 48.5t-48 116.5t48 116t116 48h78zM177 407v247q-46 0 -78 -35.5t-32 -87.5q0 -51 32 -87.5t78 -36.5z" />
<glyph unicode="&#xb7;" horiz-adv-x="225" d="M62 314q0 19 16 34.5t37 15.5t37.5 -15.5t16.5 -34.5t-16.5 -34t-37.5 -15t-37 15t-16 34z" />
<glyph unicode="&#xb9;" horiz-adv-x="263" d="M66 558l-30 29l126 104h42v-300h-42v246z" />
<glyph unicode="&#xba;" horiz-adv-x="232" d="M51 406q0 -26 20.5 -47.5t45.5 -21.5q22 0 41 22t19 47q0 29 -19 52t-41 23q-26 0 -46 -23t-20 -52zM26 406q0 43 26 71.5t65 28.5q36 0 61 -28.5t25 -71.5q0 -39 -25.5 -67t-60.5 -28q-39 0 -65 28t-26 67z" />
<glyph unicode="&#xbb;" horiz-adv-x="524" d="M57 501l264 -223l-221 -264l-32 28l194 231l-233 196zM227 501l264 -223l-221 -264l-32 28l194 231l-233 196z" />
<glyph unicode="&#xbc;" horiz-adv-x="382" d="M273 345l18 -10l-109 -187h103v77h21v-77h49v-21h-49l1 -127h-21l-1 127h-127v21zM49 440l-15 14l63 52h21v-293h-21v266z" />
<glyph unicode="&#xbd;" horiz-adv-x="355" d="M37 441l-15 14l63 52h21v-294h-21v267zM295 168l-131 -148h161l1 -20h-189l-1 20l146 163q22 24 22 57q0 37 -25.5 61.5t-62.5 24.5q-35 0 -61 -24l-15 15q33 30 76 30q45 0 77 -31.5t32 -75.5q0 -38 -30 -72z" />
<glyph unicode="&#xbe;" horiz-adv-x="458" d="M32 190l15 14q26 -29 66 -29q35 0 60 22t25 54q0 40 -38 61.5t-86 13.5v21h46q33 1 56 21.5t23 47.5q0 30 -24.5 50.5t-59.5 20.5q-43 0 -68 -28l-15 15q31 33 83 33q44 0 75 -26.5t31 -64.5q0 -26 -16.5 -47.5t-42.5 -32.5q57 -27 57 -85q0 -40 -31 -68.5t-75 -28.5 q-48 0 -81 36zM361 129h-127v21l115 197l18 -10l-108 -187h102v77h21v-77h50v-21h-50v-127h-21v127z" />
<glyph unicode="&#xbf;" horiz-adv-x="432" d="M188 691h43l94 -323v-43h-99q-57 -2 -97.5 -44.5t-40.5 -101.5q0 -60 42 -103t101 -43q78 0 123 72l30 -31q-57 -84 -153 -84q-75 0 -129.5 56t-54.5 133q0 76 53 132.5t126 56.5h56zM211 786q0 -12 -7.5 -20t-18.5 -8q-13 0 -20.5 8t-7.5 20q0 13 7.5 21t20.5 8 q11 0 18.5 -8t7.5 -21z" />
<glyph unicode="&#xc0;" d="M299 744l-109 87h66l66 -87h-23zM197 329h213l-107 288zM32 0l254 691h35l256 -691h-44l-108 287h-243l-106 -287h-44z" />
<glyph unicode="&#xc1;" d="M421 831l-109 -87h-23l66 87h66zM197 329h213l-107 288zM32 0l254 691h35l256 -691h-44l-108 287h-243l-106 -287h-44z" />
<glyph unicode="&#xc2;" d="M197 329h213l-107 288zM32 0l254 691h35l256 -691h-44l-108 287h-243l-106 -287h-44z" />
<glyph unicode="&#xc3;" d="M197 329h213l-107 288zM32 0l254 691h35l256 -691h-44l-108 287h-243l-106 -287h-44zM299 786q-17 6 -38 6q-44 0 -71 -20l-15 28q38 24 86 24q19 0 47 -9t45 -9q49 0 74 20l14 -28q-35 -24 -86 -24q-32 0 -56 12z" />
<glyph unicode="&#xc4;" d="M200 763q0 11 8.5 19t20.5 8q11 0 20 -8.5t9 -18.5t-9 -18.5t-20 -8.5q-12 0 -20.5 8t-8.5 19zM334 763q0 11 8.5 19t20.5 8q11 0 20 -8.5t9 -18.5t-9 -18.5t-20 -8.5q-12 0 -20.5 8t-8.5 19zM197 329h213l-107 288zM32 0l254 691h35l256 -691h-44l-108 287h-243 l-106 -287h-44z" />
<glyph unicode="&#xc5;" d="M234 784q0 -26 22.5 -47.5t50.5 -21.5q24 0 45 22t21 47q0 28 -21 51t-45 23q-28 0 -50.5 -22.5t-22.5 -51.5zM206 784q0 43 28.5 71t72.5 28q39 0 67 -28.5t28 -70.5q0 -39 -28 -67t-67 -28q-43 0 -72 28t-29 67zM197 329h213l-107 288zM32 0l254 691h35l256 -691h-44 l-108 287h-243l-106 -287h-44z" />
<glyph unicode="&#xc6;" horiz-adv-x="1081" d="M532 329l9 322h-229l-115 -322h335zM286 691h263h382v-40h-357v-262h305v-42h-305v-305h357l1 -42h-399l-1 287h-350l-106 -287h-44z" />
<glyph unicode="&#xc7;" horiz-adv-x="634" d="M583 598l-29 -28l-1 1q-79 84 -185 84q-114 0 -194 -92.5t-80 -220.5q0 -126 80 -218.5t194 -92.5q104 0 183 82l30 -28q-88 -94 -224 -94l-9 -23q12 0 32 -17t20 -39q0 -31 -49 -59l-33 25q13 0 31 9t18 27q0 16 -17 23.5t-34 7.5h-8l1 51q-110 24 -183 120.5t-73 225.5 q0 148 92 250.5t223 102.5q124 0 214 -95v-1z" />
<glyph unicode="&#xc8;" horiz-adv-x="485" d="M230 744l-109 87h66l66 -87h-23zM391 389v-42h-305v-305h357l1 -42h-399l-1 691h399v-40h-357v-262h305z" />
<glyph unicode="&#xc9;" horiz-adv-x="485" d="M338 831l-109 -87h-23l66 87h66zM391 389v-42h-305v-305h357l1 -42h-399l-1 691h399v-40h-357v-262h305z" />
<glyph unicode="&#xca;" horiz-adv-x="485" d="M136 781l107 106l108 -107l-26 -25l-82 83l-83 -83zM391 389v-42h-305v-305h357l1 -42h-399l-1 691h399v-40h-357v-262h305z" />
<glyph unicode="&#xcb;" horiz-adv-x="485" d="M144 764q0 11 8.5 19t20.5 8q11 0 20 -8.5t9 -18.5t-9 -18.5t-20 -8.5q-12 0 -20.5 8t-8.5 19zM278 764q0 11 8.5 19t20.5 8q11 0 20 -8.5t9 -18.5t-9 -18.5t-20 -8.5q-12 0 -20.5 8t-8.5 19zM391 389v-42h-305v-305h357l1 -42h-399l-1 691h399v-40h-357v-262h305z" />
<glyph unicode="&#xcc;" horiz-adv-x="131" d="M84 744l-109 87h66l66 -87h-23zM99 691l1 -691h-42l-1 691h42z" />
<glyph unicode="&#xcd;" horiz-adv-x="154" d="M192 831l-109 -87h-23l66 87h66zM91 691l1 -691h-42l-1 691h42z" />
<glyph unicode="&#xce;" horiz-adv-x="138" d="M91 691l1 -691h-42l-1 691h42z" />
<glyph unicode="&#xcf;" horiz-adv-x="138" d="M-27 763q0 11 8.5 19t20.5 8q11 0 20 -8.5t9 -18.5t-9 -18.5t-20 -8.5q-12 0 -20.5 8t-8.5 19zM107 763q0 11 8.5 19t20.5 8q11 0 20 -8.5t9 -18.5t-9 -18.5t-20 -8.5q-12 0 -20.5 8t-8.5 19zM91 691l1 -691h-42l-1 691h42z" />
<glyph unicode="&#xd0;" horiz-adv-x="653" d="M111 274h-68v42h68v375h255q100 -1 170.5 -101.5t70.5 -242.5t-69.5 -242.5t-169.5 -102.5l1 -2h-257zM366 649h-213v-333h174v-42h-174v-232h215v2q82 2 139.5 90.5t57.5 212.5q0 123 -58 212t-141 90z" />
<glyph unicode="&#xd1;" horiz-adv-x="537" d="M256 755q-23 10 -52 10q-36 0 -58 -14l-12 30q30 16 70 16q27 0 63.5 -14.5t62.5 -14.5q36 0 58 14l11 -30q-29 -16 -69 -16q-44 0 -74 19zM47 691h41l358 -607v607h42l1 -691h-42l-359 610l1 -610h-41z" />
<glyph unicode="&#xd2;" horiz-adv-x="690" d="M321 744l-109 87h66l66 -87h-23zM530 570q-74 82 -187 82t-192 -89.5t-79 -217.5q0 -130 78.5 -220.5t192.5 -90.5q116 0 195 90.5t79 220.5q0 136 -87 225zM561 88q-89 -97 -218 -97q-128 0 -221 102.5t-93 251.5q0 145 92 247.5t222 102.5q134 0 224 -101.5t90 -248.5 q0 -156 -96 -257z" />
<glyph unicode="&#xd3;" horiz-adv-x="690" d="M476 831l-109 -87h-23l66 87h66zM530 570q-74 82 -187 82t-192 -89.5t-79 -217.5q0 -130 78.5 -220.5t192.5 -90.5q116 0 195 90.5t79 220.5q0 136 -87 225zM561 88q-89 -97 -218 -97q-128 0 -221 102.5t-93 251.5q0 145 92 247.5t222 102.5q134 0 224 -101.5t90 -248.5 q0 -156 -96 -257z" />
<glyph unicode="&#xd4;" horiz-adv-x="690" d="M235 781l107 106l108 -107l-26 -25l-82 83l-83 -83zM530 570q-74 82 -187 82t-192 -89.5t-79 -217.5q0 -130 78.5 -220.5t192.5 -90.5q116 0 195 90.5t79 220.5q0 136 -87 225zM561 88q-89 -97 -218 -97q-128 0 -221 102.5t-93 251.5q0 145 92 247.5t222 102.5 q134 0 224 -101.5t90 -248.5q0 -156 -96 -257z" />
<glyph unicode="&#xd5;" horiz-adv-x="690" d="M332 756q-23 10 -52 10q-36 0 -58 -14l-12 30q30 16 70 16q27 0 63.5 -14.5t62.5 -14.5q36 0 58 14l11 -30q-29 -16 -69 -16q-44 0 -74 19zM530 570q-74 82 -187 82t-192 -89.5t-79 -217.5q0 -130 78.5 -220.5t192.5 -90.5q116 0 195 90.5t79 220.5q0 136 -87 225z M561 88q-89 -97 -218 -97q-128 0 -221 102.5t-93 251.5q0 145 92 247.5t222 102.5q134 0 224 -101.5t90 -248.5q0 -156 -96 -257z" />
<glyph unicode="&#xd6;" horiz-adv-x="690" d="M247 764q0 11 8.5 19t20.5 8q11 0 20 -8.5t9 -18.5t-9 -18.5t-20 -8.5q-12 0 -20.5 8t-8.5 19zM381 764q0 11 8.5 19t20.5 8q11 0 20 -8.5t9 -18.5t-9 -18.5t-20 -8.5q-12 0 -20.5 8t-8.5 19zM530 570q-74 82 -187 82t-192 -89.5t-79 -217.5q0 -130 78.5 -220.5 t192.5 -90.5q116 0 195 90.5t79 220.5q0 136 -87 225zM561 88q-89 -97 -218 -97q-128 0 -221 102.5t-93 251.5q0 145 92 247.5t222 102.5q134 0 224 -101.5t90 -248.5q0 -156 -96 -257z" />
<glyph unicode="&#xd7;" horiz-adv-x="367" d="M177 285l-107 -107l-30 29l107 108l-106 106l29 30l107 -107l107 107l30 -29l-107 -107l107 -108l-29 -29z" />
<glyph unicode="&#xd8;" horiz-adv-x="690" d="M561 88q-89 -97 -218 -97q-48 0 -99 18l-2 -9h-46l9 27q-78 42 -127 128t-49 190q0 145 92 247.5t222 102.5q51 0 100 -17l5 13h45l-11 -30q82 -46 128.5 -129t46.5 -187q0 -156 -96 -257zM530 570q-30 31 -63 50l-209 -571q40 -15 85 -15q116 0 195 90.5t79 220.5 q0 136 -87 225zM343 652q-113 0 -192 -89.5t-79 -217.5q0 -90 40.5 -165t106.5 -114l209 571q-40 15 -85 15z" />
<glyph unicode="&#xd9;" horiz-adv-x="598" d="M293 744l-109 87h66l66 -87h-23zM88 691v-518q4 -58 65.5 -98.5t147.5 -40.5q83 0 143.5 40.5t64.5 98.5v518h42v-518q-3 -75 -76.5 -128.5t-173.5 -53.5q-103 0 -178 53.5t-80 128.5v518h45z" />
<glyph unicode="&#xda;" horiz-adv-x="598" d="M417 831l-109 -87h-23l66 87h66zM88 691v-518q4 -58 65.5 -98.5t147.5 -40.5q83 0 143.5 40.5t64.5 98.5v518h42v-518q-3 -75 -76.5 -128.5t-173.5 -53.5q-103 0 -178 53.5t-80 128.5v518h45z" />
<glyph unicode="&#xdb;" horiz-adv-x="598" d="M189 781l107 106l108 -107l-26 -25l-82 83l-83 -83zM88 691v-518q4 -58 65.5 -98.5t147.5 -40.5q83 0 143.5 40.5t64.5 98.5v518h42v-518q-3 -75 -76.5 -128.5t-173.5 -53.5q-103 0 -178 53.5t-80 128.5v518h45z" />
<glyph unicode="&#xdc;" horiz-adv-x="598" d="M201 763q0 11 8.5 19t20.5 8q11 0 20 -8.5t9 -18.5t-9 -18.5t-20 -8.5q-12 0 -20.5 8t-8.5 19zM335 763q0 11 8.5 19t20.5 8q11 0 20 -8.5t9 -18.5t-9 -18.5t-20 -8.5q-12 0 -20.5 8t-8.5 19zM88 691v-518q4 -58 65.5 -98.5t147.5 -40.5q83 0 143.5 40.5t64.5 98.5v518 h42v-518q-3 -75 -76.5 -128.5t-173.5 -53.5q-103 0 -178 53.5t-80 128.5v518h45z" />
<glyph unicode="&#xdd;" horiz-adv-x="681" d="M467 831l-109 -87h-23l66 87h66zM588 691h56l-283 -378l1 -313h-43l-1 313l-283 378h57l246 -338z" />
<glyph unicode="&#xde;" horiz-adv-x="535" d="M104 692v-223q64 39 148 39q101 -2 171 -76.5t70 -180.5q0 -108 -70.5 -184t-170.5 -76q-69 0 -149 39v-226h-41v888h42zM101 411l3 -316q-2 -24 42 -42t106 -20q81 2 139.5 65.5t58.5 151.5q0 87 -58.5 151t-139.5 64q-58 0 -101.5 -15.5t-49.5 -38.5z" />
<glyph unicode="&#xdf;" horiz-adv-x="520" d="M274 651h-18h-161v-262h179q59 2 100 39.5t41 92.5q0 51 -41 89t-100 41zM95 347v-520h-42v864h42h179q75 -1 129 -51.5t54 -118.5q0 -50 -27 -91t-72 -64q52 -22 82.5 -68t30.5 -102q0 -79 -57 -136t-140 -58h-85l-40 40h125q65 3 110 48t45 106q0 60 -48 103.5 t-125 47.5h-161z" />
<glyph unicode="&#xe0;" horiz-adv-x="406" d="M323 0l-1 40q-50 -50 -121 -50q-66 0 -113.5 44.5t-47.5 106.5q0 66 49 109t119 43h114v22q0 62 -29.5 105t-76.5 44h-1q-65 0 -116 -15l-10 40q59 17 126 17h1q59 -2 101.5 -51.5t46.5 -119.5v-10q-2 -86 -2 -169q0 -149 8 -156h-47zM322 141v111h-114q-53 0 -89 -31 t-36 -80q0 -45 34.5 -76.5t83.5 -31.5q50 0 85.5 31.5t35.5 76.5zM200 553l-109 87h66l66 -87h-23z" />
<glyph unicode="&#xe1;" horiz-adv-x="406" d="M310 640l-109 -87h-23l66 87h66zM323 0l-1 40q-50 -50 -121 -50q-66 0 -113.5 44.5t-47.5 106.5q0 66 49 109t119 43h114v22q0 62 -29.5 105t-76.5 44h-1q-65 0 -116 -15l-10 40q59 17 126 17h1q59 -2 101.5 -51.5t46.5 -119.5v-10q-2 -86 -2 -169q0 -149 8 -156h-47z M322 141v111h-114q-53 0 -89 -31t-36 -80q0 -45 34.5 -76.5t83.5 -31.5q50 0 85.5 31.5t35.5 76.5z" />
<glyph unicode="&#xe2;" horiz-adv-x="406" d="M94 568l107 106l108 -107l-26 -25l-82 83l-83 -83zM323 0l-1 40q-50 -50 -121 -50q-66 0 -113.5 44.5t-47.5 106.5q0 66 49 109t119 43h114v22q0 62 -29.5 105t-76.5 44h-1q-65 0 -116 -15l-10 40q59 17 126 17h1q59 -2 101.5 -51.5t46.5 -119.5v-10q-2 -86 -2 -169 q0 -149 8 -156h-47zM322 141v111h-114q-53 0 -89 -31t-36 -80q0 -45 34.5 -76.5t83.5 -31.5q50 0 85.5 31.5t35.5 76.5z" />
<glyph unicode="&#xe3;" horiz-adv-x="406" d="M323 0l-1 40q-50 -50 -121 -50q-66 0 -113.5 44.5t-47.5 106.5q0 66 49 109t119 43h114v22q0 62 -29.5 105t-76.5 44h-1q-65 0 -116 -15l-10 40q59 17 126 17h1q59 -2 101.5 -51.5t46.5 -119.5v-10q-2 -86 -2 -169q0 -149 8 -156h-47zM322 141v111h-114q-53 0 -89 -31 t-36 -80q0 -45 34.5 -76.5t83.5 -31.5q50 0 85.5 31.5t35.5 76.5zM187 574q-17 5 -35 5q-48 0 -73 -22l-16 28q36 26 88 26q18 0 44.5 -8t41.5 -8q50 0 78 23l14 -28q-33 -27 -88 -27q-30 0 -54 11z" />
<glyph unicode="&#xe4;" horiz-adv-x="406" d="M116 650q0 11 8.5 19t20.5 8q11 0 20 -8.5t9 -18.5t-9 -18.5t-20 -8.5q-12 0 -20.5 8t-8.5 19zM250 650q0 11 8.5 19t20.5 8q11 0 20 -8.5t9 -18.5t-9 -18.5t-20 -8.5q-12 0 -20.5 8t-8.5 19zM323 0l-1 40q-50 -50 -121 -50q-66 0 -113.5 44.5t-47.5 106.5q0 66 49 109 t119 43h114v22q0 62 -29.5 105t-76.5 44h-1q-65 0 -116 -15l-10 40q59 17 126 17h1q59 -2 101.5 -51.5t46.5 -119.5v-10q-2 -86 -2 -169q0 -149 8 -156h-47zM322 141v111h-114q-53 0 -89 -31t-36 -80q0 -45 34.5 -76.5t83.5 -31.5q50 0 85.5 31.5t35.5 76.5z" />
<glyph unicode="&#xe5;" horiz-adv-x="406" d="M146 661q0 -26 22.5 -47.5t50.5 -21.5q24 0 45 22t21 47q0 28 -21 51t-45 23q-28 0 -50.5 -22.5t-22.5 -51.5zM118 661q0 43 28.5 71t72.5 28q39 0 67 -28.5t28 -70.5q0 -39 -28 -67t-67 -28q-43 0 -72 28t-29 67zM323 0l-1 40q-50 -50 -121 -50q-66 0 -113.5 44.5 t-47.5 106.5q0 66 49 109t119 43h114v22q0 62 -29.5 105t-76.5 44h-1q-65 0 -116 -15l-10 40q59 17 126 17h1q59 -2 101.5 -51.5t46.5 -119.5v-10q-2 -86 -2 -169q0 -149 8 -156h-47zM322 141v111h-114q-53 0 -89 -31t-36 -80q0 -45 34.5 -76.5t83.5 -31.5q50 0 85.5 31.5 t35.5 76.5z" />
<glyph unicode="&#xe6;" horiz-adv-x="743" d="M323 0l-1 40q-50 -50 -121 -50q-66 0 -113.5 44.5t-47.5 106.5q0 63 47.5 107.5t113.5 44.5h115q2 17 6 32q-1 57 -32 97t-74 42h-1q-65 0 -116 -15l-10 40q59 17 126 17h1q44 -1 80.5 -30.5t53.5 -76.5q28 50 70.5 79t91.5 29q83 0 140 -73t57 -180v-24h-347v-46 q16 -66 60.5 -109t100.5 -43q54 0 130 37l17 -37q-49 -27 -120 -40h-1q-8 -1 -26 -1q-98 0 -160 91q2 -79 7 -82h-47zM363 271h306q-6 82 -51 137.5t-106 55.5t-105 -56t-44 -137zM313 230v22h-112q-49 0 -83.5 -32.5t-34.5 -78.5q0 -45 34.5 -76.5t83.5 -31.5 q50 0 85.5 31.5t35.5 76.5v31q-7 27 -9 58z" />
<glyph unicode="&#xe7;" horiz-adv-x="493" d="M289 -9l-8 -27q12 0 32 -17t20 -39q0 -31 -50 -61l-32 26q17 2 32.5 10.5t15.5 22.5q0 19 -16.5 27t-34.5 8q-2 0 -5 -0.5t-4 -0.5l2 54q-87 15 -145 86.5t-58 168.5q0 106 70 181.5t170 75.5q103 0 172 -79l-29 -29q-61 66 -143 66t-140 -63t-58 -152q0 -90 58 -153 t140 -63t139 62l30 -29q-64 -69 -158 -75z" />
<glyph unicode="&#xe8;" horiz-adv-x="456" d="M239 32q54 0 130 37l17 -37q-49 -27 -120 -40h-1q-8 -1 -26 -1q-83 0 -143.5 69.5t-66.5 169.5v19q0 106 58.5 182t140.5 76q83 0 140 -73t57 -180v-24h-353q5 -83 52.5 -140t114.5 -58zM72 271h313q-6 82 -51 137.5t-106 55.5q-60 0 -104.5 -56t-51.5 -137zM229 553 l-109 87h66l66 -87h-23z" />
<glyph unicode="&#xe9;" horiz-adv-x="456" d="M339 640l-109 -87h-23l66 87h66zM239 32q54 0 130 37l17 -37q-49 -27 -120 -40h-1q-8 -1 -26 -1q-83 0 -143.5 69.5t-66.5 169.5v19q0 106 58.5 182t140.5 76q83 0 140 -73t57 -180v-24h-353q5 -83 52.5 -140t114.5 -58zM72 271h313q-6 82 -51 137.5t-106 55.5 q-60 0 -104.5 -56t-51.5 -137z" />
<glyph unicode="&#xea;" horiz-adv-x="456" d="M119 568l107 106l108 -107l-26 -25l-82 83l-83 -83zM239 32q54 0 130 37l17 -37q-49 -27 -120 -40h-1q-8 -1 -26 -1q-83 0 -143.5 69.5t-66.5 169.5v19q0 106 58.5 182t140.5 76q83 0 140 -73t57 -180v-24h-353q5 -83 52.5 -140t114.5 -58zM72 271h313q-6 82 -51 137.5 t-106 55.5q-60 0 -104.5 -56t-51.5 -137z" />
<glyph unicode="&#xeb;" horiz-adv-x="456" d="M131 650q0 11 8.5 19t20.5 8q11 0 20 -8.5t9 -18.5t-9 -18.5t-20 -8.5q-12 0 -20.5 8t-8.5 19zM265 650q0 11 8.5 19t20.5 8q11 0 20 -8.5t9 -18.5t-9 -18.5t-20 -8.5q-12 0 -20.5 8t-8.5 19zM239 32q54 0 130 37l17 -37q-49 -27 -120 -40h-1q-8 -1 -26 -1 q-83 0 -143.5 69.5t-66.5 169.5v19q0 106 58.5 182t140.5 76q83 0 140 -73t57 -180v-24h-353q5 -83 52.5 -140t114.5 -58zM72 271h313q-6 82 -51 137.5t-106 55.5q-60 0 -104.5 -56t-51.5 -137z" />
<glyph unicode="&#xec;" horiz-adv-x="211" d="M124 553l-109 87h66l66 -87h-23zM96 0l-1 500h41l1 -500h-41z" />
<glyph unicode="&#xed;" horiz-adv-x="211" d="M183 640l-109 -87h-23l66 87h66zM66 0l-1 500h41l1 -500h-41z" />
<glyph unicode="&#xee;" horiz-adv-x="177" d="M-20 568l107 106l108 -107l-26 -25l-82 83l-83 -83zM66 0l-1 500h41l1 -500h-41z" />
<glyph unicode="&#xef;" horiz-adv-x="177" d="M66 0l-1 500h41l1 -500h-41zM11 650q0 11 8.5 19t20.5 8q11 0 20 -8.5t9 -18.5t-9 -18.5t-20 -8.5q-12 0 -20.5 8t-8.5 19zM105 650q0 11 8.5 19t20.5 8q11 0 20 -8.5t9 -18.5t-9 -18.5t-20 -8.5q-12 0 -20.5 8t-8.5 19z" />
<glyph unicode="&#xf0;" horiz-adv-x="489" d="M38 481v7q0 86 61 147t147 61t146 -58.5t64 -142.5v-3q3 -40 3 -168q0 -89 -12 -153q-15 -78 -76.5 -128t-142.5 -50q-48 0 -93 22.5t-75 59.5l41 33q51 -72 134 -72q65 0 113 41t62 105q11 77 11 158v34q-28 -42 -74.5 -66.5t-102.5 -24.5q-83 0 -143.5 57.5 t-62.5 140.5zM78 483q4 -66 52 -112.5t114 -46.5q71 0 120.5 48.5t49.5 118.5q0 66 -50.5 114t-116.5 48q-70 0 -119.5 -50.5t-49.5 -119.5z" />
<glyph unicode="&#xf1;" horiz-adv-x="433" d="M81 496v-40v-27q51 79 139 79q70 0 118.5 -53t50.5 -130l3 -325h-42l-1 325q-1 59 -40.5 100t-93.5 41q-50 0 -88 -36t-46 -90l1 -340h-42l-1 454q0 37 -5 42h47zM200 617q-16 6 -39 6q-40 0 -71 -22l-14 29q34 24 88 24q19 0 46 -8.5t44 -8.5q48 0 73 22l15 -29 q-37 -25 -89 -25q-31 0 -53 12z" />
<glyph unicode="&#xf2;" horiz-adv-x="527" d="M64 247q0 -89 56.5 -152t136.5 -63q78 0 133.5 63t55.5 152q0 90 -55.5 153.5t-133.5 63.5q-80 0 -136.5 -63.5t-56.5 -153.5zM22 247q0 107 69 183t166 76q96 0 164 -76t68 -183q0 -106 -68 -181.5t-164 -75.5q-97 0 -166 75.5t-69 181.5zM265 553l-109 87h66l66 -87 h-23z" />
<glyph unicode="&#xf3;" horiz-adv-x="527" d="M381 640l-109 -87h-23l66 87h66zM64 247q0 -89 56.5 -152t136.5 -63q78 0 133.5 63t55.5 152q0 90 -55.5 153.5t-133.5 63.5q-80 0 -136.5 -63.5t-56.5 -153.5zM22 247q0 107 69 183t166 76q96 0 164 -76t68 -183q0 -106 -68 -181.5t-164 -75.5q-97 0 -166 75.5 t-69 181.5z" />
<glyph unicode="&#xf4;" horiz-adv-x="513" d="M148 568l107 106l108 -107l-26 -25l-82 83l-83 -83zM64 247q0 -89 56.5 -152t136.5 -63q78 0 133.5 63t55.5 152q0 90 -55.5 153.5t-133.5 63.5q-80 0 -136.5 -63.5t-56.5 -153.5zM22 247q0 107 69 183t166 76q96 0 164 -76t68 -183q0 -106 -68 -181.5t-164 -75.5 q-97 0 -166 75.5t-69 181.5z" />
<glyph unicode="&#xf5;" horiz-adv-x="513" d="M251 597q-23 10 -52 10q-36 0 -58 -14l-12 30q30 16 70 16q27 0 63.5 -14.5t62.5 -14.5q36 0 58 14l11 -30q-29 -16 -69 -16q-44 0 -74 19zM64 247q0 -89 56.5 -152t136.5 -63q78 0 133.5 63t55.5 152q0 90 -55.5 153.5t-133.5 63.5q-80 0 -136.5 -63.5t-56.5 -153.5z M22 247q0 107 69 183t166 76q96 0 164 -76t68 -183q0 -106 -68 -181.5t-164 -75.5q-97 0 -166 75.5t-69 181.5z" />
<glyph unicode="&#xf6;" horiz-adv-x="527" d="M172 650q0 11 8.5 19t20.5 8q11 0 20 -8.5t9 -18.5t-9 -18.5t-20 -8.5q-12 0 -20.5 8t-8.5 19zM306 650q0 11 8.5 19t20.5 8q11 0 20 -8.5t9 -18.5t-9 -18.5t-20 -8.5q-12 0 -20.5 8t-8.5 19zM64 247q0 -89 56.5 -152t136.5 -63q78 0 133.5 63t55.5 152q0 90 -55.5 153.5 t-133.5 63.5q-80 0 -136.5 -63.5t-56.5 -153.5zM22 247q0 107 69 183t166 76q96 0 164 -76t68 -183q0 -106 -68 -181.5t-164 -75.5q-97 0 -166 75.5t-69 181.5z" />
<glyph unicode="&#xf7;" horiz-adv-x="425" d="M380 273h-345v42h345v-42zM177 140v64h64v-64h-64zM177 387v64h64v-64h-64z" />
<glyph unicode="&#xf8;" horiz-adv-x="513" d="M22 247q0 107 69 183t166 76t166 -79l-32 -28q-55 65 -134 65q-80 0 -136.5 -63.5t-56.5 -153.5q0 -55 24 -105l-32 -28q-34 60 -34 133zM446 247q0 66 -33 121l33 28q43 -67 43 -149q0 -106 -68 -181.5t-164 -75.5q-109 0 -179 91l31 27q57 -76 148 -76q78 0 133.5 63 t55.5 152z" />
<glyph unicode="&#xf9;" horiz-adv-x="450" d="M356 0l-1 46v24q-23 -36 -59.5 -57.5t-78.5 -21.5q-69 0 -117 53.5t-50 130.5l-3 5v318h41v-318l2 -5q2 -58 41 -99.5t93 -41.5q50 0 87.5 37t43.5 89v340h42v-452q0 -44 6 -48h-47zM228 553l-109 87h66l66 -87h-23z" />
<glyph unicode="&#xfa;" horiz-adv-x="450" d="M328 640l-109 -87h-23l66 87h66zM356 0l-1 46v24q-23 -36 -59.5 -57.5t-78.5 -21.5q-69 0 -117 53.5t-50 130.5l-3 5v318h41v-318l2 -5q2 -58 41 -99.5t93 -41.5q50 0 87.5 37t43.5 89v340h42v-452q0 -44 6 -48h-47z" />
<glyph unicode="&#xfb;" horiz-adv-x="450" d="M116 568l107 106l108 -107l-26 -25l-82 83l-83 -83zM356 0l-1 46v24q-23 -36 -59.5 -57.5t-78.5 -21.5q-69 0 -117 53.5t-50 130.5l-3 5v318h41v-318l2 -5q2 -58 41 -99.5t93 -41.5q50 0 87.5 37t43.5 89v340h42v-452q0 -44 6 -48h-47z" />
<glyph unicode="&#xfc;" horiz-adv-x="450" d="M128 650q0 11 8.5 19t20.5 8q11 0 20 -8.5t9 -18.5t-9 -18.5t-20 -8.5q-12 0 -20.5 8t-8.5 19zM262 650q0 11 8.5 19t20.5 8q11 0 20 -8.5t9 -18.5t-9 -18.5t-20 -8.5q-12 0 -20.5 8t-8.5 19zM356 0l-1 46v24q-23 -36 -59.5 -57.5t-78.5 -21.5q-69 0 -117 53.5t-50 130.5 l-3 5v318h41v-318l2 -5q2 -58 41 -99.5t93 -41.5q50 0 87.5 37t43.5 89v340h42v-452q0 -44 6 -48h-47z" />
<glyph unicode="&#xfd;" horiz-adv-x="535" d="M391 640l-109 -87h-23l66 87h66zM53 -195l5 43q1 -2 4 -3.5t4 -2.5h2q3 0 11 -0.5t12 -0.5q36 0 69 24.5t51 67.5l40 99l-193 474h45l169 -422l166 422h45l-192 -471l-44 -117l-2 -9q-23 -51 -65.5 -80t-90.5 -29q-16 0 -36 5z" />
<glyph unicode="&#xfe;" horiz-adv-x="517" d="M104 692v-223q64 39 148 39q101 -2 171 -76.5t70 -180.5q0 -108 -70.5 -184t-170.5 -76q-69 0 -149 39v-226h-41v888h42zM101 411l3 -316q-2 -24 42 -42t106 -20q81 2 139.5 65.5t58.5 151.5q0 87 -58.5 151t-139.5 64q-58 0 -101.5 -15.5t-49.5 -38.5z" />
<glyph unicode="&#xff;" horiz-adv-x="535" d="M181 650q0 11 8.5 19t20.5 8q11 0 20 -8.5t9 -18.5t-9 -18.5t-20 -8.5q-12 0 -20.5 8t-8.5 19zM315 650q0 11 8.5 19t20.5 8q11 0 20 -8.5t9 -18.5t-9 -18.5t-20 -8.5q-12 0 -20.5 8t-8.5 19zM53 -195l5 43q1 -2 4 -3.5t4 -2.5h2q3 0 11 -0.5t12 -0.5q36 0 69 24.5 t51 67.5l40 99l-193 474h45l169 -422l166 422h45l-192 -471l-44 -117l-2 -9q-23 -51 -65.5 -80t-90.5 -29q-16 0 -36 5z" />
<glyph unicode="&#x152;" horiz-adv-x="1056" d="M561 88q-89 -97 -218 -97q-128 0 -221 102.5t-93 251.5q0 145 92 247.5t222 102.5q87 0 159 -46.5t114 -126.5v169h399v-40h-357v-262h305v-42h-305v-305h357l1 -42h-399l-1 166q-23 -45 -55 -78zM530 570q-74 82 -187 82t-192 -89.5t-79 -217.5q0 -130 78.5 -220.5 t192.5 -90.5q109 0 186.5 81.5t86.5 201.5v55q-9 118 -86 198z" />
<glyph unicode="&#x153;" horiz-adv-x="880" d="M664 32q54 0 130 37l17 -37q-49 -27 -120 -40h-1q-8 -1 -26 -1q-64 0 -116.5 43t-76.5 113q-27 -70 -85 -113.5t-129 -43.5q-97 0 -166 75.5t-69 181.5q0 107 69 183t166 76q70 0 128 -43t85 -113q23 70 72.5 113.5t110.5 43.5q83 0 140 -73t57 -180v-24h-353 q5 -83 52.5 -140t114.5 -58zM64 247q0 -89 56.5 -152t136.5 -63q78 0 133.5 63t55.5 152q0 90 -55.5 153.5t-133.5 63.5q-80 0 -136.5 -63.5t-56.5 -153.5zM497 271h313q-6 82 -51 137.5t-106 55.5q-60 0 -104.5 -56t-51.5 -137z" />
<glyph unicode="&#x178;" horiz-adv-x="681" d="M242 753q0 11 8.5 19t20.5 8q11 0 20 -8.5t9 -18.5t-9 -18.5t-20 -8.5q-12 0 -20.5 8t-8.5 19zM376 753q0 11 8.5 19t20.5 8q11 0 20 -8.5t9 -18.5t-9 -18.5t-20 -8.5q-12 0 -20.5 8t-8.5 19zM588 691h56l-283 -378l1 -313h-43l-1 313l-283 378h57l246 -338z" />
<glyph unicode="&#x2c6;" horiz-adv-x="268" d="M31 568l107 106l108 -107l-26 -25l-82 83l-83 -83z" />
<glyph unicode="&#x2dc;" horiz-adv-x="334" d="M154 597q-23 10 -52 10q-36 0 -58 -14l-12 30q30 16 70 16q27 0 63.5 -14.5t62.5 -14.5q36 0 58 14l11 -30q-29 -16 -69 -16q-44 0 -74 19z" />
<glyph unicode="&#x2000;" horiz-adv-x="443" />
<glyph unicode="&#x2001;" horiz-adv-x="887" />
<glyph unicode="&#x2002;" horiz-adv-x="443" />
<glyph unicode="&#x2003;" horiz-adv-x="887" />
<glyph unicode="&#x2004;" horiz-adv-x="295" />
<glyph unicode="&#x2005;" horiz-adv-x="221" />
<glyph unicode="&#x2006;" horiz-adv-x="147" />
<glyph unicode="&#x2007;" horiz-adv-x="147" />
<glyph unicode="&#x2008;" horiz-adv-x="110" />
<glyph unicode="&#x2009;" horiz-adv-x="177" />
<glyph unicode="&#x200a;" horiz-adv-x="49" />
<glyph unicode="&#x2010;" horiz-adv-x="421" d="M386 273h-345v42h345v-42z" />
<glyph unicode="&#x2011;" horiz-adv-x="421" d="M386 273h-345v42h345v-42z" />
<glyph unicode="&#x2013;" horiz-adv-x="416" d="M386 273h-345v42h345v-42z" />
<glyph unicode="&#x2014;" horiz-adv-x="532" d="M500 273h-459v42h459v-42z" />
<glyph unicode="&#x2018;" horiz-adv-x="150" d="M78 612l26 -57l-43 -20l-27 58l45 97l8 -4z" />
<glyph unicode="&#x2019;" horiz-adv-x="159" d="M66 623l-7 63l48 5l7 -63l-74 -78l-6 6z" />
<glyph unicode="&#x201a;" horiz-adv-x="172" d="M78 0l-1 64h48l1 -64l-83 -69l-5 6z" />
<glyph unicode="&#x201c;" horiz-adv-x="218" d="M162 686l-7 -63l32 -67l-6 -6l-74 78l7 63zM89 686l-7 -63l32 -67l-6 -6l-74 78l7 63z" />
<glyph unicode="&#x201d;" horiz-adv-x="237" d="M139 623l-7 63l48 5l7 -63l-74 -78l-6 6zM66 623l-7 63l48 5l7 -63l-74 -78l-6 6z" />
<glyph unicode="&#x201e;" horiz-adv-x="231" d="M66 3l-2 63h49v-63l-80 -70l-5 6zM140 2v63h47v-64l-81 -70l-4 7z" />
<glyph unicode="&#x2022;" horiz-adv-x="209" d="M44 384q0 25 18.5 44t43.5 19q24 0 43.5 -19t19.5 -44q0 -23 -19.5 -41.5t-43.5 -18.5t-43 18.5t-19 41.5z" />
<glyph unicode="&#x2026;" horiz-adv-x="435" d="M333 0l-1 64h64l1 -64h-64zM188 0l-1 64h64l1 -64h-64zM43 0l-1 64h64l1 -64h-64z" />
<glyph unicode="&#x202f;" horiz-adv-x="177" />
<glyph unicode="&#x2039;" horiz-adv-x="352" d="M47 248l243 246l31 -29l-215 -217l215 -212l-30 -31z" />
<glyph unicode="&#x203a;" horiz-adv-x="343" d="M78 494l243 -246l-244 -243l-30 31l215 212l-215 217z" />
<glyph unicode="&#x205f;" horiz-adv-x="221" />
<glyph unicode="&#x20ac;" horiz-adv-x="745" d="M680 136l31 -34q-104 -111 -244 -111q-116 0 -204.5 76.5t-115.5 193.5h-107v43h100q0 6 -1.5 19t-1.5 19q0 14 5 57h-102v42h111q31 111 119 182.5t197 71.5q140 0 244 -111l-31 -31q-89 99 -213 99q-94 0 -169 -58.5t-104 -152.5h343v-42h-352q-5 -28 -5 -57 q0 -6 1 -19t1 -19h355v-43h-345q23 -98 100.5 -162.5t174.5 -64.5q125 0 213 102z" />
<glyph unicode="&#x2122;" horiz-adv-x="417" d="M122 654v-174h-32v174h-60v29h150v-29h-58zM336 683h25v-203h-30v138q-33 -52 -43 -72h-16l-42 72v-138h-31v203h26l56 -95q2 3 55 95z" />
<glyph horiz-adv-x="257" />
</font>
</defs>
</svg>
