<?xml version="1.0" standalone="no"?>
<!DOCTYPE svg PUBLIC "-//W3C//DTD SVG 1.1//EN" "http://www.w3.org/Graphics/SVG/1.1/DTD/svg11.dtd" >
<svg xmlns="http://www.w3.org/2000/svg">
<metadata>
This is a custom SVG webfont generated by Font Squirrel.
Designer    : La Tipomatika (Digital Type Foundry)
Foundry     : La Tipomatika
</metadata>
<defs>
<font id="webfontaZe7ilT6" horiz-adv-x="596" >
<font-face units-per-em="1000" ascent="800" descent="-200" />
<missing-glyph horiz-adv-x="257" />
<glyph unicode=" "  horiz-adv-x="257" />
<glyph unicode="&#x09;" horiz-adv-x="257" />
<glyph unicode="&#xa0;" horiz-adv-x="257" />
<glyph unicode="!" horiz-adv-x="176" d="M116 31v-1q0 -15 -11 -27t-26 -12q-17 0 -28 11.5t-11 27.5q0 17 11 27.5t28 10.5q35 0 37 -37zM46 93v588h65v-588h-65z" />
<glyph unicode="&#x22;" horiz-adv-x="217" d="M32 529l-11 152h76l9 -77l-47 -102zM102 529l-11 152h77l8 -77l-47 -102z" />
<glyph unicode="#" horiz-adv-x="714" d="M8 207l60 74h95l15 39q10 27 14 40q1 2 9 23h-194l59 73h160l39 101q5 14 16 41l15 38h75l-67 -180h191l47 125l21 55h76l-67 -180h122l-59 -73h-87q-2 -6 -6.5 -17.5t-6.5 -17.5q-26 -64 -27 -67h187l-61 -74h-152l-36 -97q-24 -70 -39 -110h-78l77 207h-193 q-1 -4 -19 -55l-28 -77v1l-16 -43q-10 -29 -12 -33h-77l77 207h-130zM279 383l-39 -102h193q13 39 16 47q11 24 21 55h-191z" />
<glyph unicode="$" horiz-adv-x="466" d="M190 382v224q-40 -13 -65.5 -42.5t-25.5 -66.5q0 -38 24.5 -70t66.5 -45zM262 294v-226q41 9 67.5 38t26.5 69q0 39 -26.5 72.5t-67.5 46.5zM190 724h72v-40q95 -6 169 -90l-57 -46q-49 58 -112 65v-248q75 -17 121.5 -68t46.5 -119q0 -65 -48.5 -116.5t-119.5 -66.5v-57 h-72v55q-51 6 -96 34t-74 71l57 46q51 -72 113 -79v241q-76 16 -121 67.5t-45 120.5q0 67 47 118t119 67v45z" />
<glyph unicode="&#x26;" horiz-adv-x="597" d="M241 0q-89 0 -149 57t-60 136q0 55 41.5 106.5t115.5 88.5h2q2 1 3 1q-1 1 -1 2l1 -1l-1 1q-1 1 -1 2q-47 50 -61.5 81.5t-14.5 63.5q0 58 45.5 102.5t116.5 44.5q67 0 110 -41.5t43 -99.5q0 -91 -126 -160l-3 -2l73 -93l53 -67q0 1 1 2.5t2 2.5q19 37 32 91l80 -16 q-35 -103 -61 -144q0 -2 -1 -6l-1 -4q23 -38 62 -70v-84q-59 37 -97 84q-6 8 -7 9l-4 6l-4 -4q-83 -90 -189 -89zM462 138l-2 7h20l1 -5zM353 543q0 34 -22.5 57.5t-57.5 23.5q-32 0 -56 -23t-24 -55q2 -36 32 -71l39 -45h1q1 1 2 1h-1q50 29 68.5 53.5t18.5 58.5zM233 341 l-3 -2q-116 -67 -116 -141q0 -50 36.5 -90.5t90.5 -40.5q38 -1 77 22t65 59l2 2l-45 56l-46 59z" />
<glyph unicode="'" horiz-adv-x="121" d="M38 604l-9 71l77 6l9 -80l-86 -92l-25 25z" />
<glyph unicode="(" horiz-adv-x="260" d="M158 698l31 -78q-37 -45 -58.5 -134.5t-21.5 -198.5q0 -118 26.5 -213t68.5 -135l-42 -67q-58 57 -94 169.5t-36 245.5q0 129 35 240.5t91 170.5z" />
<glyph unicode=")" horiz-adv-x="246" d="M53 620l29 78q57 -61 93 -172.5t36 -238.5q0 -133 -36 -245t-94 -169l-42 67q42 40 68 134.5t26 212.5q0 109 -21.5 198.5t-58.5 134.5z" />
<glyph unicode="*" horiz-adv-x="471" d="M265 457v-94h-71v92l-64 -64l-52 50l66 65h-91v71h91l-65 65l51 51l64 -64v91h71v-91l65 64l51 -50l-64 -65h91v-72h-93q4 -5 11.5 -11.5t10.5 -9.5l44 -44l-50 -50z" />
<glyph unicode="+" horiz-adv-x="452" d="M257 256v-142h-72v142h-141v72h141v142h72v-142h142v-72h-142z" />
<glyph unicode="," horiz-adv-x="173" d="M59 21v72h77v-84l-96 -83l-20 32z" />
<glyph unicode="-" horiz-adv-x="421" d="M386 256h-356v72h356v-72z" />
<glyph unicode="." horiz-adv-x="145" d="M26 0v93h93v-93h-93z" />
<glyph unicode="/" horiz-adv-x="378" d="M351 681l-249 -681h-76l249 681h76z" />
<glyph unicode="0" horiz-adv-x="586" d="M106 338q0 -114 53 -194t129 -80t128.5 80t52.5 194t-52.5 194t-128.5 80t-129 -80t-53 -194zM33 338q0 144 75 245.5t180 101.5t178.5 -101.5t73.5 -245.5q0 -143 -73.5 -245t-178.5 -102q-104 0 -179.5 102.5t-75.5 244.5z" />
<glyph unicode="1" horiz-adv-x="263" d="M66 518l-51 50l136 113h61v-681h-72v579q-4 -3 -64 -52q-2 -1 -10 -9z" />
<glyph unicode="2" horiz-adv-x="475" d="M371 321l-220 -250h279v-71h-385v62l277 310q37 40 37 96q0 61 -43.5 102.5t-105.5 41.5q-60 0 -114 -52l-52 52q83 73 166 73q91 0 155.5 -64t64.5 -153q0 -81 -59 -147z" />
<glyph unicode="3" horiz-adv-x="431" d="M9 72l50 50q56 -61 125 -61q59 0 100.5 37.5t41.5 89.5q0 41 -40.5 76.5t-91.5 46.5h-101v72h103q55 3 93.5 36.5t38.5 77.5q0 48 -41.5 82t-99.5 34q-76 0 -128 -60l-49 53q73 79 177 79q89 0 152.5 -55t63.5 -133q0 -47 -25.5 -86.5t-68.5 -65.5q89 -59 89 -157 q0 -83 -62.5 -141t-151.5 -58q-102 0 -175 83z" />
<glyph unicode="4" horiz-adv-x="473" d="M264 238h-238l2 61l224 387l63 -34l-198 -342h147v144h73v-144h92v-72h-92v-238h-73v238z" />
<glyph unicode="5" horiz-adv-x="504" d="M104 330h-67l25 351h377v-73h-308q-3 -27 -7 -67q-7 -78 -8 -83q55 39 125 39q94 0 159 -72t65 -175q0 -104 -65 -177t-159 -73q-54 0 -103.5 29.5t-82.5 80.5l52 52q55 -91 134 -91q63 0 107.5 52.5t44.5 126.5q0 73 -44.5 124.5t-107.5 51.5q-43 0 -80 -26t-57 -70z " />
<glyph unicode="6" horiz-adv-x="506" d="M468 210v-9q0 -88 -61.5 -148.5t-150.5 -60.5q-85 0 -145 59t-64 147v-1q-4 41 -4 131v20q0 95 13 156q14 76 72.5 128t136.5 53q115 0 192 -103l-69 -40q-23 32 -55.5 51.5t-66.5 19.5q-52 0 -93 -36t-50 -91q-11 -63 -12 -132q55 56 140 61q88 0 152 -58.5t65 -146.5z M398 208q-2 57 -43 96t-99 39t-98 -42.5t-40 -101.5q0 -56 41.5 -96t98.5 -40q58 0 99 40t41 97v8z" />
<glyph unicode="7" horiz-adv-x="443" d="M23 0l284 608h-253v73h369l-318 -681h-82z" />
<glyph unicode="8" horiz-adv-x="459" d="M21 196q0 51 25 96t66 74q-69 49 -69 140q0 73 54 126t128 53q78 0 131.5 -52.5t53.5 -126.5q0 -90 -69 -140q42 -27 65.5 -71.5t23.5 -98.5q0 -85 -59.5 -145t-145.5 -60q-83 0 -143.5 60.5t-60.5 144.5zM114 506q0 -44 32.5 -75t78.5 -31q47 0 79.5 31t32.5 75 t-32.5 75t-79.5 31q-46 0 -78.5 -31t-32.5 -75zM94 196q0 -54 39 -93t92 -39q55 0 94.5 39t39.5 93q0 55 -39.5 94t-94.5 39q-53 0 -92 -39t-39 -94z" />
<glyph unicode="9" horiz-adv-x="489" d="M29 468v6q0 87 61.5 149t149.5 62q84 0 145 -61t68 -146q3 -40 3 -133v-25q0 -86 -12 -146q-15 -80 -77.5 -130.5t-144.5 -50.5q-49 0 -97 26t-82 70l64 53q50 -75 122 -75q55 0 95.5 35t52.5 88v-1q9 71 10 134q-63 -58 -149 -58q-84 0 -146 59t-63 144zM241 612 q-59 0 -101 -42t-42 -100q3 -56 43.5 -95t96.5 -39q59 0 100.5 41t41.5 99q0 55 -42 95.5t-97 40.5z" />
<glyph unicode=":" horiz-adv-x="182" d="M44 0v93h93v-93h-93zM44 409v92h93v-92h-93z" />
<glyph unicode=";" horiz-adv-x="169" d="M44 409v92h91v-92h-91zM49 21v72h78v-84l-98 -83l-20 32z" />
<glyph unicode="&#x3c;" horiz-adv-x="330" d="M10 249l250 253l52 -50l-201 -203l93 -93l108 -106l-51 -52z" />
<glyph unicode="=" horiz-adv-x="440" d="M57 369v74h346v-74h-346zM57 188v73h346v-73h-346z" />
<glyph unicode="&#x3e;" horiz-adv-x="336" d="M71 502l251 -253l-251 -251l-51 52l201 199l-30 29l-35 34l-29 31q-80 80 -107 109z" />
<glyph unicode="?" horiz-adv-x="410" d="M247 0h-78l-88 312v60h105q48 2 81 36t33 83q0 50 -34.5 86t-82.5 36q-64 0 -110 -78l-51 51q28 45 70.5 72t90.5 27q78 0 132.5 -57t54.5 -137q0 -77 -53.5 -133.5t-130.5 -56.5h-29q15 -50 19 -62zM184 -74q0 18 12.5 29.5t28.5 11.5q19 0 30 -11t11 -30 q0 -18 -11.5 -31t-29.5 -13q-16 0 -28.5 13.5t-12.5 30.5z" />
<glyph unicode="@" horiz-adv-x="754" d="M491 206q19 0 48 25t45 59q9 20 16.5 56t7.5 60q0 82 -63 140t-161 58q-113 0 -188 -79t-75 -197q0 -116 71.5 -181t200.5 -65q77 0 136.5 28.5t89.5 74.5h92l-14 -32q-35 -64 -115 -108t-188 -44q-160 0 -256 83.5t-96 237.5q0 156 95.5 259.5t249.5 103.5 q124 0 212.5 -76.5t88.5 -203.5q0 -95 -58.5 -178t-143.5 -95q-53 3 -73 21q-39 -24 -77 -24q-57 0 -96 40.5t-39 98.5t40 97.5t98 39.5h59q-2 72 -28 72q-35 0 -61 -9l-22 -1l-18 74l23 1q31 10 79 10q85 -3 100 -144q-2 -74 -2 -142q0 -18 -1 -24v1q-6 -37 23 -37z M404 268v67h-65q-30 0 -51.5 -19t-21.5 -48q0 -28 20.5 -48t49.5 -20q28 0 48 20t20 48z" />
<glyph unicode="A" d="M219 346h157q-5 14 -19 50.5t-19 51.5v-1q-23 58 -41 109q-22 -55 -30 -80v-1zM15 0l255 691h55l255 -691h-76l-101 273h-210l-66 -177q-28 -71 -37 -96h-75z" />
<glyph unicode="B" horiz-adv-x="512" d="M270 2l-19 -2h-209v691h226q79 -1 134.5 -54t55.5 -124q0 -91 -76 -146q41 -27 65.5 -71t24.5 -93q0 -82 -58.5 -141t-144.5 -60h1zM386 513q0 42 -34.5 73t-84.5 34h-153v-217h154q50 2 84 33t34 77zM268 73q55 3 93 41t38 89q0 50 -38.5 87.5t-93.5 39.5h-153v-257h154 z" />
<glyph unicode="C" horiz-adv-x="590" d="M562 587l-51 -50q-82 85 -176 85q-100 0 -171 -81t-71 -196q0 -116 69.5 -198t172.5 -82q91 0 175 84l50 -50q-103 -108 -225 -108q-126 0 -221 105t-95 249q0 141 92.5 245.5t223.5 104.5q61 0 120.5 -29t106.5 -79z" />
<glyph unicode="D" horiz-adv-x="575" d="M286 618h-187v-545q60 0 91 1q17 0 49.5 0.5t48.5 0.5q71 2 121 81.5t50 190.5q0 112 -50.5 190.5t-122.5 80.5zM26 0v691h260q67 -1 124 -47t89.5 -125t32.5 -172q0 -142 -70.5 -242.5t-173.5 -104.5h-262z" />
<glyph unicode="E" horiz-adv-x="485" d="M395 403v-73h-290v-257h340v-73h-412v691h412v-71h-340v-217h290z" />
<glyph unicode="F" horiz-adv-x="487" d="M399 403v-73h-290v-330h-72v691h412v-70h-340v-218h290z" />
<glyph unicode="G" horiz-adv-x="604" d="M554 98l-2 -10q-94 -97 -219 -97q-131 0 -224 103.5t-93 247.5q0 146 93 249.5t224 103.5q125 0 228 -108l-51 -51q-82 85 -177 85q-102 0 -173.5 -81t-71.5 -198q0 -115 72 -197.5t173 -82.5q81 0 148 59v165h-181v71h254v-259z" />
<glyph unicode="H" horiz-adv-x="558" d="M441 330h-330v-330h-73v691h73v-288h330v288h72v-691h-72v330z" />
<glyph unicode="I" horiz-adv-x="138" d="M106 691v-691h-73v691h73z" />
<glyph unicode="J" horiz-adv-x="305" d="M253 691v-514q0 -75 -41.5 -130.5t-97.5 -55.5q-50 0 -100 57l48 50q32 -34 52 -34q27 0 46 31.5t19 79.5v516h74z" />
<glyph unicode="K" horiz-adv-x="583" d="M33 691h73v-328l283 328h98l-260 -303l333 -388h-96l-286 333q-4 -4 -10 -12l-12 -15l-11 -12q-26 -33 -39 -46v-248h-73v691z" />
<glyph unicode="L" horiz-adv-x="453" d="M104 691v-618h322v-73h-394v691h72z" />
<glyph unicode="M" horiz-adv-x="623" d="M299 340l204 351h67v-691h-74v536l-176 -303h-45l-178 303v-536h-73v691h66z" />
<glyph unicode="N" horiz-adv-x="537" d="M36 691h65l315 -533v533h73v-691h-66l-315 536v-536h-72v691z" />
<glyph unicode="O" horiz-adv-x="690" d="M502 548q-65 73 -166 73t-171.5 -80.5t-70.5 -195.5q0 -116 70.5 -198t171.5 -82q104 0 174 81.5t70 198.5q0 125 -78 203zM555 88q-89 -97 -219 -97q-129 0 -222.5 102.5t-93.5 251.5q0 145 92.5 247.5t223.5 102.5q135 0 225 -101.5t90 -248.5q0 -155 -96 -257z" />
<glyph unicode="P" horiz-adv-x="480" d="M246 329h-133v-329h-72v691h205q84 0 143.5 -52.5t59.5 -125.5q0 -77 -59 -130.5t-144 -53.5zM245 620h-132v-218h133q54 0 92 32t38 79q0 43 -39 75t-92 32z" />
<glyph unicode="Q" horiz-adv-x="665" d="M471 558q-65 70 -151 70q-92 0 -157.5 -76.5t-65.5 -184.5q0 -87 44.5 -156t115.5 -93v65q41 1 71 -18.5t41 -50.5q74 22 124.5 93t50.5 160q0 115 -73 191zM265 116h-8v2q1 -1 4 -1.5t4 -0.5zM522 131q-59 -65 -146 -84q8 -41 24 -41q13 0 25 32l55 -48q-41 -54 -80 -54 q-32 0 -58 30.5t-35 75.5q-114 10 -196.5 103t-82.5 222q0 138 86.5 233t205.5 95q121 0 208 -95.5t87 -232.5q0 -138 -93 -236z" />
<glyph unicode="R" horiz-adv-x="474" d="M375 0l-270 303v-303h-73v691h205q85 0 144 -52t59 -127q0 -76 -59 -129t-144 -53h-58l128 -146l163 -184h-95zM235 621h-130v-218h132q54 0 92 32t38 77q0 44 -39 76.5t-93 32.5z" />
<glyph unicode="S" horiz-adv-x="485" d="M29 100l57 46q53 -82 146 -82q55 0 96 33.5t41 80.5q0 45 -38.5 82t-93.5 45q-86 12 -145 68t-59 129q0 82 63.5 137t154.5 55q113 0 195 -90l-60 -48q-54 68 -135 68q-57 0 -100.5 -35t-43.5 -83q0 -49 39.5 -87t97.5 -42q85 -10 142.5 -66.5t57.5 -129.5 q0 -79 -62.5 -134.5t-151.5 -55.5q-61 0 -114.5 30t-86.5 79z" />
<glyph unicode="T" horiz-adv-x="575" d="M534 620h-214v-620h-73v620h-216v71h503v-71z" />
<glyph unicode="U" horiz-adv-x="598" d="M108 691v-509q8 -47 62 -82t125 -35q68 0 121 35t60 82v509h73v-510q-3 -77 -78 -133.5t-176 -56.5q-106 0 -182 55.5t-81 133.5v511h76z" />
<glyph unicode="V" horiz-adv-x="639" d="M281 0l-254 691h75l212 -569l87 236l123 333h76l-255 -691h-64z" />
<glyph unicode="W" horiz-adv-x="915" d="M857 691l-255 -691h-65l-93 251l-40 -111l-51 -140h-65l-255 691h75l212 -570l39 108v-1l47 128l-59 160v-1l-64 176h75l101 -273l56 -147l55 -150l80 217l130 353h77z" />
<glyph unicode="X" horiz-adv-x="541" d="M220 353l-197 338h84l161 -270l74 125l86 145h85l-201 -344l94 -164l107 -183h-85l-166 280l-98 -168l-30 -50l-36 -62h-84z" />
<glyph unicode="Y" horiz-adv-x="681" d="M561 691h94l-286 -382v-309h-74v309l-79 106l-206 276h95l226 -310l60 81z" />
<glyph unicode="Z" horiz-adv-x="548" d="M525 691l-383 -618h337v-73h-468l385 618h-345v73h474z" />
<glyph unicode="[" horiz-adv-x="210" d="M160 305v-234h16v-71q-30 0 -59 17.5t-29 43.5v226q0 11 -7.5 18.5t-17.5 7.5h-36v72h36q10 0 17.5 7.5t7.5 18.5v219q4 22 29.5 36.5t58.5 14.5v-74q-4 0 -10 -1q-5 -1 -6 0v-208q-14 -39 -41 -44v-10q32 -10 41 -39z" />
<glyph unicode="\" horiz-adv-x="371" d="M274 0l-248 681h75l250 -681h-77z" />
<glyph unicode="]" horiz-adv-x="183" d="M32 71v232q8 36 38 42q0 2 0.5 5.5t0.5 4.5q-33 12 -39 41v211h-18v74q36 0 60 -14.5t29 -36.5l2 -8v-211q0 -26 22 -26h36v-72h-36q-22 0 -22 -26v-226q0 -26 -29 -43.5t-62 -17.5v71h18z" />
<glyph unicode="^" horiz-adv-x="551" d="M15 437l254 250l251 -251l-52 -51l-200 201l-94 -94l-108 -107z" />
<glyph unicode="_" horiz-adv-x="513" d="M458 0h-428v71h428v-71z" />
<glyph unicode="`" horiz-adv-x="204" d="M131 519l-144 113h117l85 -113h-58z" />
<glyph unicode="a" horiz-adv-x="406" d="M293 0v19q-45 -29 -97 -29q-68 0 -117.5 46.5t-49.5 111.5q0 69 51 114.5t122 45.5h91v3q0 51 -23.5 87t-60.5 37q-56 0 -120 -19l-18 70q74 21 139 21q62 -2 107 -52.5t48 -123.5v-10q-2 -81 -2 -158q0 -132 28 -163h-98zM293 148v88h-91q-42 0 -71.5 -24.5t-29.5 -63.5 q0 -35 28 -59.5t67 -24.5q41 0 69 24.5t28 59.5z" />
<glyph unicode="b" horiz-adv-x="523" d="M119 399v-295q0 -16 36.5 -27.5t89.5 -13.5q69 2 119 56.5t50 130.5q0 75 -50 130t-119 55q-46 0 -82.5 -10.5t-43.5 -25.5zM119 15v-15h-93q9 13 15 39t7 45l2 20v577h72v-197q52 23 123 23q100 0 170.5 -76t70.5 -181q0 -106 -70.5 -182t-171.5 -78q-80 5 -125 25z" />
<glyph unicode="c" horiz-adv-x="478" d="M438 417l-52 -53q-59 71 -132 71q-70 0 -119.5 -54.5t-49.5 -131.5q0 -76 49.5 -130.5t119.5 -54.5t129 67l53 -51q-86 -89 -182 -89q-98 0 -169 76t-71 182t71 182t169 76q102 0 184 -90z" />
<glyph unicode="d" horiz-adv-x="534" d="M112 253q0 -76 50 -131t122 -57q50 2 85.5 14.5t35.5 26.5v291q-6 15 -41 26.5t-81 11.5q-71 -2 -121 -55.5t-50 -126.5zM405 3v15q-51 -20 -121 -25q-100 2 -171 78t-71 182q0 105 71 179t170 75q77 0 122 -24v198h72v-575q0 -74 36 -103h-108z" />
<glyph unicode="e" horiz-adv-x="456" d="M233 63q46 0 129 39l28 -63q-62 -34 -131 -47q-8 -1 -26 -1q-84 0 -146.5 70t-68.5 170v19q0 106 60.5 182t143.5 76q85 0 142.5 -73t57.5 -180v-39h-329q8 -66 47 -109t93 -44zM95 286h255q-8 65 -44 107t-84 42q-45 0 -80.5 -43t-46.5 -106z" />
<glyph unicode="f" horiz-adv-x="328" d="M314 680l-22 -73q-25 6 -45 6q-34 -2 -58 -34.5t-24 -79.5v-8h123v-73h-123v-418h-69v418h-71v73h70l-1 6v13q4 71 48.5 123t104.5 52q28 0 67 -5z" />
<glyph unicode="g" horiz-adv-x="551" d="M196 140q1 0 2.5 0.5t2.5 0.5h2q7 2 26 2q86 0 145.5 -48t59.5 -116q0 -69 -59.5 -118t-145.5 -49q-83 0 -143.5 49.5t-60.5 117.5q0 41 25.5 78t66.5 59q-4 11 -4 36q0 22 12 48q-62 50 -62 129q0 73 59 125.5t143 52.5q32 0 76 -10h194l-68 -72h-29q31 -47 31 -96 q0 -75 -59.5 -126t-144.5 -51q-22 0 -48 6q-18 5 -28 5q-15 0 -15 -9q0 -14 17 -14h5zM96 -21q0 -39 39.5 -68t93.5 -29q56 0 96 29t40 68t-40 67.5t-96 28.5q-54 0 -93.5 -29t-39.5 -67zM134 329q0 -44 38.5 -75.5t92.5 -31.5q57 0 95.5 31t38.5 76t-38.5 76.5t-95.5 31.5 q-54 0 -92.5 -31.5t-38.5 -76.5z" />
<glyph unicode="h" horiz-adv-x="455" d="M35 683h71v-219q47 44 115 44q72 0 121.5 -54t51.5 -133l3 -318h-71v318q-2 49 -34.5 82.5t-76.5 33.5q-35 0 -66.5 -31.5t-42.5 -72.5v-333h-71v683z" />
<glyph unicode="i" horiz-adv-x="177" d="M49 0v501h70v-501h-70zM41 626q0 17 12.5 29t30.5 12q17 0 30.5 -12.5t13.5 -28.5t-13.5 -29t-30.5 -13q-18 0 -30.5 12.5t-12.5 29.5z" />
<glyph unicode="j" horiz-adv-x="354" d="M173 621q0 19 11.5 30t31.5 11q15 0 27.5 -11.5t12.5 -29.5q0 -16 -12.5 -29t-27.5 -13q-19 0 -31 12.5t-12 29.5zM36 -182l7 69q27 0 41 -2q3 -1 4 -1l2 3q39 0 65 32t26 77v506h71v-515q-4 -71 -47.5 -121t-105.5 -52q-10 0 -36 2q-6 2 -27 2z" />
<glyph unicode="k" horiz-adv-x="440" d="M121 681v-318l106 90q47 41 49 43h113l-167 -139l59 -102l146 -255h-85l-176 309q-5 -4 -14 -12l-16 -15l-15 -12v-270h-100q28 28 28 59v622h72z" />
<glyph unicode="l" horiz-adv-x="162" d="M49 0v681h71v-681h-71z" />
<glyph unicode="m" horiz-adv-x="739" d="M106 501v-39q45 44 112 44q93 0 146 -83q24 43 63 64t82 21q71 0 121 -54t52 -133l2 -319h-72v319q-2 48 -32.5 81.5t-74.5 33.5q-38 0 -69.5 -31t-40.5 -72v-331h-72v317q-1 49 -32.5 82t-76.5 33q-36 0 -67 -31t-41 -72v-331h-72v440q0 12 -9.5 32.5t-18.5 28.5h100z " />
<glyph unicode="n" horiz-adv-x="433" d="M99 497v-32q44 44 115 44t121.5 -54.5t52.5 -133.5l2 -321h-72v321q-1 49 -33 82.5t-76 33.5q-37 0 -68.5 -31t-41.5 -73v-333h-71v442q0 12 -9.5 29t-18.5 26h99z" />
<glyph unicode="o" horiz-adv-x="513" d="M86 248q0 -77 48 -131t115 -54t114.5 54.5t47.5 130.5q0 77 -47.5 132t-114.5 55t-115 -55t-48 -132zM13 248q0 107 69.5 183t166.5 76q98 0 166.5 -76t68.5 -183q0 -106 -68.5 -182t-166.5 -76q-97 0 -166.5 76t-69.5 182z" />
<glyph unicode="p" horiz-adv-x="506" d="M101 399v-297q5 -14 40.5 -25t83.5 -13q71 2 121 57t50 132q0 76 -50.5 130t-120.5 54q-51 0 -87.5 -11.5t-36.5 -26.5zM101 500v-16q64 26 124 26q101 -2 171.5 -77.5t70.5 -179.5q0 -109 -70.5 -185t-171.5 -76q-72 0 -123 24v-199h-72v582q-2 71 -30 101h101z" />
<glyph unicode="q" horiz-adv-x="513" d="M381 486v10h71v-679h-71v217q-45 -24 -120 -24q-95 2 -164 74.5t-69 173.5q0 102 69 175.5t164 73.5q73 0 120 -21zM381 117v282q0 15 -35.5 26.5t-84.5 11.5q-68 0 -115.5 -52.5t-47.5 -126.5q0 -73 47.5 -125t115.5 -54q46 0 80 11t40 27z" />
<glyph unicode="r" horiz-adv-x="279" d="M259 498l-18 -70q-22 7 -30 7q-37 0 -68 -31t-40 -73v-331h-72v440q0 14 -11.5 31.5t-31.5 30.5h115v-39q46 44 113 44q21 0 43 -9z" />
<glyph unicode="s" horiz-adv-x="417" d="M383 430l-58 -42q-49 46 -117 46q-41 0 -68.5 -18t-27.5 -46t29 -52t73 -31q68 -10 114.5 -55t46.5 -100q0 -61 -49.5 -100.5t-119.5 -39.5q-46 0 -93.5 21.5t-77.5 58.5l54 42q50 -50 114 -50q42 0 71.5 19.5t29.5 48.5q0 25 -31 50.5t-72 36.5q-65 11 -113.5 56 t-48.5 96q0 59 50.5 97t122.5 38q46 0 92 -21t79 -55z" />
<glyph unicode="t" horiz-adv-x="340" d="M107 681h73v-186h126v-73h-126v-422h-71v422h-71v73h69v186z" />
<glyph unicode="u" horiz-adv-x="450" d="M325 0v36q-50 -45 -114 -45q-70 0 -119.5 53.5t-52.5 130.5l-3 3v321h71v-314l1 -5q2 -47 34 -81t76 -34q37 0 67.5 31.5t39.5 72.5v332h72v-439q0 -14 9 -33t19 -29h-100z" />
<glyph unicode="v" horiz-adv-x="500" d="M209 0l-202 501h76l159 -387l111 276q38 95 45 111h79l-205 -501h-63z" />
<glyph unicode="w" horiz-adv-x="705" d="M668 501l-205 -501l-63 3l-63 157l-44 -103l-24 -57l-61 3l-203 498h77l157 -384l22 51l35 88q-39 100 -52 131q-10 23 -45 114h80l154 -386l156 386h79z" />
<glyph unicode="x" horiz-adv-x="444" d="M166 260l-153 241h87l111 -178l39 60l35 54q8 11 22 33.5t20 30.5h86l-157 -249l93 -149l64 -103h-85l-119 188l-26 -41h1l-90 -147h-86z" />
<glyph unicode="y" horiz-adv-x="535" d="M40 -180l11 83q19 -20 43 -20q30 0 57 20.5t41 56.5l18 46l8 18l9 23q-17 42 -27 69l-160 391h77l146 -368l94 237l52 131h77l-188 -464q-3 -7 -8.5 -22t-8.5 -22l-12 -31q-9 -22 -13 -34q-21 -56 -67.5 -89t-95.5 -33q-23 0 -53 8z" />
<glyph unicode="z" horiz-adv-x="452" d="M34 0v63l276 366h-273v72h374v-62l-276 -367h276v-72h-377z" />
<glyph unicode="{" horiz-adv-x="223" d="M160 305v-234h16v-71q-30 0 -59 17.5t-29 43.5v226q0 11 -7.5 18.5t-17.5 7.5h-36v72h36q10 0 17.5 7.5t7.5 18.5v219q4 22 29.5 36.5t58.5 14.5v-74q-4 0 -10 -1q-5 -1 -6 0v-208q-14 -39 -41 -44v-10q32 -10 41 -39z" />
<glyph unicode="|" horiz-adv-x="131" d="M40 1v704h57v-704h-57z" />
<glyph unicode="}" horiz-adv-x="188" d="M32 71v232q8 36 38 42q0 2 0.5 5.5t0.5 4.5q-33 12 -39 41v211h-18v74q36 0 60 -14.5t29 -36.5l2 -8v-211q0 -26 22 -26h36v-72h-36q-22 0 -22 -26v-226q0 -26 -29 -43.5t-62 -17.5v71h18z" />
<glyph unicode="~" horiz-adv-x="347" d="M219 273q-39 0 -66 15q-16 4 -29 4q-41 0 -77 -30l-31 60q48 34 107 34q16 0 51 -11l-1 1h4l3 -1q26 -8 36 -8q44 0 80 30l26 -60q-49 -34 -103 -34z" />
<glyph unicode="&#xa1;" horiz-adv-x="160" d="M41 644v2q0 16 10.5 27.5t27.5 11.5q15 0 26.5 -12t11.5 -27q0 -16 -11.5 -27.5t-26.5 -11.5q-36 0 -38 37zM111 584v-584h-65v584h65z" />
<glyph unicode="&#xa2;" horiz-adv-x="478" d="M217 503v66h76v-66q77 -13 145 -86l-52 -53q-43 55 -93 66v-363q48 15 92 63l51 -50q-70 -75 -143 -86v-64h-76v65q-84 18 -143.5 90.5t-59.5 163.5q0 96 58 168.5t145 85.5zM85 249q0 -66 37 -117.5t95 -64.5v363q-58 -13 -95 -64t-37 -117z" />
<glyph unicode="&#xa3;" horiz-adv-x="556" d="M372 282h-171v-211h316v-71h-388v282h-113v72h113v327h72v-327h171v-72z" />
<glyph unicode="&#xa5;" horiz-adv-x="681" d="M156 139v73h137v4h-137v73h137v15l-178 239l-103 138h94l222 -306l227 306h93l-281 -377v-15h137v-73h-137v-4h137v-73h-137v-139h-74v139h-137z" />
<glyph unicode="&#xa6;" horiz-adv-x="131" d="M97 385h-57v320h57v-320zM40 355h57v-354h-57v354z" />
<glyph unicode="&#xa7;" horiz-adv-x="356" d="M286 472l-31 -66q-49 24 -84 24h-15q20 -28 58 -46h-1q53 -25 84 -68.5t31 -89.5q0 -50 -36 -88v-16q0 -59 -44 -95t-103 -36q-46 0 -112 32l32 61q47 -21 79 -21q56 0 73 35q-17 -3 -37 -3q-52 0 -110 30l31 64q47 -22 81 -22q14 0 25 3q-17 26 -61 49q-52 26 -85 71 t-33 88q0 56 37 86v17q0 57 42 90.5t103 33.5q48 0 111 -28l-31 -68q-47 25 -82 25q-52 0 -69 -35q10 2 34 2q44 0 113 -29zM178 281q50 -26 78 -61q1 2 1 8q0 24 -22 51.5t-55 44.5h1q-50 20 -79 60q-1 -3 -1 -10q0 -25 21 -50.5t56 -42.5zM250 199l1 3q4 9 5 18 q8 -9 12 -18l-18 -4v1z" />
<glyph unicode="&#xa8;" horiz-adv-x="263" d="M25 626q0 16 13 28.5t30 12.5t30 -12.5t13 -28.5t-13 -29t-30 -13t-30 12.5t-13 29.5zM150 626q0 16 13 28.5t30 12.5t30.5 -12.5t13.5 -28.5t-13.5 -29t-30.5 -13t-30 12.5t-13 29.5z" />
<glyph unicode="&#xaa;" horiz-adv-x="179" d="M192 300l-76 1q-11 -5 -30 -5q-32 0 -53.5 21t-21.5 51q0 29 22 49t55 20h14q-4 14 -11 14q-19 0 -56 -11l-11 57q38 10 67 10q27 0 47 -23t21 -58q-1 -26 -1 -53q0 -15 10.5 -37.5t23.5 -35.5zM104 382h-18q-7 0 -13 -4.5t-6 -9.5t6 -10t13 -5t12.5 5t5.5 10v14z" />
<glyph unicode="&#xab;" horiz-adv-x="532" d="M173 279l273 230l47 -55l-220 -185q5 -7 16 -19t16 -19l150 -177l-53 -47zM14 279l273 230l47 -55l-220 -185l84 -100l98 -114l-53 -48z" />
<glyph unicode="&#xac;" horiz-adv-x="662" d="M610 395v-242h-71v171h-505v71h576z" />
<glyph unicode="&#xad;" horiz-adv-x="421" d="M386 256h-356v72h356v-72z" />
<glyph unicode="&#xb0;" horiz-adv-x="250" d="M72 576q0 -19 16 -34.5t36 -15.5q17 0 31.5 15.5t14.5 34.5q0 20 -14.5 36.5t-31.5 16.5q-20 0 -36 -16.5t-16 -36.5zM13 576q0 47 31.5 78t79.5 31q44 0 74.5 -31.5t30.5 -77.5q0 -44 -30.5 -75t-74.5 -31q-48 0 -79.5 30.5t-31.5 75.5z" />
<glyph unicode="&#xb1;" horiz-adv-x="452" d="M257 431v-142h-72v142h-141v72h141v142h72v-142h142v-72h-142zM398 145h-355v71h355v-71z" />
<glyph unicode="&#xb2;" horiz-adv-x="280" d="M114 358h134v-61h-228v51l150 168q17 15 17 43q0 26 -20 45t-46 19q-25 0 -63 -36l-46 47q60 51 109 51q54 0 90.5 -37t36.5 -89q0 -45 -34 -89z" />
<glyph unicode="&#xb3;" horiz-adv-x="265" d="M33 383h20q28 -30 58 -30q23 0 42 16t19 37t-17.5 37t-39.5 19h-65v61h67q20 1 37.5 16.5t17.5 33.5t-18.5 32.5t-41.5 14.5q-31 0 -68 -40l-44 48q50 53 112 53q51 0 87 -31.5t36 -76.5q0 -57 -38 -84q36 -40 36 -83q0 -48 -35.5 -80.5t-86.5 -32.5q-61 0 -113 55z" />
<glyph unicode="&#xb4;" horiz-adv-x="209" d="M213 632l-142 -113h-58l85 113h115z" />
<glyph unicode="&#xb6;" horiz-adv-x="382" d="M334 680v-678h-70v678h70zM274 681v-681h-106v340q-64 8 -108.5 57t-44.5 113q0 71 49.5 121t119.5 50h90zM156 416v196q-31 -4 -51 -32t-20 -66t20 -66t51 -32z" />
<glyph unicode="&#xb7;" horiz-adv-x="225" d="M46 310q0 24 19.5 44t46.5 20q26 0 46.5 -20t20.5 -44t-20 -42.5t-47 -18.5t-46.5 18.5t-19.5 42.5z" />
<glyph unicode="&#xb9;" horiz-adv-x="263" d="M66 518l-51 50l136 113h61v-315h-72v213q-4 -3 -64 -52q-2 -1 -10 -9z" />
<glyph unicode="&#xba;" horiz-adv-x="232" d="M69 397q0 -18 14 -33.5t31 -15.5q15 0 27.5 15.5t12.5 33.5q0 21 -12.5 37.5t-27.5 16.5q-17 0 -31 -16.5t-14 -37.5zM13 397q0 48 28.5 79t72.5 31q40 0 68.5 -31.5t28.5 -78.5q0 -44 -28.5 -74.5t-68.5 -30.5q-43 0 -72 30.5t-29 74.5z" />
<glyph unicode="&#xbb;" horiz-adv-x="524" d="M60 509l272 -230l-228 -272l-53 47l182 215l-139 118l-82 67zM219 509l272 -230l-228 -272l-53 47l182 215l-139 118l-82 67z" />
<glyph unicode="&#xbc;" horiz-adv-x="382" d="M256 361l46 -24l-97 -165h53v71h52v-71h46v-52h-46v-120h-52v120h-119v40zM52 407l-37 36l77 64h42v-307h-53v232l-14 -12q-8 -6 -15 -13z" />
<glyph unicode="&#xbd;" horiz-adv-x="355" d="M40 408l-37 35l77 65h42v-308h-52v233l-15 -12q-8 -6 -15 -13zM294 162l-99 -111h132v-51h-209v41l141 159q16 16 16 41q0 28 -19.5 46.5t-47.5 18.5q-23 0 -57 -29l-36 36q50 45 93 45q50 0 84.5 -34t34.5 -83q0 -41 -33 -79z" />
<glyph unicode="&#xbe;" horiz-adv-x="458" d="M15 196l39 34q28 -33 60 -33q26 0 45 16t19 39q0 29 -35.5 43.5t-81.5 7.5v55h59q25 2 42 15.5t17 32.5q0 21 -18.5 36t-44.5 15q-33 0 -64 -33l-36 37q44 47 100 47q48 0 82 -29.5t34 -72.5q0 -47 -41 -75q39 -33 39 -79q0 -45 -33.5 -76t-82.5 -31q-55 0 -99 51z M330 121h-119v41l118 200l46 -23l-94 -165h49v71h53v-71h46v-53h-46v-119h-53v119z" />
<glyph unicode="&#xbf;" horiz-adv-x="432" d="M161 681h76l92 -315v-61h-109q-48 -2 -81 -36.5t-33 -84.5q0 -49 35 -84.5t84 -35.5q66 0 112 76l52 -52q-66 -98 -164 -98q-78 0 -133.5 57.5t-55.5 136.5q0 77 55 135.5t129 58.5h30q-20 68 -25 88zM222 753q0 -18 -12.5 -30t-28.5 -12q-19 0 -30.5 12t-11.5 30 q0 20 11.5 31.5t30.5 11.5q16 0 28.5 -12t12.5 -31z" />
<glyph unicode="&#xc0;" d="M291 710l-144 113h117l85 -113h-58zM219 346h157q-5 14 -19 50.5t-19 51.5v-1q-23 58 -41 109q-22 -55 -30 -80v-1zM15 0l255 691h55l255 -691h-76l-101 273h-210l-66 -177q-28 -71 -37 -96h-75z" />
<glyph unicode="&#xc1;" d="M460 823l-142 -113h-58l85 113h115zM219 346h157q-5 14 -19 50.5t-19 51.5v-1q-23 58 -41 109q-22 -55 -30 -80v-1zM15 0l255 691h55l255 -691h-76l-101 273h-210l-66 -177q-28 -71 -37 -96h-75z" />
<glyph unicode="&#xc2;" d="M219 346h157q-5 14 -19 50.5t-19 51.5v-1q-23 58 -41 109q-22 -55 -30 -80v-1zM15 0l255 691h55l255 -691h-76l-101 273h-210l-66 -177q-28 -71 -37 -96h-75z" />
<glyph unicode="&#xc3;" d="M226 363h157q-5 14 -19 50.5t-19 51.5v-1q-23 58 -41 109q-22 -55 -30 -80v-1zM22 17l255 691h55l255 -691h-76l-101 273h-210l-66 -177q-28 -71 -37 -96h-75zM346 738q-31 0 -59 11q-15 5 -30 5q-38 0 -74 -26l-29 56q51 33 103 33q20 0 50 -7h-2q1 -1 2 -1q24 -8 37 -8 q45 0 77 27l27 -57q-45 -33 -102 -33z" />
<glyph unicode="&#xc4;" d="M188 739q0 16 13 28.5t30 12.5t30 -12.5t13 -28.5t-13 -29t-30 -13t-30 12.5t-13 29.5zM313 739q0 16 13 28.5t30 12.5t30.5 -12.5t13.5 -28.5t-13.5 -29t-30.5 -13t-30 12.5t-13 29.5zM219 346h157q-5 14 -19 50.5t-19 51.5v-1q-23 58 -41 109q-22 -55 -30 -80v-1zM15 0 l255 691h55l255 -691h-76l-101 273h-210l-66 -177q-28 -71 -37 -96h-75z" />
<glyph unicode="&#xc5;" d="M248 794q0 -19 16 -34.5t36 -15.5q17 0 31.5 15.5t14.5 34.5q0 20 -14.5 36.5t-31.5 16.5q-20 0 -36 -16.5t-16 -36.5zM189 794q0 47 31.5 78t79.5 31q44 0 74.5 -31.5t30.5 -77.5q0 -44 -30.5 -75t-74.5 -31q-48 0 -79.5 30.5t-31.5 75.5zM219 346h157q-5 14 -19 50.5 t-19 51.5v-1q-23 58 -41 109q-22 -55 -30 -80v-1zM15 0l255 691h55l255 -691h-76l-101 273h-210l-66 -177q-28 -71 -37 -96h-75z" />
<glyph unicode="&#xc6;" horiz-adv-x="1081" d="M502 346l9 274h-190l-51 -140l-47 -134h279zM274 691h641v-71h-340v-217h291v-73h-291v-257h340v-73h-413v273h-306l-48 -131l-53 -142h-77z" />
<glyph unicode="&#xc7;" horiz-adv-x="634" d="M587 585l-52 -48q-79 87 -176 87q-102 0 -173.5 -83t-71.5 -199q0 -114 71.5 -197t173.5 -83q92 0 174 85l52 -49q-95 -100 -219 -106q40 -23 40 -59q0 -39 -65 -76l-80 59q22 0 51.5 4.5t29.5 14.5q0 13 -32 13h-25l1 52q-105 28 -174.5 123t-69.5 219q0 149 92.5 251 t224.5 102q126 0 228 -110z" />
<glyph unicode="&#xc8;" horiz-adv-x="485" d="M222 710l-144 113h117l85 -113h-58zM395 403v-73h-290v-257h340v-73h-412v691h412v-71h-340v-217h290z" />
<glyph unicode="&#xc9;" horiz-adv-x="485" d="M377 823l-142 -113h-58l85 113h115zM395 403v-73h-290v-257h340v-73h-412v691h412v-71h-340v-217h290z" />
<glyph unicode="&#xca;" horiz-adv-x="485" d="M115 803l124 122l124 -123l-47 -47l-77 78l-79 -78zM395 403v-73h-290v-257h340v-73h-412v691h412v-71h-340v-217h290z" />
<glyph unicode="&#xcb;" horiz-adv-x="485" d="M132 740q0 16 13 28.5t30 12.5t30 -12.5t13 -28.5t-13 -29t-30 -13t-30 12.5t-13 29.5zM257 740q0 16 13 28.5t30 12.5t30.5 -12.5t13.5 -28.5t-13.5 -29t-30.5 -13t-30 12.5t-13 29.5zM395 403v-73h-290v-257h340v-73h-412v691h412v-71h-340v-217h290z" />
<glyph unicode="&#xcc;" horiz-adv-x="131" d="M74 710l-144 113h117l85 -113h-58zM114 691v-691h-73v691h73z" />
<glyph unicode="&#xcd;" horiz-adv-x="154" d="M231 823l-142 -113h-58l85 113h115zM106 691v-691h-73v691h73z" />
<glyph unicode="&#xce;" horiz-adv-x="138" d="M106 691v-691h-73v691h73z" />
<glyph unicode="&#xcf;" horiz-adv-x="138" d="M-41 739q0 16 13 28.5t30 12.5t30 -12.5t13 -28.5t-13 -29t-30 -13t-30 12.5t-13 29.5zM84 739q0 16 13 28.5t30 12.5t30.5 -12.5t13.5 -28.5t-13.5 -29t-30.5 -13t-30 12.5t-13 29.5zM106 691v-691h-73v691h73z" />
<glyph unicode="&#xd0;" horiz-adv-x="653" d="M98 261h-64v72h64v358h259q67 -1 124 -47t89.5 -125t32.5 -172q0 -142 -70.5 -242.5t-173.5 -104.5h-261v261zM357 618h-186v-285h166v-72h-166v-188q59 0 90 1q17 0 49.5 0.5t48.5 0.5q71 2 121 81.5t50 190.5q0 112 -50 191t-123 80z" />
<glyph unicode="&#xd1;" horiz-adv-x="537" d="M323 700q-45 0 -96 32l20 -12q-19 7 -43 7q-25 0 -61 -21l-23 60q43 23 84 23q24 0 59 -11q2 0 4 -1l4 -2q28 -13 52 -13q27 0 63 22l21 -60q-40 -24 -84 -24zM36 691h65l315 -533v533h73v-691h-66l-315 536v-536h-72v691z" />
<glyph unicode="&#xd2;" horiz-adv-x="690" d="M313 710l-144 113h117l85 -113h-58zM502 548q-65 73 -166 73t-171.5 -80.5t-70.5 -195.5q0 -116 70.5 -198t171.5 -82q104 0 174 81.5t70 198.5q0 125 -78 203zM555 88q-89 -97 -219 -97q-129 0 -222.5 102.5t-93.5 251.5q0 145 92.5 247.5t223.5 102.5q135 0 225 -101.5 t90 -248.5q0 -155 -96 -257z" />
<glyph unicode="&#xd3;" horiz-adv-x="690" d="M515 823l-142 -113h-58l85 113h115zM502 548q-65 73 -166 73t-171.5 -80.5t-70.5 -195.5q0 -116 70.5 -198t171.5 -82q104 0 174 81.5t70 198.5q0 125 -78 203zM555 88q-89 -97 -219 -97q-129 0 -222.5 102.5t-93.5 251.5q0 145 92.5 247.5t223.5 102.5q135 0 225 -101.5 t90 -248.5q0 -155 -96 -257z" />
<glyph unicode="&#xd4;" horiz-adv-x="690" d="M212 803l124 122l124 -123l-47 -47l-77 78l-79 -78zM502 548q-65 73 -166 73t-171.5 -80.5t-70.5 -195.5q0 -116 70.5 -198t171.5 -82q104 0 174 81.5t70 198.5q0 125 -78 203zM555 88q-89 -97 -219 -97q-129 0 -222.5 102.5t-93.5 251.5q0 145 92.5 247.5t223.5 102.5 q135 0 225 -101.5t90 -248.5q0 -155 -96 -257z" />
<glyph unicode="&#xd5;" horiz-adv-x="690" d="M399 701q-45 0 -96 32l20 -12q-19 7 -43 7q-25 0 -61 -21l-23 60q43 23 84 23q24 0 59 -11q2 0 4 -1l4 -2q28 -13 52 -13q27 0 63 22l21 -60q-40 -24 -84 -24zM502 548q-65 73 -166 73t-171.5 -80.5t-70.5 -195.5q0 -116 70.5 -198t171.5 -82q104 0 174 81.5t70 198.5 q0 125 -78 203zM555 88q-89 -97 -219 -97q-129 0 -222.5 102.5t-93.5 251.5q0 145 92.5 247.5t223.5 102.5q135 0 225 -101.5t90 -248.5q0 -155 -96 -257z" />
<glyph unicode="&#xd6;" horiz-adv-x="690" d="M235 740q0 16 13 28.5t30 12.5t30 -12.5t13 -28.5t-13 -29t-30 -13t-30 12.5t-13 29.5zM360 740q0 16 13 28.5t30 12.5t30.5 -12.5t13.5 -28.5t-13.5 -29t-30.5 -13t-30 12.5t-13 29.5zM502 548q-65 73 -166 73t-171.5 -80.5t-70.5 -195.5q0 -116 70.5 -198t171.5 -82 q104 0 174 81.5t70 198.5q0 125 -78 203zM555 88q-89 -97 -219 -97q-129 0 -222.5 102.5t-93.5 251.5q0 145 92.5 247.5t223.5 102.5q135 0 225 -101.5t90 -248.5q0 -155 -96 -257z" />
<glyph unicode="&#xd7;" horiz-adv-x="367" d="M173 261l-101 -101l-51 50l101 101l-100 100l50 51l101 -100l100 100l51 -50l-101 -101l101 -101l-50 -50z" />
<glyph unicode="&#xd8;" horiz-adv-x="690" d="M555 88q-89 -97 -219 -97q-41 0 -82 12v-3h-82l12 34q-75 43 -119.5 126t-44.5 185q0 145 92.5 247.5t223.5 102.5q42 0 86 -13l3 9h74l-11 -37q76 -48 119.5 -129.5t43.5 -179.5q0 -155 -96 -257zM502 548q-19 20 -39 35l-55 -147l-132 -363q25 -8 60 -8q104 0 174 81.5 t70 198.5q0 125 -78 203zM336 621q-101 0 -171.5 -80.5t-70.5 -195.5q0 -77 31 -140.5t84 -100.5l111 301l76 208q-25 8 -60 8z" />
<glyph unicode="&#xd9;" horiz-adv-x="598" d="M285 710l-144 113h117l85 -113h-58zM108 691v-509q8 -47 62 -82t125 -35q68 0 121 35t60 82v509h73v-510q-3 -77 -78 -133.5t-176 -56.5q-106 0 -182 55.5t-81 133.5v511h76z" />
<glyph unicode="&#xda;" horiz-adv-x="598" d="M456 823l-142 -113h-58l85 113h115zM108 691v-509q8 -47 62 -82t125 -35q68 0 121 35t60 82v509h73v-510q-3 -77 -78 -133.5t-176 -56.5q-106 0 -182 55.5t-81 133.5v511h76z" />
<glyph unicode="&#xdb;" horiz-adv-x="598" d="M167 803l124 122l124 -123l-47 -47l-77 78l-79 -78zM108 691v-509q8 -47 62 -82t125 -35q68 0 121 35t60 82v509h73v-510q-3 -77 -78 -133.5t-176 -56.5q-106 0 -182 55.5t-81 133.5v511h76z" />
<glyph unicode="&#xdc;" horiz-adv-x="598" d="M189 739q0 16 13 28.5t30 12.5t30 -12.5t13 -28.5t-13 -29t-30 -13t-30 12.5t-13 29.5zM314 739q0 16 13 28.5t30 12.5t30.5 -12.5t13.5 -28.5t-13.5 -29t-30.5 -13t-30 12.5t-13 29.5zM108 691v-509q8 -47 62 -82t125 -35q68 0 121 35t60 82v509h73v-510 q-3 -77 -78 -133.5t-176 -56.5q-106 0 -182 55.5t-81 133.5v511h76z" />
<glyph unicode="&#xdd;" horiz-adv-x="681" d="M506 823l-142 -113h-58l85 113h115zM561 691h94l-286 -382v-309h-74v309l-79 106l-206 276h95l226 -310l60 81z" />
<glyph unicode="&#xde;" horiz-adv-x="535" d="M123 692v-201q57 26 125 26q103 -2 174.5 -78.5t71.5 -182.5q0 -110 -71.5 -187.5t-174.5 -77.5q-61 0 -126 27v-205h-71v879h72zM121 405l2 -300q-1 -10 15.5 -19.5t45.5 -15t64 -6.5q71 2 121.5 57.5t50.5 133.5q0 76 -51 132t-121 56q-48 0 -84.5 -11t-42.5 -27z" />
<glyph unicode="&#xdf;" horiz-adv-x="520" d="M382 505q0 41 -34 71.5t-83 33.5h-150v-213h151q49 2 82.5 32.5t33.5 75.5zM179 2l-64 65v-229h-73v843h224q78 -1 133 -53.5t55 -122.5q0 -90 -76 -143q42 -26 65.5 -69t23.5 -93q0 -80 -58 -138.5t-143 -59.5h-87zM115 326v-255h151q53 3 91 41t38 88t-40.5 86 t-105.5 40h-134z" />
<glyph unicode="&#xe0;" horiz-adv-x="406" d="M293 0v19q-45 -29 -97 -29q-68 0 -117.5 46.5t-49.5 111.5q0 69 51 114.5t122 45.5h91v3q0 51 -23.5 87t-60.5 37q-56 0 -120 -19l-18 70q74 21 139 21q62 -2 107 -52.5t48 -123.5v-10q-2 -81 -2 -158q0 -132 28 -163h-98zM293 148v88h-91q-42 0 -71.5 -24.5t-29.5 -63.5 q0 -35 28 -59.5t67 -24.5q41 0 69 24.5t28 59.5zM191 519l-144 113h117l85 -113h-58z" />
<glyph unicode="&#xe1;" horiz-adv-x="406" d="M348 632l-142 -113h-58l85 113h115zM293 0v19q-45 -29 -97 -29q-68 0 -117.5 46.5t-49.5 111.5q0 69 51 114.5t122 45.5h91v3q0 51 -23.5 87t-60.5 37q-56 0 -120 -19l-18 70q74 21 139 21q62 -2 107 -52.5t48 -123.5v-10q-2 -81 -2 -158q0 -132 28 -163h-98zM293 148v88 h-91q-42 0 -71.5 -24.5t-29.5 -63.5q0 -35 28 -59.5t67 -24.5q41 0 69 24.5t28 59.5z" />
<glyph unicode="&#xe2;" horiz-adv-x="406" d="M74 549l124 122l124 -123l-47 -47l-77 78l-79 -78zM293 0v19q-45 -29 -97 -29q-68 0 -117.5 46.5t-49.5 111.5q0 69 51 114.5t122 45.5h91v3q0 51 -23.5 87t-60.5 37q-56 0 -120 -19l-18 70q74 21 139 21q62 -2 107 -52.5t48 -123.5v-10q-2 -81 -2 -158q0 -132 28 -163 h-98zM293 148v88h-91q-42 0 -71.5 -24.5t-29.5 -63.5q0 -35 28 -59.5t67 -24.5q41 0 69 24.5t28 59.5z" />
<glyph unicode="&#xe3;" horiz-adv-x="406" d="M300 16v19q-45 -29 -97 -29q-68 0 -117.5 46.5t-49.5 111.5q0 69 51 114.5t122 45.5h91v3q0 51 -23.5 87t-60.5 37q-56 0 -120 -19l-18 70q74 21 139 21q62 -2 107 -52.5t48 -123.5v-10q-2 -81 -2 -158q0 -132 28 -163h-98zM300 164v88h-91q-42 0 -71.5 -24.5 t-29.5 -63.5q0 -35 28 -59.5t67 -24.5q41 0 69 24.5t28 59.5zM233 528q-33 0 -55 11v-1q-15 5 -28 5q-40 0 -73 -30l-32 57q53 35 104 35q25 0 48 -7h-3h1q1 -1 2 -1q19 -7 32 -7q45 0 79 31l27 -56q-45 -37 -102 -37z" />
<glyph unicode="&#xe4;" horiz-adv-x="406" d="M300 16v19q-45 -29 -97 -29q-68 0 -117.5 46.5t-49.5 111.5q0 69 51 114.5t122 45.5h91v3q0 51 -23.5 87t-60.5 37q-56 0 -120 -19l-18 70q74 21 139 21q62 -2 107 -52.5t48 -123.5v-10q-2 -81 -2 -158q0 -132 28 -163h-98zM300 164v88h-91q-42 0 -71.5 -24.5 t-29.5 -63.5q0 -35 28 -59.5t67 -24.5q41 0 69 24.5t28 59.5zM100 626q0 17 12.5 29t31.5 12q17 0 30 -12.5t13 -28.5t-13 -29t-30 -13q-18 0 -31 12.5t-13 29.5zM226 626q0 16 13 28.5t30 12.5t30 -12.5t13 -28.5q0 -17 -13 -29.5t-30 -12.5t-30 12.5t-13 29.5z" />
<glyph unicode="&#xe5;" horiz-adv-x="406" d="M161 673q0 -19 16 -34.5t36 -15.5q17 0 31.5 15.5t14.5 34.5q0 20 -14.5 36.5t-31.5 16.5q-20 0 -36 -16.5t-16 -36.5zM102 673q0 47 31.5 78t79.5 31q44 0 74.5 -31.5t30.5 -77.5q0 -44 -30.5 -75t-74.5 -31q-48 0 -79.5 30.5t-31.5 75.5zM293 0v19q-45 -29 -97 -29 q-68 0 -117.5 46.5t-49.5 111.5q0 69 51 114.5t122 45.5h91v3q0 51 -23.5 87t-60.5 37q-56 0 -120 -19l-18 70q74 21 139 21q62 -2 107 -52.5t48 -123.5v-10q-2 -81 -2 -158q0 -132 28 -163h-98zM293 148v88h-91q-42 0 -71.5 -24.5t-29.5 -63.5q0 -35 28 -59.5t67 -24.5 q41 0 69 24.5t28 59.5z" />
<glyph unicode="&#xe6;" horiz-adv-x="743" d="M298 0v19q-45 -29 -97 -29q-68 0 -117.5 46.5t-49.5 111.5q0 66 49 113t118 47h94l1 2v4q2 8 2 9q-1 47 -25.5 78.5t-58.5 33.5q-57 0 -120 -19l-18 70q76 21 139 21q82 -3 128 -83q61 84 150 84q85 0 143 -73t58 -180v-39h-326v-23q15 -55 52.5 -92.5t82.5 -37.5 q49 0 129 39l29 -63q-53 -31 -132 -47q-8 -1 -26 -1q-69 0 -130 51q9 -26 33 -42h-108zM369 286h252q-9 65 -44.5 107t-83.5 42q-49 0 -84.5 -42.5t-39.5 -106.5zM290 232v4h-89q-40 0 -67 -25.5t-27 -62.5q0 -35 27 -59.5t67 -24.5t68.5 24.5t28.5 59.5v26q-6 26 -8 58z " />
<glyph unicode="&#xe7;" horiz-adv-x="493" d="M292 -8q17 -8 31 -25t14 -37q0 -38 -64 -77l-71 56q70 8 70 19q0 17 -30 17l-2 -1h-3h-21l2 53q-83 18 -136.5 88.5t-53.5 164.5q0 106 70.5 181.5t171.5 75.5q103 0 184 -91l-50 -50q-64 69 -134 69t-120 -54t-50 -131t49.5 -131.5t120.5 -54.5q70 0 129 64l52 -49 q-70 -75 -159 -87z" />
<glyph unicode="&#xe8;" horiz-adv-x="456" d="M233 63q46 0 129 39l28 -63q-62 -34 -131 -47q-8 -1 -26 -1q-84 0 -146.5 70t-68.5 170v19q0 106 60.5 182t143.5 76q85 0 142.5 -73t57.5 -180v-39h-329q8 -66 47 -109t93 -44zM95 286h255q-8 65 -44 107t-84 42q-45 0 -80.5 -43t-46.5 -106zM220 519l-144 113h117 l85 -113h-58z" />
<glyph unicode="&#xe9;" horiz-adv-x="456" d="M377 632l-142 -113h-58l85 113h115zM233 63q46 0 129 39l28 -63q-62 -34 -131 -47q-8 -1 -26 -1q-84 0 -146.5 70t-68.5 170v19q0 106 60.5 182t143.5 76q85 0 142.5 -73t57.5 -180v-39h-329q8 -66 47 -109t93 -44zM95 286h255q-8 65 -44 107t-84 42q-45 0 -80.5 -43 t-46.5 -106z" />
<glyph unicode="&#xea;" horiz-adv-x="456" d="M99 549l124 122l124 -123l-47 -47l-77 78l-79 -78zM233 63q46 0 129 39l28 -63q-62 -34 -131 -47q-8 -1 -26 -1q-84 0 -146.5 70t-68.5 170v19q0 106 60.5 182t143.5 76q85 0 142.5 -73t57.5 -180v-39h-329q8 -66 47 -109t93 -44zM95 286h255q-8 65 -44 107t-84 42 q-45 0 -80.5 -43t-46.5 -106z" />
<glyph unicode="&#xeb;" horiz-adv-x="456" d="M118 626q0 16 13 28.5t30 12.5t30 -12.5t13 -28.5t-13 -29t-30 -13t-30 12.5t-13 29.5zM243 626q0 16 13 28.5t30 12.5t30.5 -12.5t13.5 -28.5t-13.5 -29t-30.5 -13t-30 12.5t-13 29.5zM233 63q46 0 129 39l28 -63q-62 -34 -131 -47q-8 -1 -26 -1q-84 0 -146.5 70 t-68.5 170v19q0 106 60.5 182t143.5 76q85 0 142.5 -73t57.5 -180v-39h-329q8 -66 47 -109t93 -44zM95 286h255q-8 65 -44 107t-84 42q-45 0 -80.5 -43t-46.5 -106z" />
<glyph unicode="&#xec;" horiz-adv-x="211" d="M118 535l-144 113h117l85 -113h-58zM77 0v501h70v-501h-70z" />
<glyph unicode="&#xed;" horiz-adv-x="211" d="M224 648l-142 -113h-58l85 113h115zM49 0v501h72v-501h-72z" />
<glyph unicode="&#xee;" horiz-adv-x="177" d="M-34 565l124 122l124 -123l-47 -47l-77 78l-79 -78zM49 0v501h70v-501h-70z" />
<glyph unicode="&#xef;" horiz-adv-x="177" d="M49 0v501h70v-501h-70zM-2 626q0 16 13 28.5t30 12.5t30 -12.5t13 -28.5q0 -17 -13 -29.5t-30 -12.5t-30 12.5t-13 29.5zM86 626q0 17 12.5 29t31.5 12q17 0 30 -12.5t13 -28.5t-13 -29t-30 -13q-18 0 -31 12.5t-13 29.5z" />
<glyph unicode="&#xf0;" horiz-adv-x="489" d="M29 468v6q0 87 61.5 149t149.5 62q84 0 145 -61t68 -146q3 -40 3 -133v-25q0 -86 -12 -146q-15 -80 -77.5 -130.5t-144.5 -50.5q-49 0 -97 26t-82 70l64 53q50 -75 122 -75q55 0 95.5 35t52.5 88v-1q9 71 10 134q-63 -58 -149 -58q-84 0 -146 59t-63 144zM241 612 q-59 0 -101 -42t-42 -100q3 -56 43.5 -95t96.5 -39q59 0 100.5 41t41.5 99q0 55 -42 95.5t-97 40.5z" />
<glyph unicode="&#xf1;" horiz-adv-x="433" d="M105 513v-32q44 44 115 44t121.5 -54.5t52.5 -133.5l2 -321h-72v321q-1 49 -33 82.5t-76 33.5q-37 0 -68.5 -31t-41.5 -73v-333h-71v442q0 12 -9.5 29t-18.5 26h99zM245 568q-36 0 -58 11q-13 5 -29 5q-31 0 -74 -28l-25 58q48 32 102 32q24 0 40 -6q1 0 5.5 -2t6.5 -3 h-1q15 -5 34 -5q38 0 73 30l30 -58q-49 -34 -104 -34z" />
<glyph unicode="&#xf2;" horiz-adv-x="527" d="M86 248q0 -77 48 -131t115 -54t114.5 54.5t47.5 130.5q0 77 -47.5 132t-114.5 55t-115 -55t-48 -132zM13 248q0 107 69.5 183t166.5 76q98 0 166.5 -76t68.5 -183q0 -106 -68.5 -182t-166.5 -76q-97 0 -166.5 76t-69.5 182zM256 519l-144 113h117l85 -113h-58z" />
<glyph unicode="&#xf3;" horiz-adv-x="527" d="M419 632l-142 -113h-58l85 113h115zM86 248q0 -77 48 -131t115 -54t114.5 54.5t47.5 130.5q0 77 -47.5 132t-114.5 55t-115 -55t-48 -132zM13 248q0 107 69.5 183t166.5 76q98 0 166.5 -76t68.5 -183q0 -106 -68.5 -182t-166.5 -76q-97 0 -166.5 76t-69.5 182z" />
<glyph unicode="&#xf4;" horiz-adv-x="513" d="M128 549l124 122l124 -123l-47 -47l-77 78l-79 -78zM86 248q0 -77 48 -131t115 -54t114.5 54.5t47.5 130.5q0 77 -47.5 132t-114.5 55t-115 -55t-48 -132zM13 248q0 107 69.5 183t166.5 76q98 0 166.5 -76t68.5 -183q0 -106 -68.5 -182t-166.5 -76q-97 0 -166.5 76 t-69.5 182z" />
<glyph unicode="&#xf5;" horiz-adv-x="513" d="M317 542q-45 0 -96 32l20 -12q-19 7 -43 7q-25 0 -61 -21l-23 60q43 23 84 23q24 0 59 -11q2 0 4 -1l4 -2q28 -13 52 -13q27 0 63 22l21 -60q-40 -24 -84 -24zM86 248q0 -77 48 -131t115 -54t114.5 54.5t47.5 130.5q0 77 -47.5 132t-114.5 55t-115 -55t-48 -132zM13 248 q0 107 69.5 183t166.5 76q98 0 166.5 -76t68.5 -183q0 -106 -68.5 -182t-166.5 -76q-97 0 -166.5 76t-69.5 182z" />
<glyph unicode="&#xf6;" horiz-adv-x="527" d="M159 626q0 16 13 28.5t30 12.5t30 -12.5t13 -28.5t-13 -29t-30 -13t-30 12.5t-13 29.5zM284 626q0 16 13 28.5t30 12.5t30.5 -12.5t13.5 -28.5t-13.5 -29t-30.5 -13t-30 12.5t-13 29.5zM86 248q0 -77 48 -131t115 -54t114.5 54.5t47.5 130.5q0 77 -47.5 132t-114.5 55 t-115 -55t-48 -132zM13 248q0 107 69.5 183t166.5 76q98 0 166.5 -76t68.5 -183q0 -106 -68.5 -182t-166.5 -76q-97 0 -166.5 76t-69.5 182z" />
<glyph unicode="&#xf7;" horiz-adv-x="425" d="M157 362v93h93v-93h-93zM157 131v93h93v-93h-93zM387 272h-356v72h356v-72z" />
<glyph unicode="&#xf8;" horiz-adv-x="513" d="M13 248q0 107 69.5 183t166.5 76q101 0 181 -92l-56 -49q-59 69 -125 69q-67 0 -115 -55t-48 -132q0 -54 26 -102l-55 -49q-44 83 -44 151zM411 248q0 57 -37 116l57 48q53 -84 53 -164q0 -106 -68.5 -182t-166.5 -76q-109 0 -189 104l53 49q59 -80 136 -80 q67 0 114.5 54.5t47.5 130.5z" />
<glyph unicode="&#xf9;" horiz-adv-x="450" d="M325 0v36q-50 -45 -114 -45q-70 0 -119.5 53.5t-52.5 130.5l-3 3v321h71v-314l1 -5q2 -47 34 -81t76 -34q37 0 67.5 31.5t39.5 72.5v332h72v-439q0 -14 9 -33t19 -29h-100zM219 519l-144 113h117l85 -113h-58z" />
<glyph unicode="&#xfa;" horiz-adv-x="450" d="M366 632l-142 -113h-58l85 113h115zM325 0v36q-50 -45 -114 -45q-70 0 -119.5 53.5t-52.5 130.5l-3 3v321h71v-314l1 -5q2 -47 34 -81t76 -34q37 0 67.5 31.5t39.5 72.5v332h72v-439q0 -14 9 -33t19 -29h-100z" />
<glyph unicode="&#xfb;" horiz-adv-x="450" d="M96 549l124 122l124 -123l-47 -47l-77 78l-79 -78zM325 0v36q-50 -45 -114 -45q-70 0 -119.5 53.5t-52.5 130.5l-3 3v321h71v-314l1 -5q2 -47 34 -81t76 -34q37 0 67.5 31.5t39.5 72.5v332h72v-439q0 -14 9 -33t19 -29h-100z" />
<glyph unicode="&#xfc;" horiz-adv-x="450" d="M115 626q0 16 13 28.5t30 12.5t30 -12.5t13 -28.5t-13 -29t-30 -13t-30 12.5t-13 29.5zM240 626q0 16 13 28.5t30 12.5t30.5 -12.5t13.5 -28.5t-13.5 -29t-30.5 -13t-30 12.5t-13 29.5zM325 0v36q-50 -45 -114 -45q-70 0 -119.5 53.5t-52.5 130.5l-3 3v321h71v-314l1 -5 q2 -47 34 -81t76 -34q37 0 67.5 31.5t39.5 72.5v332h72v-439q0 -14 9 -33t19 -29h-100z" />
<glyph unicode="&#xfd;" horiz-adv-x="535" d="M429 632l-142 -113h-58l85 113h115zM40 -180l11 83q19 -20 43 -20q30 0 57 20.5t41 56.5l18 46l8 18l9 23q-17 42 -27 69l-160 391h77l146 -368l94 237l52 131h77l-188 -464q-3 -7 -8.5 -22t-8.5 -22l-12 -31q-9 -22 -13 -34q-21 -56 -67.5 -89t-95.5 -33q-23 0 -53 8z " />
<glyph unicode="&#xfe;" horiz-adv-x="517" d="M124 682v-198q52 25 122 25q101 -2 171.5 -77.5t70.5 -179.5q0 -109 -70.5 -185t-171.5 -76q-60 0 -123 27v-202h-72v866h73zM121 398l3 -295q-1 -10 15 -18.5t44.5 -14t62.5 -6.5q70 2 120 56t50 131q0 74 -50.5 129.5t-119.5 55.5q-45 0 -80.5 -11.5t-44.5 -26.5z" />
<glyph unicode="&#xff;" horiz-adv-x="535" d="M168 626q0 16 13 28.5t30 12.5t30 -12.5t13 -28.5t-13 -29t-30 -13t-30 12.5t-13 29.5zM293 626q0 16 13 28.5t30 12.5t30.5 -12.5t13.5 -28.5t-13.5 -29t-30.5 -13t-30 12.5t-13 29.5zM40 -180l11 83q19 -20 43 -20q30 0 57 20.5t41 56.5l18 46l8 18l9 23q-17 42 -27 69 l-160 391h77l146 -368l94 237l52 131h77l-188 -464q-3 -7 -8.5 -22t-8.5 -22l-12 -31q-9 -22 -13 -34q-21 -56 -67.5 -89t-95.5 -33q-23 0 -53 8z" />
<glyph unicode="&#x152;" horiz-adv-x="1056" d="M559 88q-89 -97 -219 -97q-128 0 -221.5 102.5t-93.5 251.5q0 145 92 247.5t223 102.5q159 0 244 -123v119h413v-71h-341v-217h291v-73h-291v-257h341v-73h-413v118q-13 -18 -25 -30zM507 548q-67 73 -167 73t-170.5 -80.5t-70.5 -195.5q0 -117 70 -198.5t171 -81.5 q93 0 162.5 75t81.5 181v47q-9 109 -77 180z" />
<glyph unicode="&#x153;" horiz-adv-x="880" d="M637 63q49 0 129 39l29 -63q-54 -32 -132 -47q-7 -1 -26 -1q-57 0 -104.5 33t-76.5 90q-32 -56 -85.5 -90t-114.5 -34q-97 0 -167 76t-70 182q0 107 69.5 183t167.5 76q59 0 112.5 -33.5t85.5 -87.5q26 57 71.5 89.5t101.5 32.5q85 0 143 -73t58 -180v-39h-331 q8 -66 47.5 -109t92.5 -44zM91 248q0 -77 48.5 -131t116.5 -54q66 0 113.5 54.5t47.5 130.5q0 77 -47.5 132t-113.5 55q-68 0 -116.5 -55t-48.5 -132zM499 286h256q-9 65 -44.5 107t-83.5 42q-45 0 -81 -43t-47 -106z" />
<glyph unicode="&#x178;" horiz-adv-x="681" d="M230 729q0 16 13 28.5t30 12.5t30 -12.5t13 -28.5t-13 -29t-30 -13t-30 12.5t-13 29.5zM355 729q0 16 13 28.5t30 12.5t30.5 -12.5t13.5 -28.5t-13.5 -29t-30.5 -13t-30 12.5t-13 29.5zM561 691h94l-286 -382v-309h-74v309l-79 106l-206 276h95l226 -310l60 81z" />
<glyph unicode="&#x2c6;" horiz-adv-x="268" d="M11 549l124 122l124 -123l-47 -47l-77 78l-79 -78z" />
<glyph unicode="&#x2dc;" horiz-adv-x="334" d="M220 542q-45 0 -96 32l20 -12q-19 7 -43 7q-25 0 -61 -21l-23 60q43 23 84 23q24 0 59 -11q2 0 4 -1l4 -2q28 -13 52 -13q27 0 63 22l21 -60q-40 -24 -84 -24z" />
<glyph unicode="&#x2000;" horiz-adv-x="462" />
<glyph unicode="&#x2001;" horiz-adv-x="925" />
<glyph unicode="&#x2002;" horiz-adv-x="462" />
<glyph unicode="&#x2003;" horiz-adv-x="925" />
<glyph unicode="&#x2004;" horiz-adv-x="308" />
<glyph unicode="&#x2005;" horiz-adv-x="231" />
<glyph unicode="&#x2006;" horiz-adv-x="154" />
<glyph unicode="&#x2007;" horiz-adv-x="154" />
<glyph unicode="&#x2008;" horiz-adv-x="115" />
<glyph unicode="&#x2009;" horiz-adv-x="185" />
<glyph unicode="&#x200a;" horiz-adv-x="51" />
<glyph unicode="&#x2010;" horiz-adv-x="421" d="M386 256h-356v72h356v-72z" />
<glyph unicode="&#x2011;" horiz-adv-x="421" d="M386 256h-356v72h356v-72z" />
<glyph unicode="&#x2013;" horiz-adv-x="416" d="M386 256h-356v72h356v-72z" />
<glyph unicode="&#x2014;" horiz-adv-x="532" d="M495 256h-463v72h463v-72z" />
<glyph unicode="&#x2018;" horiz-adv-x="150" d="M93 591l29 -63l-70 -31l-34 76l52 112l33 -16z" />
<glyph unicode="&#x2019;" horiz-adv-x="159" d="M49 604l-8 71l77 6l9 -80l-86 -92l-25 25z" />
<glyph unicode="&#x201a;" horiz-adv-x="172" d="M59 21v72h77v-84l-96 -83l-20 32z" />
<glyph unicode="&#x201c;" horiz-adv-x="218" d="M175 675l-9 -71l25 -54q4 -8 7 -17l-23 -24l-86 92l8 80zM106 675l-9 -71l26 -54q0 -1 1 -4.5t3 -7.5t2 -5l-23 -24l-86 92l9 80z" />
<glyph unicode="&#x201d;" horiz-adv-x="237" d="M50 604l-9 71l78 6l8 -80l-86 -92l-24 25zM119 604l-9 71l77 6l9 -80l-86 -92l-24 25z" />
<glyph unicode="&#x201e;" horiz-adv-x="231" d="M50 23l-2 71h78v-81l-95 -85l-19 31zM120 22v72h76v-84l-96 -84l-19 32z" />
<glyph unicode="&#x2022;" horiz-adv-x="209" d="M29 376q0 30 23 52.5t52 22.5t52 -22.5t23 -52.5q0 -28 -23 -50t-52 -22t-52 22t-23 50z" />
<glyph unicode="&#x2026;" horiz-adv-x="435" d="M31 0v93h92v-93h-92zM167 0v93h92v-93h-92zM303 0v93h92v-93h-92z" />
<glyph unicode="&#x202f;" horiz-adv-x="185" />
<glyph unicode="&#x2039;" horiz-adv-x="352" d="M27 249l252 253l51 -50l-201 -203l93 -93l108 -106l-50 -52z" />
<glyph unicode="&#x203a;" horiz-adv-x="343" d="M79 502l251 -253l-252 -251l-51 52l203 199l-203 203z" />
<glyph unicode="&#x205f;" horiz-adv-x="231" />
<glyph unicode="&#x20ac;" horiz-adv-x="745" d="M650 170l52 -58q-114 -121 -252 -121q-113 0 -199 71t-114 183h-103v72h91v19q0 16 2 36v2h-93v72h107q32 106 117.5 172.5t191.5 66.5q136 0 252 -121l-51 -52q-93 99 -201 99q-75 0 -139 -46.5t-93 -118.5h314v-72h-332q-2 -12 -2 -38q0 -8 1 -14v-5h333v-72h-317 q27 -78 92.5 -129t142.5 -51q109 0 200 105z" />
<glyph unicode="&#x2122;" horiz-adv-x="417" d="M137 613v-163h-62v163h-56v60h173v-60h-55zM313 673h49v-223h-61v89q-3 -7 -8.5 -16.5t-5.5 -10.5h-35l-13 22v-84h-62v223h50l43 -71q9 16 20 33q6 9 9 16q8 12 14 22z" />
<glyph horiz-adv-x="257" />
</font>
</defs>
</svg>
