<?xml version="1.0" standalone="no"?>
<!DOCTYPE svg PUBLIC "-//W3C//DTD SVG 1.1//EN" "http://www.w3.org/Graphics/SVG/1.1/DTD/svg11.dtd" >
<svg xmlns="http://www.w3.org/2000/svg">
<metadata>
This is a custom SVG webfont generated by Font Squirrel.
Designer    : La Tipomatika (Digital Type Foundry)
Foundry     : La Tipomatika
</metadata>
<defs>
<font id="webfontUU2jQdJo" horiz-adv-x="596" >
<font-face units-per-em="1000" ascent="800" descent="-200" />
<missing-glyph horiz-adv-x="257" />
<glyph unicode=" "  horiz-adv-x="257" />
<glyph unicode="&#x09;" horiz-adv-x="257" />
<glyph unicode="&#xa0;" horiz-adv-x="257" />
<glyph unicode="!" horiz-adv-x="176" d="M109 22v-1q0 -12 -8.5 -21t-20.5 -9q-13 0 -21.5 9t-8.5 21q0 13 8.5 21.5t21.5 8.5q27 0 29 -29zM56 96v590h48v-590h-48z" />
<glyph unicode="&#x22;" horiz-adv-x="217" d="M41 543l-10 143h59l8 -69l-42 -89zM114 543l-10 143h59l8 -69l-42 -89z" />
<glyph unicode="#" horiz-adv-x="714" d="M23 215l46 56h100l47 126h-194l45 56h168l71 187h58l-68 -187h218q8 23 70 187h58l-68 -187h118l-45 -56h-92q-5 -14 -15 -39l-18 -47l-15 -40h186l-47 -56h-160l-77 -215h-60l79 215h-220l-78 -215h-59l79 215h-127zM276 397l-47 -126h219l46 126h-218z" />
<glyph unicode="$" horiz-adv-x="466" d="M203 372v260q-49 -12 -82 -47.5t-33 -78.5q0 -45 32 -83t83 -51zM257 308v-259q51 8 84.5 42t33.5 81q0 48 -33 86.5t-85 49.5zM203 731h54v-42q101 -3 172 -82l-44 -35q-50 60 -128 65v-276q76 -17 125.5 -68t49.5 -118q0 -69 -50 -119.5t-125 -61.5v-58h-54v56h-5 q-51 5 -95.5 31.5t-72.5 66.5l44 35q21 -31 56 -54t73 -25v269q-77 16 -124.5 67.5t-47.5 119.5q0 69 48.5 119.5t123.5 64.5v45z" />
<glyph unicode="&#x26;" horiz-adv-x="597" d="M245 0q-88 0 -147.5 56t-59.5 134q0 122 157 193q4 2 9 4t8 4q-2 2 -11 14q-47 49 -61.5 80t-14.5 63q0 57 44.5 99.5t113.5 42.5q65 0 107 -39.5t42 -96.5q0 -88 -125 -157l-15 -8l150 -187q2 3 5 9.5t4 9.5q23 46 32 87l62 -13q-31 -93 -61 -138q0 -3 -1 -8.5t-1 -7.5 q19 -30 29.5 -42.5t35.5 -32.5v-65q-42 26 -83 76q-6 8 -7 9l-12 15q-3 -4 -11 -12q-80 -90 -189 -89zM483 137l-1 4v-1zM371 553q0 40 -26 67t-67 27q-38 0 -65.5 -26.5t-27.5 -64.5q2 -41 36 -80l46 -53l9 5h-1q55 32 75.5 59.5t20.5 65.5zM238 358l-10 -7 q-125 -72 -125 -156q0 -55 41 -100.5t101 -45.5q42 -1 85.5 24.5t70.5 65.5v-1q3 6 6 9z" />
<glyph unicode="'" horiz-adv-x="121" d="M48 614l-8 67l60 5l8 -70l-79 -84l-14 14z" />
<glyph unicode="(" horiz-adv-x="260" d="M159 696l24 -61q-38 -46 -60 -139.5t-22 -207.5q0 -124 26.5 -222.5t68.5 -139.5l-32 -53q-55 54 -89 166.5t-34 248.5q0 131 32.5 241.5t85.5 166.5z" />
<glyph unicode=")" horiz-adv-x="246" d="M64 635l23 61q53 -57 86 -167.5t33 -240.5q0 -136 -34 -248t-89 -167l-33 53q43 41 69.5 139.5t26.5 222.5q0 114 -22 207.5t-60 139.5z" />
<glyph unicode="*" horiz-adv-x="471" d="M261 487v-110h-54v108l-77 -75l-39 37l78 78h-108v54h108l-77 77l38 39l77 -77v109h54v-109l77 77l39 -38l-77 -77h109v-55h-110l78 -78l-38 -37z" />
<glyph unicode="+" horiz-adv-x="452" d="M252 266v-148h-54v148h-147v54h147v147h54v-147h148v-54h-148z" />
<glyph unicode="," horiz-adv-x="173" d="M70 9v67h60v-72l-88 -75l-11 17z" />
<glyph unicode="-" horiz-adv-x="421" d="M386 266h-349v54h349v-54z" />
<glyph unicode="." horiz-adv-x="145" d="M36 0v76h76v-76h-76z" />
<glyph unicode="/" horiz-adv-x="378" d="M346 686l-250 -686h-59l251 686h58z" />
<glyph unicode="0" horiz-adv-x="586" d="M94 341q0 -123 58.5 -209t140.5 -86q83 0 140.5 86t57.5 209t-57.5 208.5t-140.5 85.5q-82 0 -140.5 -86t-58.5 -208zM39 341q0 144 74.5 246.5t179.5 102.5t178.5 -102t73.5 -247q0 -144 -73.5 -247t-178.5 -103q-104 0 -179 103t-75 247z" />
<glyph unicode="1" horiz-adv-x="263" d="M66 541l-38 37l130 108h50v-686h-55v613z" />
<glyph unicode="2" horiz-adv-x="475" d="M373 330l-244 -276h303v-54h-380v50l285 319q41 46 41 106q0 67 -48 113.5t-117 46.5q-65 0 -118 -50l-39 39q76 66 157 66q91 0 155 -63t64 -152q0 -84 -59 -145z" />
<glyph unicode="3" horiz-adv-x="431" d="M19 65l38 38q55 -60 130 -60q65 0 111 42t46 100q0 48 -43.5 87.5t-101.5 50.5h-96v54h97q61 4 103.5 41.5t42.5 87.5q0 54 -46 92t-110 38q-82 0 -133 -57l-38 40q66 71 171 71q88 0 151 -54t63 -130q0 -50 -29.5 -91.5t-77.5 -65.5q47 -26 74.5 -69.5t27.5 -94.5 q0 -82 -62 -139t-150 -57q-100 0 -168 76z" />
<glyph unicode="4" horiz-adv-x="473" d="M280 247h-247l2 50l226 391l47 -26l-208 -360h180v149h55v-149h96v-55h-96v-247h-55v247z" />
<glyph unicode="5" horiz-adv-x="504" d="M97 342h-52l24 344h372v-55h-319q-3 -25 -9 -88.5t-10 -101.5q55 54 142 54q93 0 158 -72t65 -174q0 -103 -65 -176t-158 -73q-53 0 -101 28t-79 75l39 39q25 -41 61.5 -64.5t79.5 -23.5q70 0 119 57t49 138t-49 137t-119 56q-48 0 -88 -27.5t-60 -72.5z" />
<glyph unicode="6" horiz-adv-x="506" d="M471 208v-9q0 -87 -61 -147t-149 -60q-84 0 -143.5 58.5t-63.5 145.5v-1q-4 43 -4 135v21q0 96 13 160q14 75 72 126.5t135 53.5q112 0 184 -94l-53 -32q-24 33 -58.5 52t-71.5 19q-58 0 -103 -40t-55 -100q-13 -69 -13 -157v-8q57 74 156 79q87 0 150.5 -57.5 t64.5 -144.5zM418 206q-2 64 -47.5 107t-109.5 43t-108.5 -47.5t-44.5 -112.5q0 -62 46 -106.5t109 -44.5q64 0 109.5 45t45.5 107v9z" />
<glyph unicode="7" horiz-adv-x="443" d="M36 0l294 631h-268v55h357l-320 -686h-63z" />
<glyph unicode="8" horiz-adv-x="459" d="M28 193q0 54 29 102t74 75q-81 49 -81 145q0 72 52.5 123.5t126.5 51.5q76 0 129 -51.5t53 -123.5q0 -98 -81 -145q47 -27 74.5 -74t27.5 -103q0 -84 -59 -143t-144 -59q-83 0 -142 59.5t-59 142.5zM104 515q0 -49 37 -84.5t88 -35.5q52 0 89 35t37 85t-36.5 85t-89.5 35 q-51 0 -88 -35t-37 -85zM83 193q0 -59 43.5 -103t102.5 -44q62 0 105.5 43.5t43.5 103.5q0 61 -43.5 104.5t-105.5 43.5q-59 0 -102.5 -43.5t-43.5 -104.5z" />
<glyph unicode="9" horiz-adv-x="489" d="M35 475v7q0 86 61 147.5t148 61.5q83 0 143.5 -60.5t67.5 -145.5q3 -42 3 -137v-26q0 -87 -12 -150q-15 -79 -77 -129t-143 -50q-48 0 -94 24t-78 64l50 41q51 -73 129 -73q61 0 105.5 38.5t57.5 97.5q11 74 11 153v12q-30 -34 -73.5 -54.5t-91.5 -20.5 q-83 0 -144.5 58.5t-62.5 141.5zM87 477q4 -62 49 -105t106 -43q66 0 112 45t46 110q0 61 -47 106t-108 45q-66 0 -112 -47t-46 -111z" />
<glyph unicode=":" horiz-adv-x="182" d="M54 424v76h76v-76h-76zM54 0v76h76v-76h-76z" />
<glyph unicode=";" horiz-adv-x="169" d="M54 424v76h75v-76h-75zM59 9v67h61v-72l-89 -75l-11 17z" />
<glyph unicode="&#x3c;" horiz-adv-x="330" d="M21 248l246 249l40 -38l-209 -211l209 -206l-39 -40z" />
<glyph unicode="=" horiz-adv-x="440" d="M65 383v57h339v-57h-339zM65 195v56h339v-56h-339z" />
<glyph unicode="&#x3e;" horiz-adv-x="336" d="M70 497l247 -249l-247 -246l-39 40l209 206l-209 211z" />
<glyph unicode="?" horiz-adv-x="410" d="M238 0h-58l-90 317v49h99q54 2 91 40t37 93q0 57 -38.5 97t-92.5 40q-72 0 -116 -75l-39 39q26 41 67 65.5t88 24.5q76 0 130 -56t54 -135q0 -76 -53 -131.5t-128 -55.5h-43zM197 -87q0 14 10 23.5t23 9.5q32 0 32 -33q0 -15 -8.5 -25t-23.5 -10q-13 0 -23 10.5t-10 24.5 z" />
<glyph unicode="@" horiz-adv-x="754" d="M502 194q22 0 55 27.5t51 65.5q10 21 17.5 59.5t7.5 64.5q0 89 -68 152t-174 63q-121 0 -202 -84.5t-81 -211.5q0 -125 77.5 -195t215.5 -70q82 0 144.5 30t94.5 77h75l-6 -15q-36 -66 -117 -111t-190 -45q-161 0 -258.5 84t-97.5 239q0 158 96.5 262t251.5 104 q125 0 213.5 -76t88.5 -204q0 -95 -57.5 -178.5t-142.5 -94.5q-56 3 -74 25q-36 -28 -81 -28q-54 0 -92 39t-38 95t39 94t95 38h71q-2 95 -39 95q-38 0 -65 -10l-13 -1l-14 57l12 1q33 11 81 11q82 -3 91 -141h2q-2 -76 -2 -146q0 -17 -1 -23q-3 -24 2.5 -36.5t31.5 -12.5z M422 268v79h-77q-36 0 -61 -22.5t-25 -56.5t24 -57.5t58 -23.5q33 0 57 23.5t24 57.5z" />
<glyph unicode="A" d="M207 336h189l-95 254zM25 0l254 691h45l254 -691h-57l-105 281h-229l-105 -281h-57z" />
<glyph unicode="B" horiz-adv-x="512" d="M273 2l-18 -2h-206v691h223q77 -1 131.5 -52.5t54.5 -120.5q0 -47 -24.5 -86.5t-64.5 -64.5q47 -25 75 -70.5t28 -97.5q0 -80 -58 -138t-142 -59h1zM272 638h-168v-243h168q56 2 93.5 37t37.5 86q0 47 -38 82t-93 38zM272 55q61 3 103 45t42 99q0 55 -42 96t-103 45h-168 v-285h168z" />
<glyph unicode="C" horiz-adv-x="590" d="M560 594l-38 -37q-80 83 -182 83q-106 0 -182.5 -86.5t-76.5 -208.5q0 -123 74.5 -210.5t184.5 -87.5q98 0 180 82l38 -37q-96 -101 -218 -101q-126 0 -220.5 105t-94.5 249q0 141 92.5 245.5t222.5 104.5q127 0 220 -101z" />
<glyph unicode="D" horiz-adv-x="575" d="M290 636h-202v-581q34 0 102.5 1t101.5 1q77 2 131.5 87t54.5 203q0 119 -54.5 203.5t-133.5 85.5zM33 0v691h257q101 -1 172 -101.5t71 -242.5t-70 -242.5t-171 -104.5h-259z" />
<glyph unicode="E" horiz-adv-x="485" d="M393 395v-55h-298v-285h349v-55h-404v691h404v-53h-349v-243h298z" />
<glyph unicode="F" horiz-adv-x="487" d="M397 395v-55h-298v-340h-55v691h404v-52h-349v-244h298z" />
<glyph unicode="G" horiz-adv-x="604" d="M556 93l-2 -8q-91 -94 -216 -94q-130 0 -223 103t-93 248q0 146 93 249.5t223 103.5q125 0 221 -101l-38 -38q-80 83 -183 83q-108 0 -185 -86.5t-77 -210.5q0 -123 77 -210.5t185 -87.5q92 0 163 66v184h-187v53h242v-254z" />
<glyph unicode="H" horiz-adv-x="558" d="M460 340h-360v-340h-55v691h55v-296h360v296h54v-691h-54v340z" />
<glyph unicode="I" horiz-adv-x="138" d="M98 691v-691h-55v691h55z" />
<glyph unicode="J" horiz-adv-x="305" d="M248 691v-519q0 -73 -39.5 -127t-93.5 -54q-46 0 -89 48l36 38q28 -31 53 -31q32 0 54.5 35.5t22.5 88.5v521h56z" />
<glyph unicode="K" horiz-adv-x="583" d="M40 691h55v-357l306 357h73l-258 -301l333 -390h-71l-298 348l-85 -98v-250h-55v691z" />
<glyph unicode="L" horiz-adv-x="453" d="M94 691v-636h331v-55h-385v691h54z" />
<glyph unicode="M" horiz-adv-x="623" d="M303 320l216 371h53v-691h-56v578l-197 -338h-34l-200 338v-578h-55v691h52z" />
<glyph unicode="N" horiz-adv-x="537" d="M43 691h51l340 -576v576h55v-691h-52l-340 579v-579h-54v691z" />
<glyph unicode="O" horiz-adv-x="690" d="M519 561q-70 78 -178 78t-183.5 -85.5t-75.5 -208.5q0 -125 75 -211.5t184 -86.5q111 0 186 86.5t75 211.5q0 131 -83 216zM559 88q-89 -97 -218 -97q-128 0 -221.5 102.5t-93.5 251.5q0 145 92 247.5t223 102.5q134 0 224 -101.5t90 -248.5q0 -156 -96 -257z" />
<glyph unicode="P" horiz-adv-x="480" d="M250 339h-147v-339h-54v691h201q82 0 140 -51t58 -122q0 -75 -57.5 -127t-140.5 -52zM248 638h-145v-244h147q59 0 101 35.5t42 88.5q0 49 -42.5 84.5t-102.5 35.5z" />
<glyph unicode="Q" horiz-adv-x="665" d="M487 571q-70 75 -162 75q-99 0 -169.5 -81.5t-70.5 -196.5q0 -111 66 -191.5t163 -85.5q-11 29 -44 28v49q37 1 64 -20t34 -53q84 20 140.5 96.5t56.5 176.5q0 122 -78 203zM525 132q-63 -69 -155 -86q11 -60 37 -60q16 0 29 27l39 -34q-35 -45 -68 -45q-31 0 -55.5 31.5 t-32.5 76.5q-116 7 -200.5 101t-84.5 225q0 138 86 232.5t205 94.5q120 0 206.5 -95t86.5 -232q0 -140 -93 -236z" />
<glyph unicode="R" horiz-adv-x="474" d="M386 0l-292 330v-330h-55v691h201q83 0 141 -50.5t58 -123.5t-58 -125t-141 -52h-83l300 -340h-71zM238 639h-144v-244h146q59 0 101.5 35.5t42.5 86.5q0 50 -43 86t-103 36z" />
<glyph unicode="S" horiz-adv-x="485" d="M39 91l44 35q52 -80 152 -80q61 0 106 37t45 90q0 51 -42 91.5t-103 49.5q-86 10 -143.5 65t-57.5 128q0 80 62.5 133.5t152.5 53.5q112 0 186 -82l-45 -36q-53 66 -141 66q-63 0 -110.5 -38.5t-47.5 -92.5q0 -55 43 -96.5t107 -46.5q84 -11 140 -66t56 -126 q0 -77 -61.5 -131t-148.5 -54q-61 0 -112 27t-82 73z" />
<glyph unicode="T" horiz-adv-x="575" d="M535 638h-220v-638h-55v638h-222v53h497v-53z" />
<glyph unicode="U" horiz-adv-x="598" d="M97 691v-515q7 -52 65.5 -90.5t136.5 -38.5q75 0 132.5 38.5t64.5 90.5v515h55v-515q-3 -76 -77.5 -130.5t-174.5 -54.5q-104 0 -179.5 54.5t-80.5 130.5v515h58z" />
<glyph unicode="V" horiz-adv-x="639" d="M291 0l-254 691h57l224 -603l223 603h58l-255 -691h-53z" />
<glyph unicode="W" horiz-adv-x="915" d="M861 691l-254 -691h-55l-102 274l-100 -274h-54l-255 691h58l224 -604l98 270l-122 334h57l101 -274l123 -329l222 603h59z" />
<glyph unicode="X" horiz-adv-x="541" d="M235 353l-197 338h62l172 -288l171 288h63l-201 -344l201 -347h-63l-177 298l-175 -298h-62z" />
<glyph unicode="Y" horiz-adv-x="681" d="M577 691h72l-284 -380v-311h-56v311l-284 380h73l238 -326z" />
<glyph unicode="Z" horiz-adv-x="548" d="M519 691l-395 -636h355v-55h-455l397 636h-362v55h460z" />
<glyph unicode="[" horiz-adv-x="210" d="M154 53q0 1 17 1v-54q-24 0 -48 15.5t-24 37.5v235q0 16 -10.5 26.5t-25.5 10.5h-27v54h27q15 0 25.5 11t10.5 26v225q4 20 24.5 32.5t47.5 12.5v-56q-16 0 -17 3v-230q-13 -34 -42 -37v-27q32 -5 42 -36v-250z" />
<glyph unicode="\" horiz-adv-x="371" d="M287 0l-250 686h58l251 -686h-59z" />
<glyph unicode="]" horiz-adv-x="183" d="M42 56v246q8 35 39 37q0 7 2 27q-15 3 -26.5 13.5t-14.5 23.5v227h-19v56q29 0 48.5 -13t23.5 -32l2 -6v-219q0 -15 9 -26t24 -11h27v-54h-27q-15 0 -24 -10.5t-9 -26.5v-235q0 -22 -23.5 -37.5t-50.5 -15.5v54q13 0 19 2z" />
<glyph unicode="^" horiz-adv-x="551" d="M25 443l249 246l246 -247l-40 -39l-206 209l-211 -209z" />
<glyph unicode="_" horiz-adv-x="513" d="M460 0h-423v54h423v-54z" />
<glyph unicode="`" horiz-adv-x="204" d="M137 538l-123 98h87l73 -98h-37z" />
<glyph unicode="a" horiz-adv-x="406" d="M310 0v30q-48 -40 -111 -40q-67 0 -115 45t-48 109q0 66 50 110.5t120 44.5h104v14q0 57 -27 97t-70 41q-63 0 -118 -16l-13 52q65 19 132 19q60 -1 103.5 -51.5t47.5 -121.5v-10q-2 -84 -2 -164q0 -142 16 -159h-69zM310 144v101h-104q-48 0 -81.5 -28.5t-33.5 -72.5 q0 -41 31.5 -69.5t76.5 -28.5q46 0 78.5 28.5t32.5 69.5z" />
<glyph unicode="b" horiz-adv-x="523" d="M109 404v-306q0 -21 41 -36t99 -17q76 2 131 61.5t55 142.5q0 81 -55.5 141.5t-130.5 60.5q-52 0 -92.5 -14t-47.5 -33zM109 23v-23h-68q12 17 16 98v588h55v-211q54 31 137 31q99 0 169.5 -76t70.5 -181q0 -106 -70 -181.5t-170 -77.5q-90 5 -140 33z" />
<glyph unicode="c" horiz-adv-x="478" d="M436 423l-39 -40q-58 68 -138 68q-77 0 -131 -59t-54 -144q0 -83 54.5 -142.5t130.5 -59.5q78 0 135 65l40 -38q-79 -82 -175 -82q-98 0 -168.5 75.5t-70.5 181.5t70.5 182t168.5 76q101 0 177 -83z" />
<glyph unicode="d" horiz-adv-x="534" d="M290 47q57 3 96 18.5t39 34.5v305q-5 19 -44 32.5t-93 13.5q-78 -2 -132.5 -60.5t-54.5 -138.5q0 -83 55 -142.5t134 -62.5zM425 3v22q-54 -27 -137 -32q-99 2 -169.5 77.5t-70.5 181.5q0 105 70.5 179t169.5 75q86 0 137 -32v212h54v-586q0 -82 19 -97h-73z" />
<glyph unicode="e" horiz-adv-x="456" d="M237 45q53 0 129 38l21 -48q-55 -30 -124 -43q-8 -1 -26 -1q-83 0 -144.5 69.5t-67.5 170.5v18q0 106 59 182t142 76q84 0 141 -73t57 -180v-30h-343q5 -77 49.5 -127.5t106.5 -51.5zM82 277h289q-7 75 -48 124.5t-97 49.5q-53 0 -93.5 -50t-50.5 -124z" />
<glyph unicode="f" horiz-adv-x="328" d="M309 687l-16 -55q-17 4 -40 4q-40 -2 -67.5 -39t-27.5 -89v-19h128v-55h-128v-434h-52v434h-73v55h72l-1 18v12q4 70 47.5 120.5t101.5 50.5q32 0 56 -3z" />
<glyph unicode="g" horiz-adv-x="551" d="M208 126q7 2 24 2q85 0 144 -46.5t59 -113.5t-59.5 -115t-143.5 -48q-82 0 -141.5 48t-59.5 115q0 42 27 79t71 58q-7 17 -7 43q0 32 16 51q-68 50 -68 132q0 72 58.5 123.5t141.5 51.5q35 0 75 -11h182l-52 -54h-47q43 -50 43 -110q0 -72 -58.5 -122.5t-142.5 -50.5 q-22 0 -48 6q-20 5 -31 5q-26 0 -26 -19q0 -25 28 -25q1 0 5 0.5t5 0.5h5zM84 -32q0 -44 44.5 -77t103.5 -33q63 0 107 32.5t44 77.5q0 44 -44 77t-107 33q-59 0 -103.5 -33t-44.5 -77zM124 331q0 -50 43 -85.5t103 -35.5q63 0 106 35.5t43 85.5q0 52 -43 87t-106 35 q-60 0 -103 -35.5t-43 -86.5z" />
<glyph unicode="h" horiz-adv-x="455" d="M42 688h54v-242q52 61 129 61q71 0 119.5 -53.5t50.5 -130.5l3 -320h-54v320q-2 55 -38.5 92.5t-86.5 37.5q-42 0 -77 -34.5t-46 -81.5v-337h-54v688z" />
<glyph unicode="i" horiz-adv-x="177" d="M59 0v500h53v-500h-53zM51 639q0 14 10 23.5t25 9.5q14 0 24.5 -10t10.5 -23t-10.5 -23t-24.5 -10q-15 0 -25 10t-10 23z" />
<glyph unicode="j" horiz-adv-x="354" d="M187 634q0 15 9 24t25 9q12 0 22 -9.5t10 -23.5q0 -13 -10 -23t-22 -10q-15 0 -24.5 9.5t-9.5 23.5zM46 -189l5 52q16 0 30 -2q5 -1 13 -1l1 3q42 0 71 36t29 87v515h54v-524q-5 -70 -47 -119t-102 -51q-12 0 -32 2q-12 2 -22 2z" />
<glyph unicode="k" horiz-adv-x="440" d="M111 686v-340l176 148h84l-158 -131l208 -363h-64l-186 327q-40 -36 -60 -52v-275h-69q15 15 15 51v635h54z" />
<glyph unicode="l" horiz-adv-x="162" d="M59 0v686h54v-686h-54z" />
<glyph unicode="m" horiz-adv-x="739" d="M93 500v-56q52 61 127 61q47 0 87.5 -27t63.5 -70q22 49 63.5 74t86.5 25q70 0 119 -53t51 -131l2 -321h-55v321q-2 54 -37 91.5t-84 37.5q-45 0 -80 -34t-44 -81v-335h-54v319q-1 55 -37 92t-87 37q-42 0 -77 -34t-45 -81v-335h-54v446q0 14 -5 31.5t-10 22.5h69z" />
<glyph unicode="n" horiz-adv-x="433" d="M89 496v-50q51 62 129 62q70 0 119.5 -53.5t51.5 -131.5l2 -323h-55v323q-1 55 -37 92.5t-86 37.5q-43 0 -78 -34t-46 -82v-337h-54v448q0 33 -15 48h69z" />
<glyph unicode="o" horiz-adv-x="513" d="M74 247q0 -83 52.5 -142.5t127.5 -59.5q73 0 125.5 59.5t52.5 142.5q0 85 -52 144.5t-126 59.5q-75 0 -127.5 -59.5t-52.5 -144.5zM19 247q0 107 69 183t166 76t165 -76t68 -183q0 -106 -68 -181.5t-165 -75.5t-166 75.5t-69 181.5z" />
<glyph unicode="p" horiz-adv-x="506" d="M90 404v-311q5 -18 45 -31.5t94 -15.5q78 2 132.5 62t54.5 144q0 83 -55 142t-132 59q-58 0 -98.5 -14.5t-40.5 -34.5zM90 499v-23q66 33 139 33q101 -2 171 -77t70 -180q0 -108 -70.5 -184t-170.5 -76q-84 0 -138 32v-214h-54v594q-2 78 -18 95h71z" />
<glyph unicode="q" horiz-adv-x="513" d="M401 477v17h53v-684h-53v232q-51 -32 -135 -32q-95 2 -163.5 74.5t-68.5 173.5q0 102 68.5 175t163.5 73q85 0 135 -29zM401 109v295q0 20 -39.5 34.5t-95.5 14.5q-74 0 -126.5 -57t-52.5 -138q0 -80 52.5 -137t126.5 -59q51 0 89.5 14t45.5 33z" />
<glyph unicode="r" horiz-adv-x="279" d="M254 501l-14 -54q-13 4 -23 4q-43 0 -78 -34t-45 -82v-335h-54v446q0 41 -22 55h76v-57q50 62 128 62q19 0 32 -5z" />
<glyph unicode="s" horiz-adv-x="417" d="M378 437l-44 -32q-47 45 -122 45q-47 0 -78.5 -21.5t-31.5 -54.5t32.5 -61t82.5 -35q68 -10 113 -53.5t45 -97.5q0 -59 -48 -97t-117 -38q-47 0 -92 19t-72 52l41 32q49 -49 120 -49q48 0 81 23t33 58q0 32 -34 61t-80 39q-66 10 -113 54t-47 94q0 57 49.5 93.5 t119.5 36.5q46 0 89.5 -18.5t72.5 -49.5z" />
<glyph unicode="t" horiz-adv-x="340" d="M118 686h55v-193h131v-55h-131v-438h-53v438h-74v55h72v193z" />
<glyph unicode="u" horiz-adv-x="450" d="M343 0v53q-54 -62 -128 -62q-69 0 -118 53.5t-51 130.5q-1 2 -3 4v319h54v-316l1 -5q2 -53 38.5 -91.5t85.5 -38.5q44 0 78 34.5t43 81.5v337h54v-446q0 -16 5 -32.5t10 -21.5h-69z" />
<glyph unicode="v" horiz-adv-x="500" d="M219 0l-201 500h57l171 -418l169 418h60l-204 -500h-52z" />
<glyph unicode="w" horiz-adv-x="705" d="M672 500l-204 -500l-53 3l-71 179l-77 -182l-51 3l-202 497h58l170 -417l70 173l-98 244h62l167 -417l169 417h60z" />
<glyph unicode="x" horiz-adv-x="444" d="M180 259l-153 241h68l121 -194l124 194h67l-156 -249l156 -251h-66l-128 203l-125 -203h-66z" />
<glyph unicode="y" horiz-adv-x="535" d="M48 -189l8 56q8 -8 37 -8q34 0 64.5 22.5t45.5 63.5l38 94l-190 467h58l159 -398l158 398h58l-190 -468l1 1l-21 -53q-15 -39 -22 -61q-20 -55 -66 -87.5t-95 -32.5q-22 0 -43 6z" />
<glyph unicode="z" horiz-adv-x="452" d="M41 0v52l296 393h-293v55h368v-52l-296 -393h296v-55h-371z" />
<glyph unicode="{" horiz-adv-x="223" d="M154 53q0 1 17 1v-54q-24 0 -48 15.5t-24 37.5v235q0 16 -10.5 26.5t-25.5 10.5h-27v54h27q15 0 25.5 11t10.5 26v225q4 20 24.5 32.5t47.5 12.5v-56q-16 0 -17 3v-230q-13 -34 -42 -37v-27q32 -5 42 -36v-250z" />
<glyph unicode="|" horiz-adv-x="131" d="M50 1v710h39v-710h-39z" />
<glyph unicode="}" horiz-adv-x="188" d="M42 56v246q8 35 39 37q0 7 2 27q-15 3 -26.5 13.5t-14.5 23.5v227h-19v56q29 0 48.5 -13t23.5 -32l2 -6v-219q0 -15 9 -26t24 -11h27v-54h-27q-15 0 -24 -10.5t-9 -26.5v-235q0 -22 -23.5 -37.5t-50.5 -15.5v54q13 0 19 2z" />
<glyph unicode="~" horiz-adv-x="347" d="M161 298l1 -1q-18 6 -37 6q-46 0 -76 -25l-23 43q40 28 98 28q22 0 52 -10q32 -9 45 -9q49 0 79 25l19 -43q-43 -29 -95 -29q-38 0 -63 15z" />
<glyph unicode="&#xa1;" horiz-adv-x="160" d="M51 659v1q0 12 8.5 21t20.5 9t21 -9t9 -21q0 -13 -9 -21.5t-21 -8.5q-27 0 -29 29zM104 586v-586h-48v586h48z" />
<glyph unicode="&#xa2;" horiz-adv-x="478" d="M231 503v67h59v-67q81 -10 146 -80l-39 -40q-46 56 -107 65v-400q53 8 105 63l39 -38q-69 -70 -144 -80v-66h-59v67q-88 11 -149.5 84t-61.5 170t61.5 170.5t149.5 84.5zM74 248q0 -75 45 -132t112 -68v400q-67 -11 -112 -68t-45 -132z" />
<glyph unicode="&#xa3;" horiz-adv-x="556" d="M371 293h-178v-239h328v-54h-382v293h-117v54h117v339h54v-339h178v-54z" />
<glyph unicode="&#xa5;" horiz-adv-x="681" d="M166 144v56h142v24h-142v56h142v28l-282 378h73l235 -324l240 324h72l-282 -378v-28h142v-56h-142v-24h142v-56h-142v-144h-56v144h-142z" />
<glyph unicode="&#xa6;" horiz-adv-x="131" d="M89 399h-39v312h39v-312zM50 348h39v-347h-39v347z" />
<glyph unicode="&#xa7;" horiz-adv-x="356" d="M280 475l-24 -51q-44 22 -82 22q-20 0 -32 -4q22 -37 72 -63q51 -25 82 -67.5t31 -87.5q0 -51 -39 -88q1 -7 1 -19q0 -57 -42 -91.5t-100 -34.5q-48 0 -102 27l24 46q44 -19 77 -19q36 0 61 16t29 46q-27 -8 -53 -8q-50 0 -101 26l24 48q47 -20 79 -20q21 0 40 7 q-18 38 -73 66q-51 25 -83.5 69t-32.5 87q0 55 39 85q-1 7 -1 22q0 54 40.5 86.5t99.5 32.5q47 0 103 -25l-24 -51q-41 22 -81 22q-34 0 -58 -16t-26 -44q22 6 48 6q45 0 104 -25zM266 196q7 14 7 30q0 28 -24 58.5t-61 50.5q-58 25 -89 76q-8 -18 -8 -33q0 -29 23.5 -58 t62.5 -48q61 -28 89 -77v1z" />
<glyph unicode="&#xa8;" horiz-adv-x="263" d="M33 639q0 13 10.5 23t24.5 10t24.5 -10t10.5 -23t-10.5 -23t-24.5 -10t-24.5 10t-10.5 23zM163 639q0 13 10.5 23t24.5 10t24.5 -10t10.5 -23t-10.5 -23t-24.5 -10t-24.5 10t-10.5 23z" />
<glyph unicode="&#xaa;" horiz-adv-x="179" d="M173 311h-57v1q-11 -5 -29 -5q-28 0 -47.5 19t-19.5 46q0 26 19.5 43.5t49.5 17.5h27q-1 13 -8 24t-16 11q-23 0 -50 -9l-7 39q30 8 57 8q24 0 42 -21t19 -53q-1 -27 -1 -55q0 -17 6.5 -37.5t14.5 -28.5zM116 396h-29q-12 0 -20.5 -7.5t-8.5 -16.5q0 -10 8.5 -18t20.5 -8 q11 0 20 8t9 18v24z" />
<glyph unicode="&#xab;" horiz-adv-x="532" d="M189 278l267 226l36 -42l-228 -191l189 -224l-40 -36zM24 278l267 226l36 -42l-228 -191l189 -224l-40 -36z" />
<glyph unicode="&#xac;" horiz-adv-x="662" d="M617 390v-231h-54v177h-524v54h578z" />
<glyph unicode="&#xad;" horiz-adv-x="421" d="M386 266h-349v54h349v-54z" />
<glyph unicode="&#xb0;" horiz-adv-x="250" d="M62 587q0 -23 19.5 -42t44.5 -19q21 0 39.5 19t18.5 42q0 24 -18.5 44.5t-39.5 20.5q-25 0 -44.5 -20t-19.5 -45zM21 587q0 44 30 73.5t75 29.5q42 0 70.5 -29.5t28.5 -73.5q0 -41 -29 -70.5t-70 -29.5q-45 0 -75 29t-30 71z" />
<glyph unicode="&#xb1;" horiz-adv-x="452" d="M399 150h-349v54h349v-54zM252 447v-147h-54v147h-147v55h147v147h54v-147h148v-55h-148z" />
<glyph unicode="&#xb2;" horiz-adv-x="280" d="M93 351h152v-43h-217v39l153 171q21 21 21 52q0 30 -24.5 53t-54.5 23q-31 0 -65 -33l-33 34q50 43 98 43q51 0 86.5 -35t35.5 -85q0 -45 -32 -85z" />
<glyph unicode="&#xb3;" horiz-adv-x="265" d="M36 377h13q29 -31 64 -31q28 0 50.5 19.5t22.5 45.5q0 25 -21 45t-47 23h-58v43h59q26 2 46.5 21t20.5 41q0 23 -22 41t-50 18q-38 0 -71 -36l-32 34q42 45 103 45q49 0 83.5 -29.5t34.5 -72.5q0 -59 -47 -85q44 -37 44 -88q0 -45 -34 -76t-82 -31q-59 0 -103 47z" />
<glyph unicode="&#xb4;" horiz-adv-x="209" d="M191 636l-122 -98h-38l74 98h86z" />
<glyph unicode="&#xb6;" horiz-adv-x="382" d="M333 685v-683h-52v683h52zM271 686v-686h-90v352q-65 5 -112 54t-47 113q0 70 48.5 118.5t117.5 48.5h83zM169 410v226q-40 -1 -67 -33.5t-27 -79.5q0 -46 27 -79t67 -34z" />
<glyph unicode="&#xb7;" horiz-adv-x="225" d="M56 312q0 21 17.5 38.5t40.5 17.5t41.5 -17.5t18.5 -38.5t-18 -37.5t-42 -16.5t-41 16.5t-17 37.5z" />
<glyph unicode="&#xb9;" horiz-adv-x="263" d="M66 541l-38 37l130 108h50v-306h-55v233z" />
<glyph unicode="&#xba;" horiz-adv-x="232" d="M59 402q0 -23 17.5 -42t39.5 -19q19 0 35.5 19t16.5 42q0 25 -16 45.5t-36 20.5q-22 0 -39.5 -20.5t-17.5 -45.5zM21 402q0 45 27 74.5t68 29.5q38 0 64.5 -29.5t26.5 -74.5q0 -41 -26.5 -70t-64.5 -29q-40 0 -67.5 29t-27.5 70z" />
<glyph unicode="&#xbb;" horiz-adv-x="524" d="M59 504l267 -226l-224 -267l-40 36l189 224l-228 191zM224 504l267 -226l-224 -267l-40 36l189 224l-228 191z" />
<glyph unicode="&#xbc;" horiz-adv-x="382" d="M266 351l30 -15l-104 -178h82v74h34v-74h48v-34h-48v-124h-34v124h-123v29zM50 426l-23 22l69 58h29v-299h-34v251q-6 -5 -41 -32z" />
<glyph unicode="&#xbd;" horiz-adv-x="355" d="M38 427l-23 22l69 58h29v-300h-34v252q-6 -5 -41 -32zM295 165l-118 -132h149v-33h-197v29l144 161q19 21 19 50q0 33 -23 55t-56 22q-30 0 -59 -26l-24 24q39 36 83 36q47 0 80 -32.5t33 -78.5q0 -39 -31 -75z" />
<glyph unicode="&#xbe;" horiz-adv-x="458" d="M26 192l25 22q25 -30 63 -30q31 0 53.5 19.5t22.5 47.5q0 36 -37 54.5t-84 10.5v35h52q29 2 49.5 19t20.5 41q0 26 -22 44.5t-53 18.5q-39 0 -66 -30l-24 24q36 39 90 39q45 0 77.5 -28t32.5 -68q0 -52 -50 -77q48 -30 48 -83q0 -42 -32 -71.5t-78 -29.5q-51 0 -88 42z M348 125h-123v30l116 198l30 -15l-102 -178h79v74h35v-74h48v-35h-48v-123h-35v123z" />
<glyph unicode="&#xbf;" horiz-adv-x="432" d="M177 686h57l93 -319v-51h-103q-53 -2 -90.5 -41t-37.5 -94t39 -95t94 -40q71 0 118 74l39 -40q-27 -41 -68 -65.5t-89 -24.5q-76 0 -131 56.5t-55 134.5q0 77 54 134t127 57h45zM216 771q0 -14 -9.5 -24t-22.5 -10q-15 0 -24.5 9.5t-9.5 24.5q0 16 9 25.5t25 9.5 q13 0 22.5 -10t9.5 -25z" />
<glyph unicode="&#xc0;" d="M297 729l-123 98h87l73 -98h-37zM207 336h189l-95 254zM25 0l254 691h45l254 -691h-57l-105 281h-229l-105 -281h-57z" />
<glyph unicode="&#xc1;" d="M438 827l-122 -98h-38l74 98h86zM207 336h189l-95 254zM25 0l254 691h45l254 -691h-57l-105 281h-229l-105 -281h-57z" />
<glyph unicode="&#xc2;" d="M207 336h189l-95 254zM25 0l254 691h45l254 -691h-57l-105 281h-229l-105 -281h-57z" />
<glyph unicode="&#xc3;" d="M210 343h189l-95 254zM28 7l254 691h45l254 -691h-57l-105 281h-229l-105 -281h-57zM294 771l1 -1q-17 6 -35 6q-42 0 -72 -22l-21 40q42 27 93 27q21 0 49 -8q29 -9 41 -9q48 0 75 22l20 -40q-37 -27 -93 -27q-32 0 -58 12z" />
<glyph unicode="&#xc4;" d="M196 752q0 13 10.5 23t24.5 10t24.5 -10t10.5 -23t-10.5 -23t-24.5 -10t-24.5 10t-10.5 23zM326 752q0 13 10.5 23t24.5 10t24.5 -10t10.5 -23t-10.5 -23t-24.5 -10t-24.5 10t-10.5 23zM207 336h189l-95 254zM25 0l254 691h45l254 -691h-57l-105 281h-229l-105 -281h-57z " />
<glyph unicode="&#xc5;" d="M240 788q0 -23 19.5 -42t44.5 -19q21 0 39.5 19t18.5 42q0 24 -18.5 44.5t-39.5 20.5q-25 0 -44.5 -20t-19.5 -45zM199 788q0 44 30 73.5t75 29.5q42 0 70.5 -29.5t28.5 -73.5q0 -41 -29 -70.5t-70 -29.5q-45 0 -75 29t-30 71zM207 336h189l-95 254zM25 0l254 691h45 l254 -691h-57l-105 281h-229l-105 -281h-57z" />
<glyph unicode="&#xc6;" horiz-adv-x="1081" d="M520 336l9 302h-213l-107 -302h311zM281 691h644v-53h-350v-243h299v-55h-299v-285h350v-55h-405v281h-331l-105 -281h-58z" />
<glyph unicode="&#xc7;" horiz-adv-x="634" d="M585 593l-39 -36q-80 85 -181 85q-109 0 -185.5 -88.5t-76.5 -211.5q0 -121 76.5 -209.5t185.5 -88.5q99 0 179 83l39 -37q-91 -97 -225 -99q-1 -2 -4 -11q16 -5 32.5 -22t16.5 -37q0 -35 -56 -66l-53 39q17 0 40 7t23 22q0 12 -14.5 17.5t-28.5 5.5h-15l1 52 q-107 26 -179 122t-72 222q0 148 92.5 250.5t223.5 102.5q126 0 220 -102z" />
<glyph unicode="&#xc8;" horiz-adv-x="485" d="M228 729l-123 98h87l73 -98h-37zM393 395v-55h-298v-285h349v-55h-404v691h404v-53h-349v-243h298z" />
<glyph unicode="&#xc9;" horiz-adv-x="485" d="M355 827l-122 -98h-38l74 98h86zM393 395v-55h-298v-285h349v-55h-404v691h404v-53h-349v-243h298z" />
<glyph unicode="&#xca;" horiz-adv-x="485" d="M127 790l114 113l115 -114l-35 -34l-80 81l-81 -81zM393 395v-55h-298v-285h349v-55h-404v691h404v-53h-349v-243h298z" />
<glyph unicode="&#xcb;" horiz-adv-x="485" d="M140 753q0 13 10.5 23t24.5 10t24.5 -10t10.5 -23t-10.5 -23t-24.5 -10t-24.5 10t-10.5 23zM270 753q0 13 10.5 23t24.5 10t24.5 -10t10.5 -23t-10.5 -23t-24.5 -10t-24.5 10t-10.5 23zM393 395v-55h-298v-285h349v-55h-404v691h404v-53h-349v-243h298z" />
<glyph unicode="&#xcc;" horiz-adv-x="131" d="M80 729l-123 98h87l73 -98h-37zM106 691v-691h-55v691h55z" />
<glyph unicode="&#xcd;" horiz-adv-x="154" d="M209 827l-122 -98h-38l74 98h86zM98 691v-691h-55v691h55z" />
<glyph unicode="&#xce;" horiz-adv-x="138" d="M98 691v-691h-55v691h55z" />
<glyph unicode="&#xcf;" horiz-adv-x="138" d="M-33 752q0 13 10.5 23t24.5 10t24.5 -10t10.5 -23t-10.5 -23t-24.5 -10t-24.5 10t-10.5 23zM97 752q0 13 10.5 23t24.5 10t24.5 -10t10.5 -23t-10.5 -23t-24.5 -10t-24.5 10t-10.5 23zM98 691v-691h-55v691h55z" />
<glyph unicode="&#xd0;" horiz-adv-x="653" d="M106 269h-66v54h66v368h257q101 -1 172 -101.5t71 -242.5t-70 -242.5t-171 -104.5h-259v269zM363 636h-202v-313h171v-54h-171v-214q34 0 102.5 1t101.5 1q77 2 131.5 87t54.5 203q0 119 -54.5 203.5t-133.5 85.5z" />
<glyph unicode="&#xd1;" horiz-adv-x="537" d="M252 740h1q-21 8 -48 8q-31 0 -59 -17l-16 43q36 19 75 19q24 0 66 -14q34 -14 57 -14q32 0 60 18l15 -43q-35 -20 -75 -20q-45 0 -76 20zM43 691h51l340 -576v576h55v-691h-52l-340 579v-579h-54v691z" />
<glyph unicode="&#xd2;" horiz-adv-x="690" d="M319 729l-123 98h87l73 -98h-37zM519 561q-70 78 -178 78t-183.5 -85.5t-75.5 -208.5q0 -125 75 -211.5t184 -86.5q111 0 186 86.5t75 211.5q0 131 -83 216zM559 88q-89 -97 -218 -97q-128 0 -221.5 102.5t-93.5 251.5q0 145 92 247.5t223 102.5q134 0 224 -101.5 t90 -248.5q0 -156 -96 -257z" />
<glyph unicode="&#xd3;" horiz-adv-x="690" d="M493 827l-122 -98h-38l74 98h86zM519 561q-70 78 -178 78t-183.5 -85.5t-75.5 -208.5q0 -125 75 -211.5t184 -86.5q111 0 186 86.5t75 211.5q0 131 -83 216zM559 88q-89 -97 -218 -97q-128 0 -221.5 102.5t-93.5 251.5q0 145 92 247.5t223 102.5q134 0 224 -101.5 t90 -248.5q0 -156 -96 -257z" />
<glyph unicode="&#xd4;" horiz-adv-x="690" d="M227 790l114 113l115 -114l-35 -34l-80 81l-81 -81zM519 561q-70 78 -178 78t-183.5 -85.5t-75.5 -208.5q0 -125 75 -211.5t184 -86.5q111 0 186 86.5t75 211.5q0 131 -83 216zM559 88q-89 -97 -218 -97q-128 0 -221.5 102.5t-93.5 251.5q0 145 92 247.5t223 102.5 q134 0 224 -101.5t90 -248.5q0 -156 -96 -257z" />
<glyph unicode="&#xd5;" horiz-adv-x="690" d="M328 741h1q-21 8 -48 8q-31 0 -59 -17l-16 43q36 19 75 19q24 0 66 -14q34 -14 57 -14q32 0 60 18l15 -43q-35 -20 -75 -20q-45 0 -76 20zM519 561q-70 78 -178 78t-183.5 -85.5t-75.5 -208.5q0 -125 75 -211.5t184 -86.5q111 0 186 86.5t75 211.5q0 131 -83 216zM559 88 q-89 -97 -218 -97q-128 0 -221.5 102.5t-93.5 251.5q0 145 92 247.5t223 102.5q134 0 224 -101.5t90 -248.5q0 -156 -96 -257z" />
<glyph unicode="&#xd6;" horiz-adv-x="690" d="M243 753q0 13 10.5 23t24.5 10t24.5 -10t10.5 -23t-10.5 -23t-24.5 -10t-24.5 10t-10.5 23zM373 753q0 13 10.5 23t24.5 10t24.5 -10t10.5 -23t-10.5 -23t-24.5 -10t-24.5 10t-10.5 23zM519 561q-70 78 -178 78t-183.5 -85.5t-75.5 -208.5q0 -125 75 -211.5t184 -86.5 q111 0 186 86.5t75 211.5q0 131 -83 216zM559 88q-89 -97 -218 -97q-128 0 -221.5 102.5t-93.5 251.5q0 145 92 247.5t223 102.5q134 0 224 -101.5t90 -248.5q0 -156 -96 -257z" />
<glyph unicode="&#xd7;" horiz-adv-x="367" d="M176 274l-105 -104l-38 38l104 105l-103 103l37 39l105 -104l104 104l39 -38l-105 -104l105 -105l-38 -38z" />
<glyph unicode="&#xd8;" horiz-adv-x="690" d="M559 88q-89 -97 -218 -97q-44 0 -94 16q-1 -2 -1 -7h-60l11 30q-76 42 -123.5 127t-47.5 188q0 145 92 247.5t223 102.5q46 0 94 -15q3 10 3 11h58l-11 -33q79 -47 124.5 -129.5t45.5 -183.5q0 -156 -96 -257zM519 561q-31 31 -53 44l-200 -546q33 -12 75 -12 q111 0 186 86.5t75 211.5q0 131 -83 216zM341 639q-108 0 -183.5 -85.5t-75.5 -208.5q0 -85 36 -155t97 -108l200 545q-32 12 -74 12z" />
<glyph unicode="&#xd9;" horiz-adv-x="598" d="M291 729l-123 98h87l73 -98h-37zM97 691v-515q7 -52 65.5 -90.5t136.5 -38.5q75 0 132.5 38.5t64.5 90.5v515h55v-515q-3 -76 -77.5 -130.5t-174.5 -54.5q-104 0 -179.5 54.5t-80.5 130.5v515h58z" />
<glyph unicode="&#xda;" horiz-adv-x="598" d="M434 827l-122 -98h-38l74 98h86zM97 691v-515q7 -52 65.5 -90.5t136.5 -38.5q75 0 132.5 38.5t64.5 90.5v515h55v-515q-3 -76 -77.5 -130.5t-174.5 -54.5q-104 0 -179.5 54.5t-80.5 130.5v515h58z" />
<glyph unicode="&#xdb;" horiz-adv-x="598" d="M181 790l114 113l115 -114l-35 -34l-80 81l-81 -81zM97 691v-515q7 -52 65.5 -90.5t136.5 -38.5q75 0 132.5 38.5t64.5 90.5v515h55v-515q-3 -76 -77.5 -130.5t-174.5 -54.5q-104 0 -179.5 54.5t-80.5 130.5v515h58z" />
<glyph unicode="&#xdc;" horiz-adv-x="598" d="M197 752q0 13 10.5 23t24.5 10t24.5 -10t10.5 -23t-10.5 -23t-24.5 -10t-24.5 10t-10.5 23zM327 752q0 13 10.5 23t24.5 10t24.5 -10t10.5 -23t-10.5 -23t-24.5 -10t-24.5 10t-10.5 23zM97 691v-515q7 -52 65.5 -90.5t136.5 -38.5q75 0 132.5 38.5t64.5 90.5v515h55v-515 q-3 -76 -77.5 -130.5t-174.5 -54.5q-104 0 -179.5 54.5t-80.5 130.5v515h58z" />
<glyph unicode="&#xdd;" horiz-adv-x="681" d="M484 827l-122 -98h-38l74 98h86zM577 691h72l-284 -380v-311h-56v311l-284 380h73l238 -326z" />
<glyph unicode="&#xde;" horiz-adv-x="535" d="M113 692v-214q58 34 138 34q101 -2 172 -77.5t71 -181.5q0 -109 -71 -185.5t-172 -76.5q-63 0 -139 34v-217h-54v884h55zM110 408l3 -309q-1 -13 17 -25t50.5 -19.5t70.5 -8.5q77 2 132 62t55 144q0 82 -55.5 143t-131.5 61q-52 0 -93 -14.5t-48 -33.5z" />
<glyph unicode="&#xdf;" horiz-adv-x="520" d="M271 633h-167v-241h167q55 2 92.5 36.5t37.5 85.5q0 47 -37.5 81.5t-92.5 37.5zM104 338v-506h-55v854h222q76 -1 130.5 -52t54.5 -120q0 -47 -24.5 -86t-64.5 -64q47 -24 75 -69t28 -98q0 -79 -57.5 -136.5t-141.5 -58.5h-86l-52 52h138q60 3 102 45t42 98t-45 96.5 t-116 44.5h-150z" />
<glyph unicode="&#xe0;" horiz-adv-x="406" d="M310 0v30q-48 -40 -111 -40q-67 0 -115 45t-48 109q0 66 50 110.5t120 44.5h104v14q0 57 -27 97t-70 41q-63 0 -118 -16l-13 52q65 19 132 19q60 -1 103.5 -51.5t47.5 -121.5v-10q-2 -84 -2 -164q0 -142 16 -159h-69zM310 144v101h-104q-48 0 -81.5 -28.5t-33.5 -72.5 q0 -41 31.5 -69.5t76.5 -28.5q46 0 78.5 28.5t32.5 69.5zM197 538l-123 98h87l73 -98h-37z" />
<glyph unicode="&#xe1;" horiz-adv-x="406" d="M326 636l-122 -98h-38l74 98h86zM310 0v30q-48 -40 -111 -40q-67 0 -115 45t-48 109q0 66 50 110.5t120 44.5h104v14q0 57 -27 97t-70 41q-63 0 -118 -16l-13 52q65 19 132 19q60 -1 103.5 -51.5t47.5 -121.5v-10q-2 -84 -2 -164q0 -142 16 -159h-69zM310 144v101h-104 q-48 0 -81.5 -28.5t-33.5 -72.5q0 -41 31.5 -69.5t76.5 -28.5q46 0 78.5 28.5t32.5 69.5z" />
<glyph unicode="&#xe2;" horiz-adv-x="406" d="M86 559l114 113l115 -114l-35 -34l-80 81l-81 -81zM310 0v30q-48 -40 -111 -40q-67 0 -115 45t-48 109q0 66 50 110.5t120 44.5h104v14q0 57 -27 97t-70 41q-63 0 -118 -16l-13 52q65 19 132 19q60 -1 103.5 -51.5t47.5 -121.5v-10q-2 -84 -2 -164q0 -142 16 -159h-69z M310 144v101h-104q-48 0 -81.5 -28.5t-33.5 -72.5q0 -41 31.5 -69.5t76.5 -28.5q46 0 78.5 28.5t32.5 69.5z" />
<glyph unicode="&#xe3;" horiz-adv-x="406" d="M313 7v30q-48 -40 -111 -40q-67 0 -115 45t-48 109q0 66 50 110.5t120 44.5h104v14q0 57 -27 97t-70 41q-63 0 -118 -16l-13 52q65 19 132 19q60 -1 103.5 -51.5t47.5 -121.5v-10q-2 -84 -2 -164q0 -142 16 -159h-69zM313 151v101h-104q-48 0 -81.5 -28.5t-33.5 -72.5 q0 -41 31.5 -69.5t76.5 -28.5q46 0 78.5 28.5t32.5 69.5zM183 559l1 -1q-17 5 -32 5q-45 0 -73 -25l-23 40q44 30 95 30q20 0 46 -8t37 -8q50 0 79 26l19 -39q-39 -31 -94 -31q-31 0 -55 11z" />
<glyph unicode="&#xe4;" horiz-adv-x="406" d="M313 7v30q-48 -40 -111 -40q-67 0 -115 45t-48 109q0 66 50 110.5t120 44.5h104v14q0 57 -27 97t-70 41q-63 0 -118 -16l-13 52q65 19 132 19q60 -1 103.5 -51.5t47.5 -121.5v-10q-2 -84 -2 -164q0 -142 16 -159h-69zM313 151v101h-104q-48 0 -81.5 -28.5t-33.5 -72.5 q0 -41 31.5 -69.5t76.5 -28.5q46 0 78.5 28.5t32.5 69.5zM110 639q0 14 10 23.5t25 9.5q14 0 24.5 -10t10.5 -23t-10.5 -23t-24.5 -10q-15 0 -25 10t-10 23zM240 639q0 13 10.5 23t24.5 10t24.5 -10t10.5 -23t-10.5 -23t-24.5 -10t-24.5 10t-10.5 23z" />
<glyph unicode="&#xe5;" horiz-adv-x="406" d="M153 666q0 -23 19.5 -42t44.5 -19q21 0 39.5 19t18.5 42q0 24 -18.5 44.5t-39.5 20.5q-25 0 -44.5 -20t-19.5 -45zM112 666q0 44 30 73.5t75 29.5q42 0 70.5 -29.5t28.5 -73.5q0 -41 -29 -70.5t-70 -29.5q-45 0 -75 29t-30 71zM310 0v30q-48 -40 -111 -40q-67 0 -115 45 t-48 109q0 66 50 110.5t120 44.5h104v14q0 57 -27 97t-70 41q-63 0 -118 -16l-13 52q65 19 132 19q60 -1 103.5 -51.5t47.5 -121.5v-10q-2 -84 -2 -164q0 -142 16 -159h-69zM310 144v101h-104q-48 0 -81.5 -28.5t-33.5 -72.5q0 -41 31.5 -69.5t76.5 -28.5q46 0 78.5 28.5 t32.5 69.5z" />
<glyph unicode="&#xe6;" horiz-adv-x="743" d="M312 0v30q-48 -40 -110 -40q-68 0 -116 45t-48 109t48 109.5t116 45.5h105q1 4 3 13.5t2 12.5q-1 53 -29 88.5t-68 37.5q-63 0 -117 -16l-14 52q66 19 132 19q42 -1 77 -27t55 -69q28 45 69 71t87 26q84 0 141.5 -73t57.5 -180v-30h-338v-36q15 -61 57 -102t93 -41 q53 0 129 38l22 -48q-55 -30 -125 -43q-8 -1 -26 -1q-89 0 -149 73q2 -50 19 -64h-73zM366 277h283q-7 75 -48 124.5t-97 49.5t-96.5 -49.5t-41.5 -124.5zM304 231v14h-102q-45 0 -76.5 -29.5t-31.5 -71.5q0 -41 31 -69.5t77 -28.5q45 0 77.5 28.5t32.5 69.5v28q-7 28 -8 59 z" />
<glyph unicode="&#xe7;" horiz-adv-x="493" d="M291 -9l-5 -14q16 -5 32.5 -22.5t16.5 -37.5q0 -33 -55 -67l-48 38q19 2 37.5 9.5t18.5 17.5q0 28 -42 28q-1 0 -3 -1h-2h-11l2 53q-85 17 -141.5 88t-56.5 166q0 106 70.5 181.5t170.5 75.5q103 0 177 -84l-38 -38q-62 67 -139 67t-131.5 -59t-54.5 -143 q0 -85 54.5 -144t131.5 -59t135 63l39 -38q-66 -71 -158 -80z" />
<glyph unicode="&#xe8;" horiz-adv-x="456" d="M237 45q53 0 129 38l21 -48q-55 -30 -124 -43q-8 -1 -26 -1q-83 0 -144.5 69.5t-67.5 170.5v18q0 106 59 182t142 76q84 0 141 -73t57 -180v-30h-343q5 -77 49.5 -127.5t106.5 -51.5zM82 277h289q-7 75 -48 124.5t-97 49.5q-53 0 -93.5 -50t-50.5 -124zM226 538l-123 98 h87l73 -98h-37z" />
<glyph unicode="&#xe9;" horiz-adv-x="456" d="M355 636l-122 -98h-38l74 98h86zM237 45q53 0 129 38l21 -48q-55 -30 -124 -43q-8 -1 -26 -1q-83 0 -144.5 69.5t-67.5 170.5v18q0 106 59 182t142 76q84 0 141 -73t57 -180v-30h-343q5 -77 49.5 -127.5t106.5 -51.5zM82 277h289q-7 75 -48 124.5t-97 49.5 q-53 0 -93.5 -50t-50.5 -124z" />
<glyph unicode="&#xea;" horiz-adv-x="456" d="M111 559l114 113l115 -114l-35 -34l-80 81l-81 -81zM237 45q53 0 129 38l21 -48q-55 -30 -124 -43q-8 -1 -26 -1q-83 0 -144.5 69.5t-67.5 170.5v18q0 106 59 182t142 76q84 0 141 -73t57 -180v-30h-343q5 -77 49.5 -127.5t106.5 -51.5zM82 277h289q-7 75 -48 124.5 t-97 49.5q-53 0 -93.5 -50t-50.5 -124z" />
<glyph unicode="&#xeb;" horiz-adv-x="456" d="M126 639q0 13 10.5 23t24.5 10t24.5 -10t10.5 -23t-10.5 -23t-24.5 -10t-24.5 10t-10.5 23zM256 639q0 13 10.5 23t24.5 10t24.5 -10t10.5 -23t-10.5 -23t-24.5 -10t-24.5 10t-10.5 23zM237 45q53 0 129 38l21 -48q-55 -30 -124 -43q-8 -1 -26 -1q-83 0 -144.5 69.5 t-67.5 170.5v18q0 106 59 182t142 76q84 0 141 -73t57 -180v-30h-343q5 -77 49.5 -127.5t106.5 -51.5zM82 277h289q-7 75 -48 124.5t-97 49.5q-53 0 -93.5 -50t-50.5 -124z" />
<glyph unicode="&#xec;" horiz-adv-x="211" d="M122 545l-123 98h87l73 -98h-37zM88 0v500h53v-500h-53z" />
<glyph unicode="&#xed;" horiz-adv-x="211" d="M200 643l-122 -98h-38l74 98h86zM59 0v500h54v-500h-54z" />
<glyph unicode="&#xee;" horiz-adv-x="177" d="M-25 566l114 113l115 -114l-35 -34l-80 81l-81 -81zM59 0v500h53v-500h-53z" />
<glyph unicode="&#xef;" horiz-adv-x="177" d="M59 0v500h53v-500h-53zM6 639q0 13 10.5 23t24.5 10t24.5 -10t10.5 -23t-10.5 -23t-24.5 -10t-24.5 10t-10.5 23zM98 639q0 14 10 23.5t25 9.5q14 0 24.5 -10t10.5 -23t-10.5 -23t-24.5 -10q-15 0 -25 10t-10 23z" />
<glyph unicode="&#xf0;" horiz-adv-x="489" d="M35 475v7q0 86 61 147.5t148 61.5q83 0 143.5 -60.5t67.5 -145.5q3 -42 3 -137v-26q0 -87 -12 -150q-15 -79 -77 -129t-143 -50q-48 0 -94 24t-78 64l50 41q51 -73 129 -73q61 0 105.5 38.5t57.5 97.5q11 74 11 153v12q-30 -34 -73.5 -54.5t-91.5 -20.5 q-83 0 -144.5 58.5t-62.5 141.5zM87 477q4 -62 49 -105t106 -43q66 0 112 45t46 110q0 61 -47 106t-108 45q-66 0 -112 -47t-46 -111z" />
<glyph unicode="&#xf1;" horiz-adv-x="433" d="M92 503v-50q51 62 129 62q70 0 119.5 -53.5t51.5 -131.5l2 -323h-55v323q-1 55 -37 92.5t-86 37.5q-43 0 -78 -34t-46 -82v-337h-54v448q0 33 -15 48h69zM195 601l1 -1q-15 6 -36 6q-34 0 -72 -25l-19 42q39 27 94 27q17 0 48 -9q26 -8 40 -8q42 0 73 26l21 -42 q-41 -28 -95 -28q-34 0 -55 12z" />
<glyph unicode="&#xf2;" horiz-adv-x="527" d="M74 247q0 -83 52.5 -142.5t127.5 -59.5q73 0 125.5 59.5t52.5 142.5q0 85 -52 144.5t-126 59.5q-75 0 -127.5 -59.5t-52.5 -144.5zM19 247q0 107 69 183t166 76t165 -76t68 -183q0 -106 -68 -181.5t-165 -75.5t-166 75.5t-69 181.5zM262 538l-123 98h87l73 -98h-37z" />
<glyph unicode="&#xf3;" horiz-adv-x="527" d="M397 636l-122 -98h-38l74 98h86zM74 247q0 -83 52.5 -142.5t127.5 -59.5q73 0 125.5 59.5t52.5 142.5q0 85 -52 144.5t-126 59.5q-75 0 -127.5 -59.5t-52.5 -144.5zM19 247q0 107 69 183t166 76t165 -76t68 -183q0 -106 -68 -181.5t-165 -75.5t-166 75.5t-69 181.5z" />
<glyph unicode="&#xf4;" horiz-adv-x="513" d="M140 559l114 113l115 -114l-35 -34l-80 81l-81 -81zM74 247q0 -83 52.5 -142.5t127.5 -59.5q73 0 125.5 59.5t52.5 142.5q0 85 -52 144.5t-126 59.5q-75 0 -127.5 -59.5t-52.5 -144.5zM19 247q0 107 69 183t166 76t165 -76t68 -183q0 -106 -68 -181.5t-165 -75.5 t-166 75.5t-69 181.5z" />
<glyph unicode="&#xf5;" horiz-adv-x="513" d="M246 582h1q-21 8 -48 8q-31 0 -59 -17l-16 43q36 19 75 19q24 0 66 -14q34 -14 57 -14q32 0 60 18l15 -43q-35 -20 -75 -20q-45 0 -76 20zM74 247q0 -83 52.5 -142.5t127.5 -59.5q73 0 125.5 59.5t52.5 142.5q0 85 -52 144.5t-126 59.5q-75 0 -127.5 -59.5t-52.5 -144.5z M19 247q0 107 69 183t166 76t165 -76t68 -183q0 -106 -68 -181.5t-165 -75.5t-166 75.5t-69 181.5z" />
<glyph unicode="&#xf6;" horiz-adv-x="527" d="M167 639q0 13 10.5 23t24.5 10t24.5 -10t10.5 -23t-10.5 -23t-24.5 -10t-24.5 10t-10.5 23zM297 639q0 13 10.5 23t24.5 10t24.5 -10t10.5 -23t-10.5 -23t-24.5 -10t-24.5 10t-10.5 23zM74 247q0 -83 52.5 -142.5t127.5 -59.5q73 0 125.5 59.5t52.5 142.5q0 85 -52 144.5 t-126 59.5q-75 0 -127.5 -59.5t-52.5 -144.5zM19 247q0 107 69 183t166 76t165 -76t68 -183q0 -106 -68 -181.5t-165 -75.5t-166 75.5t-69 181.5z" />
<glyph unicode="&#xf7;" horiz-adv-x="425" d="M169 376v76h76v-76h-76zM169 136v76h76v-76h-76zM383 273h-349v54h349v-54z" />
<glyph unicode="&#xf8;" horiz-adv-x="513" d="M19 247q0 107 69 183t166 76q98 0 172 -85l-42 -36q-56 66 -130 66q-75 0 -127.5 -59.5t-52.5 -144.5q0 -57 24 -104l-41 -36q-38 70 -38 140zM432 247q0 62 -35 119l43 36q47 -75 47 -155q0 -106 -68 -181.5t-165 -75.5q-110 0 -183 97l40 36q59 -78 143 -78 q73 0 125.5 59.5t52.5 142.5z" />
<glyph unicode="&#xf9;" horiz-adv-x="450" d="M343 0v53q-54 -62 -128 -62q-69 0 -118 53.5t-51 130.5q-1 2 -3 4v319h54v-316l1 -5q2 -53 38.5 -91.5t85.5 -38.5q44 0 78 34.5t43 81.5v337h54v-446q0 -16 5 -32.5t10 -21.5h-69zM225 538l-123 98h87l73 -98h-37z" />
<glyph unicode="&#xfa;" horiz-adv-x="450" d="M344 636l-122 -98h-38l74 98h86zM343 0v53q-54 -62 -128 -62q-69 0 -118 53.5t-51 130.5q-1 2 -3 4v319h54v-316l1 -5q2 -53 38.5 -91.5t85.5 -38.5q44 0 78 34.5t43 81.5v337h54v-446q0 -16 5 -32.5t10 -21.5h-69z" />
<glyph unicode="&#xfb;" horiz-adv-x="450" d="M108 559l114 113l115 -114l-35 -34l-80 81l-81 -81zM343 0v53q-54 -62 -128 -62q-69 0 -118 53.5t-51 130.5q-1 2 -3 4v319h54v-316l1 -5q2 -53 38.5 -91.5t85.5 -38.5q44 0 78 34.5t43 81.5v337h54v-446q0 -16 5 -32.5t10 -21.5h-69z" />
<glyph unicode="&#xfc;" horiz-adv-x="450" d="M123 639q0 13 10.5 23t24.5 10t24.5 -10t10.5 -23t-10.5 -23t-24.5 -10t-24.5 10t-10.5 23zM253 639q0 13 10.5 23t24.5 10t24.5 -10t10.5 -23t-10.5 -23t-24.5 -10t-24.5 10t-10.5 23zM343 0v53q-54 -62 -128 -62q-69 0 -118 53.5t-51 130.5q-1 2 -3 4v319h54v-316l1 -5 q2 -53 38.5 -91.5t85.5 -38.5q44 0 78 34.5t43 81.5v337h54v-446q0 -16 5 -32.5t10 -21.5h-69z" />
<glyph unicode="&#xfd;" horiz-adv-x="535" d="M407 636l-122 -98h-38l74 98h86zM48 -189l8 56q8 -8 37 -8q34 0 64.5 22.5t45.5 63.5l38 94l-190 467h58l159 -398l158 398h58l-190 -468l1 1l-21 -53q-15 -39 -22 -61q-20 -55 -66 -87.5t-95 -32.5q-22 0 -43 6z" />
<glyph unicode="&#xfe;" horiz-adv-x="517" d="M113 687v-212q59 33 137 33q101 -2 171 -77t70 -180q0 -108 -70.5 -184t-170.5 -76q-62 0 -138 34v-216h-54v878h55zM110 405l3 -307q-1 -13 17 -25t50 -19t70 -8q76 2 131 61.5t55 142.5q0 81 -55.5 141.5t-130.5 60.5q-52 0 -92 -14t-48 -33z" />
<glyph unicode="&#xff;" horiz-adv-x="535" d="M176 639q0 13 10.5 23t24.5 10t24.5 -10t10.5 -23t-10.5 -23t-24.5 -10t-24.5 10t-10.5 23zM306 639q0 13 10.5 23t24.5 10t24.5 -10t10.5 -23t-10.5 -23t-24.5 -10t-24.5 10t-10.5 23zM48 -189l8 56q8 -8 37 -8q34 0 64.5 22.5t45.5 63.5l38 94l-190 467h58l159 -398 l158 398h58l-190 -468l1 1l-21 -53q-15 -39 -22 -61q-20 -55 -66 -87.5t-95 -32.5q-22 0 -43 6z" />
<glyph unicode="&#x152;" horiz-adv-x="1056" d="M561 88q-89 -97 -219 -97q-128 0 -221 102.5t-93 251.5q0 145 92 247.5t222 102.5q173 0 261 -150v146h405v-53h-350v-243h299v-55h-299v-285h350v-55h-405v143q-22 -34 -42 -55zM521 561q-70 78 -179 78q-107 0 -182.5 -85.5t-75.5 -208.5q0 -125 74.5 -211.5 t183.5 -86.5q103 0 176.5 79t84.5 193v51q-9 115 -82 191z" />
<glyph unicode="&#x153;" horiz-adv-x="880" d="M653 45q53 0 129 38l22 -48q-55 -30 -125 -43q-8 -1 -26 -1q-60 0 -110.5 38t-77.5 101q-30 -62 -86 -101t-122 -39q-97 0 -166 75.5t-69 181.5q0 107 69 183t166 76q65 0 121 -38.5t86 -100.5q26 62 74 101t104 39q84 0 141.5 -73t57.5 -180v-30h-344q5 -77 49.5 -127.5 t106.5 -51.5zM76 247q0 -83 53 -142.5t128 -59.5q73 0 125 59.5t52 142.5q0 85 -52 144.5t-125 59.5q-75 0 -128 -59.5t-53 -144.5zM498 277h289q-7 75 -48 124.5t-97 49.5q-53 0 -93.5 -50t-50.5 -124z" />
<glyph unicode="&#x178;" horiz-adv-x="681" d="M238 742q0 13 10.5 23t24.5 10t24.5 -10t10.5 -23t-10.5 -23t-24.5 -10t-24.5 10t-10.5 23zM368 742q0 13 10.5 23t24.5 10t24.5 -10t10.5 -23t-10.5 -23t-24.5 -10t-24.5 10t-10.5 23zM577 691h72l-284 -380v-311h-56v311l-284 380h73l238 -326z" />
<glyph unicode="&#x2c6;" horiz-adv-x="268" d="M23 559l114 113l115 -114l-35 -34l-80 81l-81 -81z" />
<glyph unicode="&#x2dc;" horiz-adv-x="334" d="M149 582h1q-21 8 -48 8q-31 0 -59 -17l-16 43q36 19 75 19q24 0 66 -14q34 -14 57 -14q32 0 60 18l15 -43q-35 -20 -75 -20q-45 0 -76 20z" />
<glyph unicode="&#x2000;" horiz-adv-x="451" />
<glyph unicode="&#x2001;" horiz-adv-x="903" />
<glyph unicode="&#x2002;" horiz-adv-x="451" />
<glyph unicode="&#x2003;" horiz-adv-x="903" />
<glyph unicode="&#x2004;" horiz-adv-x="301" />
<glyph unicode="&#x2005;" horiz-adv-x="225" />
<glyph unicode="&#x2006;" horiz-adv-x="150" />
<glyph unicode="&#x2007;" horiz-adv-x="150" />
<glyph unicode="&#x2008;" horiz-adv-x="112" />
<glyph unicode="&#x2009;" horiz-adv-x="180" />
<glyph unicode="&#x200a;" horiz-adv-x="50" />
<glyph unicode="&#x2010;" horiz-adv-x="421" d="M386 266h-349v54h349v-54z" />
<glyph unicode="&#x2011;" horiz-adv-x="421" d="M386 266h-349v54h349v-54z" />
<glyph unicode="&#x2013;" horiz-adv-x="416" d="M386 266h-349v54h349v-54z" />
<glyph unicode="&#x2014;" horiz-adv-x="532" d="M498 266h-460v54h460v-54z" />
<glyph unicode="&#x2018;" horiz-adv-x="150" d="M85 602l27 -59l-54 -25l-30 66l48 103l18 -9z" />
<glyph unicode="&#x2019;" horiz-adv-x="159" d="M59 614l-7 67l60 5l8 -70l-79 -84l-14 14z" />
<glyph unicode="&#x201a;" horiz-adv-x="172" d="M70 9v67h60v-72l-88 -75l-11 17z" />
<glyph unicode="&#x201c;" horiz-adv-x="218" d="M168 681l-8 -67l32 -68l-13 -14l-79 84l8 70zM97 681l-8 -67l32 -68l-13 -14l-79 84l8 70z" />
<glyph unicode="&#x201d;" horiz-adv-x="237" d="M60 614l-8 67l60 5l8 -70l-79 -84l-13 14zM131 614l-8 67l60 5l8 -70l-79 -84l-13 14z" />
<glyph unicode="&#x201e;" horiz-adv-x="231" d="M60 11l-2 67h61v-71l-86 -76l-11 16zM132 10v67h59v-72l-87 -76l-10 17z" />
<glyph unicode="&#x2022;" horiz-adv-x="209" d="M38 380q0 27 20.5 47.5t47.5 20.5q26 0 47 -20.5t21 -47.5q0 -25 -21 -45t-47 -20q-27 0 -47.5 20t-20.5 45z" />
<glyph unicode="&#x2026;" horiz-adv-x="435" d="M320 0v76h76v-76h-76zM179 0v76h76v-76h-76zM38 0v76h76v-76h-76z" />
<glyph unicode="&#x202f;" horiz-adv-x="180" />
<glyph unicode="&#x2039;" horiz-adv-x="352" d="M39 248l247 249l39 -38l-209 -211l209 -206l-38 -40z" />
<glyph unicode="&#x203a;" horiz-adv-x="343" d="M79 497l246 -249l-247 -246l-39 40l210 206l-210 211z" />
<glyph unicode="&#x205f;" horiz-adv-x="225" />
<glyph unicode="&#x20ac;" horiz-adv-x="745" d="M668 150l39 -44q-108 -115 -247 -115q-115 0 -202.5 74t-114.5 189h-105v55h97q0 1 -0.5 5t-0.5 6q-1 6 -1 19q0 8 3 47v2h-98v55h109q32 110 118 178.5t195 68.5q139 0 247 -115l-39 -40q-91 99 -208 99q-86 0 -156 -53t-99 -138h330v-55h-343q-4 -20 -4 -49 q0 -11 1 -17q0 -4 0.5 -7t0.5 -6h345v-55h-333q26 -89 98.5 -148t159.5 -59q118 0 208 103z" />
<glyph unicode="&#x2122;" horiz-adv-x="417" d="M129 636v-169h-45v169h-58v42h160v-42h-57zM327 678h35v-211h-43v116q-13 -20 -31 -52h-24l-30 52v-116h-44v211h36l51 -85q15 28 30 53q2 4 9.5 15.5t10.5 16.5z" />
<glyph horiz-adv-x="257" />
</font>
</defs>
</svg>
