<?xml version="1.0" standalone="no"?>
<!DOCTYPE svg PUBLIC "-//W3C//DTD SVG 1.1//EN" "http://www.w3.org/Graphics/SVG/1.1/DTD/svg11.dtd" >
<svg xmlns="http://www.w3.org/2000/svg">
<metadata>
This is a custom SVG webfont generated by Font Squirrel.
Designer    : La Tipomatika (Digital Type Foundry)
Foundry     : La Tipomatika
</metadata>
<defs>
<font id="webfontGhlXVHcZ" horiz-adv-x="490" >
<font-face units-per-em="1000" ascent="800" descent="-200" />
<missing-glyph horiz-adv-x="257" />
<glyph unicode=" "  horiz-adv-x="257" />
<glyph unicode="&#x09;" horiz-adv-x="257" />
<glyph unicode="&#xa0;" horiz-adv-x="257" />
<glyph unicode="!" horiz-adv-x="194" d="M48 686v-590h48v590h-48zM101 21v1q-2 29 -29 29q-13 0 -21.5 -8.5t-8.5 -21.5q0 -12 8.5 -21t21.5 -9q12 0 20.5 9t8.5 21zM38 86v610h68v-50h50v-610h-48q3 -8 3 -14v-1q0 -4 -2 -12q8 2 13 2q37 0 39 -39v-1q0 -16 -11.5 -28t-27.5 -12q-17 0 -28.5 12t-11.5 28 q0 8 1 12q-6 -2 -11 -2q-17 0 -28.5 12t-11.5 28q0 17 11.5 28.5t28.5 11.5q8 0 16 -3v28h-50z" />
<glyph unicode="&#x22;" horiz-adv-x="264" d="M110 686l10 -143l15 -15l42 89l-8 69h-59zM37 686l10 -143l15 -15l42 89l-8 69h-59zM87 489l-4 60l-18 -38l-28 28l-11 157h152l5 -50h45l9 -80l-49 -105l-28 28l-4 60l-18 -38l-23 -50z" />
<glyph unicode="#" horiz-adv-x="802" d="M247 271l47 126h218l-46 -126h-219zM87 271l-46 -56h127l-79 -215h59l78 215h220l-79 -215h60l77 215h160l47 56h-186l48 126h92l45 56h-118l68 187h-58q-62 -164 -70 -187h-218l68 187h-58l-71 -187h-168l-45 -56h194l-47 -126h-100zM20 205l62 76h98q3 10 10.5 29.5 t10.5 26.5h-132l40 50h-90l61 76h166l40 105q3 7 15 37.5t17 44.5h78l-19 -50h69l-51 -137h130l49 130q6 15 21 57h79l-19 -50h69l-51 -137h58l-40 -50h90l-61 -76h-90q-2 -6 -7 -18t-7 -18q-1 -4 -4 -10.5t-4 -9.5h124l-42 -50h92l-63 -76h-158l-37 -101l-40 -114h-81 l18 50h-68l60 165h-131q-31 -92 -48 -137v1l-14 -38q-11 -28 -15 -41h-80l18 50h-68l60 165h-65l41 50h-91zM351 337l-22 -56h131q3 8 8.5 24.5t8.5 24.5q2 4 3 7h-129z" />
<glyph unicode="$" horiz-adv-x="517" d="M261 731h-54v-45q-75 -14 -123.5 -64.5t-48.5 -119.5q0 -68 47.5 -119.5t124.5 -67.5v-269q-38 2 -73 25t-56 54l-44 -35q28 -40 72.5 -66.5t95.5 -31.5h5v-56h54v58q75 11 125 61.5t50 119.5q0 67 -49.5 118t-125.5 68v276q78 -5 128 -65l44 35q-71 79 -172 82v42z M261 49v259q52 -11 85 -49.5t33 -86.5q0 -47 -33.5 -81t-84.5 -42zM207 632v-260q-51 13 -83 51t-32 83q0 43 33 78.5t82 47.5zM197 741h74v-42q22 -1 47 -8h3v-1q68 -20 126 -84l-3 -2q30 -22 53 -48l-59 -48q-51 61 -117 68v-224q57 -25 92 -74q83 -60 83 -153 q0 -68 -50.5 -121.5t-124.5 -68.5v-59h-74v50h-50v18q-72 25 -120 88q-36 28 -57 60l60 47q21 -31 48 -52l2 2q2 -4 4 -6q29 -22 63 -26v216q-58 26 -90 72q-82 58 -82 157q0 70 48.5 122.5t123.5 69.5v47zM321 245v-163q48 33 48 90q0 31 -17 59q-9 6 -31 14zM197 386v156 q-45 -35 -45 -86q0 -32 15 -57q12 -8 30 -13z" />
<glyph unicode="&#x26;" horiz-adv-x="625" d="M222 351l10 7l169 -211q-3 -3 -6 -9v1q-27 -40 -70.5 -65.5t-85.5 -24.5q-60 0 -101 45.5t-41 100.5q0 84 125 156zM365 553q0 -38 -20.5 -65.5t-75.5 -59.5h1l-9 -5l-46 53q-34 39 -36 80q0 38 27.5 64.5t65.5 26.5q41 0 67 -27t26 -67zM476 141l1 -4l-1 3v1zM239 0 q109 -1 189 89q8 8 11 12l12 -15q1 -1 7 -9q41 -50 83 -76v65q-25 20 -35.5 32.5t-29.5 42.5q0 2 1 7.5t1 8.5q30 45 61 138l-62 13q-9 -41 -32 -87q-1 -3 -4 -9.5t-5 -9.5l-150 187l15 8q125 69 125 157q0 57 -42 96.5t-107 39.5q-69 0 -113.5 -42.5t-44.5 -99.5 q0 -32 14.5 -63t61.5 -80q9 -12 11 -14q-3 -2 -8 -4t-9 -4q-157 -71 -157 -193q0 -78 59.5 -134t147.5 -56zM289 -60q-58 0 -105.5 24.5t-76.5 65.5q-40 28 -62.5 70t-22.5 90q0 58 43 111t120 91q1 0 5 2q-1 1 -1 2l1 -1q0 1 -1 1l-1 2q-49 51 -64 84t-15 66q0 60 47 106 t121 46q95 0 139 -74q70 -43 70 -122q0 -94 -131 -166l-3 -2l76 -96q6 -8 10 -12q16 34 31 92l83 -17q-5 -13 -13 -37l63 -13q-37 -107 -64 -149q0 -4 -1 -6l-1 -2v-3q2 -3 6.5 -10.5t6.5 -10.5q1 -1 2 -1v-1q15 -21 50 -49v-87q-60 38 -99 84l-17 14q-86 -93 -196 -92z M294 265q-3 4 -10 12.5t-10 12.5q-117 -68 -117 -145q0 -36 20 -70q29 -16 62 -16q39 -1 80 23.5t67 60.5q0 1 2 3zM355 553q0 14 -5 29q-15 5 -28 5q-34 0 -58.5 -23.5t-24.5 -57.5q2 -35 28 -67q50 29 69 54.5t19 59.5zM391 450q-29 -31 -83 -60l4 -4h1q1 1 2 1h-1 q58 33 77 63zM230 344l-3 -2q-47 -29 -69 -48q37 28 74 47q0 1 -1 1zM252 634q-32 -8 -49 -33q21 21 49 33z" />
<glyph unicode="'" horiz-adv-x="200" d="M54 681l8 -67l-33 -68l14 -14l79 84l-8 70zM102 566l-2 13l-57 -61l-26 26l35 72l-9 74l80 6l6 -54l44 4l9 -83l-89 -95l-26 26z" />
<glyph unicode="(" horiz-adv-x="268" d="M172 635l-24 61q-53 -56 -85.5 -166.5t-32.5 -241.5q0 -136 34 -248.5t89 -166.5l32 53q-42 41 -68.5 139.5t-26.5 222.5q0 114 22 207.5t60 139.5zM201 664l32 -81q-38 -47 -60.5 -140t-22.5 -205q0 -123 27 -221t71 -140l-43 -70q-22 22 -45 58l-5 -8q-60 60 -97.5 176 t-37.5 255q0 133 36 248.5t95 177.5l29 -75q7 9 21 25z" />
<glyph unicode=")" horiz-adv-x="268" d="M69 696l-23 -61q38 -46 60 -139.5t22 -207.5q0 -124 -26.5 -222.5t-69.5 -139.5l33 -53q55 55 89 167t34 248q0 130 -33 240.5t-86 167.5zM35 633l30 81q24 -27 45 -63l5 13q59 -64 96 -179.5t37 -246.5q0 -138 -37.5 -254.5t-96.5 -175.5l-39 62q-8 -8 -11 -12l-44 70 q44 42 71 139.5t27 220.5q0 112 -22.5 205t-60.5 140z" />
<glyph unicode="*" horiz-adv-x="462" d="M232 377v110l78 -77l38 37l-78 78h110v55h-109l77 77l-39 38l-77 -77v109h-54v-109l-77 77l-38 -39l77 -77h-108v-54h108l-78 -78l39 -37l77 75v-108h54zM292 414v-97h-74v50h-46l-21 -21l-53 51l1 1l-51 49l24 24v44h-50v74h94l-67 67l52 53l67 -67v95h74v-50h45l22 22 l53 -52l-1 -1l51 -49l-22 -22v-45h50v-75h-96l15 -16q4 -4 7 -6l46 -46l-52 -51z" />
<glyph unicode="+" horiz-adv-x="439" d="M221 118v148h148v54h-148v147h-54v-147h-147v-54h147v-148h54zM281 206v-148h-74v50h-50v98h-97v50h-50v74h147v147h74v-50h50v-97h98v-50h50v-74h-148z" />
<glyph unicode="," horiz-adv-x="206" d="M68 76v-67l-39 -63l11 -17l88 75v72h-60zM108 -38v11l-70 -60l-21 33l41 66v74h80v-50h50v-87l-100 -86l-21 33z" />
<glyph unicode="-" d="M45 266h349v54h-349v-54zM454 206h-369v50h-50v74h369v-50h50v-74z" />
<glyph unicode="." horiz-adv-x="203" d="M38 76v-76h76v76h-76zM28 -10v96h96v-50h50v-96h-96v50h-50z" />
<glyph unicode="/" horiz-adv-x="403" d="M81 0l250 686h-58l-251 -686h59zM395 646l-258 -706h-79l18 50h-68l259 706h78l-19 -50h69z" />
<glyph unicode="0" horiz-adv-x="629" d="M36 341q0 -144 75 -247t179 -103q105 0 178.5 103t73.5 247q0 145 -73.5 247t-178.5 102t-179.5 -102.5t-74.5 -246.5zM91 341q0 122 58.5 208t140.5 86q83 0 140.5 -85.5t57.5 -208.5t-57.5 -209t-140.5 -86q-82 0 -140.5 86t-58.5 209zM26 341q0 149 78 254t186 105 q103 0 178 -96q61 -47 97.5 -130t36.5 -183q0 -148 -76.5 -254t-185.5 -106q-102 0 -178 96q-62 47 -99 131t-37 183zM151 291q0 -125 60 -209q37 -26 79 -26q79 0 133.5 83t54.5 202q0 124 -60 208q-39 26 -78 26q-78 0 -133.5 -83t-55.5 -201z" />
<glyph unicode="1" horiz-adv-x="300" d="M37 578l38 -37l87 72v-613h55v686h-50zM125 477l-53 52l-50 50l141 117h64v-50h50v-706h-75v50h-50v510l-16 -13q-2 -1 -11 -10z" />
<glyph unicode="2" horiz-adv-x="510" d="M117 54l244 276q59 61 59 145q0 89 -64 152t-155 63q-81 0 -157 -66l39 -39q53 50 118 50q69 0 117 -46.5t48 -113.5q0 -60 -41 -106l-285 -319v-50h380v54h-303zM418 273l-184 -209h196v-50h50v-74h-400v50h-50v64l288 322q38 43 38 99q0 41 -22 77q-39 23 -83 23 q-62 0 -118 -54l-104 104q87 75 172 75q57 0 106 -25.5t80 -69.5q43 -31 68 -78.5t25 -101.5q0 -85 -62 -152z" />
<glyph unicode="3" horiz-adv-x="512" d="M78 103l-38 -38q68 -76 168 -76q88 0 150 57t62 139q0 51 -27.5 94.5t-74.5 69.5q48 24 77.5 65.5t29.5 91.5q0 76 -63 130t-151 54q-105 0 -171 -71l38 -40q51 57 133 57q64 0 110 -38t46 -92q0 -50 -42.5 -87.5t-103.5 -41.5h-97v-54h96q58 -11 101.5 -50.5t43.5 -87.5 q0 -58 -46 -100t-111 -42q-75 0 -130 60zM76 15l3 3q-30 20 -53 47l52 52q59 -64 130 -64q61 0 104 38.5t43 93.5q0 24 -14 46q-33 22 -73 32h-104v50h-50v74h106q58 3 97.5 37.5t39.5 81.5q0 22 -12 48q-38 22 -84 22q-77 0 -133 -62l-49 52l-1 -2l-51 55q76 81 184 81 q59 0 110 -25.5t81 -68.5q83 -60 83 -150q0 -48 -26 -89.5t-69 -67.5q4 -4 6 -7q84 -61 84 -157q0 -86 -65 -146t-157 -60q-106 0 -182 86z" />
<glyph unicode="4" d="M21 247h247v-247h55v247h96v55h-96v149h-55v-149h-180l208 360l-47 26l-226 -391zM429 312v-50h50v-75h-96v-247h-75v50h-50v197h-197l1 50h-51l2 63l232 402l65 -36l-10 -17l60 -33l-90 -155h63v-50h50v-99h46zM184 312h74v128z" />
<glyph unicode="5" horiz-adv-x="551" d="M39 342h52q20 45 60 72.5t88 27.5q70 0 119 -56t49 -137t-49 -138t-119 -57q-43 0 -79.5 23.5t-61.5 64.5l-39 -39q31 -47 79 -75t101 -28q93 0 158 73t65 176q0 102 -65 174t-158 72q-87 0 -142 -54q4 38 10 101.5t9 88.5h319v55h-372zM147 282h-69l3 50h-53l26 364h391 v-50h50v-75h-320q-3 -28 -7 -70q0 -2 -0.5 -4t-0.5 -3q35 11 72 11q111 0 180 -93q47 -35 75 -91t28 -122q0 -108 -68 -183.5t-165 -75.5q-51 0 -98.5 26t-81.5 70q-38 29 -63 68l54 54q19 -32 45 -55l5 5q4 -7 12 -19q36 -25 77 -25q65 0 111.5 54.5t46.5 130.5 q0 61 -32 111q-36 22 -76 22q-45 0 -83.5 -27.5t-58.5 -72.5z" />
<glyph unicode="6" horiz-adv-x="546" d="M405 206v-9q0 -62 -45.5 -107t-109.5 -45q-63 0 -109 44.5t-46 106.5q0 65 44.5 112.5t108.5 47.5t109.5 -43t47.5 -107zM458 199v9q-1 87 -64.5 144.5t-150.5 57.5q-99 -5 -156 -79v8q0 88 13 157q10 60 55 100t103 40q37 0 71.5 -19t58.5 -52l53 32q-72 94 -184 94 q-77 -2 -135 -53.5t-72 -126.5q-13 -64 -13 -160v-21q0 -92 4 -135v1q4 -87 63.5 -145.5t143.5 -58.5q88 0 149 60t61 147zM518 158v-9q0 -92 -63.5 -154.5t-156.5 -62.5q-109 0 -175 89q-87 63 -92 174v-1q-4 43 -4 136v21q0 98 13 162q15 78 75.5 132t141.5 56 q114 0 194 -101q31 -25 55 -56l-71 -42q-53 74 -127 74q-54 0 -96.5 -37.5t-51.5 -94.5q-3 -15 -7 -47q40 20 90 23q56 0 105.5 -25t80.5 -68q88 -63 89 -169zM395 206q-2 38 -20 69q-37 21 -77 21q-60 0 -101.5 -44.5t-41.5 -105.5q0 -38 19 -70q33 -21 76 -21 q60 0 102.5 41.5t42.5 100.5v9z" />
<glyph unicode="7" horiz-adv-x="500" d="M327 631l-294 -631h63l320 686h-357v-55h268zM17 -10l270 581h-188v50h-50v75h383l-24 -50h74l-330 -706h-85l23 50h-73z" />
<glyph unicode="8" horiz-adv-x="528" d="M92 193q0 61 43.5 104.5t102.5 43.5q62 0 105.5 -43.5t43.5 -104.5q0 -60 -43.5 -103.5t-105.5 -43.5q-59 0 -102.5 44t-43.5 103zM113 515q0 50 37 85t88 35q53 0 89.5 -35t36.5 -85t-37 -85t-89 -35q-51 0 -88 35.5t-37 84.5zM37 193q0 -83 59 -142.5t142 -59.5 q85 0 144 59t59 143q0 56 -27.5 103t-74.5 74q81 47 81 145q0 72 -53 123.5t-129 51.5q-74 0 -126.5 -51.5t-52.5 -123.5q0 -96 81 -145q-45 -27 -74 -75t-29 -102zM27 193q0 53 25.5 100t68.5 77q-72 51 -72 145q0 76 56 130.5t133 54.5q50 0 92 -22.5t68 -61.5 q82 -56 82 -151q0 -93 -70 -144q1 -2 4 -5q87 -63 87 -173q0 -88 -62 -150t-151 -62q-51 0 -96.5 24t-74.5 65q-41 29 -65.5 75t-24.5 98zM152 143q0 -36 19 -69q33 -18 67 -18q57 0 98 40.5t41 96.5q0 36 -19 69q-32 19 -70 19q-56 0 -96 -40.5t-40 -97.5zM173 465 q0 -25 11 -47q23 -13 54 -13q48 0 82 32t34 78q0 25 -11 47q-28 13 -55 13q-47 0 -81 -32t-34 -78z" />
<glyph unicode="9" horiz-adv-x="548" d="M89 477q0 64 46 111t112 47q61 0 108 -45t47 -106q0 -65 -46 -110t-112 -45q-61 0 -106 43t-49 105zM37 482v-7q1 -83 62.5 -141.5t144.5 -58.5q48 0 91.5 20.5t73.5 54.5v-12q0 -79 -11 -153q-13 -59 -57.5 -97.5t-105.5 -38.5q-78 0 -129 73l-50 -41q32 -40 78 -64 t94 -24q81 0 143 50t77 129q12 63 12 150v26q0 95 -3 137q-7 85 -67.5 145.5t-143.5 60.5q-87 0 -148 -61.5t-61 -147.5zM27 475v7q0 90 64 154.5t155 64.5q108 0 175 -92q41 -29 66.5 -75t29.5 -98q3 -42 3 -138v-26q0 -89 -12 -152q-16 -83 -80.5 -135t-149.5 -52 q-51 0 -100.5 27t-85.5 72q-27 21 -50 50l66 55q20 -30 49 -51l1 1q0 -1 1 -2t1 -2q36 -24 75 -24q57 0 99 36.5t54 91.5v-1q6 50 6 52q-46 -23 -100 -23t-101.5 24.5t-77.5 67.5q-40 29 -63.5 73t-24.5 95zM392 484q0 37 -20 69q-35 22 -75 22q-61 0 -104.5 -44t-43.5 -103 q1 -35 21 -68q36 -21 74 -21q62 0 105 42t43 103z" />
<glyph unicode=":" horiz-adv-x="211" d="M42 76v-76h76v76h-76zM32 -10v96h96v-50h50v-96h-96v50h-50zM42 500v-76h76v76h-76zM32 414v96h96v-50h50v-96h-96v50h-50z" />
<glyph unicode=";" horiz-adv-x="223" d="M72 76v-67l-39 -63l11 -17l89 75v72h-61zM67 500v-76h75v76h-75zM112 -38v11l-70 -60l-21 33l41 66v74h81v-50h50v-87l-101 -86l-21 33zM57 414v96h95v-50h50v-96h-95v50h-50z" />
<glyph unicode="&#x3c;" horiz-adv-x="395" d="M275 497l-246 -249l247 -246l39 40l-209 206l209 211zM15 248l260 263l54 -52l-1 -1l51 -49l-209 -211l5 -5q3 -3 4 -5q12 -12 38 -36l112 -110l-1 -1l51 -49l-53 -54l-50 50l-211 210z" />
<glyph unicode="=" horiz-adv-x="480" d="M45 251v-56h339v56h-339zM45 440v-57h339v57h-339zM35 373v77h359v-50h50v-77h-359v50h-50zM35 185v76h359v-50h50v-76h-359v50h-50z" />
<glyph unicode="&#x3e;" horiz-adv-x="395" d="M315 248l-247 249l-39 -38l209 -211l-209 -206l39 -40zM68 511l50 -50l261 -263l-261 -260l-50 51v-1l-53 54l208 206l-40 40q-18 17 -57 58l-111 113z" />
<glyph unicode="?" horiz-adv-x="439" d="M192 -87q0 -14 10 -24.5t23 -10.5q15 0 23.5 10t8.5 25q0 33 -32 33q-13 0 -23 -9.5t-10 -23.5zM175 0h58l-92 312h43q75 0 128 55.5t53 131.5q0 79 -54 135t-130 56q-47 0 -88 -24.5t-67 -65.5l39 -39q44 75 116 75q54 0 92.5 -40t38.5 -97q0 -55 -37 -93t-91 -40h-99 v-49zM182 -87q0 33 31 42l-10 35h-36l-92 324v62h109q50 2 84 37t34 86q0 33 -16 63q-26 14 -55 14q-32 0 -62 -22t-52 -59l-103 103q29 47 73.5 74.5t93.5 27.5q100 0 158 -84q40 -27 63 -71.5t23 -95.5q0 -80 -56 -138.5t-135 -58.5h-30q3 -11 20 -64l73 -248h-38 q8 -11 8 -27q0 -5 -1 -8q3 1 9 1q19 0 30.5 -11.5t11.5 -31.5q0 -19 -11.5 -32t-30.5 -13q-17 0 -30 13.5t-13 31.5v6q-2 -1 -7 -1q-17 0 -30 13.5t-13 31.5z" />
<glyph unicode="@" horiz-adv-x="798" d="M413 347v-79q0 -34 -24 -57.5t-57 -23.5q-34 0 -58 23.5t-24 57.5t25 56.5t61 22.5h77zM493 194q-26 0 -31.5 12.5t-2.5 36.5q1 6 1 23l2 146h-2q-9 138 -91 141q-48 0 -81 -11l-12 -1l14 -57l13 1q27 10 65 10q37 0 39 -95h-71q-56 0 -95 -38t-39 -94t38 -95t92 -39 q45 0 81 28q18 -22 74 -25q85 11 142.5 94.5t57.5 178.5q0 128 -88.5 204t-213.5 76q-155 0 -251.5 -104t-96.5 -262q0 -155 97.5 -239t258.5 -84q109 0 190 45t117 111l6 15h-75q-32 -47 -94.5 -77t-144.5 -30q-138 0 -215.5 70t-77.5 195q0 127 81 211.5t202 84.5 q106 0 174 -63t68 -152q0 -26 -7.5 -64.5t-17.5 -59.5q-18 -38 -51 -65.5t-55 -27.5zM385 700q77 0 144.5 -30.5t110.5 -86.5q107 -82 107 -223q0 -95 -56 -178h30l-14 -33q-1 -2 -10 -17h74l-14 -33q-37 -67 -119.5 -112.5t-194.5 -45.5q-204 0 -302 125q-114 89 -114 258 q0 162 99.5 269t258.5 107zM382 561q44 -7 67 -54q60 -23 73 -144q-2 -77 -2 -147v-3q45 26 70 78q9 20 16.5 57.5t7.5 62.5q0 61 -36 111q-62 44 -146 44q-23 0 -50 -5zM282 474l-10 41q-53 -39 -83 -100.5t-30 -134.5q0 -92 44 -154q65 -44 156 -50q-64 11 -97 66 q-32 19 -51 52.5t-19 73.5q0 60 42 101t102 41h61q0 10 -2 24q-21 -2 -41 -9l-22 -1l-14 56q-2 -1 -7 -2.5t-7 -2.5zM403 268v19h-17q-32 0 -54 -19.5t-22 -49.5q0 -7 2 -19q12 -2 20 -2q29 0 50 21t21 50zM397 75q44 0 85 11q-12 5 -20 13q-29 -19 -65 -24zM280 315 q-3 -2 -7 -8q4 6 7 8z" />
<glyph unicode="A" horiz-adv-x="661" d="M283 691l-254 -691h57l105 281h229l105 -281h57l-254 691h-45zM400 336h-189l94 254zM15 -10l262 711h57l18 -50h32l262 -711h-78l-19 50h-31l-86 231h-184l-68 -182l-38 -99h-77l18 50h-68zM347 450q-6 14 -8 21q-8 -20 -15 -41v-1l-31 -83h94l-40 105v-1z" />
<glyph unicode="B" horiz-adv-x="556" d="M264 55h-168v285h168q61 -4 103 -45t42 -96q0 -57 -42 -99t-103 -45zM96 638h168q55 -3 93 -38t38 -82q0 -51 -37.5 -86t-93.5 -37h-168v243zM247 0l18 2h-1q84 1 142 59t58 138q0 52 -28 97.5t-75 70.5q40 25 64.5 64.5t24.5 86.5q0 69 -54.5 120.5t-131.5 52.5h-223 v-691h206zM316 -58l-19 -2h-216v50h-50v711h233q51 -1 95 -25t70 -62q37 -26 59 -64.5t22 -81.5q0 -92 -78 -149q1 -2 3 -4q41 -29 65 -73t24 -93q0 -84 -60.5 -145t-148.5 -62h1zM264 65q56 3 95.5 42t39.5 92q0 32 -17 60q-30 18 -69 21h-157v-215h108zM385 518 q0 21 -11 43q-28 14 -61 17h-157v-173h108q51 2 86 33.5t35 79.5z" />
<glyph unicode="C" horiz-adv-x="654" d="M529 557l38 37q-93 101 -220 101q-130 0 -222.5 -104.5t-92.5 -245.5q0 -144 94.5 -249t220.5 -105q122 0 218 101l-38 37q-82 -82 -180 -82q-110 0 -184.5 87.5t-74.5 210.5q0 122 76.5 208.5t182.5 86.5q102 0 182 -83zM631 544l-52 -51q-85 87 -182 87 q-102 0 -175.5 -83.5t-73.5 -201.5q0 -109 62 -192q62 -46 137 -46q94 0 180 86l52 -51l-1 -1l51 -49q-106 -111 -232 -111q-67 0 -129.5 32t-108.5 88q-63 52 -100 129t-37 165q0 145 95.5 252.5t229.5 107.5q131 0 234 -111l-3 -3q23 -17 53 -47z" />
<glyph unicode="D" horiz-adv-x="632" d="M41 691v-691h259q101 4 171 104.5t70 242.5t-71 242.5t-172 101.5h-257zM96 636h202q79 -1 133.5 -85.5t54.5 -203.5q0 -118 -54.5 -203t-131.5 -87q-33 0 -101.5 -1t-102.5 -1v581zM31 -10v711h267q100 -2 172 -94q60 -47 95.5 -129.5t35.5 -180.5q0 -146 -72.5 -249.5 t-178.5 -107.5h-269v50h-50zM348 576h-192v-511q28 0 43 1q17 0 51 0.5t50 0.5q73 2 124.5 84t51.5 196q0 122 -59 206q-32 21 -69 23z" />
<glyph unicode="E" horiz-adv-x="546" d="M399 340v55h-298v243h349v53h-404v-691h404v55h-349v285h298zM459 355v-75h-298v-215h299v-50h50v-75h-424v50h-50v711h424v-50h50v-73h-349v-173h248v-50h50z" />
<glyph unicode="F" horiz-adv-x="517" d="M384 340v55h-298v244h349v52h-404v-691h55v340h298zM444 355v-75h-298v-340h-75v50h-50v711h424v-50h50v-72h-349v-174h248v-50h50z" />
<glyph unicode="G" horiz-adv-x="662" d="M567 85l2 8v254h-242v-53h187v-184q-71 -66 -163 -66q-108 0 -185 87.5t-77 210.5q0 124 77 210.5t185 86.5q103 0 183 -83l38 38q-96 101 -221 101q-130 0 -223 -103.5t-93 -249.5q0 -145 93 -248t223 -103q125 0 216 94zM629 41l-2 -10q-97 -100 -226 -100 q-71 0 -133.5 31.5t-107.5 87.5q-63 50 -99 127t-36 165q0 149 95.5 256t230.5 107q129 0 235 -111l-3 -3q27 -21 53 -47l-52 -52q-85 87 -183 87q-105 0 -178.5 -83.5t-73.5 -203.5q0 -109 62 -190q64 -48 140 -48q85 0 153 60v120h-137v50h-50v73h262v-50h50v-266z" />
<glyph unicode="H" horiz-adv-x="615" d="M103 340h360v-340h54v691h-54v-296h-360v296h-55v-691h55v340zM527 701v-50h50v-711h-74v50h-50v290h-290v-340h-75v50h-50v711h75v-50h50v-246h290v296h74z" />
<glyph unicode="I" horiz-adv-x="201" d="M103 0v691h-55v-691h55zM163 651v-711h-75v50h-50v711h75v-50h50z" />
<glyph unicode="J" horiz-adv-x="337" d="M256 172v519h-56v-521q0 -53 -22.5 -88.5t-54.5 -35.5q-25 0 -53 31l-36 -38q43 -48 89 -48q54 0 93.5 54t39.5 127zM316 651v-529q0 -77 -42.5 -134t-100.5 -57q-52 0 -103 58l4 5q-29 15 -54 45l50 52q32 -35 53 -35q28 0 47.5 32.5t19.5 81.5v531h76v-50h50z" />
<glyph unicode="K" horiz-adv-x="651" d="M94 691h-55v-691h55v250l85 98l298 -348h71l-333 390l258 301h-73l-306 -357v357zM29 701h75v-50h50v-230l241 280h101l-43 -50h93l-268 -312l343 -399h-99l-43 50h-7l-248 289q-20 -27 -30 -37l-40 -47v-255h-75v50h-50v711z" />
<glyph unicode="L" horiz-adv-x="496" d="M84 55v636h-54v-691h385v55h-331zM144 651v-586h281v-50h50v-75h-405v50h-50v711h74v-50h50z" />
<glyph unicode="M" horiz-adv-x="690" d="M538 691l-216 -371l-221 371h-52v-691h55v578l200 -338h34l197 338v-578h56v691h-53zM39 701h68l30 -50h20l175 -294l200 344h69v-50h50v-711h-76v50h-50v417l-131 -227h-46l-30 50h-20l-134 226v-516h-75v50h-50v711z" />
<glyph unicode="N" horiz-adv-x="594" d="M100 691h-51v-691h54v579l340 -579h52v691h-55v-576zM39 701h67l29 -50h21l274 -464v514h75v-50h50v-711h-68l-30 50h-20l-274 466v-516h-74v50h-50v711z" />
<glyph unicode="O" horiz-adv-x="751" d="M569 88q96 101 96 257q0 147 -90 248.5t-224 101.5q-131 0 -223 -102.5t-92 -247.5q0 -149 93.5 -251.5t221.5 -102.5q129 0 218 97zM529 561q83 -85 83 -216q0 -125 -75 -211.5t-186 -86.5q-109 0 -184 86.5t-75 211.5q0 123 75.5 208.5t183.5 85.5t178 -78zM626 31 q-92 -100 -225 -100q-69 0 -132 31.5t-109 87.5q-62 50 -98 127t-36 168q0 150 95 255t230 105q72 0 135 -31t107 -86q62 -50 97 -126.5t35 -166.5q0 -160 -99 -264zM602 345q0 107 -61 186q-62 48 -140 48q-104 0 -176.5 -83t-72.5 -201q0 -111 62 -192q62 -46 137 -46 q107 0 179 83.5t72 204.5z" />
<glyph unicode="P" horiz-adv-x="514" d="M86 638h145q60 0 102.5 -35.5t42.5 -84.5q0 -53 -42 -88.5t-101 -35.5h-147v244zM86 339h147q83 0 140.5 52t57.5 127q0 71 -58 122t-140 51h-201v-691h54v339zM283 279h-137v-339h-74v50h-50v711h211q56 0 103 -24t75 -65q80 -56 80 -144q0 -79 -60.5 -134t-147.5 -55z M281 578h-135v-174h87q55 0 94 33t39 81q0 19 -10 41q-35 19 -75 19z" />
<glyph unicode="Q" horiz-adv-x="697" d="M522 132q93 96 93 236q0 137 -86.5 232t-206.5 95q-119 0 -205 -94.5t-86 -232.5q0 -131 84.5 -225t200.5 -101q8 -45 32.5 -76.5t55.5 -31.5q33 0 68 45l-39 34q-13 -27 -29 -27q-26 0 -37 60q92 17 155 86zM484 571q78 -81 78 -203q0 -100 -56.5 -176.5t-140.5 -96.5 q-7 32 -34 53t-64 20v-49q33 1 44 -28q-97 5 -163 85.5t-66 191.5q0 115 70.5 196.5t169.5 81.5q92 0 162 -75zM579 75q-49 -53 -115 -76l22 -19l-3 -3l53 -47q-43 -56 -82 -56q-45 0 -76 56q-34 14 -55 58q-104 23 -176 111q-58 47 -92 117t-34 152q0 142 89 239.5 t212 97.5q66 0 125 -30.5t102 -83.5q58 -47 92 -118.5t34 -154.5q0 -144 -96 -243zM552 368q0 101 -58 175q-56 43 -122 43q-95 0 -162.5 -78.5t-67.5 -189.5q0 -101 56 -176q29 -21 59 -31v67q39 1 69 -17t43 -47q5 -2 10 -5q74 25 123.5 97t49.5 162zM206 599 q-28 -19 -51 -47q29 31 51 47zM471 -38l-16 -16q8 2 16 16z" />
<glyph unicode="R" horiz-adv-x="558" d="M93 639h144q60 0 103 -36t43 -86q0 -51 -42.5 -86.5t-101.5 -35.5h-146v244zM93 330l292 -330h71l-300 340h83q83 0 141 52t58 125t-58 123.5t-141 50.5h-201v-691h55v330zM381 -10l-228 256v-306h-75v50h-50v711h211q57 0 104.5 -24.5t75.5 -65.5q79 -54 79 -144 q0 -78 -61 -132.5t-148 -54.5h-60l132 -151l168 -189h-98l-45 50h-5zM287 579h-134v-174h86q55 0 94.5 32.5t39.5 79.5q0 22 -11 42q-35 20 -75 20z" />
<glyph unicode="S" horiz-adv-x="528" d="M81 126l-44 -35q31 -46 82 -73t112 -27q87 0 148.5 54t61.5 131q0 71 -56 126t-140 66q-64 5 -107 46.5t-43 96.5q0 54 47.5 92.5t110.5 38.5q88 0 141 -66l45 36q-74 82 -186 82q-90 0 -152.5 -53.5t-62.5 -133.5q0 -73 57.5 -128t143.5 -65q61 -9 103 -49.5t42 -91.5 q0 -53 -45 -90t-106 -37q-100 0 -152 80zM24 93l59 47q18 -30 48 -51l2 1l2 -4q44 -30 98 -30q57 0 99 34t42 83q0 27 -16 54q-33 21 -70 27q-114 15 -176 100q-84 63 -84 153q0 84 65.5 140.5t159.5 56.5q116 0 200 -93l-3 -3q24 -17 53 -47l-61 -49q-56 70 -139 70 q-59 0 -103.5 -35.5t-44.5 -85.5q0 -31 16 -60q34 -20 75 -23q113 -16 170 -97q85 -62 85 -155q0 -82 -64 -138.5t-156 -56.5q-59 0 -111 27t-88 73q-33 24 -58 62z" />
<glyph unicode="T" horiz-adv-x="595" d="M301 638h220v53h-497v-53h222v-638h55v638zM581 578h-220v-638h-75v50h-50v588h-172v50h-50v73h517v-50h50v-73z" />
<glyph unicode="U" horiz-adv-x="652" d="M103 176v515h-58v-515q5 -76 80.5 -130.5t179.5 -54.5q100 0 174.5 54.5t77.5 130.5v515h-55v-515q-7 -52 -64.5 -90.5t-132.5 -38.5q-78 0 -136.5 38.5t-65.5 90.5zM163 651v-524q3 -19 12 -33q55 -37 130 -37q70 0 124.5 36t62.5 84v524h75v-50h50v-525 q-3 -80 -80.5 -137.5t-181.5 -57.5q-76 0 -139.5 29.5t-98.5 78.5q-78 57 -82 136v526h78v-50h50z" />
<glyph unicode="V" horiz-adv-x="672" d="M30 691l254 -691h53l255 691h-58l-223 -603l-224 603h-57zM278 -10l-262 711h77l18 -50h32l183 -492l75 199l127 343h78l-19 -50h69l-263 -711h-65l-19 50h-31z" />
<glyph unicode="W" horiz-adv-x="941" d="M601 0l254 691h-59l-222 -603l-123 329l-101 274h-57l122 -334l-98 -270l-224 604h-58l255 -691h54l100 274l102 -274h55zM919 651l-262 -711h-67l-19 50h-31l-62 165l-25 -71l-52 -144h-67l-19 50h-31l-263 711h78l18 -50h32l183 -493q13 37 25 68v-1l48 131l-60 165v-1 l-66 181h77l18 -50h32l104 -281q6 -18 57 -151q3 -7 23 -62l28 77l38 104l134 363h79l-19 -50h69z" />
<glyph unicode="X" horiz-adv-x="626" d="M58 691l197 -338l-206 -353h62l175 298l177 -298h63l-201 347l201 344h-63l-171 -288l-172 288h-62zM243 353l-203 348h86l30 -50h20l126 -211l66 112l89 149h87l-29 -50h79l-207 -354l97 -169l110 -188h-87l-30 50h-20l-131 221l-91 -156l-68 -115h-86l29 50h-79z" />
<glyph unicode="Y" horiz-adv-x="740" d="M657 691h-72l-241 -326l-238 326h-73l284 -380v-311h56v311zM580 701h97l-38 -50h88l-294 -393v-318h-76v50h-50v318l-82 109l-212 284h98l36 -50h14l189 -260l55 74z" />
<glyph unicode="Z" horiz-adv-x="637" d="M146 55l395 636h-460v-55h362l-397 -636h455v55h-355zM608 651l-363 -586h266v-50h50v-75h-482l31 50h-81l366 586h-274v50h-50v75h487l-31 -50h81z" />
<glyph unicode="[" horiz-adv-x="249" d="M150 53v250q-10 31 -42 36v27q29 3 42 37v230q1 -3 17 -3v56q-27 0 -47.5 -12.5t-24.5 -32.5v-225q0 -15 -10.5 -26t-25.5 -11h-27v-54h27q15 0 25.5 -10.5t10.5 -26.5v-235q0 -22 24 -37.5t48 -15.5v54q-17 0 -17 -1zM177 696v-60q23 10 50 10v-76q-4 0 -11 -1 q-5 -1 -6 0v-216q-14 -41 -42 -46v-10q33 -10 42 -41v-242h17v-74q-30 0 -59 16.5t-33 41.5q-50 19 -50 55v212h-13v46q-5 4 -13 4h-37v74h37q11 0 18.5 8t7.5 19v227q4 23 30.5 38t61.5 15zM118 357v-10q1 -1 3.5 -2t3.5 -1q9 9 10 20q-7 -5 -17 -7z" />
<glyph unicode="\" horiz-adv-x="397" d="M19 686l250 -686h59l-251 686h-58zM263 -10l-258 706h78l18 -50h32l259 -706h-79l-19 50h-31z" />
<glyph unicode="]" horiz-adv-x="246" d="M50 302v-246q-6 -2 -19 -2v-54q27 0 50.5 15.5t23.5 37.5v235q0 16 9 26.5t24 10.5h27v54h-27q-15 0 -24 11t-9 26v219l-2 6q-4 19 -23.5 32t-48.5 13v-56h19v-227q3 -13 14.5 -23.5t26.5 -13.5q-2 -20 -2 -27q-31 -2 -39 -37zM40 64v240q8 38 39 44q0 2 0.5 5.5t0.5 4.5 q-33 12 -40 43v219h-19v76q37 0 62 -15t30 -38l1 -4q43 -14 49 -46l2 -8v-196h10v-46q6 -4 13 -4h37v-74h-37q-10 0 -16.5 -7.5t-6.5 -19.5v-235q0 -26 -30 -44.5t-64 -18.5v61q-25 -11 -50 -11v74h19zM125 310q-9 -7 -10 -17q8 4 14 5q0 2 0.5 5.5t0.5 4.5q-1 0 -2.5 1 t-2.5 1z" />
<glyph unicode="^" horiz-adv-x="605" d="M279 689l-249 -246l38 -40l211 209l206 -209l40 39zM16 443l263 260l50 -50l260 -261l-54 -53l-50 50l-157 159l-98 -98l-112 -111l-49 51l-1 -1z" />
<glyph unicode="_" horiz-adv-x="564" d="M45 0h423v54h-423v-54zM528 -60h-443v50h-50v74h443v-50h50v-74z" />
<glyph unicode="`" horiz-adv-x="276" d="M37 670l123 -98h37l-73 98h-87zM207 512l-149 118h13l-63 50h121l37 -50h13l88 -118h-60z" />
<glyph unicode="a" horiz-adv-x="477" d="M309 245v-101q0 -41 -32.5 -69.5t-78.5 -28.5q-45 0 -76.5 28.5t-31.5 69.5q0 44 33.5 72.5t81.5 28.5h104zM309 30v-30h69q-16 17 -16 159l2 164v10q-4 71 -47.5 121.5t-103.5 51.5q-67 0 -132 -19l13 -52q55 16 118 16q43 -1 70 -41t27 -97v-14h-104q-70 0 -120 -44.5 t-50 -110.5q0 -64 48 -109t115 -45q63 0 111 40zM349 -60v20q-46 -30 -101 -30q-46 0 -85 21.5t-63 57.5q-34 22 -54.5 58t-20.5 77q0 71 53 118t127 47h94v4q0 41 -15 73q-7 3 -22 5q-58 0 -125 -19l-15 59q-11 -3 -35 -9l-18 72q74 22 144 22q77 -2 125 -74 q37 -23 60 -65.5t26 -93.5v-10q-2 -84 -2 -164q0 -137 29 -169h-102zM299 144v41h-44q-44 0 -74.5 -25.5t-30.5 -65.5q0 -15 5 -30q21 -8 43 -8q42 0 71.5 25.5t29.5 62.5z" />
<glyph unicode="b" horiz-adv-x="572" d="M109 0v23q50 -28 140 -33q100 2 170 77.5t70 181.5q0 105 -70.5 181t-169.5 76q-83 0 -137 -31v211h-55v-588q-4 -81 -16 -98h68zM109 98v306q7 19 47.5 33t92.5 14q75 0 130.5 -60.5t55.5 -141.5q0 -83 -55 -142.5t-131 -61.5q-58 2 -99 17t-41 36zM169 -44v-16h-97 q11 16 18 50h-68q9 13 15.5 40t8.5 48l1 20v598h75v-50h50v-138q37 8 77 8q57 0 108 -26.5t85 -72.5q49 -37 78 -95t29 -123q0 -109 -73.5 -188t-177.5 -81q-84 5 -129 26zM169 354v-289q38 -9 80 -10q72 2 124 58.5t52 135.5q0 60 -36 114q-44 28 -90 28q-48 0 -85.5 -11 t-44.5 -26z" />
<glyph unicode="c" horiz-adv-x="539" d="M411 383l39 40q-76 83 -177 83q-98 0 -168.5 -76t-70.5 -182t70.5 -181.5t168.5 -75.5q96 0 175 82l-40 38q-57 -65 -135 -65q-76 0 -130.5 59.5t-54.5 142.5q0 85 54 144t131 59q80 0 138 -68zM514 373l-54 -55q-61 73 -137 73q-72 0 -123.5 -56.5t-51.5 -136.5 q0 -65 34 -114q40 -28 91 -28q74 0 134 70l55 -53l-1 -1l51 -49q-89 -92 -189 -92q-57 0 -107.5 26.5t-85.5 72.5q-49 37 -77.5 94.5t-28.5 123.5q0 111 73.5 189.5t175.5 78.5q106 0 191 -93l-3 -3q29 -21 53 -47z" />
<glyph unicode="d" horiz-adv-x="579" d="M407 25v-22h73q-8 7 -13 31t-5 45l-1 21v586h-54v-212q-51 32 -137 32q-99 -1 -169.5 -75t-70.5 -179q0 -106 70.5 -181.5t169.5 -77.5q83 5 137 32zM272 47q-79 3 -134 62.5t-55 142.5q0 80 54.5 138.5t132.5 60.5q54 0 93 -13.5t44 -32.5v-305q0 -19 -39 -34.5 t-96 -18.5zM447 -57v16q-51 -21 -126 -26q-58 1 -109 28t-86 73q-49 38 -77.5 95t-28.5 123q0 109 73.5 186t176.5 78q81 0 127 -25v205h74v-50h50v-596q0 -9 1 -22.5t10.5 -42.5t26.5 -42h-112zM177 88q44 -30 94 -31q53 3 89.5 15.5t36.5 27.5v281q-35 10 -77 10 q-73 -2 -125 -57.5t-52 -131.5q0 -65 34 -114z" />
<glyph unicode="e" horiz-adv-x="515" d="M379 277h-289q10 74 50.5 124t93.5 50q56 0 97 -49.5t48 -124.5zM245 45q-62 1 -106.5 51.5t-49.5 127.5h343v30q0 107 -57 180t-141 73q-83 0 -142 -76t-59 -182v-18q6 -101 67.5 -170.5t144.5 -69.5q18 0 26 1q69 13 124 43l-21 48q-76 -38 -129 -38zM245 55 q50 0 134 41l27 -61q11 4 23 11l29 -66q-66 -36 -136 -48q-8 -1 -27 -1q-98 0 -166 89q-45 34 -73.5 89t-32.5 121v19q0 111 62 189.5t149 78.5q93 0 154 -84q48 -33 76 -94t28 -135v-40h-342q6 -52 31 -91q29 -18 64 -18zM367 287q-8 53 -31 89q-24 15 -52 15 q-37 0 -68.5 -28.5t-49.5 -75.5h201z" />
<glyph unicode="f" horiz-adv-x="375" d="M283 632l16 55q-24 3 -56 3q-58 0 -101.5 -50.5t-47.5 -120.5v-12q1 -12 1 -18h-72v-55h73v-434h52v434h128v55h-128v19q0 52 27.5 89t67.5 39q23 0 40 -4zM362 645l-22 -75q-26 6 -47 6q-28 -1 -49.5 -22.5t-30.5 -54.5h73v-50h50v-75h-128v-434h-72v50h-50v384h-23v50 h-50v75h72l-1 7v13q4 74 50.5 127.5t108.5 53.5q29 0 69 -5l-13 -45q19 0 63 -5z" />
<glyph unicode="g" horiz-adv-x="621" d="M124 331q0 51 43 86.5t103 35.5q63 0 106 -35t43 -87q0 -50 -43 -85.5t-106 -35.5q-60 0 -103 35.5t-43 85.5zM84 -32q0 44 44.5 77t103.5 33q63 0 107 -33t44 -77q0 -45 -44 -77.5t-107 -32.5q-59 0 -103.5 33t-44.5 77zM208 126h-5q-1 0 -5 -0.5t-5 -0.5q-28 0 -28 25 q0 19 26 19q11 0 31 -5q26 -6 48 -6q84 0 142.5 50.5t58.5 122.5q0 60 -43 110h47l52 54h-182q-40 11 -75 11q-83 0 -141.5 -51.5t-58.5 -123.5q0 -82 68 -132q-16 -19 -16 -51q0 -26 7 -43q-44 -21 -71 -58t-27 -79q0 -67 59.5 -115t141.5 -48q84 0 143.5 48t59.5 115 t-59 113.5t-144 46.5q-17 0 -24 -2zM550 505l-48 -50h98l-71 -74h-30q32 -47 32 -100q0 -67 -47 -116.5t-120 -62.5q33 -21 56 -55q75 -51 75 -129q0 -71 -62 -122t-151 -51q-58 0 -108 25t-77 66q-76 53 -76 132q0 43 26 81t69 61q-4 12 -4 38q0 23 12 49q-64 53 -64 134 q0 76 61.5 130.5t148.5 54.5q38 0 78 -11h202zM184 281q0 -23 10 -42q33 -19 76 -19q58 0 98.5 32.5t40.5 78.5q0 20 -10 42q-38 20 -79 20q-57 0 -96.5 -32.5t-39.5 -79.5zM144 -82q0 -15 6 -30q38 -20 82 -20q59 0 100 29.5t41 70.5q0 12 -7 30q-38 20 -84 20 q-55 0 -96.5 -30t-41.5 -70z" />
<glyph unicode="h" horiz-adv-x="477" d="M89 688h-54v-688h54v337q11 47 46 81.5t77 34.5q50 0 86.5 -37.5t38.5 -92.5v-320h54l-3 320q-2 77 -50.5 130.5t-119.5 53.5q-77 0 -129 -61v242zM25 698h74v-50h50v-144q33 13 69 13q91 0 145 -79q38 -26 61 -69.5t24 -95.5l3 -330h-74v50h-50v330q-1 31 -16 58 q-26 12 -49 12q-37 0 -69.5 -32.5t-43.5 -75.5v-345h-74v50h-50v708z" />
<glyph unicode="i" horiz-adv-x="194" d="M37 639q0 -13 10 -23t25 -10q14 0 24.5 10t10.5 23t-10.5 23t-24.5 10q-15 0 -25 -9.5t-10 -23.5zM45 500v-500h53v500h-53zM35 -10v520h73v-50h50v-520h-73v50h-50zM77 589v7h-5q-19 0 -32 13t-13 30q0 18 13 30.5t32 12.5q17 0 31 -13t14 -30q0 -5 -1 -7h6q17 0 31 -13 t14 -30q0 -16 -14 -29.5t-31 -13.5q-19 0 -32 13t-13 30z" />
<glyph unicode="j" horiz-adv-x="312" d="M33 -137l-5 -52q10 0 22 -2q20 -2 32 -2q60 2 102 51t47 119v524h-54v-515q0 -51 -29 -87t-71 -36q-1 -1 -1 -3q-8 0 -13 1q-14 2 -30 2zM169 634q0 -14 9.5 -23.5t24.5 -9.5q12 0 22 10t10 23q0 14 -10 23.5t-22 9.5q-16 0 -25 -9t-9 -24zM67 -249l4 46q-16 2 -26 2 q-8 2 -28 2l7 72q28 0 42 -2q3 -1 4 -1l3 3q40 0 67 33t27 80v525h74v-50h50v-535q-5 -74 -49.5 -125.5t-109.5 -53.5q-11 0 -37 2q-8 2 -28 2zM209 584v7h-6q-20 0 -32 12.5t-12 30.5q0 20 12 31.5t32 11.5q16 0 29 -12t13 -31q0 -5 -1 -8q3 1 9 1q16 0 29 -12t13 -31 q0 -17 -13.5 -30t-28.5 -13q-20 0 -32 12.5t-12 30.5z" />
<glyph unicode="k" horiz-adv-x="506" d="M110 346v340h-54v-635q0 -36 -15 -51h69v275q20 16 60 52l186 -327h64l-208 363l158 131h-84zM170 646v-237l60 51l51 44h117l-60 -50h110l-173 -144l61 -105l152 -265h-88l-29 50h-21l-147 258q-20 -19 -33 -28v-280h-103q21 21 27 50h-77q29 29 29 61v645h74v-50h50z " />
<glyph unicode="l" horiz-adv-x="198" d="M47 686v-686h54v686h-54zM37 -10v706h74v-50h50v-706h-74v50h-50z" />
<glyph unicode="m" horiz-adv-x="818" d="M125 444v56h-69q5 -5 10 -22.5t5 -31.5v-446h54v335q10 47 45 81t77 34q51 0 87 -37t37 -92v-319h54v335q9 47 44 81t80 34q49 0 84 -37.5t37 -91.5v-321h55l-2 321q-2 78 -51 131t-119 53q-45 0 -86.5 -25t-63.5 -74q-23 43 -63.5 70t-87.5 27q-75 0 -127 -61zM135 510 v-41q49 46 117 46q91 0 146 -80q4 -2 6 -4q25 43 65.5 64.5t83.5 21.5q90 0 144 -79q38 -26 61.5 -69.5t24.5 -95.5l2 -331h-75v50h-50v331q-1 31 -16 58q-22 11 -45 11q-39 0 -71.5 -32t-42.5 -75v-343h-74v50h-50v329q-1 31 -15 57q-26 12 -49 12q-37 0 -69 -32.5 t-43 -74.5v-343h-74v50h-50v456q0 13 -10 34t-19 30h103z" />
<glyph unicode="n" horiz-adv-x="515" d="M123 446v50h-69q15 -15 15 -48v-448h54v337q11 48 46 82t78 34q50 0 86 -37.5t37 -92.5v-323h55l-2 323q-2 78 -51.5 131.5t-119.5 53.5q-78 0 -129 -62zM133 506v-34q45 46 119 46q90 0 144 -79q39 -26 62.5 -69.5t24.5 -96.5l2 -333h-75v50h-50v333q-2 33 -15 58 q-23 12 -48 12q-38 0 -70.5 -32t-43.5 -76v-345h-74v50h-50v458q0 13 -9.5 30.5t-19.5 27.5h103z" />
<glyph unicode="o" horiz-adv-x="586" d="M34 247q0 -106 69 -181.5t166 -75.5t165 75.5t68 181.5q0 107 -68 183t-165 76t-166 -76t-69 -183zM89 247q0 85 52.5 144.5t127.5 59.5q74 0 126 -59.5t52 -144.5q0 -83 -52.5 -142.5t-125.5 -59.5q-75 0 -127.5 59.5t-52.5 142.5zM24 247q0 111 72 190t173 79 q113 0 187 -97q49 -37 77.5 -95t28.5 -127q0 -110 -71 -188.5t-172 -78.5q-114 0 -188 97q-50 37 -78.5 95t-28.5 125zM149 197q0 -64 34 -116q38 -26 86 -26q69 0 118.5 56.5t49.5 135.5q0 65 -35 118q-38 26 -83 26q-70 0 -120 -57t-50 -137z" />
<glyph unicode="p" horiz-adv-x="575" d="M114 476v23h-71q7 -8 11.5 -31.5t5.5 -43.5l1 -20v-594h54v214q54 -32 138 -32q100 0 170.5 76t70.5 184q0 105 -70 180t-171 77q-73 0 -139 -33zM114 93v311q0 20 40.5 34.5t98.5 14.5q77 0 132 -59t55 -142q0 -84 -54.5 -144t-132.5 -62q-54 2 -94 15.5t-45 31.5z M124 509v-17q66 27 129 27q120 -3 195 -101q49 -36 77.5 -93.5t28.5 -122.5q0 -113 -73 -191.5t-178 -78.5q-75 0 -128 25v-207h-74v50h-50v604q-2 74 -31 105h104zM174 354v-287q35 -10 79 -11q73 2 125 59t52 137q0 62 -35 113q-42 28 -92 28q-53 0 -91 -11.5t-38 -27.5z " />
<glyph unicode="q" horiz-adv-x="536" d="M400 404v-295q-7 -19 -45.5 -33t-89.5 -14q-74 2 -126.5 59t-52.5 137q0 81 52.5 138t126.5 57q56 0 95.5 -14.5t39.5 -34.5zM400 494v-17q-50 29 -135 29q-95 0 -163.5 -73t-68.5 -175q0 -101 68.5 -173.5t163.5 -74.5q84 0 135 32v-232h53v684h-53zM390 494v10h73v-50 h50v-704h-73v50h-50v158q-37 -8 -75 -8q-56 1 -105.5 27.5t-83.5 71.5q-48 36 -75.5 91t-27.5 118q0 106 72 182t170 76q77 0 125 -22zM390 111v274q-34 8 -75 8q-70 0 -119.5 -54.5t-49.5 -130.5q0 -60 32 -108q41 -27 87 -28q48 0 83 11.5t42 27.5z" />
<glyph unicode="r" horiz-adv-x="361" d="M270 447l14 54q-13 5 -32 5q-78 0 -128 -62v57h-76q22 -14 22 -55v-446h54v335q10 48 45 82t78 34q10 0 23 -4zM346 457l-18 -73q-23 7 -31 7q-39 0 -71 -32t-42 -76v-343h-74v50h-50v456q0 14 -12 32.5t-33 32.5h119v-41q49 46 118 46q21 0 44 -9l-10 -42q5 1 16 1 q21 0 44 -9z" />
<glyph unicode="s" horiz-adv-x="457" d="M325 405l44 32q-29 31 -72.5 49.5t-89.5 18.5q-70 0 -119.5 -36.5t-49.5 -93.5q0 -50 47 -94t113 -54q46 -10 80 -39t34 -61q0 -35 -33 -58t-81 -23q-71 0 -120 49l-41 -32q27 -33 72 -52t92 -19q69 0 117 38t48 97q0 54 -45 97.5t-113 53.5q-50 7 -82.5 35t-32.5 61 t31.5 54.5t78.5 21.5q75 0 122 -45zM434 386l-60 -44q-50 48 -121 48q-43 0 -71.5 -18.5t-28.5 -47.5q0 -10 3 -19q24 -13 53 -17q46 -7 83.5 -30.5t59.5 -56.5q74 -51 74 -124q0 -63 -51 -104t-124 -41q-49 0 -98 22t-80 61l4 3q-31 18 -54 47l56 43q52 -52 119 -52 q44 0 74 20t30 51q0 6 -4 18q-27 15 -52 22q-45 7 -84 31.5t-61 57.5q-73 51 -73 119q0 61 52.5 100.5t126.5 39.5q48 0 95.5 -22t81.5 -57l-8 -6q31 -17 58 -44z" />
<glyph unicode="t" horiz-adv-x="348" d="M147 686h-55v-193h-72v-55h74v-438h53v438h131v55h-131v193zM82 696h75v-50h50v-143h81v-50h50v-75h-131v-438h-73v50h-50v388h-24v50h-50v75h72v193z" />
<glyph unicode="u" horiz-adv-x="511" d="M339 53v-53h69q-5 5 -10 21.5t-5 32.5v446h-54v-337q-9 -47 -43 -81.5t-78 -34.5q-49 0 -85.5 38.5t-38.5 91.5l-1 5v316h-54v-319q2 -2 3 -4q2 -77 51 -130.5t118 -53.5q74 0 128 62zM379 -60v37q-51 -46 -118 -46q-88 0 -143 78q-38 26 -61.5 69t-24.5 94l-3 3v333h74 v-50h50v-326l1 -5q1 -31 16 -58q22 -12 48 -12q38 0 70 32.5t41 75.5v345h74v-50h50v-456q0 -14 9.5 -34t19.5 -30h-103z" />
<glyph unicode="v" horiz-adv-x="567" d="M30 500l201 -500h52l204 500h-60l-169 -418l-171 418h-57zM224 -10l-209 520h79l20 -50h30l128 -315l102 250l46 115h82l-21 -50h71l-212 -520h-66l-20 50h-30z" />
<glyph unicode="w" horiz-adv-x="778" d="M489 0l204 500h-60l-169 -417l-167 417h-62l98 -244l-70 -173l-170 417h-58l202 -497l51 -3l77 182l71 -179zM758 460l-213 -520l-66 3l-20 49l-30 1l-31 76l-29 -70l-25 -59l-64 3l-20 49l-30 1l-210 517h80l20 -50h30l127 -313q1 3 4 8.5t4 8.5l37 92l-54 135 q-19 44 -47 119h83l20 -50h30l125 -314l147 364h82l-21 -50h71z" />
<glyph unicode="x" horiz-adv-x="527" d="M51 500l153 -241l-158 -259h66l125 203l128 -203h66l-156 251l156 249h-67l-124 -194l-121 194h-68zM192 260l-159 250h91l31 -50h19l74 -120l68 103l43 67h89l-32 -50h82l-162 -259l96 -154l66 -107h-88l-32 50h-18l-83 130l-9 -15q-6 -10 -8 -13h1l-93 -152h-90l30 50 h-80z" />
<glyph unicode="y" horiz-adv-x="553" d="M40 -133l-8 -56q21 -6 43 -6q49 0 95 32.5t66 87.5q7 22 22 61l21 53l-1 -1l190 468h-58l-158 -398l-159 398h-58l190 -467l-38 -94q-15 -41 -45.5 -63.5t-64.5 -22.5q-29 0 -37 8zM71 -247l5 42h-1q-24 0 -54 8l11 86q20 -20 45 -20q30 0 58.5 21t42.5 59q3 8 9.5 23.5 t9.5 23.5q1 3 7 18.5t10 24.5l-28 71l-166 406h80l20 -50h30l117 -295l82 209l54 136h80l-21 -50h71l-195 -481q-3 -7 -8.5 -23t-8.5 -23q-1 -4 -11.5 -29t-14.5 -38q-22 -58 -70 -92.5t-100 -34.5q-24 0 -54 8z" />
<glyph unicode="z" horiz-adv-x="508" d="M43 52v-52h371v55h-296l296 393v52h-368v-55h293zM33 -10v65l248 330h-195v50h-50v75h388v-50h50v-65l-249 -330h199v-50h50v-75h-391v50h-50z" />
<glyph unicode="{" horiz-adv-x="249" d="M150 53v250q-10 31 -42 36v27q29 3 42 37v230q1 -3 17 -3v56q-27 0 -47.5 -12.5t-24.5 -32.5v-225q0 -15 -10.5 -26t-25.5 -11h-27v-54h27q15 0 25.5 -10.5t10.5 -26.5v-235q0 -22 24 -37.5t48 -15.5v54q-17 0 -17 -1zM177 696v-60q23 10 50 10v-76q-4 0 -11 -1 q-5 -1 -6 0v-216q-14 -41 -42 -46v-10q33 -10 42 -41v-242h17v-74q-30 0 -59 16.5t-33 41.5q-50 19 -50 55v212h-13v46q-5 4 -13 4h-37v74h37q11 0 18.5 8t7.5 19v227q4 23 30.5 38t61.5 15zM118 357v-10q1 -1 3.5 -2t3.5 -1q9 9 10 20q-7 -5 -17 -7z" />
<glyph unicode="|" horiz-adv-x="188" d="M49 711v-710h39v710h-39zM39 -9v730h59v-50h50v-730h-59v50h-50z" />
<glyph unicode="}" horiz-adv-x="246" d="M50 302v-246q-6 -2 -19 -2v-54q27 0 50.5 15.5t23.5 37.5v235q0 16 9 26.5t24 10.5h27v54h-27q-15 0 -24 11t-9 26v219l-2 6q-4 19 -23.5 32t-48.5 13v-56h19v-227q3 -13 14.5 -23.5t26.5 -13.5q-2 -20 -2 -27q-31 -2 -39 -37zM40 64v240q8 38 39 44q0 2 0.5 5.5t0.5 4.5 q-33 12 -40 43v219h-19v76q37 0 62 -15t30 -38l1 -4q43 -14 49 -46l2 -8v-196h10v-46q6 -4 13 -4h37v-74h-37q-10 0 -16.5 -7.5t-6.5 -19.5v-235q0 -26 -30 -44.5t-64 -18.5v61q-25 -11 -50 -11v74h19zM125 310q-9 -7 -10 -17q8 4 14 5q0 2 0.5 5.5t0.5 4.5q-1 0 -2.5 1 t-2.5 1z" />
<glyph unicode="~" horiz-adv-x="417" d="M173 297l-1 1q26 -15 63 -15q52 0 95 29l-19 43q-30 -25 -79 -25q-14 0 -45 9q-30 10 -52 10q-58 0 -98 -28l23 -43q30 25 76 25q19 0 37 -6zM342 308q-2 -2 -7 -5t-7 -4q19 7 37 22l27 -63q-52 -35 -107 -35q-42 0 -68 16q-18 4 -31 4q-42 0 -79 -31l-33 62l1 1q1 1 2 1 q-10 -6 -20 -14l-33 62q50 35 111 35q18 0 53 -11l-1 1q1 0 4 -0.5t4 -0.5q26 -8 37 -8q46 0 83 31z" />
<glyph unicode="&#xa1;" horiz-adv-x="193" d="M95 0v586h-48v-586h48zM42 660v-1q2 -29 29 -29q12 0 21 8.5t9 21.5q0 12 -9 21t-21 9t-20.5 -9t-8.5 -21zM82 608v2q0 4 2 12q-4 -2 -13 -2q-37 0 -39 38v2q0 16 11 28t28 12q16 0 28 -12t12 -28q0 -4 -2 -12q8 2 12 2q16 0 28 -12t12 -28q0 -17 -12 -28.5t-28 -11.5 q-8 0 -16 2v-26h50v-606h-68v50h-50v606h47q-2 8 -2 12z" />
<glyph unicode="&#xa2;" horiz-adv-x="524" d="M81 248q0 75 45 132t112 68v-400q-67 11 -112 68t-45 132zM238 570v-67q-88 -11 -149.5 -84.5t-61.5 -170.5t61.5 -170t149.5 -84v-67h59v66q75 10 144 80l-39 38q-52 -55 -105 -63v400q61 -9 107 -65l39 40q-65 70 -146 80v67h-59zM228 512v68h79v-50h50v-34 q51 -22 100 -73l-4 -4q28 -18 54 -46l-54 -55q-45 57 -96 68v-301q21 15 45 40l53 -52l-1 -1l51 -49q-74 -78 -148 -89v-67h-79v50h-50v35q-61 27 -103 82q-49 38 -78.5 94.5t-29.5 119.5q0 100 60.5 175t150.5 89zM141 198q0 -63 34 -116q26 -16 53 -22v305 q-40 -25 -63.5 -69.5t-23.5 -97.5z" />
<glyph unicode="&#xa3;" horiz-adv-x="595" d="M194 293h178v54h-178v339h-54v-339h-117v-54h117v-293h382v54h-328v239zM432 233h-178v-169h278v-50h50v-74h-402v50h-50v243h-67v50h-50v74h117v339h74v-50h50v-289h128v-50h50v-74z" />
<glyph unicode="&#xa5;" horiz-adv-x="739" d="M174 200v-56h142v-144h56v144h142v56h-142v24h142v56h-142v28l282 378h-72l-240 -324l-235 324h-73l282 -378v-28h-142v-56h142v-24h-142zM164 134v76h50v4h-50v76h142v15l-185 248l-107 143h98l36 -50h14l187 -258l228 308h97l-38 -50h88l-266 -356h66v-50h50v-76h-50 v-4h50v-76h-142v-144h-76v50h-50v94h-92v50h-50z" />
<glyph unicode="&#xa6;" horiz-adv-x="188" d="M88 348h-39v-347h39v347zM49 399h39v312h-39v-312zM39 358h50v31h-50v332h59v-50h50v-332h-50v-31h50v-367h-59v50h-50v367z" />
<glyph unicode="&#xa7;" horiz-adv-x="413" d="M266 196v-1q-28 49 -89 77q-39 19 -62.5 48t-23.5 58q0 15 8 33q31 -51 89 -76q37 -20 61 -50.5t24 -58.5q0 -16 -7 -30zM256 424l24 51q-59 25 -104 25q-26 0 -48 -6q2 28 26 44t58 16q40 0 81 -22l24 51q-56 25 -103 25q-59 0 -99.5 -32.5t-40.5 -86.5q0 -15 1 -22 q-39 -30 -39 -85q0 -43 32.5 -87t83.5 -69q55 -28 73 -66q-19 -7 -40 -7q-32 0 -79 20l-24 -48q51 -26 101 -26q26 0 53 8q-4 -30 -29 -46t-61 -16q-33 0 -77 19l-24 -46q54 -27 102 -27q58 0 100 34.5t42 91.5q0 12 -1 19q39 37 39 88q0 45 -31 87.5t-82 67.5 q-50 26 -72 63q12 4 32 4q38 0 82 -22zM343 430l-32 -69q-50 25 -87 25h-2q53 -27 84 -71q81 -60 81 -141q0 -51 -38 -91v-16q0 -61 -45 -98.5t-107 -37.5q-50 0 -116 33l13 25q-32 10 -63 25l33 63q50 -22 82 -22h6q-16 6 -33 15l12 26q-31 8 -62 24l32 66q53 -23 84 -23 q12 0 18 1q-1 0 -2.5 1t-2.5 2q-53 26 -88 73q-38 29 -61 67t-23 75q0 58 38 89v18q0 59 43.5 94t106.5 35q48 0 116 -30l-13 -28q31 -8 63 -22l-33 -70q-48 26 -85 26h-6q4 -2 37 -14l-13 -28q21 -5 63 -22zM181 281q51 -25 81 -63q1 2 1 8q0 17 -13 40q-3 2 -8.5 5t-8.5 5 h1q-53 22 -82 62q-1 -3 -1 -10q0 -19 10 -36q10 -7 20 -11z" />
<glyph unicode="&#xa8;" horiz-adv-x="325" d="M167 639q0 -13 10.5 -23t24.5 -10t24.5 10t10.5 23t-10.5 23t-24.5 10t-24.5 -10t-10.5 -23zM37 639q0 -13 10.5 -23t24.5 -10t24.5 10t10.5 23t-10.5 23t-24.5 10t-24.5 -10t-10.5 -23zM207 589v7h-5q-18 0 -31.5 13t-13.5 30t13.5 30t31.5 13t31.5 -13t13.5 -30 q0 -5 -1 -8q1 0 3 0.5t3 0.5q18 0 31.5 -13t13.5 -30t-13.5 -30t-31.5 -13t-31.5 13t-13.5 30zM77 589v7h-5q-18 0 -31.5 13t-13.5 30t13.5 30t31.5 13q17 0 31 -13t14 -30q0 -5 -1 -8q1 0 3 0.5t3 0.5q17 0 31 -13t14 -30q0 -16 -14 -29.5t-31 -13.5q-18 0 -31.5 13 t-13.5 30z" />
<glyph unicode="&#xaa;" horiz-adv-x="279" d="M98 396h29v-24q0 -10 -9 -18t-20 -8q-12 0 -20.5 8t-8.5 18q0 9 8.5 16.5t20.5 7.5zM127 311h57q-8 8 -14.5 28.5t-6.5 37.5l1 55q-1 32 -19 53t-42 21q-27 0 -57 -8l7 -39q27 9 50 9q9 0 16 -11t8 -24h-27q-30 0 -49.5 -17.5t-19.5 -43.5q0 -27 19.5 -46t47.5 -19 q18 0 29 5v-1zM258 251l-79 1q-11 -5 -31 -5q-27 0 -47 14.5t-27 38.5q-24 8 -38.5 27.5t-14.5 44.5q0 27 18 46.5t47 23.5l-2 14q3 0 4 1q-19 -3 -43 -11l-11 60q40 10 69 10q21 0 39 -14t26 -38q23 -6 39 -28.5t17 -53.5q-1 -27 -1 -55q0 -16 11 -39.5t24 -36.5zM79 372 q0 -6 4 -10q11 14 31 24h-16q-7 0 -13 -4.5t-6 -9.5z" />
<glyph unicode="&#xab;" horiz-adv-x="586" d="M300 504l-267 -226l224 -267l40 36l-189 224l228 191zM465 504l-267 -226l224 -267l40 36l-189 224l228 191zM19 279l283 239l46 -54l4 4l23 -28l92 78l46 -54l4 4l49 -57l-229 -192l34 -39l155 -184l-55 -49l-46 54l-4 -4l-213 252l-36 -30l88 -104l101 -118l-55 -50 l-46 54l-4 -4z" />
<glyph unicode="&#xac;" horiz-adv-x="691" d="M609 159v231h-578v-54h524v-177h54zM669 350v-251h-74v50h-50v127h-474v50h-50v74h598v-50h50z" />
<glyph unicode="&#xad;" d="M45 266h349v54h-349v-54zM454 206h-369v50h-50v74h369v-50h50v-74z" />
<glyph unicode="&#xb0;" horiz-adv-x="323" d="M34 587q0 -42 30 -71t75 -29q41 0 70 29.5t29 70.5q0 44 -28.5 73.5t-70.5 29.5q-45 0 -75 -29.5t-30 -73.5zM75 587q0 25 19.5 45t44.5 20q21 0 39.5 -20.5t18.5 -44.5q0 -23 -18.5 -42t-39.5 -19q-25 0 -44.5 19t-19.5 42zM24 587q0 49 32.5 81t82.5 32q67 0 97 -61 q28 -13 45 -40t17 -62q0 -46 -31.5 -78t-77.5 -32q-35 0 -62.5 17t-41.5 45q-61 30 -61 98zM135 537v-1h4q17 0 32.5 16t15.5 35v5q-20 -2 -36 -18.5t-16 -36.5zM85 587q18 38 58 55h-4q-21 0 -37.5 -17t-16.5 -38zM237 538q-18 -37 -54 -52h6q17 0 32.5 16t15.5 35v1z" />
<glyph unicode="&#xb1;" horiz-adv-x="462" d="M31 150h349v54h-349v-54zM440 90h-369v50h-50v74h369v-50h50v-74zM233 300v147h148v55h-148v147h-54v-147h-147v-55h147v-147h54zM293 387v-147h-74v50h-50v97h-97v50h-50v75h147v147h74v-50h50v-97h98v-50h50v-75h-148z" />
<glyph unicode="&#xb2;" horiz-adv-x="351" d="M263 351h-152l120 134q32 40 32 85q0 50 -35.5 85t-86.5 35q-48 0 -98 -43l33 -34q34 33 65 33q30 0 54.5 -23t24.5 -53q0 -31 -21 -52l-153 -171v-39h217v43zM141 700q38 0 68.5 -18t47.5 -49q66 -38 66 -113q0 -47 -35 -92l-60 -67h45v-50h50v-63h-237v50h-50v53 l156 174q18 18 18 45q0 5 -2 13q-8 3 -17 3q-27 0 -65 -37l-48 49q27 24 53 37q-24 -6 -55 -36l-48 49q60 52 113 52zM134 361h6l102 114q14 15 18 39q-8 -16 -22 -36z" />
<glyph unicode="&#xb3;" horiz-adv-x="346" d="M78 377h-13l-26 -26q44 -47 103 -47q48 0 82 31t34 76q0 51 -44 88q47 26 47 85q0 43 -34.5 72.5t-83.5 29.5q-61 0 -103 -45l32 -34q33 36 71 36q28 0 50 -18t22 -41q0 -22 -20.5 -41t-46.5 -21h-59v-43h58q27 -3 47.5 -23t20.5 -45q0 -26 -22.5 -45.5t-50.5 -19.5 q-35 0 -64 31zM61 387h21q29 -31 60 -31q24 0 43.5 16.5t19.5 38.5q0 4 -1 6q-2 1 -4 1t-4 1h-67v50h-50v63h68q21 2 39 16.5t19 33.5q-2 0 -6 0.5t-6 0.5q-33 0 -71 -41l-45 49q26 27 51 40q-28 -8 -56 -39l-45 49q51 55 116 55q39 0 70.5 -18.5t46.5 -48.5q61 -32 61 -95 q0 -58 -40 -87q37 -41 37 -86q0 -49 -36.5 -83t-89.5 -34q-63 0 -117 57l7 7q-32 15 -57 43zM255 358q-18 -35 -57 -52q22 2 39 17t18 35zM231 497q0 -1 0.5 -1t0.5 -1q10 7 17 18q-6 -8 -18 -16z" />
<glyph unicode="&#xb4;" horiz-adv-x="286" d="M72 584l122 98h-86l-74 -98h38zM272 642l-147 -118h-61l78 104l-67 -54h-61l89 118h119l-63 -50h113z" />
<glyph unicode="&#xb6;" horiz-adv-x="434" d="M183 636v-226q-40 1 -67 34t-27 79q0 47 27 79.5t67 33.5zM285 0v686h-83q-69 0 -117.5 -48.5t-48.5 -118.5q0 -64 47 -113t112 -54v-352h90zM347 2v683h-52v-683h52zM295 696v-1h62v-50h50v-703h-62v-2h-110v50h-50v317q-50 22 -79 66q-37 24 -58.5 63t-21.5 83 q0 74 51 125.5t125 51.5h93zM173 421v125q-24 -29 -24 -73q0 -27 9 -49zM166 624q-37 -9 -57 -50q22 29 57 50z" />
<glyph unicode="&#xb7;" horiz-adv-x="231" d="M31 312q0 -21 17 -37.5t41 -16.5t42 16.5t18 37.5t-18.5 38.5t-41.5 17.5t-40.5 -17.5t-17.5 -38.5zM21 312q0 25 20 45.5t48 20.5q23 0 43 -15.5t25 -37.5q22 -6 37 -24.5t15 -38.5q0 -25 -21 -44.5t-49 -19.5q-25 0 -43.5 15t-23.5 37q-22 5 -36.5 23t-14.5 39z" />
<glyph unicode="&#xb9;" horiz-adv-x="297" d="M36 578l38 -37l87 72v-233h55v306h-50zM124 477l-53 52l-50 50l141 117h64v-50h50v-326h-75v50h-50v130l-16 -13q-2 -1 -11 -10z" />
<glyph unicode="&#xba;" horiz-adv-x="305" d="M34 402q0 -41 27.5 -70t67.5 -29q38 0 64.5 29t26.5 70q0 45 -26.5 74.5t-64.5 29.5q-41 0 -68 -29.5t-27 -74.5zM72 402q0 25 17.5 45.5t39.5 20.5q20 0 36 -20.5t16 -45.5q0 -23 -16.5 -42t-35.5 -19q-22 0 -39.5 19t-17.5 42zM24 402q0 49 30 81.5t75 32.5 q28 0 51.5 -16t36.5 -42q28 -13 45.5 -41t17.5 -65q0 -45 -29.5 -77t-71.5 -32q-65 0 -94 59q-28 13 -44.5 39.5t-16.5 60.5zM132 352v-1q15 1 27 17t12 34v5q-16 -4 -27.5 -20t-11.5 -35zM82 402v-5q16 43 54 60q-1 0 -3.5 0.5t-3.5 0.5q-18 0 -32.5 -17t-14.5 -39z M221 356q-18 -39 -52 -54q3 -1 10 -1q16 0 29 16t13 35v4z" />
<glyph unicode="&#xbb;" horiz-adv-x="586" d="M502 278l-267 226l-36 -42l228 -191l-189 -224l40 -36zM337 278l-267 226l-36 -42l228 -191l-189 -224l40 -36zM233 518l283 -239l-4 -5l54 -45l-237 -282l-55 49l2 3l-39 35l-73 -87l-55 49l2 3l-52 47l185 218l-90 77l-85 70l4 5l-54 45l49 57l283 -239l-4 -5l41 -34 l21 24l-90 77l-85 70l4 5l-54 45z" />
<glyph unicode="&#xbc;" horiz-adv-x="424" d="M25 448l23 -22q35 27 41 32v-251h34v299h-29zM294 336l-30 15l-115 -198v-29h123v-124h34v124h48v34h-48v74h-34v-74h-82zM48 412l-38 37l80 67h43v-56l7 6h43v-235l77 133l48 -24l-101 -172h18l37 63v11h6l42 72l48 -24l-42 -72v-26h50v-74h48v-54h-48v-124h-54v50h-50 v74h-73v42l4 8h-54v33h-10v50h-50v183l-19 19l19 16v23l-15 -12q-8 -6 -16 -14z" />
<glyph unicode="&#xbd;" horiz-adv-x="416" d="M192 33l118 132q31 36 31 75q0 46 -33 78.5t-80 32.5q-44 0 -83 -36l24 -24q29 26 59 26q33 0 56 -22t23 -55q0 -29 -19 -50l-144 -161v-29h197v33h-149zM30 449l23 -22q35 27 41 32v-252h34v300h-29zM367 108l-58 -65h42v-50h50v-53h-217v43l6 7h-56v43l147 164 q16 18 16 43q0 5 -2 15q-10 2 -17 2q-26 0 -59 -30l-31 31v-111h-54v50h-50v184l-19 19l19 16v23l-15 -12q-8 -6 -16 -14l-38 37l80 67h43v-56l7 6h43v-115q20 9 40 9q36 0 65 -17.5t44 -47.5q29 -15 46.5 -43.5t17.5 -62.5q0 -43 -34 -82zM317 158l-103 -115h24l93 104 q16 18 16 43q0 5 -2 15q-8 -24 -28 -47zM228 307q-19 0 -40 -15v-21q29 24 56 34q-10 2 -16 2z" />
<glyph unicode="&#xbe;" horiz-adv-x="505" d="M226 125h123v-123h35v123h48v35h-48v74h-35v-74h-79l102 178l-30 15l-116 -198v-30zM52 214l-25 -22q37 -42 88 -42q46 0 78 29.5t32 71.5q0 53 -48 83q50 25 50 77q0 40 -32.5 68t-77.5 28q-54 0 -90 -39l24 -24q27 30 66 30q31 0 53 -18.5t22 -44.5q0 -24 -20.5 -41 t-49.5 -19h-52v-35q47 8 84 -10.5t37 -54.5q0 -28 -22.5 -47.5t-53.5 -19.5q-38 0 -63 30zM62 143l7 6q-31 13 -57 44l41 36q28 -35 62 -35q27 0 46.5 17t19.5 40q-32 9 -71 3v51q-26 3 -50 -1v57h61q26 2 43.5 16t17.5 34v1q-10 2 -15 2q-35 0 -66 -34l-38 38q32 34 70 44 q-10 2 -16 2q-35 0 -66 -34l-38 38q46 49 104 49q37 0 67 -18t44 -47q27 -14 43 -38t16 -53q0 -49 -42 -78q18 -15 26 -31l67 114l48 -24l-98 -172h14l37 62v12h6l43 72l48 -24l-42 -74v-24h50v-74h48v-55h-48v-123h-55v50h-50v73h-73v43l4 7h-29q-31 -25 -76 -25 q-57 0 -103 53zM229 215q-19 -52 -77 -70q4 -1 13 -1q27 0 46.5 17t19.5 40q0 4 -2 14zM195 333l12 -12q25 15 25 40q0 5 -2 13q-10 -23 -35 -41z" />
<glyph unicode="&#xbf;" horiz-adv-x="446" d="M198 771q0 15 -9.5 25t-22.5 10q-16 0 -25 -9.5t-9 -25.5q0 -15 9.5 -24.5t24.5 -9.5q13 0 22.5 10t9.5 24zM216 686h-57l92 -314h-45q-73 0 -127 -57t-54 -134q0 -78 55 -134.5t131 -56.5q48 0 89 24.5t68 65.5l-39 40q-47 -74 -118 -74q-55 0 -94 40t-39 95t37.5 94 t90.5 41h103v51zM258 721q0 -15 -8.5 -26.5t-20.5 -15.5l9 -33h36l95 -326v-64h-113q-49 -2 -83.5 -38t-34.5 -87q0 -34 15 -61q26 -14 58 -14q67 0 117 79l49 -51l1 1l53 -54q-31 -46 -75.5 -73.5t-94.5 -27.5q-48 0 -90 23t-70 62q-40 28 -63 72t-23 94q0 80 57 140.5 t134 60.5h31l-26 91l-66 223h33q-6 10 -6 25v6h-6q-20 0 -32 12.5t-12 31.5q0 20 12 32.5t32 12.5q17 0 29.5 -12.5t12.5 -32.5q0 -1 -0.5 -3t-0.5 -3q3 1 9 1q17 0 29.5 -12.5t12.5 -32.5z" />
<glyph unicode="&#xc0;" horiz-adv-x="596" d="M160 861l123 -98h37l-73 98h-87zM330 703l-149 118h13l-63 50h121l37 -50h13l88 -118h-60zM251 691l-254 -691h57l105 281h229l105 -281h57l-254 691h-45zM368 336h-189l94 254zM-17 -10l262 711h57l18 -50h32l262 -711h-78l-19 50h-31l-86 231h-184l-68 -182l-38 -99 h-77l18 50h-68zM315 450q-6 14 -8 21q-8 -20 -15 -41v-1l-31 -83h94l-40 105v-1z" />
<glyph unicode="&#xc1;" horiz-adv-x="596" d="M290 775l122 98h-86l-74 -98h38zM490 833l-147 -118h-61l78 104l-67 -54h-61l89 118h119l-63 -50h113zM251 691l-254 -691h57l105 281h229l105 -281h57l-254 691h-45zM368 336h-189l94 254zM-17 -10l262 711h57l18 -50h32l262 -711h-78l-19 50h-31l-86 231h-184l-68 -182 l-38 -99h-77l18 50h-68zM315 450q-6 14 -8 21q-8 -20 -15 -41v-1l-31 -83h94l-40 105v-1z" />
<glyph unicode="&#xc2;" horiz-adv-x="596" d="M251 691l-254 -691h57l105 281h229l105 -281h57l-254 691h-45zM368 336h-189l94 254zM-17 -10l262 711h57l18 -50h32l262 -711h-78l-19 50h-31l-86 231h-184l-68 -182l-38 -99h-77l18 50h-68zM315 450q-6 14 -8 21q-8 -20 -15 -41v-1l-31 -83h94l-40 105v-1z" />
<glyph unicode="&#xc3;" horiz-adv-x="671" d="M288 698l-254 -691h57l105 281h229l105 -281h57l-254 691h-45zM405 343h-189l94 254zM20 -3l262 711h57l18 -50h32l262 -711h-78l-19 50h-31l-86 231h-184l-68 -182l-38 -99h-77l18 50h-68zM352 457q-6 14 -8 21q-8 -20 -15 -41v-1l-31 -83h94l-40 105v-1zM296 770l-1 1 q25 -12 58 -12q55 0 93 27l-20 40q-27 -22 -75 -22q-12 0 -41 9q-28 8 -49 8q-51 0 -93 -27l21 -40q30 22 72 22q19 0 35 -6zM458 783q-13 -10 -25 -15q26 6 47 24l28 -59q-48 -34 -105 -34q-34 0 -61 12q-15 5 -31 5q-39 0 -76 -27l-30 58q14 8 26 14q-25 -6 -46 -22 l-30 58q54 34 106 34q24 0 52 -8h-3l1 -1h2q24 -8 38 -8q46 0 79 28z" />
<glyph unicode="&#xc4;" horiz-adv-x="596" d="M297 752q0 -13 10.5 -23t24.5 -10t24.5 10t10.5 23t-10.5 23t-24.5 10t-24.5 -10t-10.5 -23zM167 752q0 -13 10.5 -23t24.5 -10t24.5 10t10.5 23t-10.5 23t-24.5 10t-24.5 -10t-10.5 -23zM337 702v7h-5q-18 0 -31.5 13t-13.5 30t13.5 30t31.5 13t31.5 -13t13.5 -30 q0 -5 -1 -8q1 0 3 0.5t3 0.5q18 0 31.5 -13t13.5 -30t-13.5 -30t-31.5 -13t-31.5 13t-13.5 30zM207 702v7h-5q-18 0 -31.5 13t-13.5 30t13.5 30t31.5 13q17 0 31 -13t14 -30q0 -5 -1 -8q1 0 3 0.5t3 0.5q17 0 31 -13t14 -30q0 -16 -14 -29.5t-31 -13.5q-18 0 -31.5 13 t-13.5 30zM251 691l-254 -691h57l105 281h229l105 -281h57l-254 691h-45zM368 336h-189l94 254zM-17 -10l262 711h57l18 -50h32l262 -711h-78l-19 50h-31l-86 231h-184l-68 -182l-38 -99h-77l18 50h-68zM315 450q-6 14 -8 21q-8 -20 -15 -41v-1l-31 -83h94l-40 105v-1z" />
<glyph unicode="&#xc5;" horiz-adv-x="661" d="M178 856q0 -42 30 -71t75 -29q41 0 70 29.5t29 70.5q0 44 -28.5 73.5t-70.5 29.5q-45 0 -75 -29.5t-30 -73.5zM219 856q0 25 19.5 45t44.5 20q21 0 39.5 -20.5t18.5 -44.5q0 -23 -18.5 -42t-39.5 -19q-25 0 -44.5 19t-19.5 42zM168 856q0 49 32.5 81t82.5 32q67 0 97 -61 q28 -13 45 -40t17 -62q0 -46 -31.5 -78t-77.5 -32q-35 0 -62.5 17t-41.5 45q-61 30 -61 98zM279 806v-1h4q17 0 32.5 16t15.5 35v5q-20 -2 -36 -18.5t-16 -36.5zM229 856q18 38 58 55h-4q-21 0 -37.5 -17t-16.5 -38zM381 807q-18 -37 -54 -52h6q17 0 32.5 16t15.5 35v1z M283 691l-254 -691h57l105 281h229l105 -281h57l-254 691h-45zM400 336h-189l94 254zM15 -10l262 711h57l18 -50h32l262 -711h-78l-19 50h-31l-86 231h-184l-68 -182l-38 -99h-77l18 50h-68zM347 450q-6 14 -8 21q-8 -20 -15 -41v-1l-31 -83h94l-40 105v-1z" />
<glyph unicode="&#xc6;" horiz-adv-x="1035" d="M944 691h-644l-255 -691h58l105 281h331v-281h405v55h-350v285h299v55h-299v243h350v53zM548 638l-9 -302h-311l107 302h213zM294 701h660v-50h50v-73h-350v-173h249v-50h50v-75h-299v-215h300v-50h50v-75h-425v50h-50v231h-265l-50 -135l-54 -146h-79l18 50h-68z M529 346l7 232h-144l-28 -77q-18 -49 -24 -67l-30 -88h219z" />
<glyph unicode="&#xc7;" horiz-adv-x="647" d="M525 557l39 36q-94 102 -220 102q-131 0 -223.5 -102.5t-92.5 -250.5q0 -126 72 -222t179 -122l-1 -52h15q14 0 28.5 -5.5t14.5 -17.5q0 -15 -23 -22t-40 -7l53 -39q56 31 56 66q0 20 -16.5 37t-32.5 22q3 9 4 11q134 2 225 99l-39 37q-80 -83 -179 -83 q-109 0 -185.5 88.5t-76.5 209.5q0 123 76.5 211.5t185.5 88.5q101 0 181 -85zM628 542l-53 -49q-83 89 -181 89q-105 0 -178.5 -85.5t-73.5 -204.5q0 -106 63 -190q64 -48 139 -48q94 0 179 87l53 -50l-2 -2l52 -48q-97 -103 -225 -109q41 -25 41 -61q0 -40 -67 -78l-82 61 q9 0 16 1l-66 49q52 0 75 11l1 16q-10 5 -26 5h-25v23q-70 33 -116 91q-62 50 -98 126.5t-36 165.5q0 153 95 258t231 105q131 0 234 -113l-3 -2q25 -19 53 -48zM373 -121q-5 -5 -21 -19q24 6 24 13q0 5 -3 6z" />
<glyph unicode="&#xc8;" horiz-adv-x="485" d="M91 861l123 -98h37l-73 98h-87zM261 703l-149 118h13l-63 50h121l37 -50h13l88 -118h-60zM368 340v55h-298v243h349v53h-404v-691h404v55h-349v285h298zM428 355v-75h-298v-215h299v-50h50v-75h-424v50h-50v711h424v-50h50v-73h-349v-173h248v-50h50z" />
<glyph unicode="&#xc9;" horiz-adv-x="485" d="M207 775l122 98h-86l-74 -98h38zM407 833l-147 -118h-61l78 104l-67 -54h-61l89 118h119l-63 -50h113zM368 340v55h-298v243h349v53h-404v-691h404v55h-349v285h298zM428 355v-75h-298v-215h299v-50h50v-75h-424v50h-50v711h424v-50h50v-73h-349v-173h248v-50h50z" />
<glyph unicode="&#xca;" horiz-adv-x="546" d="M223 977l-114 -113l33 -35l81 81l80 -81l35 34zM145 814l80 79l-2 3l-81 -81l-47 49l128 127l50 -50l79 -78l50 -50l-49 -48l-50 50l-31 30l-80 -80zM399 340v55h-298v243h349v53h-404v-691h404v55h-349v285h298zM459 355v-75h-298v-215h299v-50h50v-75h-424v50h-50v711 h424v-50h50v-73h-349v-173h248v-50h50z" />
<glyph unicode="&#xcb;" horiz-adv-x="485" d="M241 753q0 -13 10.5 -23t24.5 -10t24.5 10t10.5 23t-10.5 23t-24.5 10t-24.5 -10t-10.5 -23zM111 753q0 -13 10.5 -23t24.5 -10t24.5 10t10.5 23t-10.5 23t-24.5 10t-24.5 -10t-10.5 -23zM281 703v7h-5q-18 0 -31.5 13t-13.5 30t13.5 30t31.5 13t31.5 -13t13.5 -30 q0 -5 -1 -8q1 0 3 0.5t3 0.5q18 0 31.5 -13t13.5 -30t-13.5 -30t-31.5 -13t-31.5 13t-13.5 30zM151 703v7h-5q-18 0 -31.5 13t-13.5 30t13.5 30t31.5 13q17 0 31 -13t14 -30q0 -5 -1 -8q1 0 3 0.5t3 0.5q17 0 31 -13t14 -30q0 -16 -14 -29.5t-31 -13.5q-18 0 -31.5 13 t-13.5 30zM368 340v55h-298v243h349v53h-404v-691h404v55h-349v285h298zM428 355v-75h-298v-215h299v-50h50v-75h-424v50h-50v711h424v-50h50v-73h-349v-173h248v-50h50z" />
<glyph unicode="&#xcc;" horiz-adv-x="131" d="M-35 861l123 -98h37l-73 98h-87zM135 703l-149 118h13l-63 50h121l37 -50h13l88 -118h-60zM99 0v691h-55v-691h55zM159 651v-711h-75v50h-50v711h75v-50h50z" />
<glyph unicode="&#xcd;" horiz-adv-x="154" d="M6 775l122 98h-86l-74 -98h38zM206 833l-147 -118h-61l78 104l-67 -54h-61l89 118h119l-63 -50h113zM14 0v691h-55v-691h55zM74 651v-711h-75v50h-50v711h75v-50h50z" />
<glyph unicode="&#xce;" horiz-adv-x="138" d="M71 0v691h-55v-691h55zM131 651v-711h-75v50h-50v711h75v-50h50z" />
<glyph unicode="&#xcf;" horiz-adv-x="138" d="M74 752q0 -13 10.5 -23t24.5 -10t24.5 10t10.5 23t-10.5 23t-24.5 10t-24.5 -10t-10.5 -23zM-56 752q0 -13 10.5 -23t24.5 -10t24.5 10t10.5 23t-10.5 23t-24.5 10t-24.5 -10t-10.5 -23zM114 702v7h-5q-18 0 -31.5 13t-13.5 30t13.5 30t31.5 13t31.5 -13t13.5 -30 q0 -5 -1 -8q1 0 3 0.5t3 0.5q18 0 31.5 -13t13.5 -30t-13.5 -30t-31.5 -13t-31.5 13t-13.5 30zM-16 702v7h-5q-18 0 -31.5 13t-13.5 30t13.5 30t31.5 13q17 0 31 -13t14 -30q0 -5 -1 -8q1 0 3 0.5t3 0.5q17 0 31 -13t14 -30q0 -16 -14 -29.5t-31 -13.5q-18 0 -31.5 13 t-13.5 30zM75 0v691h-55v-691h55zM135 651v-711h-75v50h-50v711h75v-50h50z" />
<glyph unicode="&#xd0;" horiz-adv-x="691" d="M158 636h202q79 -1 133.5 -85.5t54.5 -203.5q0 -118 -54.5 -203t-131.5 -87q-33 0 -101.5 -1t-102.5 -1v214h171v54h-171v313zM37 269h66v-269h259q101 4 171 104.5t70 242.5t-71 242.5t-172 101.5h-257v-368h-66v-54zM360 701q100 -2 172 -94q60 -47 95.5 -129.5 t35.5 -180.5q0 -146 -72.5 -249.5t-178.5 -107.5h-269v50h-50v219h-16v50h-50v74h66v368h267zM410 576h-192v-243h121v-50h50v-74h-171v-144q28 0 43 1q17 0 51 0.5t50 0.5q73 2 124.5 84t51.5 196q0 122 -59 206q-32 21 -69 23z" />
<glyph unicode="&#xd1;" horiz-adv-x="537" d="M235 771h-1q31 -20 76 -20q40 0 75 20l-15 43q-28 -18 -60 -18q-23 0 -57 14q-42 14 -66 14q-39 0 -75 -19l16 -43q28 17 59 17q27 0 48 -8zM397 766q-2 -1 -5.5 -3t-5.5 -3q20 6 39 18l22 -62q-43 -25 -87 -25q-45 0 -99 33l20 -12q-19 7 -44 7q-28 0 -64 -22l-23 63 q1 0 2.5 1t2.5 2q-10 -4 -32 -16l-23 63q46 24 87 24q20 0 61 -12q2 0 4 -1l4 -2q30 -13 54 -13q29 0 65 22zM71 691h-51v-691h54v579l340 -579h52v691h-55v-576zM10 701h67l29 -50h21l274 -464v514h75v-50h50v-711h-68l-30 50h-20l-274 466v-516h-74v50h-50v711z" />
<glyph unicode="&#xd2;" horiz-adv-x="690" d="M185 861l123 -98h37l-73 98h-87zM355 703l-149 118h13l-63 50h121l37 -50h13l88 -118h-60zM539 88q96 101 96 257q0 147 -90 248.5t-224 101.5q-131 0 -223 -102.5t-92 -247.5q0 -149 93.5 -251.5t221.5 -102.5q129 0 218 97zM499 561q83 -85 83 -216q0 -125 -75 -211.5 t-186 -86.5q-109 0 -184 86.5t-75 211.5q0 123 75.5 208.5t183.5 85.5t178 -78zM596 31q-92 -100 -225 -100q-69 0 -132 31.5t-109 87.5q-62 50 -98 127t-36 168q0 150 95 255t230 105q72 0 135 -31t107 -86q62 -50 97 -126.5t35 -166.5q0 -160 -99 -264zM572 345 q0 107 -61 186q-62 48 -140 48q-104 0 -176.5 -83t-72.5 -201q0 -111 62 -192q62 -46 137 -46q107 0 179 83.5t72 204.5z" />
<glyph unicode="&#xd3;" horiz-adv-x="690" d="M348 775l122 98h-86l-74 -98h38zM548 833l-147 -118h-61l78 104l-67 -54h-61l89 118h119l-63 -50h113zM539 88q96 101 96 257q0 147 -90 248.5t-224 101.5q-131 0 -223 -102.5t-92 -247.5q0 -149 93.5 -251.5t221.5 -102.5q129 0 218 97zM499 561q83 -85 83 -216 q0 -125 -75 -211.5t-186 -86.5q-109 0 -184 86.5t-75 211.5q0 123 75.5 208.5t183.5 85.5t178 -78zM596 31q-92 -100 -225 -100q-69 0 -132 31.5t-109 87.5q-62 50 -98 127t-36 168q0 150 95 255t230 105q72 0 135 -31t107 -86q62 -50 97 -126.5t35 -166.5q0 -160 -99 -264z M572 345q0 107 -61 186q-62 48 -140 48q-104 0 -176.5 -83t-72.5 -201q0 -111 62 -192q62 -46 137 -46q107 0 179 83.5t72 204.5z" />
<glyph unicode="&#xd4;" horiz-adv-x="751" d="M325 977l-114 -113l33 -35l81 81l80 -81l35 34zM247 814l80 79l-2 3l-81 -81l-47 49l128 127l50 -50l79 -78l50 -50l-49 -48l-50 50l-31 30l-80 -80zM569 88q96 101 96 257q0 147 -90 248.5t-224 101.5q-131 0 -223 -102.5t-92 -247.5q0 -149 93.5 -251.5t221.5 -102.5 q129 0 218 97zM529 561q83 -85 83 -216q0 -125 -75 -211.5t-186 -86.5q-109 0 -184 86.5t-75 211.5q0 123 75.5 208.5t183.5 85.5t178 -78zM626 31q-92 -100 -225 -100q-69 0 -132 31.5t-109 87.5q-62 50 -98 127t-36 168q0 150 95 255t230 105q72 0 135 -31t107 -86 q62 -50 97 -126.5t35 -166.5q0 -160 -99 -264zM602 345q0 107 -61 186q-62 48 -140 48q-104 0 -176.5 -83t-72.5 -201q0 -111 62 -192q62 -46 137 -46q107 0 179 83.5t72 204.5z" />
<glyph unicode="&#xd5;" horiz-adv-x="690" d="M310 772h-1q31 -20 76 -20q40 0 75 20l-15 43q-28 -18 -60 -18q-23 0 -57 14q-42 14 -66 14q-39 0 -75 -19l16 -43q28 17 59 17q27 0 48 -8zM472 767q-2 -1 -5.5 -3t-5.5 -3q20 6 39 18l22 -62q-43 -25 -87 -25q-45 0 -99 33l20 -12q-19 7 -44 7q-28 0 -64 -22l-23 63 q1 0 2.5 1t2.5 2q-10 -4 -32 -16l-23 63q46 24 87 24q20 0 61 -12q2 0 4 -1l4 -2q30 -13 54 -13q29 0 65 22zM539 88q96 101 96 257q0 147 -90 248.5t-224 101.5q-131 0 -223 -102.5t-92 -247.5q0 -149 93.5 -251.5t221.5 -102.5q129 0 218 97zM499 561q83 -85 83 -216 q0 -125 -75 -211.5t-186 -86.5q-109 0 -184 86.5t-75 211.5q0 123 75.5 208.5t183.5 85.5t178 -78zM596 31q-92 -100 -225 -100q-69 0 -132 31.5t-109 87.5q-62 50 -98 127t-36 168q0 150 95 255t230 105q72 0 135 -31t107 -86q62 -50 97 -126.5t35 -166.5q0 -160 -99 -264z M572 345q0 107 -61 186q-62 48 -140 48q-104 0 -176.5 -83t-72.5 -201q0 -111 62 -192q62 -46 137 -46q107 0 179 83.5t72 204.5z" />
<glyph unicode="&#xd6;" horiz-adv-x="690" d="M347 753q0 -13 10.5 -23t24.5 -10t24.5 10t10.5 23t-10.5 23t-24.5 10t-24.5 -10t-10.5 -23zM217 753q0 -13 10.5 -23t24.5 -10t24.5 10t10.5 23t-10.5 23t-24.5 10t-24.5 -10t-10.5 -23zM387 703v7h-5q-18 0 -31.5 13t-13.5 30t13.5 30t31.5 13t31.5 -13t13.5 -30 q0 -5 -1 -8q1 0 3 0.5t3 0.5q18 0 31.5 -13t13.5 -30t-13.5 -30t-31.5 -13t-31.5 13t-13.5 30zM257 703v7h-5q-18 0 -31.5 13t-13.5 30t13.5 30t31.5 13q17 0 31 -13t14 -30q0 -5 -1 -8q1 0 3 0.5t3 0.5q17 0 31 -13t14 -30q0 -16 -14 -29.5t-31 -13.5q-18 0 -31.5 13 t-13.5 30zM539 88q96 101 96 257q0 147 -90 248.5t-224 101.5q-131 0 -223 -102.5t-92 -247.5q0 -149 93.5 -251.5t221.5 -102.5q129 0 218 97zM499 561q83 -85 83 -216q0 -125 -75 -211.5t-186 -86.5q-109 0 -184 86.5t-75 211.5q0 123 75.5 208.5t183.5 85.5t178 -78z M596 31q-92 -100 -225 -100q-69 0 -132 31.5t-109 87.5q-62 50 -98 127t-36 168q0 150 95 255t230 105q72 0 135 -31t107 -86q62 -50 97 -126.5t35 -166.5q0 -160 -99 -264zM572 345q0 107 -61 186q-62 48 -140 48q-104 0 -176.5 -83t-72.5 -201q0 -111 62 -192 q62 -46 137 -46q107 0 179 83.5t72 204.5z" />
<glyph unicode="&#xd7;" horiz-adv-x="418" d="M79 170l105 104l105 -104l38 38l-105 105l105 104l-39 38l-104 -104l-105 104l-37 -39l103 -103l-104 -105zM234 211l-105 -105l-102 102l104 105l-103 103l51 53l50 -50l55 -54l104 104l53 -52l-1 -1l51 -49l-105 -104l105 -105l-52 -52z" />
<glyph unicode="&#xd8;" horiz-adv-x="753" d="M352 639q42 0 74 -12l-200 -545q-61 38 -97 108t-36 155q0 123 75.5 208.5t183.5 85.5zM530 561q83 -85 83 -216q0 -125 -75 -211.5t-186 -86.5q-42 0 -75 12l200 546q23 -13 53 -44zM570 88q96 101 96 257q0 101 -45.5 183.5t-124.5 129.5l11 33h-58q-1 -1 -3 -11 q-48 15 -94 15q-131 0 -223 -102.5t-92 -247.5q0 -103 47.5 -188t123.5 -127l-11 -30h60q0 5 1 7q50 -16 94 -16q129 0 218 97zM627 31q-92 -100 -225 -100q-42 0 -85 12v-3h-84l12 35l-24 15h-38l8 24q-16 16 -31 34q-62 49 -97.5 127t-35.5 170q0 150 95 255t230 105 q44 0 88 -13l3 9h77l-12 -38q3 -2 8.5 -6t8.5 -6h45l-9 -29q11 -11 31 -33q63 -52 98.5 -128.5t35.5 -165.5q0 -160 -99 -264zM603 345q0 109 -62 188q-6 4 -9 7l-56 -151l-121 -332q105 1 176.5 84.5t71.5 203.5zM335 407l63 172q-102 -2 -173.5 -84.5t-71.5 -199.5 q0 -112 60 -193q1 -1 4 -2.5t4 -2.5z" />
<glyph unicode="&#xd9;" horiz-adv-x="598" d="M161 861l123 -98h37l-73 98h-87zM331 703l-149 118h13l-63 50h121l37 -50h13l88 -118h-60zM76 176v515h-58v-515q5 -76 80.5 -130.5t179.5 -54.5q100 0 174.5 54.5t77.5 130.5v515h-55v-515q-7 -52 -64.5 -90.5t-132.5 -38.5q-78 0 -136.5 38.5t-65.5 90.5zM136 651v-524 q3 -19 12 -33q55 -37 130 -37q70 0 124.5 36t62.5 84v524h75v-50h50v-525q-3 -80 -80.5 -137.5t-181.5 -57.5q-76 0 -139.5 29.5t-98.5 78.5q-78 57 -82 136v526h78v-50h50z" />
<glyph unicode="&#xda;" horiz-adv-x="598" d="M293 775l122 98h-86l-74 -98h38zM493 833l-147 -118h-61l78 104l-67 -54h-61l89 118h119l-63 -50h113zM76 176v515h-58v-515q5 -76 80.5 -130.5t179.5 -54.5q100 0 174.5 54.5t77.5 130.5v515h-55v-515q-7 -52 -64.5 -90.5t-132.5 -38.5q-78 0 -136.5 38.5t-65.5 90.5z M136 651v-524q3 -19 12 -33q55 -37 130 -37q70 0 124.5 36t62.5 84v524h75v-50h50v-525q-3 -80 -80.5 -137.5t-181.5 -57.5q-76 0 -139.5 29.5t-98.5 78.5q-78 57 -82 136v526h78v-50h50z" />
<glyph unicode="&#xdb;" horiz-adv-x="652" d="M275 977l-114 -113l33 -35l81 81l80 -81l35 34zM197 814l80 79l-2 3l-81 -81l-47 49l128 127l50 -50l79 -78l50 -50l-49 -48l-50 50l-31 30l-80 -80zM103 176v515h-58v-515q5 -76 80.5 -130.5t179.5 -54.5q100 0 174.5 54.5t77.5 130.5v515h-55v-515q-7 -52 -64.5 -90.5 t-132.5 -38.5q-78 0 -136.5 38.5t-65.5 90.5zM163 651v-524q3 -19 12 -33q55 -37 130 -37q70 0 124.5 36t62.5 84v524h75v-50h50v-525q-3 -80 -80.5 -137.5t-181.5 -57.5q-76 0 -139.5 29.5t-98.5 78.5q-78 57 -82 136v526h78v-50h50z" />
<glyph unicode="&#xdc;" horiz-adv-x="598" d="M305 752q0 -13 10.5 -23t24.5 -10t24.5 10t10.5 23t-10.5 23t-24.5 10t-24.5 -10t-10.5 -23zM175 752q0 -13 10.5 -23t24.5 -10t24.5 10t10.5 23t-10.5 23t-24.5 10t-24.5 -10t-10.5 -23zM345 702v7h-5q-18 0 -31.5 13t-13.5 30t13.5 30t31.5 13t31.5 -13t13.5 -30 q0 -5 -1 -8q1 0 3 0.5t3 0.5q18 0 31.5 -13t13.5 -30t-13.5 -30t-31.5 -13t-31.5 13t-13.5 30zM215 702v7h-5q-18 0 -31.5 13t-13.5 30t13.5 30t31.5 13q17 0 31 -13t14 -30q0 -5 -1 -8q1 0 3 0.5t3 0.5q17 0 31 -13t14 -30q0 -16 -14 -29.5t-31 -13.5q-18 0 -31.5 13 t-13.5 30zM76 176v515h-58v-515q5 -76 80.5 -130.5t179.5 -54.5q100 0 174.5 54.5t77.5 130.5v515h-55v-515q-7 -52 -64.5 -90.5t-132.5 -38.5q-78 0 -136.5 38.5t-65.5 90.5zM136 651v-524q3 -19 12 -33q55 -37 130 -37q70 0 124.5 36t62.5 84v524h75v-50h50v-525 q-3 -80 -80.5 -137.5t-181.5 -57.5q-76 0 -139.5 29.5t-98.5 78.5q-78 57 -82 136v526h78v-50h50z" />
<glyph unicode="&#xdd;" horiz-adv-x="681" d="M341 775l122 98h-86l-74 -98h38zM541 833l-147 -118h-61l78 104l-67 -54h-61l89 118h119l-63 -50h113zM628 691h-72l-241 -326l-238 326h-73l284 -380v-311h56v311zM551 701h97l-38 -50h88l-294 -393v-318h-76v50h-50v318l-82 109l-212 284h98l36 -50h14l189 -260l55 74z " />
<glyph unicode="&#xde;" horiz-adv-x="550" d="M87 99l-3 309q7 19 48 33.5t93 14.5q76 0 131.5 -61t55.5 -143q0 -84 -55 -144t-132 -62q-38 1 -70.5 8.5t-50.5 19.5t-17 25zM87 478v214h-55v-884h54v217q76 -34 139 -34q101 0 172 76.5t71 185.5q0 106 -71 181.5t-172 77.5q-80 0 -138 -34zM147 652v-140q40 10 78 10 q121 -3 196 -102q50 -37 78.5 -94t28.5 -123q0 -113 -73.5 -192.5t-179.5 -79.5q-64 0 -129 28v-211h-74v50h-50v904h75v-50h50zM144 357l3 -291q29 -8 78 -10q73 2 125 59t52 137q0 63 -36 115q-44 29 -91 29q-49 0 -86.5 -11.5t-44.5 -27.5z" />
<glyph unicode="&#xdf;" horiz-adv-x="547" d="M93 -168v506h150q71 -4 116 -44.5t45 -96.5t-42 -98t-102 -45h-138l52 -52h86q84 1 141.5 58.5t57.5 136.5q0 53 -28 98t-75 69q40 25 64.5 64t24.5 86q0 69 -54.5 120t-130.5 52h-222v-854h55zM93 633h167q55 -3 92.5 -37.5t37.5 -81.5q0 -51 -37.5 -85.5t-92.5 -36.5 h-167v241zM429 317q1 -1 2.5 -4t2.5 -4q40 -27 62.5 -70t22.5 -92q0 -83 -60.5 -143.5t-148.5 -61.5h-90l-67 67v-237h-75v50h-50v874h232q51 -1 94.5 -25t70.5 -62q37 -26 58.5 -64.5t21.5 -80.5q0 -90 -76 -147zM153 278v-214h107q55 3 94.5 42t39.5 91q0 28 -15 56 q-38 22 -87 25h-139zM380 514q0 20 -10 42q-28 14 -61 17h-156v-171h107q51 2 85.5 33.5t34.5 78.5z" />
<glyph unicode="&#xe0;" horiz-adv-x="406" d="M274 245v-101q0 -41 -32.5 -69.5t-78.5 -28.5q-45 0 -76.5 28.5t-31.5 69.5q0 44 33.5 72.5t81.5 28.5h104zM274 30v-30h69q-16 17 -16 159l2 164v10q-4 71 -47.5 121.5t-103.5 51.5q-67 0 -132 -19l13 -52q55 16 118 16q43 -1 70 -41t27 -97v-14h-104q-70 0 -120 -44.5 t-50 -110.5q0 -64 48 -109t115 -45q63 0 111 40zM314 -60v20q-46 -30 -101 -30q-46 0 -85 21.5t-63 57.5q-34 22 -54.5 58t-20.5 77q0 71 53 118t127 47h94v4q0 41 -15 73q-7 3 -22 5q-58 0 -125 -19l-15 59q-11 -3 -35 -9l-18 72q74 22 144 22q77 -2 125 -74 q37 -23 60 -65.5t26 -93.5v-10q-2 -84 -2 -164q0 -137 29 -169h-102zM264 144v41h-44q-44 0 -74.5 -25.5t-30.5 -65.5q0 -15 5 -30q21 -8 43 -8q42 0 71.5 25.5t29.5 62.5zM58 670l123 -98h37l-73 98h-87zM228 512l-149 118h13l-63 50h121l37 -50h13l88 -118h-60z" />
<glyph unicode="&#xe1;" horiz-adv-x="406" d="M176 584l122 98h-86l-74 -98h38zM376 642l-147 -118h-61l78 104l-67 -54h-61l89 118h119l-63 -50h113zM274 245v-101q0 -41 -32.5 -69.5t-78.5 -28.5q-45 0 -76.5 28.5t-31.5 69.5q0 44 33.5 72.5t81.5 28.5h104zM274 30v-30h69q-16 17 -16 159l2 164v10 q-4 71 -47.5 121.5t-103.5 51.5q-67 0 -132 -19l13 -52q55 16 118 16q43 -1 70 -41t27 -97v-14h-104q-70 0 -120 -44.5t-50 -110.5q0 -64 48 -109t115 -45q63 0 111 40zM314 -60v20q-46 -30 -101 -30q-46 0 -85 21.5t-63 57.5q-34 22 -54.5 58t-20.5 77q0 71 53 118t127 47 h94v4q0 41 -15 73q-7 3 -22 5q-58 0 -125 -19l-15 59q-11 -3 -35 -9l-18 72q74 22 144 22q77 -2 125 -74q37 -23 60 -65.5t26 -93.5v-10q-2 -84 -2 -164q0 -137 29 -169h-102zM264 144v41h-44q-44 0 -74.5 -25.5t-30.5 -65.5q0 -15 5 -30q21 -8 43 -8q42 0 71.5 25.5 t29.5 62.5z" />
<glyph unicode="&#xe2;" horiz-adv-x="406" d="M174 735l-114 -113l33 -35l81 81l80 -81l35 34zM96 572l80 79l-2 3l-81 -81l-47 49l128 127l50 -50l79 -78l50 -50l-49 -48l-50 50l-31 30l-80 -80zM274 245v-101q0 -41 -32.5 -69.5t-78.5 -28.5q-45 0 -76.5 28.5t-31.5 69.5q0 44 33.5 72.5t81.5 28.5h104zM274 30v-30 h69q-16 17 -16 159l2 164v10q-4 71 -47.5 121.5t-103.5 51.5q-67 0 -132 -19l13 -52q55 16 118 16q43 -1 70 -41t27 -97v-14h-104q-70 0 -120 -44.5t-50 -110.5q0 -64 48 -109t115 -45q63 0 111 40zM314 -60v20q-46 -30 -101 -30q-46 0 -85 21.5t-63 57.5q-34 22 -54.5 58 t-20.5 77q0 71 53 118t127 47h94v4q0 41 -15 73q-7 3 -22 5q-58 0 -125 -19l-15 59q-11 -3 -35 -9l-18 72q74 22 144 22q77 -2 125 -74q37 -23 60 -65.5t26 -93.5v-10q-2 -84 -2 -164q0 -137 29 -169h-102zM264 144v41h-44q-44 0 -74.5 -25.5t-30.5 -65.5q0 -15 5 -30 q21 -8 43 -8q42 0 71.5 25.5t29.5 62.5z" />
<glyph unicode="&#xe3;" horiz-adv-x="477" d="M309 252v-101q0 -41 -32.5 -69.5t-78.5 -28.5q-45 0 -76.5 28.5t-31.5 69.5q0 44 33.5 72.5t81.5 28.5h104zM309 37v-30h69q-16 17 -16 159l2 164v10q-4 71 -47.5 121.5t-103.5 51.5q-67 0 -132 -19l13 -52q55 16 118 16q43 -1 70 -41t27 -97v-14h-104q-70 0 -120 -44.5 t-50 -110.5q0 -64 48 -109t115 -45q63 0 111 40zM349 -53v20q-46 -30 -101 -30q-46 0 -85 21.5t-63 57.5q-34 22 -54.5 58t-20.5 77q0 71 53 118t127 47h94v4q0 42 -15 73q-7 3 -22 5q-58 0 -125 -19l-15 59q-11 -3 -35 -9l-18 72q74 22 144 22q77 -2 125 -74 q37 -23 60 -65.5t26 -93.5v-10q-2 -84 -2 -164q0 -137 29 -169h-102zM299 151v41h-44q-44 0 -74.5 -25.5t-30.5 -65.5q0 -15 5 -30q21 -8 43 -8q42 0 71.5 25.5t29.5 62.5zM181 558l-1 1q24 -11 55 -11q55 0 94 31l-19 39q-29 -26 -79 -26q-11 0 -37 8t-46 8q-51 0 -95 -30 l23 -40q28 25 73 25q15 0 32 -5zM341 576q-18 -14 -34 -21q34 9 56 29l28 -58q-47 -38 -106 -38q-35 0 -57 11v-1q-17 5 -29 5q-42 0 -76 -31l-33 59q18 12 29 17q-23 -7 -46 -26l-33 59q55 37 108 37q23 0 49 -8h-3h1q1 -1 2 -1q21 -7 34 -7q47 0 82 32z" />
<glyph unicode="&#xe4;" horiz-adv-x="472" d="M307 252v-101q0 -41 -32.5 -69.5t-78.5 -28.5q-45 0 -76.5 28.5t-31.5 69.5q0 44 33.5 72.5t81.5 28.5h104zM307 37v-30h69q-16 17 -16 159l2 164v10q-4 71 -47.5 121.5t-103.5 51.5q-67 0 -132 -19l13 -52q55 16 118 16q43 -1 70 -41t27 -97v-14h-104q-70 0 -120 -44.5 t-50 -110.5q0 -64 48 -109t115 -45q63 0 111 40zM347 -53v20q-46 -30 -101 -30q-46 0 -85 21.5t-63 57.5q-34 22 -54.5 58t-20.5 77q0 71 53 118t127 47h94v4q0 42 -15 73q-7 3 -22 5q-58 0 -125 -19l-15 59q-11 -3 -35 -9l-18 72q74 22 144 22q77 -2 125 -74 q37 -23 60 -65.5t26 -93.5v-10q-2 -84 -2 -164q0 -137 29 -169h-102zM297 151v41h-44q-44 0 -74.5 -25.5t-30.5 -65.5q0 -15 5 -30q21 -8 43 -8q42 0 71.5 25.5t29.5 62.5zM235 639q0 -13 10.5 -23t24.5 -10t24.5 10t10.5 23t-10.5 23t-24.5 10t-24.5 -10t-10.5 -23z M105 639q0 -13 10 -23t25 -10q14 0 24.5 10t10.5 23t-10.5 23t-24.5 10q-15 0 -25 -9.5t-10 -23.5zM145 589v7h-5q-19 0 -32 13t-13 30q0 18 13 30.5t32 12.5q17 0 31 -13t14 -30q0 -5 -1 -7h6q17 0 31 -13t14 -30q0 -16 -14 -29.5t-31 -13.5q-19 0 -32 13t-13 30zM275 589 v7h-5q-18 0 -31.5 13t-13.5 30t13.5 30t31.5 13t31.5 -13t13.5 -30q0 -5 -1 -8q1 0 3 0.5t3 0.5q18 0 31.5 -13t13.5 -30t-13.5 -30t-31.5 -13t-31.5 13t-13.5 30z" />
<glyph unicode="&#xe5;" horiz-adv-x="477" d="M86 736q0 -42 30 -71t75 -29q41 0 70 29.5t29 70.5q0 44 -28.5 73.5t-70.5 29.5q-45 0 -75 -29.5t-30 -73.5zM127 736q0 25 19.5 45t44.5 20q21 0 39.5 -20.5t18.5 -44.5q0 -23 -18.5 -42t-39.5 -19q-25 0 -44.5 19t-19.5 42zM76 736q0 49 32.5 81t82.5 32q67 0 97 -61 q28 -13 45 -40t17 -62q0 -46 -31.5 -78t-77.5 -32q-35 0 -62.5 17t-41.5 45q-61 30 -61 98zM187 686v-1h4q17 0 32.5 16t15.5 35v5q-20 -2 -36 -18.5t-16 -36.5zM137 736q18 38 58 55h-4q-21 0 -37.5 -17t-16.5 -38zM289 687q-18 -37 -54 -52h6q17 0 32.5 16t15.5 35v1z M309 245v-101q0 -41 -32.5 -69.5t-78.5 -28.5q-45 0 -76.5 28.5t-31.5 69.5q0 44 33.5 72.5t81.5 28.5h104zM309 30v-30h69q-16 17 -16 159l2 164v10q-4 71 -47.5 121.5t-103.5 51.5q-67 0 -132 -19l13 -52q55 16 118 16q43 -1 70 -41t27 -97v-14h-104q-70 0 -120 -44.5 t-50 -110.5q0 -64 48 -109t115 -45q63 0 111 40zM349 -60v20q-46 -30 -101 -30q-46 0 -85 21.5t-63 57.5q-34 22 -54.5 58t-20.5 77q0 71 53 118t127 47h94v4q0 41 -15 73q-7 3 -22 5q-58 0 -125 -19l-15 59q-11 -3 -35 -9l-18 72q74 22 144 22q77 -2 125 -74 q37 -23 60 -65.5t26 -93.5v-10q-2 -84 -2 -164q0 -137 29 -169h-102zM299 144v41h-44q-44 0 -74.5 -25.5t-30.5 -65.5q0 -15 5 -30q21 -8 43 -8q42 0 71.5 25.5t29.5 62.5z" />
<glyph unicode="&#xe6;" horiz-adv-x="795" d="M306 245v-14q1 -31 8 -59v-28q0 -41 -32.5 -69.5t-77.5 -28.5q-46 0 -77 28.5t-31 69.5q0 42 31.5 71.5t76.5 29.5h102zM651 277h-283q1 75 41.5 124.5t96.5 49.5t97 -49.5t48 -124.5zM314 30v-30h73q-17 14 -19 64q60 -73 149 -73q18 0 26 1q70 13 125 43l-22 48 q-76 -38 -129 -38q-51 0 -93 41t-57 102v36h338v30q0 107 -57.5 180t-141.5 73q-46 0 -87 -26t-69 -71q-20 43 -55 69t-77 27q-66 0 -132 -19l14 -52q54 16 117 16q40 -2 68 -37.5t29 -88.5q0 -3 -2 -12.5t-3 -13.5h-105q-68 0 -116 -45.5t-48 -109.5t48 -109t116 -45 q62 0 110 40zM354 -60v20q-46 -30 -100 -30q-46 0 -85.5 21.5t-63.5 57.5q-34 22 -54.5 58t-20.5 77q0 69 51 117t123 48h97q0 1 0.5 3.5t0.5 3.5q2 8 2 9q-2 36 -14 61q-7 3 -23 5q-60 0 -124 -19l-16 59l-34 -9l-19 72q77 22 144 22q78 -3 125 -74q1 -1 5 -3.5t6 -4.5 q62 83 152 83q94 0 155 -84q48 -34 76 -94.5t28 -134.5v-40h-338v-24q9 -38 30 -67q27 -18 60 -18q50 0 134 41l27 -61q3 1 11 5l12 6l30 -66q-59 -33 -137 -48q-8 -1 -27 -1q-74 0 -135 53q8 -25 34 -44h-112zM639 287q-8 53 -31 89q-24 15 -52 15q-40 0 -72.5 -28.5 t-46.5 -75.5h202zM304 170q-2 6 -3 15h-47q-41 0 -69.5 -26.5t-28.5 -64.5q0 -15 5 -30q17 -8 43 -8q41 0 70.5 25.5t29.5 62.5v26z" />
<glyph unicode="&#xe7;" horiz-adv-x="529" d="M280 -23l5 14q92 9 158 80l-39 38q-58 -63 -135 -63t-131.5 59t-54.5 144q0 84 54.5 143t131.5 59t139 -67l38 38q-74 84 -177 84q-100 0 -170.5 -75.5t-70.5 -181.5q0 -95 56.5 -166t141.5 -88l-2 -53h11h2q2 1 3 1q42 0 42 -28q0 -10 -18.5 -17.5t-37.5 -9.5l48 -38 q55 34 55 67q0 20 -16.5 37.5t-32.5 22.5zM342 -68q18 -9 32.5 -26.5t14.5 -38.5q0 -38 -66 -79l-74 58q2 1 6 1.5t6 0.5l-62 48q55 8 66 13v18q-8 6 -25 6l-2 -1h-3h-21l1 23q-54 25 -93 75q-49 37 -76.5 94t-27.5 125q0 110 73 188.5t178 78.5q108 0 191 -94l-3 -3 q29 -20 53 -47l-52 -52q-66 71 -139 71t-124.5 -56.5t-51.5 -135.5q0 -66 34 -115q42 -28 92 -28q73 0 134 67l54 -51l-2 -2l52 -48q-71 -77 -165 -90zM318 -126q-10 -10 -23 -20q27 5 27 11q0 5 -4 9z" />
<glyph unicode="&#xe8;" horiz-adv-x="456" d="M350 277h-289q10 74 50.5 124t93.5 50q56 0 97 -49.5t48 -124.5zM216 45q-62 1 -106.5 51.5t-49.5 127.5h343v30q0 107 -57 180t-141 73q-83 0 -142 -76t-59 -182v-18q6 -101 67.5 -170.5t144.5 -69.5q18 0 26 1q69 13 124 43l-21 48q-76 -38 -129 -38zM216 55 q50 0 134 41l27 -61q11 4 23 11l29 -66q-66 -36 -136 -48q-8 -1 -27 -1q-98 0 -166 89q-45 34 -73.5 89t-32.5 121v19q0 111 62 189.5t149 78.5q93 0 154 -84q48 -33 76 -94t28 -135v-40h-342q6 -52 31 -91q29 -18 64 -18zM338 287q-8 53 -31 89q-24 15 -52 15 q-37 0 -68.5 -28.5t-49.5 -75.5h201zM92 670l123 -98h37l-73 98h-87zM262 512l-149 118h13l-63 50h121l37 -50h13l88 -118h-60z" />
<glyph unicode="&#xe9;" horiz-adv-x="456" d="M210 584l122 98h-86l-74 -98h38zM410 642l-147 -118h-61l78 104l-67 -54h-61l89 118h119l-63 -50h113zM350 277h-289q10 74 50.5 124t93.5 50q56 0 97 -49.5t48 -124.5zM216 45q-62 1 -106.5 51.5t-49.5 127.5h343v30q0 107 -57 180t-141 73q-83 0 -142 -76t-59 -182v-18 q6 -101 67.5 -170.5t144.5 -69.5q18 0 26 1q69 13 124 43l-21 48q-76 -38 -129 -38zM216 55q50 0 134 41l27 -61q11 4 23 11l29 -66q-66 -36 -136 -48q-8 -1 -27 -1q-98 0 -166 89q-45 34 -73.5 89t-32.5 121v19q0 111 62 189.5t149 78.5q93 0 154 -84q48 -33 76 -94 t28 -135v-40h-342q6 -52 31 -91q29 -18 64 -18zM338 287q-8 53 -31 89q-24 15 -52 15q-37 0 -68.5 -28.5t-49.5 -75.5h201z" />
<glyph unicode="&#xea;" horiz-adv-x="456" d="M204 735l-114 -113l33 -35l81 81l80 -81l35 34zM126 572l80 79l-2 3l-81 -81l-47 49l128 127l50 -50l79 -78l50 -50l-49 -48l-50 50l-31 30l-80 -80zM350 277h-289q10 74 50.5 124t93.5 50q56 0 97 -49.5t48 -124.5zM216 45q-62 1 -106.5 51.5t-49.5 127.5h343v30 q0 107 -57 180t-141 73q-83 0 -142 -76t-59 -182v-18q6 -101 67.5 -170.5t144.5 -69.5q18 0 26 1q69 13 124 43l-21 48q-76 -38 -129 -38zM216 55q50 0 134 41l27 -61q11 4 23 11l29 -66q-66 -36 -136 -48q-8 -1 -27 -1q-98 0 -166 89q-45 34 -73.5 89t-32.5 121v19 q0 111 62 189.5t149 78.5q93 0 154 -84q48 -33 76 -94t28 -135v-40h-342q6 -52 31 -91q29 -18 64 -18zM338 287q-8 53 -31 89q-24 15 -52 15q-37 0 -68.5 -28.5t-49.5 -75.5h201z" />
<glyph unicode="&#xeb;" horiz-adv-x="456" d="M230 639q0 -13 10.5 -23t24.5 -10t24.5 10t10.5 23t-10.5 23t-24.5 10t-24.5 -10t-10.5 -23zM100 639q0 -13 10.5 -23t24.5 -10t24.5 10t10.5 23t-10.5 23t-24.5 10t-24.5 -10t-10.5 -23zM270 589v7h-5q-18 0 -31.5 13t-13.5 30t13.5 30t31.5 13t31.5 -13t13.5 -30 q0 -5 -1 -8q1 0 3 0.5t3 0.5q18 0 31.5 -13t13.5 -30t-13.5 -30t-31.5 -13t-31.5 13t-13.5 30zM140 589v7h-5q-18 0 -31.5 13t-13.5 30t13.5 30t31.5 13q17 0 31 -13t14 -30q0 -5 -1 -8q1 0 3 0.5t3 0.5q17 0 31 -13t14 -30q0 -16 -14 -29.5t-31 -13.5q-18 0 -31.5 13 t-13.5 30zM350 277h-289q10 74 50.5 124t93.5 50q56 0 97 -49.5t48 -124.5zM216 45q-62 1 -106.5 51.5t-49.5 127.5h343v30q0 107 -57 180t-141 73q-83 0 -142 -76t-59 -182v-18q6 -101 67.5 -170.5t144.5 -69.5q18 0 26 1q69 13 124 43l-21 48q-76 -38 -129 -38zM216 55 q50 0 134 41l27 -61q11 4 23 11l29 -66q-66 -36 -136 -48q-8 -1 -27 -1q-98 0 -166 89q-45 34 -73.5 89t-32.5 121v19q0 111 62 189.5t149 78.5q93 0 154 -84q48 -33 76 -94t28 -135v-40h-342q6 -52 31 -91q29 -18 64 -18zM338 287q-8 53 -31 89q-24 15 -52 15 q-37 0 -68.5 -28.5t-49.5 -75.5h201z" />
<glyph unicode="&#xec;" horiz-adv-x="283" d="M41 677l123 -98h37l-73 98h-87zM211 519l-149 118h13l-63 50h121l37 -50h13l88 -118h-60zM111 500v-500h53v500h-53zM101 -10v520h73v-50h50v-520h-73v50h-50z" />
<glyph unicode="&#xed;" horiz-adv-x="292" d="M75 591l122 98h-86l-74 -98h38zM275 649l-147 -118h-61l78 104l-67 -54h-61l89 118h119l-63 -50h113zM49 500v-500h54v500h-54zM39 -10v520h74v-50h50v-520h-74v50h-50z" />
<glyph unicode="&#xee;" horiz-adv-x="329" d="M139 742l-114 -113l33 -35l81 81l80 -81l35 34zM61 579l80 79l-2 3l-81 -81l-47 49l128 127l50 -50l79 -78l50 -50l-49 -48l-50 50l-31 30l-80 -80zM100 500v-500h53v500h-53zM90 -10v520h73v-50h50v-520h-73v50h-50z" />
<glyph unicode="&#xef;" horiz-adv-x="269" d="M120 639q0 -13 10 -23t25 -10q14 0 24.5 10t10.5 23t-10.5 23t-24.5 10q-15 0 -25 -9.5t-10 -23.5zM28 639q0 -13 10.5 -23t24.5 -10t24.5 10t10.5 23t-10.5 23t-24.5 10t-24.5 -10t-10.5 -23zM81 500v-500h53v500h-53zM71 -10v520h73v-50h50v-520h-73v50h-50zM68 589v7 h-5q-18 0 -31.5 13t-13.5 30t13.5 30t31.5 13t31.5 -13t13.5 -30q0 -5 -1 -8q1 0 3 1v7q0 18 13 30.5t32 12.5q17 0 31 -13t14 -30q0 -5 -1 -7h6q17 0 31 -13t14 -30q0 -16 -14 -29.5t-31 -13.5q-19 0 -32 13t-13 30v7h-3q1 -2 1 -7q0 -17 -13.5 -30t-31.5 -13t-31.5 13 t-13.5 30z" />
<glyph unicode="&#xf0;" horiz-adv-x="489" d="M60 477q0 64 46 111t112 47q61 0 108 -45t47 -106q0 -65 -46 -110t-112 -45q-61 0 -106 43t-49 105zM8 482v-7q1 -83 62.5 -141.5t144.5 -58.5q48 0 91.5 20.5t73.5 54.5v-12q0 -79 -11 -153q-13 -59 -57.5 -97.5t-105.5 -38.5q-78 0 -129 73l-50 -41q32 -40 78 -64 t94 -24q81 0 143 50t77 129q12 63 12 150v26q0 95 -3 137q-7 85 -67.5 145.5t-143.5 60.5q-87 0 -148 -61.5t-61 -147.5zM-2 475v7q0 90 64 154.5t155 64.5q108 0 175 -92q41 -29 66.5 -75t29.5 -98q3 -42 3 -138v-26q0 -89 -12 -152q-16 -83 -80.5 -135t-149.5 -52 q-51 0 -100.5 27t-85.5 72q-27 21 -50 50l66 55q20 -30 49 -51l1 1q0 -1 1 -2t1 -2q36 -24 75 -24q57 0 99 36.5t54 91.5v-1q6 50 6 52q-46 -23 -100 -23t-101.5 24.5t-77.5 67.5q-40 29 -63.5 73t-24.5 95zM363 484q0 37 -20 69q-35 22 -75 22q-61 0 -104.5 -44t-43.5 -103 q1 -35 21 -68q36 -21 74 -21q62 0 105 42t43 103z" />
<glyph unicode="&#xf1;" horiz-adv-x="515" d="M123 453v50h-69q15 -15 15 -48v-448h54v337q11 48 46 82t78 34q50 0 86 -37.5t37 -92.5v-323h55l-2 323q-2 78 -51.5 131.5t-119.5 53.5q-78 0 -129 -62zM133 513v-34q45 46 119 46q90 0 144 -79q39 -26 62.5 -69.5t24.5 -96.5l2 -333h-75v50h-50v333q-2 33 -15 58 q-23 12 -48 12q-38 0 -70.5 -32t-43.5 -76v-345h-74v50h-50v458q0 13 -9.5 30.5t-19.5 27.5h103zM194 600l-1 1q21 -12 55 -12q54 0 95 28l-21 42q-31 -26 -73 -26q-14 0 -40 8q-31 9 -48 9q-55 0 -94 -27l19 -42q38 25 72 25q21 0 36 -6zM250 558l-10 -17q-15 5 -32 5 q-31 0 -77 -29l-26 60q12 9 24 14q-21 -8 -48 -24l-26 60q49 33 106 33q24 0 42 -6q1 0 5.5 -2t6.5 -3h-1q20 -6 35 -6q39 0 76 32l31 -61q-10 -8 -27 -16q28 11 46 27l31 -61q-52 -35 -108 -35q-38 0 -60 13z" />
<glyph unicode="&#xf2;" horiz-adv-x="527" d="M5 247q0 -106 69 -181.5t166 -75.5t165 75.5t68 181.5q0 107 -68 183t-165 76t-166 -76t-69 -183zM60 247q0 85 52.5 144.5t127.5 59.5q74 0 126 -59.5t52 -144.5q0 -83 -52.5 -142.5t-125.5 -59.5q-75 0 -127.5 59.5t-52.5 142.5zM-5 247q0 111 72 190t173 79 q113 0 187 -97q49 -37 77.5 -95t28.5 -127q0 -110 -71 -188.5t-172 -78.5q-114 0 -188 97q-50 37 -78.5 95t-28.5 125zM120 197q0 -64 34 -116q38 -26 86 -26q69 0 118.5 56.5t49.5 135.5q0 65 -35 118q-38 26 -83 26q-70 0 -120 -57t-50 -137zM129 670l123 -98h37l-73 98 h-87zM299 512l-149 118h13l-63 50h121l37 -50h13l88 -118h-60z" />
<glyph unicode="&#xf3;" horiz-adv-x="527" d="M253 584l122 98h-86l-74 -98h38zM453 642l-147 -118h-61l78 104l-67 -54h-61l89 118h119l-63 -50h113zM5 247q0 -106 69 -181.5t166 -75.5t165 75.5t68 181.5q0 107 -68 183t-165 76t-166 -76t-69 -183zM60 247q0 85 52.5 144.5t127.5 59.5q74 0 126 -59.5t52 -144.5 q0 -83 -52.5 -142.5t-125.5 -59.5q-75 0 -127.5 59.5t-52.5 142.5zM-5 247q0 111 72 190t173 79q113 0 187 -97q49 -37 77.5 -95t28.5 -127q0 -110 -71 -188.5t-172 -78.5q-114 0 -188 97q-50 37 -78.5 95t-28.5 125zM120 197q0 -64 34 -116q38 -26 86 -26q69 0 118.5 56.5 t49.5 135.5q0 65 -35 118q-38 26 -83 26q-70 0 -120 -57t-50 -137z" />
<glyph unicode="&#xf4;" horiz-adv-x="513" d="M227 735l-114 -113l33 -35l81 81l80 -81l35 34zM149 572l80 79l-2 3l-81 -81l-47 49l128 127l50 -50l79 -78l50 -50l-49 -48l-50 50l-31 30l-80 -80zM-2 247q0 -106 69 -181.5t166 -75.5t165 75.5t68 181.5q0 107 -68 183t-165 76t-166 -76t-69 -183zM53 247 q0 85 52.5 144.5t127.5 59.5q74 0 126 -59.5t52 -144.5q0 -83 -52.5 -142.5t-125.5 -59.5q-75 0 -127.5 59.5t-52.5 142.5zM-12 247q0 111 72 190t173 79q113 0 187 -97q49 -37 77.5 -95t28.5 -127q0 -110 -71 -188.5t-172 -78.5q-114 0 -188 97q-50 37 -78.5 95t-28.5 125z M113 197q0 -64 34 -116q38 -26 86 -26q69 0 118.5 56.5t49.5 135.5q0 65 -35 118q-38 26 -83 26q-70 0 -120 -57t-50 -137z" />
<glyph unicode="&#xf5;" horiz-adv-x="513" d="M222 633h-1q31 -20 76 -20q40 0 75 20l-15 43q-28 -18 -60 -18q-23 0 -57 14q-42 14 -66 14q-39 0 -75 -19l16 -43q28 17 59 17q27 0 48 -8zM384 628q-2 -1 -5.5 -3t-5.5 -3q20 6 39 18l22 -62q-43 -25 -87 -25q-45 0 -99 33l20 -12q-19 7 -44 7q-28 0 -64 -22l-23 63 q1 0 2.5 1t2.5 2q-10 -4 -32 -16l-23 63q46 24 87 24q20 0 61 -12q2 0 4 -1l4 -2q30 -13 54 -13q29 0 65 22zM-2 247q0 -106 69 -181.5t166 -75.5t165 75.5t68 181.5q0 107 -68 183t-165 76t-166 -76t-69 -183zM53 247q0 85 52.5 144.5t127.5 59.5q74 0 126 -59.5t52 -144.5 q0 -83 -52.5 -142.5t-125.5 -59.5q-75 0 -127.5 59.5t-52.5 142.5zM-12 247q0 111 72 190t173 79q113 0 187 -97q49 -37 77.5 -95t28.5 -127q0 -110 -71 -188.5t-172 -78.5q-114 0 -188 97q-50 37 -78.5 95t-28.5 125zM113 197q0 -64 34 -116q38 -26 86 -26q69 0 118.5 56.5 t49.5 135.5q0 65 -35 118q-38 26 -83 26q-70 0 -120 -57t-50 -137z" />
<glyph unicode="&#xf6;" horiz-adv-x="527" d="M272 639q0 -13 10.5 -23t24.5 -10t24.5 10t10.5 23t-10.5 23t-24.5 10t-24.5 -10t-10.5 -23zM142 639q0 -13 10.5 -23t24.5 -10t24.5 10t10.5 23t-10.5 23t-24.5 10t-24.5 -10t-10.5 -23zM312 589v7h-5q-18 0 -31.5 13t-13.5 30t13.5 30t31.5 13t31.5 -13t13.5 -30 q0 -5 -1 -8q1 0 3 0.5t3 0.5q18 0 31.5 -13t13.5 -30t-13.5 -30t-31.5 -13t-31.5 13t-13.5 30zM182 589v7h-5q-18 0 -31.5 13t-13.5 30t13.5 30t31.5 13q17 0 31 -13t14 -30q0 -5 -1 -8q1 0 3 0.5t3 0.5q17 0 31 -13t14 -30q0 -16 -14 -29.5t-31 -13.5q-18 0 -31.5 13 t-13.5 30zM5 247q0 -106 69 -181.5t166 -75.5t165 75.5t68 181.5q0 107 -68 183t-165 76t-166 -76t-69 -183zM60 247q0 85 52.5 144.5t127.5 59.5q74 0 126 -59.5t52 -144.5q0 -83 -52.5 -142.5t-125.5 -59.5q-75 0 -127.5 59.5t-52.5 142.5zM-5 247q0 111 72 190t173 79 q113 0 187 -97q49 -37 77.5 -95t28.5 -127q0 -110 -71 -188.5t-172 -78.5q-114 0 -188 97q-50 37 -78.5 95t-28.5 125zM120 197q0 -64 34 -116q38 -26 86 -26q69 0 118.5 56.5t49.5 135.5q0 65 -35 118q-38 26 -83 26q-70 0 -120 -57t-50 -137z" />
<glyph unicode="&#xf7;" horiz-adv-x="443" d="M149 212v-76h76v76h-76zM139 126v96h96v-50h50v-96h-96v50h-50zM149 452v-76h76v76h-76zM139 366v96h96v-50h50v-96h-96v50h-50zM22 273h349v54h-349v-54zM431 213h-369v50h-50v74h369v-50h50v-74z" />
<glyph unicode="&#xf8;" horiz-adv-x="590" d="M449 247q0 -83 -52.5 -142.5t-125.5 -59.5q-85 0 -143 78l-40 -36q73 -97 183 -97q97 0 165 75.5t68 181.5q0 80 -47 155l-43 -36q35 -57 35 -119zM36 247q0 -70 38 -140l41 36q-24 47 -24 104q0 85 52.5 144.5t127.5 59.5q74 0 130 -66l42 36q-74 85 -172 85 q-97 0 -166 -76t-69 -183zM26 247q0 111 72 190t173 79q104 0 187 -96l-2 -2q24 -16 52 -48l-17 -15l1 -1v-1l17 14q55 -86 55 -170q0 -110 -71 -188.5t-172 -78.5q-112 0 -191 101q-30 23 -55 57l17 16v2l-1 2l-20 -17q-45 84 -45 156zM439 247q0 56 -36 115q-40 29 -82 29 q-70 0 -120 -57t-50 -137q0 -53 27 -106l-2 -1q46 -35 95 -35q69 0 118.5 56.5t49.5 135.5z" />
<glyph unicode="&#xf9;" horiz-adv-x="450" d="M309 53v-53h69q-5 5 -10 21.5t-5 32.5v446h-54v-337q-9 -47 -43 -81.5t-78 -34.5q-49 0 -85.5 38.5t-38.5 91.5l-1 5v316h-54v-319q2 -2 3 -4q2 -77 51 -130.5t118 -53.5q74 0 128 62zM349 -60v37q-51 -46 -118 -46q-88 0 -143 78q-38 26 -61.5 69t-24.5 94l-3 3v333h74 v-50h50v-326l1 -5q1 -31 16 -58q22 -12 48 -12q38 0 70 32.5t41 75.5v345h74v-50h50v-456q0 -14 9.5 -34t19.5 -30h-103zM90 670l123 -98h37l-73 98h-87zM260 512l-149 118h13l-63 50h121l37 -50h13l88 -118h-60z" />
<glyph unicode="&#xfa;" horiz-adv-x="450" d="M198 584l122 98h-86l-74 -98h38zM398 642l-147 -118h-61l78 104l-67 -54h-61l89 118h119l-63 -50h113zM309 53v-53h69q-5 5 -10 21.5t-5 32.5v446h-54v-337q-9 -47 -43 -81.5t-78 -34.5q-49 0 -85.5 38.5t-38.5 91.5l-1 5v316h-54v-319q2 -2 3 -4q2 -77 51 -130.5 t118 -53.5q74 0 128 62zM349 -60v37q-51 -46 -118 -46q-88 0 -143 78q-38 26 -61.5 69t-24.5 94l-3 3v333h74v-50h50v-326l1 -5q1 -31 16 -58q22 -12 48 -12q38 0 70 32.5t41 75.5v345h74v-50h50v-456q0 -14 9.5 -34t19.5 -30h-103z" />
<glyph unicode="&#xfb;" horiz-adv-x="450" d="M200 735l-114 -113l33 -35l81 81l80 -81l35 34zM122 572l80 79l-2 3l-81 -81l-47 49l128 127l50 -50l79 -78l50 -50l-49 -48l-50 50l-31 30l-80 -80zM309 53v-53h69q-5 5 -10 21.5t-5 32.5v446h-54v-337q-9 -47 -43 -81.5t-78 -34.5q-49 0 -85.5 38.5t-38.5 91.5l-1 5 v316h-54v-319q2 -2 3 -4q2 -77 51 -130.5t118 -53.5q74 0 128 62zM349 -60v37q-51 -46 -118 -46q-88 0 -143 78q-38 26 -61.5 69t-24.5 94l-3 3v333h74v-50h50v-326l1 -5q1 -31 16 -58q22 -12 48 -12q38 0 70 32.5t41 75.5v345h74v-50h50v-456q0 -14 9.5 -34t19.5 -30h-103z " />
<glyph unicode="&#xfc;" horiz-adv-x="450" d="M226 639q0 -13 10.5 -23t24.5 -10t24.5 10t10.5 23t-10.5 23t-24.5 10t-24.5 -10t-10.5 -23zM96 639q0 -13 10.5 -23t24.5 -10t24.5 10t10.5 23t-10.5 23t-24.5 10t-24.5 -10t-10.5 -23zM266 589v7h-5q-18 0 -31.5 13t-13.5 30t13.5 30t31.5 13t31.5 -13t13.5 -30 q0 -5 -1 -8q1 0 3 0.5t3 0.5q18 0 31.5 -13t13.5 -30t-13.5 -30t-31.5 -13t-31.5 13t-13.5 30zM136 589v7h-5q-18 0 -31.5 13t-13.5 30t13.5 30t31.5 13q17 0 31 -13t14 -30q0 -5 -1 -8q1 0 3 0.5t3 0.5q17 0 31 -13t14 -30q0 -16 -14 -29.5t-31 -13.5q-18 0 -31.5 13 t-13.5 30zM309 53v-53h69q-5 5 -10 21.5t-5 32.5v446h-54v-337q-9 -47 -43 -81.5t-78 -34.5q-49 0 -85.5 38.5t-38.5 91.5l-1 5v316h-54v-319q2 -2 3 -4q2 -77 51 -130.5t118 -53.5q74 0 128 62zM349 -60v37q-51 -46 -118 -46q-88 0 -143 78q-38 26 -61.5 69t-24.5 94l-3 3 v333h74v-50h50v-326l1 -5q1 -31 16 -58q22 -12 48 -12q38 0 70 32.5t41 75.5v345h74v-50h50v-456q0 -14 9.5 -34t19.5 -30h-103z" />
<glyph unicode="&#xfd;" horiz-adv-x="535" d="M272 584l122 98h-86l-74 -98h38zM472 642l-147 -118h-61l78 104l-67 -54h-61l89 118h119l-63 -50h113zM31 -133l-8 -56q21 -6 43 -6q49 0 95 32.5t66 87.5q7 22 22 61l21 53l-1 -1l190 468h-58l-158 -398l-159 398h-58l190 -467l-38 -94q-15 -41 -45.5 -63.5t-64.5 -22.5 q-29 0 -37 8zM62 -247l5 42h-1q-24 0 -54 8l11 86q20 -20 45 -20q30 0 58.5 21t42.5 59q3 8 9.5 23.5t9.5 23.5q1 3 7 18.5t10 24.5l-28 71l-166 406h80l20 -50h30l117 -295l82 209l54 136h80l-21 -50h71l-195 -481q-3 -7 -8.5 -23t-8.5 -23q-1 -4 -11.5 -29t-14.5 -38 q-22 -58 -70 -92.5t-100 -34.5q-24 0 -54 8z" />
<glyph unicode="&#xfe;" horiz-adv-x="547" d="M87 98l-3 307q8 19 48 33t92 14q75 0 130.5 -60.5t55.5 -141.5q0 -83 -55 -142.5t-131 -61.5q-38 1 -70 8t-50 19t-17 25zM87 475v212h-55v-878h54v216q76 -34 138 -34q100 0 170.5 76t70.5 184q0 105 -70 180t-171 77q-78 0 -137 -33zM147 647v-137q37 8 77 8 q120 -3 195 -101q49 -36 77.5 -93.5t28.5 -122.5q0 -113 -73 -191.5t-178 -78.5q-63 0 -128 28v-210h-74v50h-50v898h75v-50h50zM144 353l3 -288q31 -7 77 -9q72 2 124 58.5t52 135.5q0 60 -36 114q-44 28 -90 28q-47 0 -84 -11.5t-46 -27.5z" />
<glyph unicode="&#xff;" horiz-adv-x="535" d="M290 639q0 -13 10.5 -23t24.5 -10t24.5 10t10.5 23t-10.5 23t-24.5 10t-24.5 -10t-10.5 -23zM160 639q0 -13 10.5 -23t24.5 -10t24.5 10t10.5 23t-10.5 23t-24.5 10t-24.5 -10t-10.5 -23zM330 589v7h-5q-18 0 -31.5 13t-13.5 30t13.5 30t31.5 13t31.5 -13t13.5 -30 q0 -5 -1 -8q1 0 3 0.5t3 0.5q18 0 31.5 -13t13.5 -30t-13.5 -30t-31.5 -13t-31.5 13t-13.5 30zM200 589v7h-5q-18 0 -31.5 13t-13.5 30t13.5 30t31.5 13q17 0 31 -13t14 -30q0 -5 -1 -8q1 0 3 0.5t3 0.5q17 0 31 -13t14 -30q0 -16 -14 -29.5t-31 -13.5q-18 0 -31.5 13 t-13.5 30zM31 -133l-8 -56q21 -6 43 -6q49 0 95 32.5t66 87.5q7 22 22 61l21 53l-1 -1l190 468h-58l-158 -398l-159 398h-58l190 -467l-38 -94q-15 -41 -45.5 -63.5t-64.5 -22.5q-29 0 -37 8zM62 -247l5 42h-1q-24 0 -54 8l11 86q20 -20 45 -20q30 0 58.5 21t42.5 59 q3 8 9.5 23.5t9.5 23.5q1 3 7 18.5t10 24.5l-28 71l-166 406h80l20 -50h30l117 -295l82 209l54 136h80l-21 -50h71l-195 -481q-3 -7 -8.5 -23t-8.5 -23q-1 -4 -11.5 -29t-14.5 -38q-22 -58 -70 -92.5t-100 -34.5q-24 0 -54 8z" />
<glyph unicode="&#x152;" horiz-adv-x="1116" d="M536 561q73 -76 82 -191v-51q-11 -114 -84.5 -193t-176.5 -79q-109 0 -183.5 86.5t-74.5 211.5q0 123 75.5 208.5t182.5 85.5q109 0 179 -78zM576 88q20 21 42 55v-143h405v55h-350v285h299v55h-299v243h350v53h-405v-146q-88 150 -261 150q-130 0 -222 -102.5 t-92 -247.5q0 -149 93 -251.5t221 -102.5q130 0 219 97zM1033 65v-50h50v-75h-425v50h-50v16q-88 -75 -201 -75q-69 0 -131 31t-108 87q-62 50 -98.5 127t-36.5 169q0 150 95 255t229 105q153 0 238 -109q1 -1 13 -10v115h425v-50h50v-73h-350v-173h249v-50h50v-75h-299 v-215h300zM608 369q-7 95 -61 163q-61 47 -140 47q-103 0 -175.5 -83t-72.5 -201q0 -111 62 -192q62 -46 136 -46q96 0 167.5 77t83.5 186v49z" />
<glyph unicode="&#x153;" horiz-adv-x="951" d="M806 277h-289q10 74 50.5 124t93.5 50q56 0 97 -49.5t48 -124.5zM95 247q0 85 53 144.5t128 59.5q73 0 125 -59.5t52 -144.5q0 -83 -52 -142.5t-125 -59.5q-75 0 -128 59.5t-53 142.5zM672 45q-62 1 -106.5 51.5t-49.5 127.5h344v30q0 107 -57.5 180t-141.5 73 q-56 0 -104 -39t-74 -101q-30 62 -86 100.5t-121 38.5q-97 0 -166 -76t-69 -183q0 -106 69 -181.5t166 -75.5q66 0 122 39t86 101q27 -63 77.5 -101t110.5 -38q18 0 26 1q70 13 125 43l-22 48q-76 -38 -129 -38zM672 55q50 0 134 41l27 -61q3 1 11 5l12 6l30 -66 q-59 -33 -137 -48q-8 -1 -27 -1q-100 0 -164 87q-15 11 -32 28q-35 -53 -87.5 -84.5t-112.5 -31.5q-114 0 -188 97q-50 37 -78.5 95t-28.5 125q0 111 72 190t173 79q54 0 103 -27t84 -72q12 -9 22 -19q28 56 74 87.5t102 31.5q94 0 155 -84q48 -34 76 -94.5t28 -134.5v-40 h-343q6 -52 31 -91q28 -18 64 -18zM155 197q0 -66 34 -115q40 -27 87 -27q69 0 118 56.5t49 135.5q0 67 -35 119q-39 25 -82 25q-71 0 -121 -57t-50 -137zM794 287q-8 53 -31 89q-24 15 -52 15q-37 0 -68.5 -28.5t-49.5 -75.5h201z" />
<glyph unicode="&#x178;" horiz-adv-x="681" d="M344 742q0 -13 10.5 -23t24.5 -10t24.5 10t10.5 23t-10.5 23t-24.5 10t-24.5 -10t-10.5 -23zM214 742q0 -13 10.5 -23t24.5 -10t24.5 10t10.5 23t-10.5 23t-24.5 10t-24.5 -10t-10.5 -23zM384 692v7h-5q-18 0 -31.5 13t-13.5 30t13.5 30t31.5 13t31.5 -13t13.5 -30 q0 -5 -1 -8q1 0 3 0.5t3 0.5q18 0 31.5 -13t13.5 -30t-13.5 -30t-31.5 -13t-31.5 13t-13.5 30zM254 692v7h-5q-18 0 -31.5 13t-13.5 30t13.5 30t31.5 13q17 0 31 -13t14 -30q0 -5 -1 -8q1 0 3 0.5t3 0.5q17 0 31 -13t14 -30q0 -16 -14 -29.5t-31 -13.5q-18 0 -31.5 13 t-13.5 30zM628 691h-72l-241 -326l-238 326h-73l284 -380v-311h56v311zM551 701h97l-38 -50h88l-294 -393v-318h-76v50h-50v318l-82 109l-212 284h98l36 -50h14l189 -260l55 74z" />
<glyph unicode="&#x2c6;" horiz-adv-x="338" d="M143 735l-114 -113l33 -35l81 81l80 -81l35 34zM65 572l80 79l-2 3l-81 -81l-47 49l128 127l50 -50l79 -78l50 -50l-49 -48l-50 50l-31 30l-80 -80z" />
<glyph unicode="&#x2dc;" horiz-adv-x="400" d="M161 613h-1q31 -20 76 -20q40 0 75 20l-15 43q-28 -18 -60 -18q-23 0 -57 14q-42 14 -66 14q-39 0 -75 -19l16 -43q28 17 59 17q27 0 48 -8zM323 608q-2 -1 -5.5 -3t-5.5 -3q20 6 39 18l22 -62q-43 -25 -87 -25q-45 0 -99 33l20 -12q-19 7 -44 7q-28 0 -64 -22l-23 63 q1 0 2.5 1t2.5 2q-10 -4 -32 -16l-23 63q46 24 87 24q20 0 61 -12q2 0 4 -1l4 -2q30 -13 54 -13q29 0 65 22z" />
<glyph unicode="&#x2000;" horiz-adv-x="495" />
<glyph unicode="&#x2001;" horiz-adv-x="991" />
<glyph unicode="&#x2002;" horiz-adv-x="495" />
<glyph unicode="&#x2003;" horiz-adv-x="991" />
<glyph unicode="&#x2004;" horiz-adv-x="330" />
<glyph unicode="&#x2005;" horiz-adv-x="247" />
<glyph unicode="&#x2006;" horiz-adv-x="165" />
<glyph unicode="&#x2007;" horiz-adv-x="165" />
<glyph unicode="&#x2008;" horiz-adv-x="123" />
<glyph unicode="&#x2009;" horiz-adv-x="198" />
<glyph unicode="&#x200a;" horiz-adv-x="55" />
<glyph unicode="&#x2010;" d="M45 266h349v54h-349v-54zM454 206h-369v50h-50v74h369v-50h50v-74z" />
<glyph unicode="&#x2011;" d="M45 266h349v54h-349v-54zM454 206h-369v50h-50v74h369v-50h50v-74z" />
<glyph unicode="&#x2013;" d="M45 266h349v54h-349v-54zM454 206h-369v50h-50v74h369v-50h50v-74z" />
<glyph unicode="&#x2014;" horiz-adv-x="603" d="M46 266h460v54h-460v-54zM566 206h-480v50h-50v74h480v-50h50v-74z" />
<glyph unicode="&#x2018;" horiz-adv-x="189" d="M110 543l-27 59l9 76l-18 9l-48 -103l30 -66zM143 553l30 -65l-72 -33l-28 60l-22 -10l-36 79l54 116l34 -16l-10 -81l2 -5l24 52l34 -16z" />
<glyph unicode="&#x2019;" horiz-adv-x="200" d="M54 681l7 -67l-32 -68l14 -14l79 84l-8 70zM101 566l-2 12l-56 -60l-26 26l34 72l-8 74l80 6l6 -54l44 4l9 -83l-89 -95l-26 26z" />
<glyph unicode="&#x201a;" horiz-adv-x="206" d="M68 76v-67l-39 -63l11 -17l88 75v72h-60zM108 -38v11l-70 -60l-21 33l41 66v74h80v-50h50v-87l-100 -86l-21 33z" />
<glyph unicode="&#x201c;" horiz-adv-x="274" d="M90 614l8 67l-60 5l-8 -70l79 -84l13 14zM161 614l8 67l-60 5l-8 -70l79 -84l13 14zM230 640l-9 -74l26 -55q1 -1 4 -9t3 -9l-24 -25l-49 51l-1 -1l-16 16l12 -23q0 -1 3 -9t4 -9l-24 -25l-49 51l-1 -1l-89 95l9 83l70 -6l1 6l80 -6l-6 -46z" />
<glyph unicode="&#x201d;" horiz-adv-x="282" d="M130 681l8 -67l-32 -68l13 -14l79 84l-8 70zM59 681l8 -67l-32 -68l13 -14l79 84l-8 70zM57 616l-9 74l80 6v-6l71 6l6 -54l44 4l9 -83l-89 -95l-25 26l22 46l-68 -72l-25 26l23 48l-2 2l12 26l-1 9l-57 -61l-25 26z" />
<glyph unicode="&#x201e;" horiz-adv-x="287" d="M145 77v-67l-38 -64l10 -17l87 76v72h-59zM71 78l2 -67l-38 -64l11 -16l86 76v71h-61zM63 14l-2 74h81v-1h72v-50h50v-87l-99 -87l-20 33l19 33l-71 -64l-20 32l25 43l-3 6l17 30v1l-69 -62l-20 32z" />
<glyph unicode="&#x2022;" horiz-adv-x="250" d="M32 380q0 -25 20.5 -45t47.5 -20q26 0 47 20t21 45q0 27 -21 47.5t-47 20.5q-27 0 -47.5 -20.5t-20.5 -47.5zM22 380q0 31 23.5 54.5t54.5 23.5q24 0 44.5 -15.5t28.5 -38.5q23 -8 39 -29t16 -45q0 -29 -24 -52t-54 -23q-25 0 -46 15.5t-29 38.5q-23 8 -38 28.5t-15 42.5 z" />
<glyph unicode="&#x2026;" horiz-adv-x="499" d="M327 76v-76h76v76h-76zM186 76v-76h76v76h-76zM45 76v-76h76v76h-76zM35 -10v96h96v-50h45v50h96v-50h45v50h96v-50h50v-96h-96v50h-45v-50h-96v50h-45v-50h-96v50h-50z" />
<glyph unicode="&#x202f;" horiz-adv-x="198" />
<glyph unicode="&#x2039;" horiz-adv-x="395" d="M276 497l-247 -249l248 -246l38 40l-209 206l209 211zM15 248l261 263l53 -52l-1 -1l51 -49l-209 -211l5 -5q3 -3 4 -5q12 -12 38 -36l112 -110l-1 -1l51 -49l-52 -54l-50 50l-212 210z" />
<glyph unicode="&#x203a;" horiz-adv-x="395" d="M315 248l-246 249l-40 -38l210 -211l-210 -206l39 -40zM119 461l260 -263l-261 -260l-50 51v-1l-53 54l210 206l-73 73l-87 88l-50 50l54 52l49 -51z" />
<glyph unicode="&#x205f;" horiz-adv-x="247" />
<glyph unicode="&#x20ac;" horiz-adv-x="786" d="M700 106l-39 44q-90 -103 -208 -103q-87 0 -159.5 59t-98.5 148h333v55h-345q0 3 -0.5 6t-0.5 7q-1 6 -1 17q0 29 4 49h343v55h-330q29 85 99 138t156 53q117 0 208 -99l39 40q-108 115 -247 115q-109 0 -195 -68.5t-118 -178.5h-109v-55h98v-2q-3 -39 -3 -47 q0 -13 1 -19q0 -2 0.5 -6t0.5 -5h-97v-55h105q27 -115 114.5 -189t202.5 -74q139 0 247 115zM710 116l54 -60q-118 -125 -261 -125q-77 0 -143 32.5t-113 89.5q-67 54 -103 141h-73v50h-50v75h95v9h-45v50h-50v75h111q34 110 122.5 178.5t198.5 68.5q143 0 261 -125l-2 -2 q24 -20 52 -48l-53 -54q-96 103 -208 103q-64 0 -121 -33t-94 -88h250v-50h50v-75h-345q-1 -2 -1 -5t-1 -4h297v-50h50v-75h-329q14 -42 45 -83q68 -54 149 -54q112 0 207 109l47 -53z" />
<glyph unicode="&#x2122;" horiz-adv-x="469" d="M377 678h-35q-3 -5 -10.5 -16.5t-9.5 -15.5q-15 -25 -30 -53l-51 85h-36v-211h44v116l30 -52h24q18 32 31 52v-116h43v211zM144 467v169h57v42h-160v-42h58v-169h45zM336 688h51v-50h50v-231h-63v50h-50v14h-1l-14 23v-87h-64v50h-41v-50h-65v50h-50v119h-8v50h-50v62 h216l29 -50h21l4 -7q1 1 5 7.5t6 10.5q6 9 10 16q2 3 14 23z" />
<glyph horiz-adv-x="257" />
</font>
</defs>
</svg>
