<?xml version="1.0" standalone="no"?>
<!DOCTYPE svg PUBLIC "-//W3C//DTD SVG 1.1//EN" "http://www.w3.org/Graphics/SVG/1.1/DTD/svg11.dtd" >
<svg xmlns="http://www.w3.org/2000/svg">
<metadata>
This is a custom SVG webfont generated by Font Squirrel.
Foundry     : This Font is designed by Ralph Oliver du Carrois
</metadata>
<defs>
<font id="webfontoJN3msoP" horiz-adv-x="566" >
<font-face units-per-em="1000" ascent="800" descent="-200" />
<missing-glyph horiz-adv-x="283" />
<glyph unicode=" "  horiz-adv-x="283" />
<glyph unicode="&#x09;" horiz-adv-x="283" />
<glyph unicode="&#xa0;" horiz-adv-x="283" />
<glyph unicode="!" horiz-adv-x="283" d="M209 188h-135v459h135v-459zM211 0h-140v123h140v-123z" />
<glyph unicode="&#x22;" horiz-adv-x="283" d="M190 647l-8 -217h-101l-8 217h117zM346 647l-8 -217h-99l-8 217h115z" />
<glyph unicode="#" d="M549 386h-113l-22 -133h96v-92h-113l-28 -161h-110l28 161h-66l-29 -161h-110l28 161h-92v92h109l22 133h-92v92h110l29 169h110l-29 -169h67l29 169h110l-29 -169h95v-92zM326 386h-66l-23 -133h66z" />
<glyph unicode="$" d="M507 168q0 -88 -46.5 -129.5t-133.5 -52.5v-84h-103v78q-70 1 -184 32l46 127q27 -12 68 -26.5t70 -15.5v177q-35 14 -55 23t-49 27t-45 37.5t-28 50t-12 67.5q0 77 53.5 122t135.5 57v88h103v-86q93 -8 152 -28l-46 -127q-70 30 -106 37v-159q39 -15 66 -29.5t55.5 -39 t43.5 -61t15 -85.5zM227 424v113q-43 -14 -43 -58q0 -31 43 -55zM358 166q0 31 -34 60v-117q34 16 34 57z" />
<glyph unicode="%" horiz-adv-x="876" d="M838 166q0 -90 -36 -135t-117 -45q-80 0 -116 45t-36 135q0 172 153 172q81 0 116.5 -42t35.5 -130zM673 629l-363 -629h-114l362 629h115zM345 489q0 -90 -37 -135t-118 -45q-80 0 -116 45t-36 135q0 172 153 172q81 0 117.5 -42t36.5 -130zM743 166q0 59 -12 81t-45 22 q-35 0 -46 -24t-11 -79q0 -64 10.5 -87.5t45.5 -23.5q33 0 45.5 26.5t12.5 84.5zM248 489q0 59 -12 81t-45 22q-35 0 -46 -24t-11 -79q0 -64 10.5 -87.5t45.5 -23.5q33 0 45.5 26.5t12.5 84.5z" />
<glyph unicode="&#x26;" d="M522 0h-130l-18 41q-16 -21 -54 -39.5t-63 -18.5q-40 0 -74.5 9.5t-67 30.5t-51 62.5t-18.5 99.5q0 130 103 184q-9 6 -23.5 18.5t-27.5 26t-22.5 35.5t-9.5 46q0 74 48.5 121.5t146.5 47.5q93 0 144 -43.5t51 -124.5q0 -84 -186 -164q-49 -21 -66.5 -55.5t-17.5 -89.5 q0 -101 87 -101q15 0 28.5 5.5t23.5 14t20.5 19.5t20.5 23v57h-80v96h216v-161q0 -25 10 -79.5t10 -60.5zM320 497q0 64 -61 64q-30 0 -44 -18.5t-14 -46.5q0 -21 15.5 -42t25.5 -29q24 11 38 19t27 22.5t13 30.5z" />
<glyph unicode="'" horiz-adv-x="283" d="M200 647l-8 -217h-101l-8 217h117z" />
<glyph unicode="(" horiz-adv-x="335" d="M285 -128h-125q-63 109 -84.5 188.5t-21.5 193.5q0 130 22.5 211t78.5 182h125q-53 -97 -72 -181t-19 -212q0 -112 19 -194.5t77 -187.5z" />
<glyph unicode=")" horiz-adv-x="335" d="M285 254q0 -114 -21.5 -193.5t-84.5 -188.5h-124q58 105 77 187.5t19 194.5q0 128 -19 212t-72 181h124q56 -101 78.5 -182t22.5 -211z" />
<glyph unicode="*" horiz-adv-x="450" d="M441 462l-153 -36l-1 -11l100 -132l-64 -45l-87 136h-12l-91 -138l-64 50l102 129l-4 11l-159 37l26 79l153 -56l10 8l-7 157h77l-6 -160l9 -6l151 55z" />
<glyph unicode="+" d="M506 174h-167v-174h-112v174h-167v101h167v159h112v-159h167v-101z" />
<glyph unicode="," horiz-adv-x="283" d="M212 75l-81 -178h-103l43 178h141z" />
<glyph unicode="-" horiz-adv-x="362" d="M336 160h-310v112h310v-112z" />
<glyph unicode="." horiz-adv-x="283" d="M212 0h-141v124h141v-124z" />
<glyph unicode="/" horiz-adv-x="323" d="M324 657l-210 -668h-115l213 668h112z" />
<glyph unicode="0" d="M528 308q0 -165 -56.5 -245.5t-190.5 -80.5q-133 0 -188 80t-55 246q0 161 58.5 237.5t185.5 76.5q134 0 190 -76t56 -238zM376 308q0 113 -17.5 157t-76.5 44q-21 0 -37 -6t-25.5 -20t-16 -29.5t-9 -41.5t-3.5 -47.5t-1 -56.5q0 -49 1.5 -77.5t6.5 -58t14.5 -44 t26.5 -24t42 -9.5q56 0 75.5 51.5t19.5 161.5z" />
<glyph unicode="1" d="M425 -1h-152v468l-113 -87l-45 107l162 120h148v-608z" />
<glyph unicode="2" d="M526 0h-432l-41 124l72 46q26 17 77.5 54.5t81.5 65t54.5 62t24.5 60.5q0 98 -85 98q-63 0 -159 -52l-43 123q87 28 119 35t85 7q45 0 83.5 -9.5t74 -31t56 -64t20.5 -102.5q0 -56 -45 -120t-100.5 -108.5t-110.5 -75.5h268v-112z" />
<glyph unicode="3" d="M497 176q0 -56 -23 -96t-61.5 -60t-79.5 -29t-87 -9q-126 0 -204 27l44 123q12 -8 65.5 -22.5t97.5 -14.5q48 0 72 25.5t24 56.5q0 24 -9 40.5t-22.5 25.5t-40.5 13.5t-51 5.5t-66 1v112h18q38 0 57.5 1t42.5 4.5t32.5 11t16.5 21t7 33.5q0 31 -20 47.5t-57 16.5 q-60 0 -156 -47l-44 123q31 15 97 26t109 11q223 0 223 -175q0 -56 -40 -88.5t-99 -39.5q63 -10 108.5 -45t45.5 -99z" />
<glyph unicode="4" d="M544 158h-96v-158h-150v158h-242l-49 114l272 335h169v-335h96v-114zM298 272v203l-167 -203h167z" />
<glyph unicode="5" d="M515 199q0 -101 -76.5 -159t-184.5 -58q-134 0 -210 25l43 123q87 -35 168 -35q36 0 59.5 9t33.5 26.5t13.5 33t3.5 37.5q0 49 -20.5 65.5t-57.5 16.5q-32 0 -56.5 -7t-37.5 -16t-30 -19l-94 35v331h421v-113h-271v-107q24 11 80 11q97 0 156.5 -49t59.5 -150z" />
<glyph unicode="6" d="M520 180q0 -89 -69 -143.5t-161 -54.5q-245 0 -245 301q0 50 9 97t30.5 91.5t53 78t80 53.5t107.5 20q79 0 154 -20l-43 -123q-56 30 -106 30q-41 0 -71 -16t-44.5 -42t-20.5 -52t-6 -53q13 24 39.5 39t45 18.5t31.5 3.5q216 0 216 -228zM368 180q0 3 0.5 12.5t0.5 16.5 q0 86 -77 86q-71 0 -95 -62q0 -83 24.5 -110.5t69.5 -27.5q33 0 55 20t22 65z" />
<glyph unicode="7" d="M499 513l-209 -513h-160l233 495h-305v111h395z" />
<glyph unicode="8" d="M528 158q0 -95 -64 -135.5t-182 -40.5q-117 0 -180 40t-63 136q0 134 145 162q-8 2 -20.5 7.5t-26.5 11t-27.5 16.5t-24.5 24t-18 32t-7 42q0 80 56.5 125t170.5 45q123 0 174.5 -41t51.5 -128q0 -33 -14.5 -59t-36.5 -41t-41.5 -23.5t-37.5 -11.5q73 -16 109 -54 t36 -107zM365 447q0 15 -1.5 23t-8.5 19t-24 16.5t-44 5.5q-50 0 -65 -16.5t-15 -47.5q0 -17 6 -30t20 -22t22.5 -13t27.5 -11q26 10 40.5 17t28 22.5t13.5 36.5zM379 162q0 42 -24 65t-70 39q-51 -19 -74.5 -39.5t-23.5 -64.5q0 -68 95 -68q97 0 97 68z" />
<glyph unicode="9" d="M521 322q0 -50 -9 -97t-30.5 -91.5t-52.5 -78t-79.5 -53.5t-107.5 -20q-80 0 -155 20l43 123q56 -30 107 -30q41 0 71 16t44 42t20 52t6 53q-13 -24 -39.5 -39t-45 -18.5t-31.5 -3.5q-215 0 -215 227q0 89 71 144t159 55q60 0 104.5 -17.5t71 -45.5t42 -69t21 -80.5 t5.5 -88.5zM369 372q0 84 -24 111t-69 27q-33 0 -55.5 -20.5t-22.5 -65.5q0 -2 -0.5 -11.5t-0.5 -15.5q0 -87 78 -87q40 0 61 16t33 46z" />
<glyph unicode=":" horiz-adv-x="283" d="M212 0h-141v124h141v-124zM212 328h-141v124h141v-124z" />
<glyph unicode=";" horiz-adv-x="283" d="M213 328h-141v124h141v-124zM212 75l-81 -178h-103l44 178h140z" />
<glyph unicode="&#x3c;" d="M516 45l-466 137v140l466 139v-129l-330 -80l330 -78v-129z" />
<glyph unicode="=" d="M516 228h-466v100h466v-100zM516 55h-466v100h466v-100z" />
<glyph unicode="&#x3e;" d="M516 184l-466 -139v129l330 80l-330 78v129l466 -136v-141z" />
<glyph unicode="?" horiz-adv-x="485" d="M454 483q0 -33 -17 -60.5t-42 -46.5l-49 -38q-25 -17 -42 -38t-17 -44v-74h-134v79q0 38 16 67.5t38.5 48t45.5 34t39 33.5t16 39q0 30 -14 43.5t-54 13.5q-30 0 -88 -11t-83 -24l-18 122q32 11 92 20.5t97 9.5q30 0 53 -2t55.5 -12t53.5 -27.5t36.5 -51.5t15.5 -81z M290 0h-140v123h140v-123z" />
<glyph unicode="@" horiz-adv-x="930" d="M851 381q0 -74 -29 -126.5t-80 -79t-106.5 -38t-122.5 -11.5q-245 0 -245 197q0 85 51.5 137t166.5 52q75 0 120 -14v-133l13 -2l36 -97l-172 -12v150q-8 5 -9 5h-9q-64 0 -64 -87q0 -98 100 -98h14q42 0 64 1.5t52.5 9.5t45.5 23.5t26.5 46t11.5 75.5q0 176 -217 176 q-21 0 -37.5 -1t-47.5 -5.5t-55 -13t-52 -26t-47 -42t-31.5 -62.5t-12.5 -86q0 -235 284 -235h5q77 0 214 30l47 -112q-130 -23 -264 -23q-91 0 -166.5 20t-133.5 60t-90 106t-32 154q0 89 33 156t92 106.5t132.5 59t161.5 19.5q36 0 73 -5.5t78 -17.5t76 -34t64 -51.5 t45.5 -74t16.5 -97.5z" />
<glyph unicode="A" horiz-adv-x="705" d="M678 0h-168l-52 163h-214l-54 -163h-163l263 647h144zM419 278l-64 205l-69 -205h133z" />
<glyph unicode="B" horiz-adv-x="647" d="M595 192q0 -103 -60 -147.5t-155 -44.5h-288v647h255q218 0 218 -182q0 -49 -28.5 -81.5t-74.5 -44.5q62 -6 97.5 -43t35.5 -104zM411 464q0 14 -3.5 27t-19 26t-41.5 13h-103v-139h117q23 0 36.5 19.5t13.5 53.5zM440 192q0 42 -21 62.5t-56 20.5h-119v-158h130 q26 0 46 19t20 56z" />
<glyph unicode="C" horiz-adv-x="591" d="M557 12q-91 -32 -188 -32q-312 0 -312 343q0 71 16 129.5t51 106.5t98 75t150 27q95 0 178 -27l-46 -127q-86 37 -132 37q-83 0 -120.5 -53t-37.5 -167q0 -120 35 -173.5t117 -53.5q36 0 74 13t71 29z" />
<glyph unicode="D" horiz-adv-x="695" d="M638 326q0 -177 -74 -251.5t-235 -74.5h-237v647h237q157 0 233 -74t76 -247zM481 325q0 43 -5.5 76t-13 54.5t-21.5 36.5t-24.5 22t-29 11t-29 4.5t-29.5 0.5h-85v-413h94q26 0 44 3t38 15.5t32.5 34t20.5 61t8 94.5z" />
<glyph unicode="E" horiz-adv-x="603" d="M498 0h-406v647h397v-117h-245v-137h224v-117h-224v-159h254v-117z" />
<glyph unicode="F" horiz-adv-x="539" d="M489 529h-245v-140h233v-116h-233v-273h-152v647h397v-118z" />
<glyph unicode="G" horiz-adv-x="653" d="M596 39q-52 -32 -102 -45.5t-126 -13.5q-311 0 -311 344q0 156 79 246.5t241 90.5q67 0 170 -27l-46 -127l-29 13q-16 7 -30.5 12t-31 8.5t-32.5 3.5q-37 0 -63.5 -8.5t-51 -30.5t-37 -67.5t-12.5 -113.5q0 -120 35 -173.5t122 -53.5q37 0 53.5 3t36.5 15v127h-143v117 h278v-320z" />
<glyph unicode="H" horiz-adv-x="714" d="M622 0h-152v275h-226v-275h-152v647h152v-254h226v254h152v-647z" />
<glyph unicode="I" horiz-adv-x="312" d="M232 0h-152v647h152v-647z" />
<glyph unicode="J" horiz-adv-x="465" d="M373 204q0 -47 -10.5 -87t-27 -69.5t-43.5 -54.5t-52 -41.5t-61 -32t-62.5 -24t-64.5 -19.5l-40 124q28 7 56.5 11t56 16.5t49 30t34.5 52.5t13 84v453h152v-443z" />
<glyph unicode="K" horiz-adv-x="694" d="M681 0h-196l-241 286v-286h-152v647h152v-262l216 262h172l-246 -303z" />
<glyph unicode="L" horiz-adv-x="505" d="M500 0h-408v647h152v-527h256v-120z" />
<glyph unicode="M" horiz-adv-x="967" d="M877 0h-151v485l-163 -485h-163l-162 485v-485h-146v647h255l140 -445l145 445h245v-647z" />
<glyph unicode="N" horiz-adv-x="753" d="M661 0h-230l-193 467v-467h-146v647h228l191 -467v467h150v-647z" />
<glyph unicode="O" horiz-adv-x="747" d="M690 321q0 -156 -74.5 -248.5t-240.5 -92.5q-318 0 -318 341q0 74 17 133.5t53.5 107t99.5 73.5t149 26q314 0 314 -340zM533 321q0 123 -39.5 173t-118.5 50q-81 0 -121 -50.5t-40 -172.5q0 -129 39 -176.5t122 -47.5q82 0 120 53t38 171z" />
<glyph unicode="P" horiz-adv-x="622" d="M574 448q0 -205 -224 -205h-106v-243h-152v647h247q235 0 235 -199zM420 448q0 29 -7.5 47t-22.5 25t-25 8.5t-28 1.5h-93v-170h98q32 0 55 20.5t23 67.5z" />
<glyph unicode="Q" horiz-adv-x="747" d="M690 321q0 -156 -74.5 -248.5t-240.5 -92.5q-318 0 -318 341q0 74 17 133.5t53 107t99 73.5t150 26q314 0 314 -340zM610 -67l-51 -96l-233 35l51 83zM533 321q0 123 -39.5 173t-118.5 50q-81 0 -121 -50.5t-40 -172.5q0 -129 39 -176.5t122 -47.5q82 0 120 53t38 171z " />
<glyph unicode="R" horiz-adv-x="670" d="M628 0h-187l-188 259h-9v-259h-152v647h262q225 0 225 -194q0 -69 -35 -120.5t-113 -68.5zM425 453q0 77 -66 77h-115v-154h116q30 0 47.5 21.5t17.5 55.5z" />
<glyph unicode="S" horiz-adv-x="616" d="M554 168q0 -58 -23 -97t-66 -58t-89.5 -26t-109.5 -7q-87 0 -204 32l46 127q112 -42 159 -42q69 0 101 13.5t32 55.5q0 29 -25 50.5t-62.5 34.5t-81.5 32t-81.5 40t-62.5 61.5t-25 94.5q0 62 41 104.5t97.5 60t120.5 17.5q96 0 181 -29l-46 -127q-21 12 -58.5 25.5 t-77.5 13.5q-33 0 -56 -7t-32 -18.5t-12.5 -20.5t-3.5 -19q0 -24 25 -42t62.5 -29t81.5 -29.5t81.5 -41.5t62.5 -66.5t25 -102.5z" />
<glyph unicode="T" horiz-adv-x="535" d="M515 529h-171v-529h-153v529h-171v118h495v-118z" />
<glyph unicode="U" horiz-adv-x="745" d="M653 237q0 -127 -71.5 -192t-202.5 -65q-287 0 -287 259v408h152v-398q0 -48 11.5 -80t33 -47t42.5 -20t48 -5q53 0 87.5 36t34.5 116v398h152v-410z" />
<glyph unicode="V" horiz-adv-x="676" d="M649 647l-237 -647h-141l-244 647h168l150 -464l141 464h163z" />
<glyph unicode="W" horiz-adv-x="1011" d="M978 647l-163 -647h-191l-117 421l-144 -421h-191l-139 647h161l93 -466l137 439h192l105 -438l107 465h150z" />
<glyph unicode="X" horiz-adv-x="659" d="M624 0h-179l-119 212l-134 -212h-163l216 334l-190 313h175l104 -180l112 180h163l-197 -309z" />
<glyph unicode="Y" horiz-adv-x="648" d="M635 647l-238 -356v-291h-152v287l-232 360h173l141 -226l142 226h166z" />
<glyph unicode="Z" horiz-adv-x="572" d="M530 525l-322 -407h314v-118h-442l-38 122l324 407h-287v118h413z" />
<glyph unicode="[" horiz-adv-x="321" d="M274 -127h-191v803h191v-95h-79v-610h79v-98z" />
<glyph unicode="\" horiz-adv-x="323" d="M324 -11h-115l-210 668h112z" />
<glyph unicode="]" horiz-adv-x="321" d="M252 -128h-191v99h79v609h-79v95h191v-803z" />
<glyph unicode="^" d="M535 269h-123l-130 289l-132 -289h-120l181 378h139z" />
<glyph unicode="_" horiz-adv-x="500" d="M501 -123h-502v104h502v-104z" />
<glyph unicode="`" horiz-adv-x="266" d="M247 530h-90l-138 117h132z" />
<glyph unicode="a" horiz-adv-x="543" d="M488 0h-131q-1 0 -10 23l-8 19q-9 -8 -22.5 -17.5t-27 -18t-31 -14.5t-33.5 -6q-184 0 -184 134q0 172 254 172h35v15q0 16 -1.5 26t-14 21.5t-36.5 11.5q-89 0 -173 -40l-47 112q98 33 229 33q82 0 131.5 -37t49.5 -109v-185q0 -21 9 -72.5t11 -67.5zM331 141v53h-22 q-126 0 -126 -68q0 -35 70 -35q33 0 78 50z" />
<glyph unicode="b" horiz-adv-x="551" d="M510 231q0 -104 -56 -174.5t-155 -70.5q-38 0 -64.5 18t-36.5 38l-20 -42h-127q13 98 13 140v517h137v-256q53 70 117 70q97 0 144.5 -68t47.5 -172zM370 229q0 80 -22 108.5t-60 28.5q-17 0 -34 -15t-26 -29l-29 -49v-111q29 -71 76 -71q95 0 95 138z" />
<glyph unicode="c" horiz-adv-x="477" d="M445 19q-25 -12 -81 -22.5t-85 -10.5q-113 0 -175.5 65.5t-62.5 173.5q0 114 62 180t179 66q29 0 80 -11t78 -22l-47 -112q-80 40 -112 40q-52 0 -76 -29t-24 -112q0 -134 99 -134q40 0 118 40z" />
<glyph unicode="d" horiz-adv-x="551" d="M500 0h-127l-20 42q-10 -20 -36.5 -38t-64.5 -18q-57 0 -99 19.5t-66 54.5t-35 77.5t-11 93.5q0 103 48 171.5t142 68.5q66 0 119 -70v256h137v-517q0 -42 13 -140zM352 162v111l-17 29q-8 13 -16.5 24.5t-17 20.5t-18.5 14t-21 5q-38 0 -59.5 -28t-21.5 -109 q0 -84 23 -111t72 -27q47 0 76 71z" />
<glyph unicode="e" horiz-adv-x="541" d="M498 170h-314q16 -83 99 -83q63 0 141 39l45 -104q-81 -36 -194 -36q-110 0 -172 68.5t-62 169.5q0 34 6.5 66.5t22.5 66t41 58.5t65.5 40.5t91.5 15.5q128 0 179 -70t51 -231zM361 271q-9 95 -92 95q-11 0 -21.5 -2.5t-26 -11t-25.5 -29.5t-11 -52h176z" />
<glyph unicode="f" horiz-adv-x="334" d="M346 554q-68 -8 -99.5 -28t-31.5 -63v-6h84v-105h-84v-352h-137v352h-69v105h69v11q0 89 55 132.5t165 64.5z" />
<glyph unicode="g" horiz-adv-x="569" d="M544 476l-33 -89h-52q42 -50 42 -93q0 -31 -10 -59.5t-32.5 -56t-68 -44t-108.5 -16.5q-65 0 -102 15q-18 -2 -18 -27q0 -18 25.5 -25t110.5 -13q140 -10 187.5 -40t47.5 -97q0 -37 -21.5 -64.5t-58 -42t-77.5 -21.5t-88 -7q-136 0 -193 34.5t-57 97.5q0 25 13 44t23 25 t27 14q-54 25 -54 89q0 45 57 83q-43 55 -43 113q0 19 4 39t18 45.5t36.5 44.5t64 32.5t96.5 13.5q21 0 77 -8q132 11 187 13zM364 298q0 71 -82 71q-15 0 -26 -1.5t-26 -8t-23.5 -23t-8.5 -42.5q0 -73 85 -73q42 0 61.5 24t19.5 53zM394 -69q0 36 -204 37q-13 -15 -13 -35 q0 -18 36.5 -29t74.5 -11q64 0 85 7.5t21 30.5z" />
<glyph unicode="h" horiz-adv-x="545" d="M485 0h-137v304q0 14 -1.5 22.5t-6 19.5t-17 16.5t-31.5 5.5q-18 0 -36 -15t-28 -30.5t-27 -45.5v-277h-137v657h137v-256q1 1 10 12t18 19t22 18t30 16t35 6q98 0 133.5 -47.5t35.5 -139.5v-285z" />
<glyph unicode="i" horiz-adv-x="266" d="M204 539h-142v108h142v-108zM201 0h-136v457h136v-457z" />
<glyph unicode="j" horiz-adv-x="264" d="M202 539h-145v108h145v-108zM198 6q0 -47 -14.5 -84t-42 -62.5t-57 -42t-68.5 -31.5l-48 111q52 11 72.5 33t20.5 67v460h137v-451z" />
<glyph unicode="k" horiz-adv-x="510" d="M500 0h-156l-143 224v-224h-137v657h137v-376l128 176h147l-146 -198z" />
<glyph unicode="l" horiz-adv-x="265" d="M201 0h-137v657h137v-657z" />
<glyph unicode="m" horiz-adv-x="830" d="M766 0h-137v290q0 47 -12 62.5t-35 15.5q-66 0 -101 -96v-272h-137v290q0 51 -11 64.5t-44 13.5q-12 0 -24.5 -7t-21.5 -18t-18 -23.5t-14.5 -23.5t-9.5 -18v-278h-137v352q0 22 -6 58t-7 47h127l19 -57q15 22 50 47t69 25q59 0 86 -12t62 -53q40 65 140 65q82 0 122 -44 t40 -136v-292z" />
<glyph unicode="n" horiz-adv-x="549" d="M485 0h-137v297q0 16 -1 25t-6 21.5t-17 18.5t-32 6q-27 0 -48 -24t-43 -67v-277h-137v360q0 19 -13 97h127l20 -56l14 14q11 12 19.5 19.5t22.5 17.5t30 15t33 5q97 0 132.5 -47.5t35.5 -136.5v-288z" />
<glyph unicode="o" horiz-adv-x="557" d="M516 231q0 -107 -58.5 -176.5t-178.5 -69.5q-121 0 -179.5 69t-58.5 177q0 104 59 172.5t179 68.5q122 0 179.5 -66.5t57.5 -174.5zM376 231q0 80 -23 108.5t-74 28.5q-49 0 -73.5 -29t-24.5 -108q0 -142 98 -142q97 0 97 142z" />
<glyph unicode="p" horiz-adv-x="551" d="M510 226q0 -103 -49 -172t-143 -69q-29 0 -63.5 15t-53.5 41v-221h-137v495q0 38 -13 142h127l22 -56q15 20 25 31t34.5 25.5t50.5 14.5q102 0 151 -69t49 -177zM370 228q0 85 -23.5 112.5t-72.5 27.5q-11 0 -21 -6.5t-21.5 -24.5t-15.5 -25l-18 -34v-114 q18 -36 43 -55.5t48 -19.5q37 0 59 29t22 110z" />
<glyph unicode="q" horiz-adv-x="551" d="M500 457q-13 -104 -13 -142v-495h-137v221q-19 -26 -54 -41t-64 -15q-70 0 -114 35t-60.5 86.5t-16.5 119.5q0 106 51 176t149 70q26 0 50.5 -14.5t34.5 -25.5t25 -31l22 56h127zM352 164v114l-16 32q-9 16 -17.5 29t-19 21t-21.5 8q-51 0 -74 -27t-23 -113 q0 -81 22 -110t59 -29q23 0 47.5 19.5t42.5 55.5z" />
<glyph unicode="r" horiz-adv-x="402" d="M387 460l-46 -111q-22 19 -57 19q-14 0 -27 -7.5t-21 -19t-15.5 -25t-11.5 -25.5t-8 -20v-271h-137v355q0 20 -2.5 39.5t-6 38t-4.5 24.5h127l20 -63q46 78 100 78q49 0 89 -12z" />
<glyph unicode="s" horiz-adv-x="469" d="M430 126q0 -141 -211 -141q-80 0 -183 33l47 112q13 -4 42.5 -17t51 -18.5t44.5 -5.5q31 0 47 6t19 12t3 15v3q0 13 -25 21.5t-60.5 18t-71 25.5t-60.5 52.5t-25 90.5q0 139 204 139q71 0 164 -28l-46 -111l-44 19q-12 6 -32.5 11t-40.5 5q-65 0 -65 -32q0 -18 25 -29.5 t60.5 -22t71 -26t60.5 -49t25 -83.5z" />
<glyph unicode="t" horiz-adv-x="318" d="M311 1l-51 -111q-83 32 -131.5 83t-48.5 142v237h-69v106h69v125h136v-125h88v-106h-88v-251q0 -43 20.5 -63.5t74.5 -36.5z" />
<glyph unicode="u" horiz-adv-x="542" d="M491 0h-127l-20 56q-1 -1 -17 -18t-26 -25.5t-30.5 -18t-41.5 -9.5q-92 0 -128.5 48t-36.5 136v288h137v-297q0 -21 2 -33.5t14.5 -25t36.5 -12.5q15 0 27 6.5t24 23.5t17 27l19 34v277h137v-360q0 -19 13 -97z" />
<glyph unicode="v" horiz-adv-x="561" d="M527 457l-178 -457h-138l-177 457h146l104 -300l99 300h144z" />
<glyph unicode="w" horiz-adv-x="840" d="M814 457l-149 -457h-145l-91 259l-103 -259h-145l-155 457h145l95 -291l98 253h136l94 -254l78 292h142z" />
<glyph unicode="x" horiz-adv-x="516" d="M494 0h-151l-86 135l-92 -135h-143l165 231l-154 226h151l78 -127l82 127h142l-157 -219z" />
<glyph unicode="y" horiz-adv-x="552" d="M518 457l-201 -530q-54 -144 -191 -190l-47 111q71 19 88 65l40 106l-173 438h146l94 -284l100 284h144z" />
<glyph unicode="z" horiz-adv-x="461" d="M440 345l-259 -240h241v-105h-354l-47 112l263 240h-227v105h337z" />
<glyph unicode="{" horiz-adv-x="406" d="M323 -118q-60 2 -99.5 20.5t-57 47t-26 63t-12 69t-9 63.5t-23 48t-48.5 21v103q31 1 47.5 19t22 46.5t8.5 63t12 69t27 63.5t58 48t100 21v-103q-34 0 -50 -23t-20 -59l-9 -72q-4 -38 -23 -73.5t-57 -52.5q38 -14 57.5 -48t23.5 -72l7 -75q4 -36 20.5 -60t50.5 -24v-103 z" />
<glyph unicode="|" horiz-adv-x="283" d="M199 -166h-115v868h115v-868z" />
<glyph unicode="}" horiz-adv-x="406" d="M358 214q-36 -3 -54 -28t-20.5 -61t-10.5 -78t-21.5 -78t-56 -60.5t-111.5 -26.5v103q34 0 50 24t20 60l7 75q4 38 23.5 72t57.5 48q-38 17 -57 52.5t-23 73.5l-8 72q-4 36 -20 59t-50 23v103q60 -2 100 -21t58 -48t26.5 -63.5t11.5 -69t8.5 -63t22 -46.5t47.5 -19v-103z " />
<glyph unicode="~" d="M536 276q0 -55 -37.5 -95t-110.5 -40q-32 0 -65.5 15t-54.5 32l-40 33q-18 15 -25 15q-36 0 -51.5 -15.5t-15.5 -63.5l-105 58q0 55 38 95t108 40q37 0 73 -14.5t57 -31.5l37 -32q16 -15 19 -15q37 0 52 14t15 62z" />
<glyph unicode="&#xa1;" horiz-adv-x="283" d="M211 524h-140v123h140v-123zM209 0h-135v459h135v-459z" />
<glyph unicode="&#xa2;" horiz-adv-x="477" d="M445 19q-32 -16 -114 -28v-91h-108v91q-88 16 -135 78.5t-47 155.5q0 98 46.5 161.5t135.5 79.5v95h108v-95q72 -13 109 -28l-47 -112q-51 26 -62 30v-256q28 11 67 31zM223 103v253q-42 -30 -42 -131q0 -82 42 -122z" />
<glyph unicode="&#xa3;" d="M545 0h-488v120h62v163h-77v103h77l1 23q0 117 81.5 186t239.5 79l39 -124q-45 0 -71.5 -2t-56.5 -11t-46 -26t-26.5 -48.5t-10.5 -76.5h142v-103h-140v-163h274v-120z" />
<glyph unicode="&#xa5;" d="M569 647l-185 -310h88v-102h-116v-41h116v-101h-116v-93h-152v93h-117v101h117v41h-117v102h88l-178 310h169l120 -232l123 232h160z" />
<glyph unicode="&#xa6;" horiz-adv-x="283" d="M198 359h-113v234h113v-234zM198 -78h-113v234h113v-234z" />
<glyph unicode="&#xa7;" horiz-adv-x="448" d="M425 313q0 -64 -40 -101q19 -36 19 -87q0 -141 -208 -141q-66 0 -167 33l47 111q21 -12 55 -26t67 -14q29 0 45 5.5t19 11t3 13.5v6q0 14 -18 23.5t-45 15.5t-58 17.5t-58 27.5t-45 48.5t-18 77.5q0 71 50 102q-34 36 -34 86q0 139 206 139q62 0 155 -28l-47 -110 q-20 11 -49.5 22.5t-57.5 11.5q-68 0 -68 -32q0 -18 25.5 -29.5t62 -22t72.5 -26.5t61.5 -50t25.5 -84zM289 312q0 36 -106 67q-24 -12 -24 -45q0 -13 18.5 -24.5t45.5 -19.5t57 -18q9 9 9 26v14z" />
<glyph unicode="&#xa8;" horiz-adv-x="266" d="M275 544h-120v103h120v-103zM112 544h-120v103h120v-103z" />
<glyph unicode="&#xa9;" horiz-adv-x="720" d="M695 324q0 -141 -97 -237.5t-238 -96.5t-238 96.5t-97 237.5t97 237.5t238 96.5q143 0 239 -96t96 -238zM616 324q0 108 -74 184.5t-182 76.5q-109 0 -182.5 -76t-73.5 -185q0 -107 74.5 -184t181.5 -77t181.5 77t74.5 184zM475 134q-49 -18 -110 -18q-183 0 -183 206 q0 203 184 203q62 0 105 -15l-28 -75q-50 22 -77 22q-48 0 -70 -32t-22 -102q0 -73 21 -106t69 -33q15 0 29.5 3.5t26.5 8.5l28 13z" />
<glyph unicode="&#xaa;" d="M421 391h-85l-4 10q-5 14 -6 14q-42 -31 -68 -31q-110 0 -110 73q0 96 152 96h20v11q0 8 -1 12.5t-8.5 9t-21.5 4.5q-51 0 -103 -23l-28 65q57 19 137 19q50 0 82 -20.5t32 -59.5v-103q0 -12 5.5 -42t6.5 -35zM322 468v28h-14q-41 0 -57.5 -8t-16.5 -27q0 -16 29 -16h11 q25 0 48 23z" />
<glyph unicode="&#xab;" horiz-adv-x="433" d="M235 452l-97 -180l96 -180h-123l-93 178l93 182h124zM415 452l-97 -180l96 -180h-122l-93 178l93 182h123z" />
<glyph unicode="&#xac;" d="M526 78h-112v172h-379v101h491v-273z" />
<glyph unicode="&#xad;" horiz-adv-x="362" d="M336 160h-310v112h310v-112z" />
<glyph unicode="&#xae;" horiz-adv-x="720" d="M695 324q0 -141 -97 -237.5t-238 -96.5t-238 96.5t-97 237.5t97 237.5t238 96.5q143 0 239 -96t96 -238zM616 324q0 108 -74 184.5t-182 76.5q-109 0 -182.5 -76t-73.5 -185q0 -107 74.5 -184t181.5 -77t181.5 77t74.5 184zM527 129h-109l-110 157h-6v-157h-90v390h154 q133 0 133 -118q0 -93 -86 -113zM408 401q0 21 -10 34.5t-29 13.5h-67v-95h68q17 0 27.5 13t10.5 34z" />
<glyph unicode="&#xaf;" horiz-adv-x="266" d="M269 533h-272v95h272v-95z" />
<glyph unicode="&#xb0;" horiz-adv-x="450" d="M406 438q0 -76 -53 -126t-129 -50q-75 0 -128 50t-53 126t53.5 127.5t128.5 51.5t128 -51.5t53 -127.5zM323 438q0 44 -27.5 72.5t-70.5 28.5t-71 -28.5t-28 -72.5q0 -40 29.5 -69.5t68.5 -29.5t69 29.5t30 69.5z" />
<glyph unicode="&#xb1;" d="M506 234h-167v-114h-112v114h-167v101h167v99h112v-99h167v-101zM516 -1h-466v101h466v-101z" />
<glyph unicode="&#xb2;" horiz-adv-x="381" d="M335 318h-266l-24 74q33 20 76 43.5t79.5 55t36.5 54.5q0 21 -9.5 32t-19.5 13t-26 2q-37 0 -96 -28l-26 73q52 16 72 20t51 4q28 0 52.5 -5t48 -16.5t37.5 -35t14 -56.5q0 -23 -17.5 -48t-46.5 -46.5t-54 -37t-52 -29.5h170v-69z" />
<glyph unicode="&#xb3;" horiz-adv-x="381" d="M331 415q0 -31 -15 -53t-40.5 -32.5t-51 -15.5t-53.5 -5q-74 0 -122 15l25 73q8 -5 40.5 -12.5t58.5 -7.5q29 0 45.5 12.5t16.5 26.5q0 29 -28 37.5t-90 8.5v65q31 0 47.5 1t32.5 4.5t22.5 11t6.5 20.5q0 28 -50 28q-39 0 -95 -25l-25 74q18 8 57.5 14t65.5 6 q68 0 105.5 -24.5t37.5 -71.5q0 -31 -24 -48.5t-60 -21.5q37 -5 65 -25t28 -55z" />
<glyph unicode="&#xb4;" horiz-adv-x="266" d="M247 647l-137 -117h-91l96 117h132z" />
<glyph unicode="&#xb5;" d="M503 0h-127l-20 56q-1 -1 -17 -18t-26 -25.5t-30.5 -18t-41.5 -9.5h-28v-165h-137v637h137v-297q0 -21 2 -33.5t14.5 -25t36.5 -12.5q15 0 27 6.5t24 23.5t17 27l19 34v277h137v-360q0 -19 13 -97z" />
<glyph unicode="&#x3bc;" d="M503 0h-127l-20 56q-1 -1 -17 -18t-26 -25.5t-30.5 -18t-41.5 -9.5h-28v-165h-137v637h137v-297q0 -21 2 -33.5t14.5 -25t36.5 -12.5q15 0 27 6.5t24 23.5t17 27l19 34v277h137v-360q0 -19 13 -97z" />
<glyph unicode="&#xb6;" horiz-adv-x="540" d="M532 -188h-112v732h-100q-48 0 -78.5 -32.5t-30.5 -89.5q0 -44 31 -80.5t67 -46.5v-483h-113v420q-60 12 -101.5 47t-58 76t-16.5 86q0 24 3.5 48t16 54t32.5 52t57 37t85 15h318v-835z" />
<glyph unicode="&#xb7;" horiz-adv-x="283" d="M203 204h-123v123h123v-123z" />
<glyph unicode="&#xb8;" horiz-adv-x="266" d="M257 -99q0 -63 -46.5 -97.5t-101.5 -34.5q-53 0 -111 8l28 91q64 -8 78 -8q48 0 48 39q0 22 -14.5 29.5t-65.5 7.5l21 79h105l-10 -38q33 0 51 -24.5t18 -51.5z" />
<glyph unicode="&#xb9;" horiz-adv-x="381" d="M262 313h-97v252l-60 -48l-28 64l97 66h88v-334z" />
<glyph unicode="&#xba;" d="M432 528q0 -58 -38 -97t-110 -39q-73 0 -110 39t-37 97q0 57 37.5 95t109.5 38q74 0 111 -37t37 -96zM344 528q0 42 -15.5 57t-44.5 15q-28 0 -44 -15t-16 -57q0 -74 60 -74t60 74z" />
<glyph unicode="&#xbb;" horiz-adv-x="433" d="M236 270l-93 -178h-123l96 180l-97 180h124zM416 270l-93 -178h-122l96 180l-97 180h123z" />
<glyph unicode="&#xbc;" horiz-adv-x="876" d="M776 84h-55v-84h-95v84h-146l-29 69l164 181h106v-181h55v-69zM633 629l-362 -629h-115l361 629h116zM248 313h-96v252l-61 -48l-27 64l96 66h88v-334zM626 153v101l-95 -101h95z" />
<glyph unicode="&#xbd;" horiz-adv-x="876" d="M243 313h-97v252l-60 -48l-28 64l97 66h88v-334zM807 0h-266l-24 72q33 20 76 43.5t79.5 55.5t36.5 55q0 30 -15 39t-40 9q-38 0 -97 -28l-26 73q52 16 72 20t52 4q61 0 106.5 -26t45.5 -88q0 -74 -171 -161h171v-68zM626 629l-363 -629h-114l362 629h115z" />
<glyph unicode="&#xbe;" horiz-adv-x="876" d="M793 84h-55v-84h-95v84h-146l-29 69l164 181h106v-181h55v-69zM668 629l-363 -629h-114l362 629h115zM333 415q0 -40 -27.5 -65t-61 -33t-72.5 -8q-74 0 -122 15l26 73q8 -5 40 -12.5t58 -7.5q29 0 45.5 12.5t16.5 26.5q0 29 -28 37.5t-89 8.5v65q31 0 47.5 1t32.5 4.5 t22 11t6 20.5q0 28 -49 28q-39 0 -95 -25l-26 74q18 8 57.5 14t65.5 6q68 0 106 -24.5t38 -71.5q0 -31 -24.5 -48.5t-60.5 -21.5q38 -5 66 -25t28 -55zM643 153v101l-95 -101h95z" />
<glyph unicode="&#xbf;" horiz-adv-x="485" d="M355 524h-140v123h140v-123zM454 20q-32 -11 -92 -20.5t-97 -9.5q-30 0 -53 2t-55.5 12t-53.5 27.5t-36.5 51.5t-15.5 81q0 33 17 60.5t41.5 47t49.5 37t42 38.5t17 44v74h133v-79q0 -38 -16 -67.5t-38.5 -48t-45 -34t-38.5 -33.5t-16 -39q0 -30 14 -43.5t54 -13.5 q30 0 88 11t83 24z" />
<glyph unicode="&#xc0;" horiz-adv-x="705" d="M465 695h-90l-138 117h132zM678 0h-168l-52 163h-214l-54 -163h-163l263 647h144zM419 278l-64 205l-69 -205h133z" />
<glyph unicode="&#xc1;" horiz-adv-x="705" d="M479 813l-137 -117h-91l96 117h132zM678 0h-168l-52 163h-214l-54 -163h-163l263 647h144zM419 278l-64 205l-69 -205h133z" />
<glyph unicode="&#xc2;" horiz-adv-x="705" d="M505 692h-95l-49 60l-52 -60h-96l104 120h88zM678 0h-168l-52 163h-214l-54 -163h-163l263 647h144zM419 278l-64 205l-69 -205h133z" />
<glyph unicode="&#xc3;" horiz-adv-x="705" d="M536 755q-13 -41 -46.5 -64.5t-73.5 -23.5q-34 0 -63 24t-41 24q-40 0 -53 -37l-69 32q20 45 48 62.5t75 17.5q25 0 55.5 -24.5t45.5 -24.5q20 0 34.5 15.5t19.5 31.5zM678 0h-168l-52 163h-214l-54 -163h-163l263 647h144zM419 278l-64 205l-69 -205h133z" />
<glyph unicode="&#xc4;" horiz-adv-x="705" d="M499 669h-120v103h120v-103zM336 669h-120v103h120v-103zM678 0h-168l-52 163h-214l-54 -163h-163l263 647h144zM419 278l-64 205l-69 -205h133z" />
<glyph unicode="&#xc5;" horiz-adv-x="705" d="M678 0h-168l-52 163h-214l-54 -163h-163l263 647h144zM419 278l-64 205l-69 -205h133zM453 753q0 -34 -24 -58t-59 -24q-34 0 -58.5 24t-24.5 58t24 58t59 24t59 -23.5t24 -58.5zM408 754q0 16 -10.5 27.5t-27.5 11.5t-28 -12t-11 -27q0 -14 11.5 -26.5t27.5 -12.5 q18 0 28 11.5t10 27.5z" />
<glyph unicode="&#xc6;" horiz-adv-x="1032" d="M927 0h-403l-22 163h-214l-86 -163h-175l367 647h524v-117h-331l19 -137h291v-117h-271l27 -159h274v-117zM485 278l-26 208l-109 -208h135z" />
<glyph unicode="&#xc7;" horiz-adv-x="591" d="M557 12q-94 -33 -188 -33v-2q34 0 53.5 -25t19.5 -51q0 -62 -49 -97t-104 -35q-53 0 -111 8l28 93q72 -9 78 -9q48 0 48 38q0 22 -14.5 29.5t-65.5 7.5l14 53q-209 54 -209 334q0 71 16 129.5t51 107t98 75.5t150 27q92 0 178 -28l-46 -127q-23 9 -42.5 18t-43.5 15 t-46 6q-83 0 -120.5 -54t-37.5 -168q0 -121 35 -175t117 -54q36 0 74 14t71 30z" />
<glyph unicode="&#xc8;" horiz-adv-x="603" d="M393 695h-90l-138 117h132zM498 0h-406v647h397v-117h-245v-137h224v-117h-224v-159h254v-117z" />
<glyph unicode="&#xc9;" horiz-adv-x="603" d="M368 794l-137 -117h-91l96 117h132zM498 0h-406v647h397v-117h-245v-137h224v-117h-224v-159h254v-117z" />
<glyph unicode="&#xca;" horiz-adv-x="603" d="M432 693h-95l-49 60l-52 -60h-96l104 120h88zM498 0h-406v647h397v-117h-245v-137h224v-117h-224v-159h254v-117z" />
<glyph unicode="&#xcb;" horiz-adv-x="603" d="M446 669h-120v103h120v-103zM283 669h-120v103h120v-103zM498 0h-406v647h397v-117h-245v-137h224v-117h-224v-159h254v-117z" />
<glyph unicode="&#xcc;" horiz-adv-x="312" d="M277 692h-90l-138 117h132zM232 0h-152v647h152v-647z" />
<glyph unicode="&#xcd;" horiz-adv-x="312" d="M276 809l-137 -117h-91l96 117h132zM231 0h-152v647h152v-647z" />
<glyph unicode="&#xce;" horiz-adv-x="312" d="M302 684h-95l-49 60l-52 -60h-96l104 120h88zM232 0h-152v647h152v-647z" />
<glyph unicode="&#xcf;" horiz-adv-x="312" d="M298 722h-120v103h120v-103zM135 722h-120v103h120v-103zM228 0h-152v647h152v-647z" />
<glyph unicode="&#xd0;" horiz-adv-x="695" d="M638 326q0 -177 -74 -251.5t-235 -74.5h-237v309h-63v104h63v234h237q157 0 233 -74t76 -247zM481 325q0 43 -5.5 76t-13 54.5t-21.5 36.5t-24.5 22t-29 11t-29 4.5t-29.5 0.5h-85v-117h77v-104h-77v-192h94q26 0 44 3t38 15.5t32.5 34t20.5 61t8 94.5z" />
<glyph unicode="&#xd1;" horiz-adv-x="753" d="M555 756q-13 -41 -46.5 -64.5t-73.5 -23.5q-34 0 -63 24t-41 24q-40 0 -53 -37l-69 32q20 45 48 62.5t75 17.5q25 0 55.5 -24.5t45.5 -24.5q20 0 34.5 15.5t19.5 31.5zM661 0h-230l-193 467v-467h-146v647h228l191 -467v467h150v-647z" />
<glyph unicode="&#xd2;" horiz-adv-x="747" d="M441 695h-90l-138 117h132zM690 321q0 -156 -74.5 -248.5t-240.5 -92.5q-318 0 -318 341q0 74 17 133.5t53.5 107t99.5 73.5t149 26q314 0 314 -340zM533 321q0 123 -39.5 173t-118.5 50q-81 0 -121 -50.5t-40 -172.5q0 -129 39 -176.5t122 -47.5q82 0 120 53t38 171z " />
<glyph unicode="&#xd3;" horiz-adv-x="747" d="M484 813l-137 -117h-91l96 117h132zM690 321q0 -156 -74.5 -248.5t-240.5 -92.5q-318 0 -318 341q0 74 17 133.5t53.5 107t99.5 73.5t149 26q314 0 314 -340zM533 321q0 123 -39.5 173t-118.5 50q-81 0 -121 -50.5t-40 -172.5q0 -129 39 -176.5t122 -47.5q82 0 120 53 t38 171z" />
<glyph unicode="&#xd4;" horiz-adv-x="747" d="M516 693h-95l-49 60l-52 -60h-96l104 120h88zM690 321q0 -156 -74.5 -248.5t-240.5 -92.5q-318 0 -318 341q0 74 17 133.5t53.5 107t99.5 73.5t149 26q314 0 314 -340zM533 321q0 123 -39.5 173t-118.5 50q-81 0 -121 -50.5t-40 -172.5q0 -129 39 -176.5t122 -47.5 q82 0 120 53t38 171z" />
<glyph unicode="&#xd5;" horiz-adv-x="747" d="M556 756q-13 -41 -46.5 -64.5t-73.5 -23.5q-34 0 -63 24t-41 24q-40 0 -53 -37l-69 32q20 45 48 62.5t75 17.5q25 0 55.5 -24.5t45.5 -24.5q20 0 34.5 15.5t19.5 31.5zM690 321q0 -156 -74.5 -248.5t-240.5 -92.5q-318 0 -318 341q0 74 17 133.5t53.5 107t99.5 73.5 t149 26q314 0 314 -340zM533 321q0 123 -39.5 173t-118.5 50q-81 0 -121 -50.5t-40 -172.5q0 -129 39 -176.5t122 -47.5q82 0 120 53t38 171z" />
<glyph unicode="&#xd6;" horiz-adv-x="747" d="M517 669h-120v103h120v-103zM354 669h-120v103h120v-103zM690 321q0 -156 -74.5 -248.5t-240.5 -92.5q-318 0 -318 341q0 74 17 133.5t53.5 107t99.5 73.5t149 26q314 0 314 -340zM533 321q0 123 -39.5 173t-118.5 50q-81 0 -121 -50.5t-40 -172.5q0 -129 39 -176.5 t122 -47.5q82 0 120 53t38 171z" />
<glyph unicode="&#xd7;" d="M525 104l-80 -80l-161 161l-161 -161l-80 80l161 161l-161 161l80 80l161 -161l161 161l80 -80l-161 -161z" />
<glyph unicode="&#xd8;" horiz-adv-x="747" d="M722 619l-76 -90q44 -79 44 -208q0 -156 -74.5 -248.5t-240.5 -92.5q-102 0 -173 31l-87 -102l-99 90l90 106q-49 81 -49 216q0 74 17 133.5t53.5 107t99.5 73.5t149 26q104 0 176 -36l72 84zM464 523q-35 21 -89 21q-81 0 -121 -50.5t-40 -172.5q0 -49 3 -85zM533 321 q0 15 -0.5 40t-0.5 35l-246 -286q30 -13 89 -13q82 0 120 53t38 171z" />
<glyph unicode="&#xd9;" horiz-adv-x="745" d="M438 695h-90l-138 117h132zM653 237q0 -127 -71.5 -192t-202.5 -65q-287 0 -287 259v408h152v-398q0 -48 11.5 -80t33 -47t42.5 -20t48 -5q53 0 87.5 36t34.5 116v398h152v-410z" />
<glyph unicode="&#xda;" horiz-adv-x="745" d="M516 793l-137 -117h-91l96 117h132zM653 237q0 -127 -71.5 -192t-202.5 -65q-287 0 -287 259v408h152v-398q0 -48 11.5 -80t33 -47t42.5 -20t48 -5q53 0 87.5 36t34.5 116v398h152v-410z" />
<glyph unicode="&#xdb;" horiz-adv-x="745" d="M521 693h-95l-49 60l-52 -60h-96l104 120h88zM653 237q0 -127 -71.5 -192t-202.5 -65q-287 0 -287 259v408h152v-398q0 -48 11.5 -80t33 -47t42.5 -20t48 -5q53 0 87.5 36t34.5 116v398h152v-410z" />
<glyph unicode="&#xdc;" horiz-adv-x="745" d="M520 669h-120v103h120v-103zM357 669h-120v103h120v-103zM653 237q0 -127 -71.5 -192t-202.5 -65q-287 0 -287 259v408h152v-398q0 -48 11.5 -80t33 -47t42.5 -20t48 -5q53 0 87.5 36t34.5 116v398h152v-410z" />
<glyph unicode="&#xdd;" horiz-adv-x="648" d="M384 809l-137 -117h-91l96 117h132zM635 647l-238 -356v-291h-152v287l-232 360h173l141 -226l142 226h166z" />
<glyph unicode="&#xde;" horiz-adv-x="622" d="M574 333q0 -205 -224 -205h-106v-128h-152v647h152v-115h95q235 0 235 -199zM420 333q0 29 -7.5 47t-22.5 25t-25 8.5t-28 1.5h-93v-170h98q32 0 55 20.5t23 67.5z" />
<glyph unicode="&#xdf;" horiz-adv-x="558" d="M515 118q0 -61 -28 -107.5t-74.5 -73t-100 -39.5t-110.5 -13l48 115q62 0 93 38.5t31 81.5q0 31 -7.5 54.5t-17 37t-28 23.5t-30 13.5t-34 9t-29.5 7.5v107q10 7 21 13.5t23 17.5t21.5 23t15.5 30.5t6 39.5q0 25 -17 40.5t-43 15.5q-20 0 -37 -15t-17 -55v-482h-137v471 q0 91 52 138.5t139 47.5q201 0 201 -164q0 -35 -9.5 -62.5t-26.5 -44.5t-31 -27t-32 -19l-22 -11q6 -3 31 -11.5t40 -14.5t38 -22.5t36.5 -36t24 -52.5t10.5 -74z" />
<glyph unicode="&#xe0;" horiz-adv-x="543" d="M488 0h-131q-1 0 -10 23l-8 19q-9 -8 -22.5 -17.5t-27 -18t-31 -14.5t-33.5 -6q-184 0 -184 134q0 172 254 172h35v15q0 16 -1.5 26t-14 21.5t-36.5 11.5q-89 0 -173 -40l-47 112q98 33 229 33q82 0 131.5 -37t49.5 -109v-185q0 -21 9 -72.5t11 -67.5zM331 141v53h-22 q-126 0 -126 -68q0 -35 70 -35q33 0 78 50zM341 530h-90l-138 117h132z" />
<glyph unicode="&#xe1;" horiz-adv-x="543" d="M377 647l-137 -117h-91l96 117h132zM488 0h-131q-1 0 -10 23l-8 19q-9 -8 -22.5 -17.5t-27 -18t-31 -14.5t-33.5 -6q-184 0 -184 134q0 172 254 172h35v15q0 16 -1.5 26t-14 21.5t-36.5 11.5q-89 0 -173 -40l-47 112q98 33 229 33q82 0 131.5 -37t49.5 -109v-185 q0 -21 9 -72.5t11 -67.5zM331 141v53h-22q-126 0 -126 -68q0 -35 70 -35q33 0 78 50z" />
<glyph unicode="&#xe2;" horiz-adv-x="543" d="M397 527h-95l-49 60l-52 -60h-96l104 120h88zM488 0h-131q-1 0 -10 23l-8 19q-9 -8 -22.5 -17.5t-27 -18t-31 -14.5t-33.5 -6q-184 0 -184 134q0 172 254 172h35v15q0 16 -1.5 26t-14 21.5t-36.5 11.5q-89 0 -173 -40l-47 112q98 33 229 33q82 0 131.5 -37t49.5 -109 v-185q0 -21 9 -72.5t11 -67.5zM331 141v53h-22q-126 0 -126 -68q0 -35 70 -35q33 0 78 50z" />
<glyph unicode="&#xe3;" horiz-adv-x="543" d="M429 588q-13 -41 -46.5 -64.5t-73.5 -23.5q-34 0 -63 24t-41 24q-40 0 -53 -37l-69 32q20 45 48 62.5t75 17.5q25 0 55.5 -24.5t45.5 -24.5q20 0 34.5 15.5t19.5 31.5zM488 0h-131q-1 0 -10 23l-8 19q-9 -8 -22.5 -17.5t-27 -18t-31 -14.5t-33.5 -6q-184 0 -184 134 q0 172 254 172h35v15q0 16 -1.5 26t-14 21.5t-36.5 11.5q-89 0 -173 -40l-47 112q98 33 229 33q82 0 131.5 -37t49.5 -109v-185q0 -21 9 -72.5t11 -67.5zM331 141v53h-22q-126 0 -126 -68q0 -35 70 -35q33 0 78 50z" />
<glyph unicode="&#xe4;" horiz-adv-x="543" d="M488 0h-131q-1 0 -10 23l-8 19q-9 -8 -22.5 -17.5t-27 -18t-31 -14.5t-33.5 -6q-184 0 -184 134q0 172 254 172h35v15q0 16 -1.5 26t-14 21.5t-36.5 11.5q-89 0 -173 -40l-47 112q98 33 229 33q82 0 131.5 -37t49.5 -109v-185q0 -21 9 -72.5t11 -67.5zM331 141v53h-22 q-126 0 -126 -68q0 -35 70 -35q33 0 78 50zM244 521h-121v109h121v-109zM408 521h-121v109h121v-109z" />
<glyph unicode="&#xe5;" horiz-adv-x="543" d="M488 0h-131q-1 0 -10 23l-8 19q-9 -8 -22.5 -17.5t-27 -18t-31 -14.5t-33.5 -6q-184 0 -184 134q0 172 254 172h35v15q0 16 -1.5 26t-14 21.5t-36.5 11.5q-89 0 -173 -40l-47 112q98 33 229 33q82 0 131.5 -37t49.5 -109v-185q0 -21 9 -72.5t11 -67.5zM331 141v53h-22 q-126 0 -126 -68q0 -35 70 -35q33 0 78 50zM342 589q0 -34 -24 -58t-59 -24q-34 0 -58.5 24t-24.5 58t24 58t59 24t59 -23.5t24 -58.5zM297 590q0 16 -10.5 27.5t-27.5 11.5t-28 -12t-11 -27q0 -14 11.5 -26.5t27.5 -12.5q18 0 28 11.5t10 27.5z" />
<glyph unicode="&#xe6;" horiz-adv-x="823" d="M780 170h-313q16 -83 99 -83q63 0 141 39l45 -104q-81 -36 -194 -36q-62 0 -110 23.5t-63 55.5q-79 -79 -160 -79q-184 0 -184 134q0 172 254 172h34v17q0 16 -2 26t-14 20.5t-35 10.5q-89 0 -173 -40l-47 112q93 33 229 33q69 0 132 -39q62 39 132 39q128 0 178.5 -70 t50.5 -231zM644 271q-9 95 -92 95q-11 0 -22 -2.5t-26.5 -11t-25.5 -29.5t-11 -52h177zM330 140v54h-21q-126 0 -126 -68q0 -35 70 -35q13 0 25 5t21 12.5t17 16t14 15.5z" />
<glyph unicode="&#xe7;" horiz-adv-x="477" d="M450 21q-43 -22 -146 -34l-4 -12q34 0 51.5 -23.5t17.5 -50.5q0 -65 -46 -98.5t-101 -33.5q-53 0 -111 8l32 88q72 -9 74 -9q20 0 35.5 11t15.5 32t-16 29t-67 8l15 59q-78 21 -118.5 82t-40.5 148q0 115 60.5 181t180.5 66q29 0 81.5 -12t81.5 -24l-51 -109 q-6 2 -33.5 15t-46 19t-33.5 6q-52 0 -76 -29.5t-24 -112.5q0 -135 99 -135q36 0 118 39z" />
<glyph unicode="&#xe8;" horiz-adv-x="541" d="M498 170h-314q16 -83 99 -83q63 0 141 39l45 -104q-81 -36 -194 -36q-110 0 -172 68.5t-62 169.5q0 34 6.5 66.5t22.5 66t41 58.5t65.5 40.5t91.5 15.5q128 0 179 -70t51 -231zM361 271q-9 95 -92 95q-11 0 -21.5 -2.5t-26 -11t-25.5 -29.5t-11 -52h176zM351 530h-90 l-138 117h132z" />
<glyph unicode="&#xe9;" horiz-adv-x="541" d="M421 647l-137 -117h-91l96 117h132zM498 170h-314q16 -83 99 -83q63 0 141 39l45 -104q-81 -36 -194 -36q-110 0 -172 68.5t-62 169.5q0 34 6.5 66.5t22.5 66t41 58.5t65.5 40.5t91.5 15.5q128 0 179 -70t51 -231zM361 271q-9 95 -92 95q-11 0 -21.5 -2.5t-26 -11 t-25.5 -29.5t-11 -52h176z" />
<glyph unicode="&#xea;" horiz-adv-x="541" d="M429 527h-95l-49 60l-52 -60h-96l104 120h88zM498 170h-314q16 -83 99 -83q63 0 141 39l45 -104q-81 -36 -194 -36q-110 0 -172 68.5t-62 169.5q0 34 6.5 66.5t22.5 66t41 58.5t65.5 40.5t91.5 15.5q128 0 179 -70t51 -231zM361 271q-9 95 -92 95q-11 0 -21.5 -2.5 t-26 -11t-25.5 -29.5t-11 -52h176z" />
<glyph unicode="&#xeb;" horiz-adv-x="541" d="M423 524h-120v103h120v-103zM260 524h-120v103h120v-103zM498 170h-314q16 -83 99 -83q63 0 141 39l45 -104q-81 -36 -194 -36q-110 0 -172 68.5t-62 169.5q0 34 6.5 66.5t22.5 66t41 58.5t65.5 40.5t91.5 15.5q128 0 179 -70t51 -231zM361 271q-9 95 -92 95 q-11 0 -21.5 -2.5t-26 -11t-25.5 -29.5t-11 -52h176z" />
<glyph unicode="&#xec;" horiz-adv-x="266" d="M249 530h-90l-138 117h132zM221 0h-136v457h136v-457z" />
<glyph unicode="&#xed;" horiz-adv-x="266" d="M245 647l-137 -117h-91l96 117h132zM201 0h-136v457h136v-457z" />
<glyph unicode="&#xee;" horiz-adv-x="266" d="M279 527h-95l-49 60l-52 -60h-96l104 120h88zM201 0h-136v457h136v-457z" />
<glyph unicode="&#xef;" horiz-adv-x="266" d="M275 551h-120v103h120v-103zM112 551h-120v103h120v-103zM201 0h-136v457h136v-457z" />
<glyph unicode="&#xf0;" d="M521 283q0 -301 -244 -301q-92 0 -161 54.5t-69 143.5q0 228 215 228q13 0 31.5 -3.5t45 -18.5t39.5 -39q0 62 -26.5 105t-72.5 62l-74 -49l-92 54l46 31h-7q-29 0 -61 -6l-42 121h26q124 0 209 -28l55 40l89 -54l-49 -34q142 -89 142 -306zM369 233q-12 30 -33 46 t-61 16q-78 0 -78 -88q0 -6 0.5 -15.5t0.5 -11.5q0 -45 22.5 -65t55.5 -20q45 0 69 27t24 111z" />
<glyph unicode="&#xf1;" horiz-adv-x="549" d="M438 588q-13 -41 -46.5 -64.5t-73.5 -23.5q-34 0 -63 24t-41 24q-40 0 -53 -37l-69 32q20 45 48 62.5t75 17.5q25 0 55.5 -24.5t45.5 -24.5q20 0 34.5 15.5t19.5 31.5zM485 0h-137v297q0 16 -1 25t-6 21.5t-17 18.5t-32 6q-27 0 -48 -24t-43 -67v-277h-137v360 q0 19 -13 97h127l20 -56l14 14q11 12 19.5 19.5t22.5 17.5t30 15t33 5q97 0 132.5 -47.5t35.5 -136.5v-288z" />
<glyph unicode="&#xf2;" horiz-adv-x="557" d="M516 231q0 -107 -58.5 -176.5t-178.5 -69.5q-121 0 -179.5 69t-58.5 177q0 104 59 172.5t179 68.5q122 0 179.5 -66.5t57.5 -174.5zM376 231q0 80 -23 108.5t-74 28.5q-49 0 -73.5 -29t-24.5 -108q0 -142 98 -142q97 0 97 142zM373 530h-90l-138 117h132z" />
<glyph unicode="&#xf3;" horiz-adv-x="557" d="M413 647l-137 -117h-91l96 117h132zM516 231q0 -107 -58.5 -176.5t-178.5 -69.5q-121 0 -179.5 69t-58.5 177q0 104 59 172.5t179 68.5q122 0 179.5 -66.5t57.5 -174.5zM376 231q0 80 -23 108.5t-74 28.5q-49 0 -73.5 -29t-24.5 -108q0 -142 98 -142q97 0 97 142z" />
<glyph unicode="&#xf4;" horiz-adv-x="557" d="M425 527h-95l-49 60l-52 -60h-96l104 120h88zM516 231q0 -107 -58.5 -176.5t-178.5 -69.5q-121 0 -179.5 69t-58.5 177q0 104 59 172.5t179 68.5q122 0 179.5 -66.5t57.5 -174.5zM376 231q0 80 -23 108.5t-74 28.5q-49 0 -73.5 -29t-24.5 -108q0 -142 98 -142 q97 0 97 142z" />
<glyph unicode="&#xf5;" horiz-adv-x="557" d="M446 588q-13 -41 -46.5 -64.5t-73.5 -23.5q-34 0 -63 24t-41 24q-40 0 -53 -37l-69 32q20 45 48 62.5t75 17.5q25 0 55.5 -24.5t45.5 -24.5q20 0 34.5 15.5t19.5 31.5zM516 231q0 -107 -58.5 -176.5t-178.5 -69.5q-121 0 -179.5 69t-58.5 177q0 104 59 172.5t179 68.5 q122 0 179.5 -66.5t57.5 -174.5zM376 231q0 80 -23 108.5t-74 28.5q-49 0 -73.5 -29t-24.5 -108q0 -142 98 -142q97 0 97 142z" />
<glyph unicode="&#xf6;" horiz-adv-x="557" d="M426 524h-120v103h120v-103zM263 524h-120v103h120v-103zM516 231q0 -107 -58.5 -176.5t-178.5 -69.5q-121 0 -179.5 69t-58.5 177q0 104 59 172.5t179 68.5q122 0 179.5 -66.5t57.5 -174.5zM376 231q0 80 -23 108.5t-74 28.5q-49 0 -73.5 -29t-24.5 -108q0 -142 98 -142 q97 0 97 142z" />
<glyph unicode="&#xf7;" d="M353 308h-141v124h141v-124zM353 4h-141v124h141v-124zM516 177h-466v87h466v-87z" />
<glyph unicode="&#xf8;" horiz-adv-x="557" d="M530 420l-45 -50q31 -55 31 -139q0 -107 -58.5 -176.5t-178.5 -69.5q-70 0 -124 24l-48 -54l-90 87l51 58q-27 55 -27 131q0 104 59 172.5t179 68.5q70 0 115 -15l47 50zM317 371q-1 0 -16 -1.5t-22 -1.5q-49 0 -73.5 -29t-24.5 -108q0 -5 -3 -13zM377 252l-142 -156 q20 -7 44 -7q97 0 97 142q0 14 1 21z" />
<glyph unicode="&#xf9;" horiz-adv-x="542" d="M491 0h-127l-20 56q-1 -1 -17 -18t-26 -25.5t-30.5 -18t-41.5 -9.5q-92 0 -128.5 48t-36.5 136v288h137v-297q0 -21 2 -33.5t14.5 -25t36.5 -12.5q15 0 27 6.5t24 23.5t17 27l19 34v277h137v-360q0 -19 13 -97zM354 530h-90l-138 117h132z" />
<glyph unicode="&#xfa;" horiz-adv-x="542" d="M402 647l-137 -117h-91l96 117h132zM491 0h-127l-20 56q-1 -1 -17 -18t-26 -25.5t-30.5 -18t-41.5 -9.5q-92 0 -128.5 48t-36.5 136v288h137v-297q0 -21 2 -33.5t14.5 -25t36.5 -12.5q15 0 27 6.5t24 23.5t17 27l19 34v277h137v-360q0 -19 13 -97z" />
<glyph unicode="&#xfb;" horiz-adv-x="542" d="M411 527h-95l-49 60l-52 -60h-96l104 120h88zM491 0h-127l-20 56q-1 -1 -17 -18t-26 -25.5t-30.5 -18t-41.5 -9.5q-92 0 -128.5 48t-36.5 136v288h137v-297q0 -21 2 -33.5t14.5 -25t36.5 -12.5q15 0 27 6.5t24 23.5t17 27l19 34v277h137v-360q0 -19 13 -97z" />
<glyph unicode="&#xfc;" horiz-adv-x="542" d="M412 524h-120v103h120v-103zM249 524h-120v103h120v-103zM491 0h-127l-20 56q-1 -1 -17 -18t-26 -25.5t-30.5 -18t-41.5 -9.5q-92 0 -128.5 48t-36.5 136v288h137v-297q0 -21 2 -33.5t14.5 -25t36.5 -12.5q15 0 27 6.5t24 23.5t17 27l19 34v277h137v-360q0 -19 13 -97z " />
<glyph unicode="&#xfd;" horiz-adv-x="552" d="M383 647l-137 -117h-91l96 117h132zM518 457l-201 -530q-54 -144 -191 -190l-47 111q71 19 88 65l40 106l-173 438h146l94 -284l100 284h144z" />
<glyph unicode="&#xfe;" horiz-adv-x="551" d="M510 231q0 -104 -56 -174.5t-155 -70.5q-38 0 -64.5 18t-36.5 38l-23 -223h-127q5 37 10.5 155t5.5 166v517h137v-256q53 70 117 70q97 0 144.5 -68t47.5 -172zM370 229q0 80 -22 108.5t-60 28.5q-17 0 -34 -15t-26 -29l-29 -49v-111q29 -71 76 -71q95 0 95 138z" />
<glyph unicode="&#xff;" d="M432 521h-120v103h120v-103zM269 521h-120v103h120v-103zM518 457l-201 -530q-54 -144 -191 -190l-47 111q71 19 88 65l40 106l-173 438h146l94 -284l100 284h144z" />
<glyph unicode="&#x152;" horiz-adv-x="1054" d="M949 0h-442q-55 -20 -132 -20q-318 0 -318 341q0 74 17 133.5t53.5 107t99.5 73.5t149 26q63 0 113 -14h451v-117h-296q27 -76 34 -137h241v-117h-240q-5 -81 -34 -159h304v-117zM523 321q0 126 -34.5 174.5t-113.5 48.5q-81 0 -121 -50.5t-40 -172.5q0 -129 39 -176.5 t122 -47.5q82 0 115 51.5t33 172.5z" />
<glyph unicode="&#x153;" horiz-adv-x="870" d="M827 170h-314q16 -83 99 -83q63 0 141 39l45 -104q-81 -36 -194 -36q-93 0 -158 50q-66 -51 -167 -51q-121 0 -179.5 69t-58.5 177q0 104 59 172.5t179 68.5q102 0 167 -47q60 46 151 46q128 0 179 -70t51 -231zM690 271q-9 95 -92 95q-11 0 -21.5 -2.5t-26 -11 t-25.5 -29.5t-11 -52h176zM376 231q0 80 -23 108.5t-74 28.5q-49 0 -73.5 -29t-24.5 -108q0 -142 98 -142q97 0 97 142z" />
<glyph unicode="&#x178;" horiz-adv-x="648" d="M635 647l-238 -356v-291h-152v287l-232 360h173l141 -226l142 226h166zM473 710h-119v105h119v-105zM312 710h-118v105h118v-105z" />
<glyph unicode="&#x2c6;" horiz-adv-x="266" d="M279 527h-95l-49 60l-52 -60h-96l104 120h88z" />
<glyph unicode="&#x2dc;" horiz-adv-x="266" d="M306 588q-13 -41 -46.5 -64.5t-73.5 -23.5q-34 0 -63 24t-41 24q-40 0 -53 -37l-69 32q20 45 48 62.5t75 17.5q25 0 55.5 -24.5t45.5 -24.5q20 0 34.5 15.5t19.5 31.5z" />
<glyph unicode="&#x2000;" horiz-adv-x="417" />
<glyph unicode="&#x2001;" horiz-adv-x="835" />
<glyph unicode="&#x2002;" horiz-adv-x="417" />
<glyph unicode="&#x2003;" horiz-adv-x="835" />
<glyph unicode="&#x2004;" horiz-adv-x="278" />
<glyph unicode="&#x2005;" horiz-adv-x="208" />
<glyph unicode="&#x2006;" horiz-adv-x="139" />
<glyph unicode="&#x2007;" horiz-adv-x="139" />
<glyph unicode="&#x2008;" horiz-adv-x="104" />
<glyph unicode="&#x2009;" horiz-adv-x="167" />
<glyph unicode="&#x200a;" horiz-adv-x="46" />
<glyph unicode="&#x2010;" horiz-adv-x="362" d="M336 160h-310v112h310v-112z" />
<glyph unicode="&#x2011;" horiz-adv-x="362" d="M336 160h-310v112h310v-112z" />
<glyph unicode="&#x2013;" horiz-adv-x="500" d="M501 187h-502v100h502v-100z" />
<glyph unicode="&#x2014;" horiz-adv-x="1000" d="M1001 177h-1002v110h1002v-110z" />
<glyph unicode="&#x2018;" horiz-adv-x="283" d="M233 648l-85 -188h-103l99 188h89z" />
<glyph unicode="&#x2019;" horiz-adv-x="283" d="M232 648l-99 -188h-90l86 188h103z" />
<glyph unicode="&#x201a;" horiz-adv-x="283" d="M232 100l-99 -188h-90l86 188h103z" />
<glyph unicode="&#x201c;" horiz-adv-x="433" d="M228 648l-85 -188h-103l99 188h89zM393 648l-85 -188h-103l98 188h90z" />
<glyph unicode="&#x201d;" horiz-adv-x="433" d="M393 648l-99 -188h-88l85 188h102zM228 648l-98 -188h-90l85 188h103z" />
<glyph unicode="&#x201e;" horiz-adv-x="433" d="M393 100l-99 -188h-88l85 188h102zM228 100l-98 -188h-90l85 188h103z" />
<glyph unicode="&#x2022;" d="M434 324q0 -63 -44 -107.5t-107 -44.5q-64 0 -107.5 44t-43.5 108t44 107.5t107 43.5t107 -44t44 -107z" />
<glyph unicode="&#x2026;" horiz-adv-x="850" d="M495 0h-141v124h141v-124zM212 0h-141v124h141v-124zM779 0h-142v124h142v-124z" />
<glyph unicode="&#x202f;" horiz-adv-x="167" />
<glyph unicode="&#x2039;" horiz-adv-x="283" d="M259 452l-97 -180l96 -180h-123l-93 178l93 182h124z" />
<glyph unicode="&#x203a;" horiz-adv-x="283" d="M256 270l-93 -178h-123l96 180l-97 180h124z" />
<glyph unicode="&#x205f;" horiz-adv-x="208" />
<glyph unicode="&#x20ac;" horiz-adv-x="540" d="M557 635l-40 -122q-76 31 -137 31q-109 0 -137 -85h254l-38 -117h-230v-29h220l-38 -117h-171q13 -53 44.5 -76t89.5 -23q26 0 55 8t53 19l53 21v-141q-63 -24 -158 -24q-249 0 -294 216h-114l38 117h65v29h-103l38 117h79q52 202 294 202q97 0 177 -26z" />
<glyph unicode="&#x2122;" horiz-adv-x="937" d="M870 291h-89v268l-97 -268h-99l-97 268v-268h-86v356h151l85 -247l86 247h146v-356zM358 584h-104v-293h-89v293h-104v63h297v-63z" />
<glyph horiz-adv-x="250" />
</font>
</defs>
</svg>
