<?xml version="1.0" standalone="no"?>
<!DOCTYPE svg PUBLIC "-//W3C//DTD SVG 1.1//EN" "http://www.w3.org/Graphics/SVG/1.1/DTD/svg11.dtd" >
<svg xmlns="http://www.w3.org/2000/svg">
<metadata>
This is a custom SVG webfont generated by Font Squirrel.
Foundry     : This Font is designed by Ralph Oliver du Carrois
</metadata>
<defs>
<font id="webfontSEfQG68S" horiz-adv-x="460" >
<font-face units-per-em="1000" ascent="800" descent="-200" />
<missing-glyph horiz-adv-x="230" />
<glyph unicode=" "  horiz-adv-x="230" />
<glyph unicode="&#x09;" horiz-adv-x="230" />
<glyph unicode="&#xa0;" horiz-adv-x="230" />
<glyph unicode="!" horiz-adv-x="230" d="M136 164h-42v483h42v-483zM145 0h-59v71h59v-71z" />
<glyph unicode="&#x22;" horiz-adv-x="340" d="M129 647l-8 -217h-33l-8 217h49zM260 647l-8 -217h-33l-8 217h49z" />
<glyph unicode="#" d="M449 399h-103l-28 -159h92v-39h-99l-35 -201h-44l35 201h-126l-35 -201h-44l35 201h-86v39h93l28 159h-82v39h89l37 209h44l-37 -209h126l37 209h44l-37 -209h96v-39zM302 399h-126l-28 -159h126z" />
<glyph unicode="$" d="M413 168q0 -82 -44.5 -126t-117.5 -55v-85h-44v82q-59 0 -160 28l18 42q33 -13 49 -18t41 -10t52 -5v298q-38 14 -60 25t-48.5 31t-39 49t-12.5 68q0 76 43 116t117 47v91h44v-89q67 -2 136 -25l-18 -42q-12 6 -25.5 11t-26 9t-29.5 7t-37 3v-265q37 -14 60.5 -26 t49.5 -33.5t39 -53t13 -74.5zM207 372v246q-112 -16 -112 -126q0 -46 28.5 -72.5t83.5 -47.5zM365 166q0 54 -29.5 84t-84.5 52v-275q49 11 81.5 45t32.5 94z" />
<glyph unicode="%" horiz-adv-x="690" d="M631 167q0 -29 -1.5 -49.5t-8.5 -46.5t-19 -42t-35 -27.5t-55 -11.5q-39 0 -64 15.5t-35.5 45t-13.5 54.5t-3 62q0 171 117 171q39 0 64.5 -14.5t36 -42.5t14 -52.5t3.5 -61.5zM294 486q0 -29 -1.5 -49.5t-8.5 -46.5t-19 -42t-35 -27.5t-55 -11.5q-39 0 -64 15.5 t-35.5 45t-13.5 54.5t-3 62q0 171 117 171q39 0 64.5 -14.5t36 -42.5t14 -52.5t3.5 -61.5zM547 629l-362 -629h-46l362 629h46zM598 167q0 34 -2 54t-9.5 44t-26 35.5t-47.5 11.5q-83 0 -83 -145q0 -32 2.5 -54.5t10 -47t25 -37t44.5 -12.5q29 0 47.5 12t26 36.5t10 46.5 t2.5 56zM261 486q0 34 -2 54t-9.5 44t-26 35.5t-47.5 11.5q-83 0 -83 -145q0 -32 2.5 -54.5t10 -47t25 -37t44.5 -12.5q29 0 47.5 12t26 36.5t10 46.5t2.5 56z" />
<glyph unicode="&#x26;" d="M414 0h-33l-12 58q-47 -71 -128 -71q-88 0 -141.5 48t-53.5 134q0 130 124 188q-4 3 -24 17t-29.5 22.5t-23.5 24t-20.5 34t-6.5 40.5q0 165 147 165t147 -153q0 -59 -31 -95t-108 -69q-65 -28 -98 -64t-33 -108q0 -59 37.5 -105t113.5 -46q35 0 70 24.5t54 59.5v144 h-111v33h152v-141q0 -24 8 -140zM316 508q0 59 -24 89t-82 30q-99 0 -99 -131q0 -29 17.5 -55t38.5 -39.5t38 -27.5q49 20 80 50.5t31 83.5z" />
<glyph unicode="'" horiz-adv-x="230" d="M140 647l-8 -217h-33l-8 217h49z" />
<glyph unicode="(" horiz-adv-x="255" d="M203 -128h-38q-63 109 -84.5 188.5t-21.5 193.5q0 130 22.5 211t78.5 182h38q-53 -97 -72 -181t-19 -212q0 -112 19 -194.5t77 -187.5z" />
<glyph unicode=")" horiz-adv-x="255" d="M196 254q0 -114 -21.5 -193.5t-84.5 -188.5h-38q58 105 77 187.5t19 194.5q0 128 -19 212t-72 181h38q56 -101 78.5 -182t22.5 -211z" />
<glyph unicode="*" horiz-adv-x="370" d="M355 505l-139 -34l-1 -5l90 -115l-38 -27l-78 120h-6l-79 -120l-39 28l91 114l-2 5l-139 35l16 47l133 -51l5 4l-7 141h48l-8 -143l5 -3l132 51z" />
<glyph unicode="+" d="M433 191h-180v-191h-46v191h-180v40h180v190h46v-190h180v-40z" />
<glyph unicode="," horiz-adv-x="230" d="M143 75l-81 -178h-34l60 178h55z" />
<glyph unicode="-" horiz-adv-x="315" d="M285 232h-255v40h255v-40z" />
<glyph unicode="." horiz-adv-x="230" d="M143 0h-56v69h56v-69z" />
<glyph unicode="/" horiz-adv-x="230" d="M244 658l-214 -668h-44l214 668h44z" />
<glyph unicode="0" d="M423 308q0 -44 -2 -75t-7.5 -72.5t-18.5 -69t-34 -53.5t-54.5 -39t-78.5 -13q-38 0 -68 11t-50 27.5t-34 44t-21.5 52.5t-11.5 61.5t-5 62.5t-1 63q0 47 3.5 85t15.5 82t32 73.5t56 49.5t85 20q53 0 90.5 -19.5t57 -46.5t30.5 -72.5t13.5 -82t2.5 -89.5zM375 308 q0 50 -2 83t-10 72.5t-23 63t-43 39.5t-68 16q-144 0 -144 -274q0 -41 1.5 -70.5t6 -65.5t14.5 -60.5t25 -46t39.5 -32.5t56.5 -11q35 0 61.5 11t42 34.5t25 46t13 62t4.5 64t1 68.5z" />
<glyph unicode="1" d="M291 -1h-46v548l-116 -102l-18 42l138 120h42v-608z" />
<glyph unicode="2" d="M406 0h-355l-18 40q18 19 65.5 64t84 83t76.5 84.5t62.5 91.5t22.5 82q0 71 -34 104.5t-104 33.5q-16 0 -31.5 -2.5t-28.5 -6.5t-27 -9.5t-27.5 -12t-29.5 -13.5l-18 42q81 38 164 38q86 0 135 -42t49 -128q0 -43 -21 -89.5t-60 -93.5t-73 -82l-82 -81l-67 -64h317v-39z " />
<glyph unicode="3" d="M384 152q0 -87 -56.5 -126.5t-144.5 -39.5q-52 0 -79.5 4t-70.5 19l18 42q25 -8 41.5 -14.5t39.5 -10.5t54 -4q40 0 71.5 10.5t55 41.5t23.5 79q0 85 -50.5 117t-141.5 32v34q83 0 130 28t47 101q0 67 -33.5 92.5t-91.5 25.5q-46 0 -134 -43l-18 42q74 37 152 37 q80 0 126.5 -37.5t46.5 -114.5q0 -68 -37 -104t-95 -43q62 -10 104.5 -49.5t42.5 -118.5z" />
<glyph unicode="4" d="M440 171h-96v-171h-46v171h-242l-18 42l268 394h38v-399h96v-37zM298 208v328l-222 -328h222z" />
<glyph unicode="5" d="M411 188q0 -96 -52.5 -149t-148.5 -53q-89 0 -153 21l18 42q67 -27 136 -27q73 0 113.5 43.5t40.5 124.5q0 75 -34.5 117t-94.5 42q-49 0 -125 -38l-42 18v278h317v-36h-271v-211q10 2 31 9t42.5 11.5t46.5 4.5q88 0 132 -53t44 -144z" />
<glyph unicode="6" d="M416 196q0 -86 -48 -148t-130 -62q-58 0 -98 24.5t-60 69.5t-27.5 93t-7.5 110q0 84 23.5 158.5t77 126t127.5 51.5q56 0 116 -16l-18 -42q-60 22 -93 22q-85 0 -138 -82.5t-53 -219.5q23 50 61.5 82t89.5 32q85 0 131.5 -54.5t46.5 -144.5zM368 196q0 163 -128 163 q-31 0 -57.5 -12t-43.5 -31.5t-26.5 -36t-16.5 -33.5q0 -122 34.5 -173t108.5 -51q59 0 94 48t35 126z" />
<glyph unicode="7" d="M399 565l-234 -565h-54l247 569h-319v38h342z" />
<glyph unicode="8" d="M424 145q0 -49 -19 -82.5t-51 -49t-62 -21.5t-65 -6q-33 0 -63 6.5t-60.5 23t-49 49.5t-18.5 80q0 125 147 175q-10 2 -31 15t-42 27.5t-37 42.5t-16 61q0 76 47.5 114.5t127.5 38.5q177 0 177 -152q0 -33 -15.5 -61t-38.5 -45.5t-43.5 -27.5t-36.5 -14q149 -51 149 -174 zM364 467q0 117 -132 117q-130 0 -130 -118q0 -47 40.5 -82t85.5 -48q47 9 91.5 46t44.5 85zM378 145q0 111 -148 156q-148 -42 -148 -156q0 -62 40 -93t105 -31q66 0 108.5 30t42.5 94z" />
<glyph unicode="9" d="M415 322q0 -84 -23.5 -158.5t-77 -126t-127.5 -51.5q-56 0 -116 16l18 42q61 -22 93 -22q85 0 138 82.5t53 219.5q-23 -50 -61.5 -82t-89.5 -32q-85 0 -131.5 54.5t-46.5 144.5q0 86 48 148t130 62q58 0 98 -24.5t60 -69.5t27.5 -93t7.5 -110zM364 359q0 122 -34.5 173 t-108.5 51q-59 0 -94 -48t-35 -126q0 -163 128 -163q31 0 57.5 12t43.5 31.5t26.5 36t16.5 33.5z" />
<glyph unicode=":" horiz-adv-x="230" d="M143 0h-56v69h56v-69zM143 383h-56v69h56v-69z" />
<glyph unicode=";" horiz-adv-x="230" d="M139 383h-56v69h56v-69zM143 75l-81 -178h-34l55 178h60z" />
<glyph unicode="&#x3c;" d="M430 12l-400 179v58l400 179v-49l-357 -160l357 -158v-49z" />
<glyph unicode="=" d="M430 284h-400v44h400v-44zM430 112h-400v43h400v-43z" />
<glyph unicode="&#x3e;" d="M430 191l-400 -179v49l357 160l-357 158v49l400 -179v-58z" />
<glyph unicode="?" horiz-adv-x="385" d="M354 510q0 -33 -16.5 -61t-39.5 -48l-48 -41q-23 -20 -39.5 -46.5t-16.5 -57.5v-98h-46v103q0 38 16.5 68t39.5 50l48 39q23 18 39.5 41t16.5 51q0 59 -29.5 84.5t-91.5 25.5q-48 0 -118 -35l-18 42q86 30 136 30q167 0 167 -147zM201 0h-59v71h59v-71z" />
<glyph unicode="@" horiz-adv-x="810" d="M727 382q0 -126 -77.5 -191.5t-205.5 -65.5q-86 0 -143.5 51t-57.5 143q0 80 53 136.5t134 56.5q36 0 74 -15v-214l42 7l15 -36l-94 -15v235q-15 5 -36 5q-66 0 -105 -42.5t-39 -114.5q0 -80 42.5 -122t116.5 -42q110 0 173.5 55.5t63.5 167.5q0 119 -71 181t-178 62 q-138 0 -222.5 -79t-84.5 -225q0 -147 83 -225t220 -78q63 0 107.5 8t104.5 30l15 -36q-92 -35 -230 -35q-160 0 -252 90t-92 246t98 246.5t253 90.5q77 0 142.5 -30t108 -94t42.5 -151z" />
<glyph unicode="A" horiz-adv-x="608" d="M573 0h-52l-75 203h-284l-80 -203h-47l263 647h31zM434 238l-123 341l-135 -341h258z" />
<glyph unicode="B" horiz-adv-x="557" d="M497 181q0 -54 -16 -90.5t-47 -55.5t-67 -27t-85 -8h-182v647h149q53 0 89.5 -6.5t67.5 -23.5t46 -50.5t15 -84.5q0 -49 -28 -86.5t-75 -56.5q133 -32 133 -158zM419 481q0 80 -38.5 104.5t-131.5 24.5h-103v-259h117q69 0 112.5 31.5t43.5 98.5zM448 181q0 79 -48 106.5 t-135 27.5h-119v-278h130q87 0 129.5 28.5t42.5 115.5z" />
<glyph unicode="C" horiz-adv-x="527" d="M485 12q-80 -28 -164 -28q-91 0 -149.5 45.5t-82.5 119t-24 174.5q0 56 8 104t26.5 91t48 73.5t75 48t104.5 17.5q81 0 151 -23l-18 -42q-65 28 -133 28q-214 0 -214 -296q0 -63 10 -115t33 -95.5t65 -68t100 -24.5q64 0 146 33z" />
<glyph unicode="D" horiz-adv-x="605" d="M540 326q0 -175 -71.5 -250.5t-237.5 -75.5h-131v647h131q172 0 240.5 -72.5t68.5 -248.5zM492 325q0 155 -56 220t-205 65h-85v-573h94q131 0 191.5 72.5t60.5 215.5z" />
<glyph unicode="E" horiz-adv-x="513" d="M453 0h-353v647h344v-37h-298v-257h277v-37h-277v-279h307v-37z" />
<glyph unicode="F" horiz-adv-x="502" d="M444 609h-298v-260h286v-36h-286v-313h-46v647h344v-38z" />
<glyph unicode="G" horiz-adv-x="576" d="M511 39q-42 -20 -64.5 -29.5t-56 -17.5t-67.5 -8q-258 0 -258 340q0 333 267 333q55 0 143 -23l-18 -42q-64 28 -124 28q-115 0 -167.5 -75t-52.5 -221q0 -303 213 -303q55 0 143 47v201h-143v37h185v-267z" />
<glyph unicode="H" horiz-adv-x="624" d="M524 0h-46v315h-332v-315h-46v647h46v-294h332v294h46v-647z" />
<glyph unicode="I" horiz-adv-x="222" d="M134 0h-46v647h46v-647z" />
<glyph unicode="J" horiz-adv-x="375" d="M275 204q0 -38 -6.5 -69.5t-17.5 -54t-26.5 -40.5t-33.5 -29.5t-38 -21.5t-40.5 -14.5t-41 -10t-38.5 -8.5l-13 44q28 7 56.5 11t56 16.5t49 30t34.5 52.5t13 84v453h46v-443z" />
<glyph unicode="K" horiz-adv-x="553" d="M536 0h-62l-328 321v-321h-46v647h46v-305l311 305h49l-316 -308z" />
<glyph unicode="L" horiz-adv-x="464" d="M455 0h-355v647h46v-607h309v-40z" />
<glyph unicode="M" horiz-adv-x="793" d="M693 0h-44v597l-240 -597h-25l-244 597v-597h-40v647h63l236 -579l236 579h58v-647z" />
<glyph unicode="N" horiz-adv-x="647" d="M547 0h-64l-343 593v-593h-40v647h62l341 -593v593h44v-647z" />
<glyph unicode="O" horiz-adv-x="657" d="M592 321q0 -156 -62 -246.5t-200 -90.5q-144 0 -204.5 89.5t-60.5 247.5q0 155 63 245.5t203 90.5q74 0 126 -25t81 -72t41.5 -105t12.5 -134zM544 321q0 143 -47 221t-167 78q-63 0 -106.5 -22t-67 -64t-33.5 -93.5t-10 -119.5q0 -140 48.5 -220t168.5 -80 q62 0 105.5 22.5t66.5 65t32.5 94t9.5 118.5z" />
<glyph unicode="P" horiz-adv-x="532" d="M476 468q0 -185 -198 -185h-132v-283h-46v647h167q103 0 156 -42.5t53 -136.5zM428 468q0 80 -40 111t-123 31h-119v-290h124q83 0 120.5 32t37.5 116z" />
<glyph unicode="Q" horiz-adv-x="657" d="M592 321q0 -156 -62 -246.5t-200 -90.5q-144 0 -204.5 89.5t-60.5 247.5q0 155 63 245.5t203 90.5q74 0 126 -25t81 -72t41.5 -105t12.5 -134zM544 321q0 143 -47 221t-167 78q-63 0 -106.5 -22t-67 -64t-33.5 -93.5t-10 -119.5q0 -140 48.5 -220t168.5 -80 q62 0 105.5 22.5t66.5 65t32.5 94t9.5 118.5zM538 -54l-18 -43l-206 30l18 30z" />
<glyph unicode="R" horiz-adv-x="558" d="M512 0h-56l-222 299h-88v-299h-46v647h182q87 0 143 -39.5t56 -127.5q0 -180 -194 -180zM433 480q0 130 -146 130h-141v-274h142q145 0 145 144z" />
<glyph unicode="S" horiz-adv-x="526" d="M453 165q0 -181 -219 -181q-61 0 -164 28l18 42q88 -33 147 -33q69 0 119.5 32.5t50.5 109.5q0 27 -9.5 49.5t-22.5 37t-37.5 28.5t-43.5 21l-49 18q-32 11 -52 19.5t-45.5 23.5t-40 32t-25 43.5t-10.5 58.5q0 84 58.5 123.5t154.5 39.5q68 0 150 -28l-18 -42 q-76 33 -138 33q-159 0 -159 -126q0 -28 11 -49t33.5 -36.5t43.5 -24.5t55 -21q45 -16 70.5 -27.5t58 -34t48 -56.5t15.5 -80z" />
<glyph unicode="T" horiz-adv-x="498" d="M470 609h-198v-609h-46v609h-198v38h442v-38z" />
<glyph unicode="U" horiz-adv-x="655" d="M555 237q0 -130 -53 -191.5t-168 -61.5q-126 0 -180 61t-54 194v408h46v-398q0 -130 41.5 -179t146.5 -49q96 0 135.5 51.5t39.5 176.5v398h46v-410z" />
<glyph unicode="V" horiz-adv-x="580" d="M549 647l-235 -647h-38l-245 647h51l215 -577l204 577h48z" />
<glyph unicode="W" horiz-adv-x="834" d="M797 647l-176 -647h-48l-156 546l-158 -546h-50l-172 647h48l153 -579l158 552h48l156 -554l154 581h43z" />
<glyph unicode="X" horiz-adv-x="551" d="M512 0h-58l-180 301l-191 -301h-50l216 334l-189 313h54l164 -273l171 273h50l-199 -306z" />
<glyph unicode="Y" horiz-adv-x="532" d="M515 647l-220 -356v-291h-46v287l-232 360h52l205 -315l195 315h46z" />
<glyph unicode="Z" horiz-adv-x="527" d="M481 605l-386 -567h378v-38h-409l-18 42l385 567h-348v38h380z" />
<glyph unicode="[" horiz-adv-x="255" d="M209 -127h-125v803h125v-34h-79v-732h79v-37z" />
<glyph unicode="\" horiz-adv-x="230" d="M244 -10h-44l-214 668h44z" />
<glyph unicode="]" horiz-adv-x="255" d="M171 -125h-125v37h79v732h-79v34h125v-803z" />
<glyph unicode="^" d="M426 269h-51l-145 302l-146 -302h-47l181 378h23z" />
<glyph unicode="_" horiz-adv-x="500" d="M501 -95h-502v33h502v-33z" />
<glyph unicode="`" horiz-adv-x="188" d="M169 530h-39l-111 117h54z" />
<glyph unicode="a" horiz-adv-x="457" d="M391 0h-33q0 5 -7.5 27.5t-8.5 30.5q-18 -30 -53 -49t-80 -19q-66 0 -113 32.5t-47 97.5q0 76 52.5 114.5t189.5 38.5h47v42q0 119 -105 119q-69 0 -149 -39l-15 36q93 36 163 36q69 0 108 -37t39 -110v-180q0 -24 12 -140zM339 96v143h-34q-119 0 -165.5 -27t-46.5 -91 q0 -45 30 -71.5t86 -26.5q44 0 78.5 20t51.5 53z" />
<glyph unicode="b" horiz-adv-x="471" d="M422 231q0 -107 -42.5 -174t-134.5 -67q-40 0 -77.5 20t-57.5 48l-13 -58h-33q8 77 8 140v517h41v-272q17 31 54 56.5t83 25.5q88 0 130 -66t42 -170zM378 229q0 104 -35 154.5t-96 50.5q-31 0 -56.5 -12t-41.5 -31.5t-24.5 -33t-13.5 -26.5v-232q47 -76 124 -76 q143 0 143 206z" />
<glyph unicode="c" horiz-adv-x="415" d="M375 19q-25 -12 -66.5 -20.5t-69.5 -8.5q-97 0 -143.5 62.5t-46.5 172.5q0 242 193 242q57 0 131 -29l-15 -36q-64 32 -117 32q-148 0 -148 -209q0 -202 147 -202q58 0 120 32z" />
<glyph unicode="d" horiz-adv-x="471" d="M407 0h-33l-13 58q-20 -28 -56.5 -48t-76.5 -20h-2q-92 1 -134.5 67.5t-42.5 173.5q0 102 46 169t129 67q48 0 82 -25t52 -57v272h41v-517q0 -63 8 -140zM360 99v232q-5 14 -13.5 28t-23.5 33t-40 30.5t-55 11.5q-63 0 -99 -51.5t-36 -153.5q0 -206 143 -206q77 0 124 76 z" />
<glyph unicode="e" horiz-adv-x="461" d="M409 219h-315q0 -196 145 -196q64 0 141 41l12 -37q-77 -37 -161 -37q-94 0 -138 65t-44 169q0 43 9 83t28.5 77.5t56 60t86.5 22.5q54 0 90.5 -19t55.5 -55t26.5 -77.5t7.5 -96.5zM369 252q0 92 -33 137t-107 45q-64 0 -97.5 -48t-38.5 -134h276z" />
<glyph unicode="f" horiz-adv-x="235" d="M255 636q-73 -7 -98 -34.5t-25 -77.5v-67h94v-33h-94v-424h-41v424h-76v33h76v64q0 68 39 106.5t115 44.5z" />
<glyph unicode="g" horiz-adv-x="471" d="M439 -68q0 -62 -56 -95.5t-142 -33.5q-202 0 -202 125q0 39 31.5 65.5t68.5 34.5q-64 26 -64 72q0 15 7 29.5t13 21t20 20.5q-6 4 -15 17l-18 25q-8 13 -14 36.5t-6 50.5q0 23 7.5 49t25 54t53.5 46t85 18q50 0 76 -13q122 10 125 10l-15 -36h-70q23 -16 40.5 -50.5 t17.5 -74.5q0 -74 -41.5 -124t-130.5 -50q-22 0 -52 7.5t-42 15.5q-26 -28 -26 -49q0 -23 26.5 -35.5t109.5 -21.5q105 -11 146.5 -40.5t41.5 -73.5zM363 301q0 64 -33.5 98.5t-94.5 34.5q-68 0 -98.5 -40t-30.5 -96q0 -60 32 -98t98 -38t96.5 38.5t30.5 100.5zM395 -68 q0 28 -24.5 44.5t-67.5 24.5t-125 15q-45 -9 -70 -34.5t-25 -53.5q0 -92 158 -92q77 0 115.5 26t38.5 70z" />
<glyph unicode="h" horiz-adv-x="469" d="M397 0h-41v274q0 79 -24 119.5t-91 40.5q-48 0 -84 -35t-45 -68v-331h-40v657h41v-272q17 33 54.5 57.5t80.5 24.5q81 0 115 -48t34 -123v-296z" />
<glyph unicode="i" horiz-adv-x="188" d="M118 579h-48v68h48v-68zM115 0h-41v457h41v-457z" />
<glyph unicode="j" horiz-adv-x="183" d="M113 579h-48v68h48v-68zM110 6q0 -60 -28 -94.5t-94 -51.5l-12 37q52 11 72.5 33t20.5 67v460h41v-451z" />
<glyph unicode="k" horiz-adv-x="418" d="M400 0h-52l-235 244v-244h-41v657h41v-392l216 192h47l-228 -198z" />
<glyph unicode="l" horiz-adv-x="185" d="M113 0h-41v657h41v-657z" />
<glyph unicode="m" horiz-adv-x="750" d="M678 0h-41v290q0 30 -4 52t-15.5 44.5t-36.5 35t-62 12.5q-42 0 -76.5 -33.5t-49.5 -73.5v-327h-41v290q0 67 -29 105.5t-85 38.5q-42 0 -77 -31.5t-48 -70.5v-332h-41v352q0 14 -8 105h33l14 -72q56 82 133 82q106 0 137 -101q17 28 32 46.5t45 36.5t65 18 q155 0 155 -175v-292z" />
<glyph unicode="n" horiz-adv-x="469" d="M397 0h-41v280q0 35 -4.5 60t-16 47.5t-35.5 34.5t-60 12q-45 0 -79.5 -32.5t-47.5 -69.5v-332h-41v360q0 21 -3.5 51.5t-4.5 45.5h33l13 -72q4 8 17 22t27 27.5t38.5 23t53.5 9.5q151 0 151 -179v-288z" />
<glyph unicode="o" horiz-adv-x="477" d="M428 231q0 -241 -189 -241q-190 0 -190 241q0 68 16 118t60 84t114 34q189 0 189 -236zM384 231q0 45 -6.5 79.5t-22 63.5t-45 44.5t-71.5 15.5q-77 0 -111.5 -55.5t-34.5 -147.5q0 -208 146 -208q83 0 114 55.5t31 152.5z" />
<glyph unicode="p" horiz-adv-x="471" d="M422 226q0 -102 -44.5 -169t-127.5 -67q-89 0 -137 66v-236h-41v502q0 72 -8 135h33l15 -73q50 83 135 83q93 0 134 -66.5t41 -174.5zM378 228q0 206 -139 206q-44 0 -79.5 -32t-47.5 -71v-234q14 -14 26 -30.5t40.5 -30t65.5 -13.5q62 0 98 51.5t36 153.5z" />
<glyph unicode="q" horiz-adv-x="471" d="M407 457q-8 -63 -8 -135v-502h-41v236q-48 -66 -137 -66q-84 0 -128 67t-44 169q0 105 44 173t133 68q41 0 77 -25t56 -58l15 73h33zM359 97v234q-12 38 -48 70.5t-80 32.5q-69 0 -103.5 -56.5t-34.5 -149.5q0 -102 36 -153.5t98 -51.5q24 0 43.5 4.5t34.5 15t22 16.5 t19 21.5t13 16.5z" />
<glyph unicode="r" horiz-adv-x="320" d="M307 445l-15 -36q-34 25 -74 25q-27 0 -50.5 -23t-34 -48t-20.5 -43v-320h-41v355q0 10 -8 102h33l13 -86q10 19 18 31t22.5 29.5t33.5 26.5t41 9q44 0 82 -22z" />
<glyph unicode="s" horiz-adv-x="396" d="M347 122q0 -63 -43.5 -97.5t-111.5 -34.5q-91 0 -147 28l15 36q45 -19 69.5 -25t66.5 -6q49 0 78 25.5t29 72.5q0 23 -8.5 39.5t-29 28t-35.5 17t-46 15.5q-32 10 -52 18t-43 22t-34 34.5t-11 47.5q0 64 45.5 94t120.5 30q42 0 129 -30l-15 -36l-40 17q-16 7 -36.5 11.5 t-46.5 4.5q-50 0 -81.5 -21t-31.5 -67q0 -18 7.5 -31.5t25 -23.5t31.5 -15.5t41 -13.5q25 -8 32 -10t29.5 -10t30.5 -14l23 -17q16 -11 22 -23t11.5 -29t5.5 -37z" />
<glyph unicode="t" horiz-adv-x="263" d="M248 -5l-11 -38q-153 28 -153 153v314h-69v33h69v114h41v-114h104v-33h-104v-314q0 -49 29 -76.5t94 -38.5z" />
<glyph unicode="u" horiz-adv-x="462" d="M398 0h-33l-13 72q-1 -1 -10 -13.5t-14 -18t-17.5 -17t-24.5 -17.5t-31 -11t-40 -5q-143 0 -143 179v288h41v-280q0 -73 23 -113.5t90 -40.5q45 0 77.5 32t45.5 70v332h41v-360q0 -21 3.5 -51.5t4.5 -45.5z" />
<glyph unicode="v" horiz-adv-x="465" d="M423 457l-175 -457h-29l-177 457h44l150 -396l147 396h40z" />
<glyph unicode="w" horiz-adv-x="668" d="M626 457l-158 -457h-38l-101 343l-107 -343h-40l-140 457h43l120 -403l111 357h34l102 -354l135 400h39z" />
<glyph unicode="x" horiz-adv-x="428" d="M402 0h-55l-133 203l-142 -203h-46l164 231l-153 226h53l128 -191l131 191h45l-155 -219z" />
<glyph unicode="y" horiz-adv-x="464" d="M422 457l-191 -530q-19 -51 -43 -74t-79 -43l-12 38q71 19 88 65l40 106l-183 438l44 1l160 -392l136 391h40z" />
<glyph unicode="z" horiz-adv-x="392" d="M350 421l-263 -388h253v-33h-283l-15 36l264 388h-244v33h273z" />
<glyph unicode="{" horiz-adv-x="340" d="M296 -118q-63 2 -100.5 29t-48.5 66.5t-17 85.5t-8 86t-20 67.5t-54 30.5v37q35 1 52.5 28t19 66.5t7.5 85.5t17 86t49.5 67.5t102.5 29.5v-37q-63 0 -94.5 -29.5t-37.5 -75t-6.5 -92.5t-15 -89.5t-51.5 -59.5q38 -14 53 -55t16.5 -89t7 -94t36 -76.5t92.5 -30.5v-37z " />
<glyph unicode="|" horiz-adv-x="230" d="M135 -166h-40v868h40v-868z" />
<glyph unicode="}" horiz-adv-x="340" d="M292 247q-36 -3 -54 -30.5t-20 -67.5t-8 -86t-17 -85.5t-48.5 -66.5t-100.5 -29v37q62 0 92.5 30.5t36 76.5t7 94t16.5 89t53 55q-37 17 -51.5 59.5t-15 89.5t-6.5 92.5t-37.5 75t-94.5 29.5v37q64 -2 102.5 -29.5t49.5 -67.5t17 -86t7.5 -85.5t19 -66.5t52.5 -28v-37z " />
<glyph unicode="~" d="M436 249q0 -46 -32.5 -70.5t-75.5 -24.5q-40 0 -105 36.5t-93 36.5q-67 0 -67 -70l-39 18q0 47 30.5 71t75.5 24q35 0 100 -36t97 -36t51 19t19 50z" />
<glyph unicode="&#xa1;" horiz-adv-x="230" d="M145 576h-59v71h59v-71zM137 0h-42v483h42v-483z" />
<glyph unicode="&#xa2;" horiz-adv-x="405" d="M365 19q-46 -22 -112 -28v-90h-39v90q-165 16 -165 234q0 224 165 241v91h39v-90q43 -2 110 -29l-15 -36q-54 27 -95 31v-409q44 5 97 31zM214 25v407q-121 -18 -121 -207q0 -183 121 -200z" />
<glyph unicode="&#xa3;" d="M435 0h-386v39h70v308h-70v39h70v36q0 38 6.5 69.5t17.5 54t26.5 40.5t33.5 29.5t38 21.5t40.5 14.5t41 10t38.5 8.5l13 -44q-28 -7 -56.5 -11t-56 -16.5t-49 -30t-34.5 -52.5t-13 -84v-46h186v-39h-186v-307h270v-40z" />
<glyph unicode="&#xa4;" d="M485 630l-12 -45q-72 35 -139 35q-91 0 -134.5 -57.5t-56.5 -156.5h284l-10 -37h-278q-1 -15 -1 -45q0 -26 1 -39h256l-10 -37h-243q11 -106 53 -166.5t132 -60.5q50 0 137 35v-49q-77 -23 -137 -23q-204 0 -233 264h-94l10 37h81q-1 12 -1 38q0 31 1 46h-91l10 37h85 q15 115 72.5 183t166.5 68q72 0 151 -27z" />
<glyph unicode="&#xa5;" d="M451 647l-187 -346h151v-39h-156v-81h156v-39h-156v-142h-46v142h-154v39h154v81h-154v39h147l-197 346h52l177 -310l167 310h46z" />
<glyph unicode="&#xa6;" horiz-adv-x="230" d="M138 359h-46v234h46v-234zM138 -78h-46v234h46v-234z" />
<glyph unicode="&#xa7;" d="M388 318q0 -36 -21 -63t-54 -38q59 -32 59 -101q0 -62 -44.5 -97t-110.5 -35q-79 0 -139 28l15 39q31 -13 44.5 -18t34.5 -9t47 -4q49 0 78 24t29 71q0 37 -26 60t-64 34l-74 23q-38 11 -64 35t-26 63q0 82 73 111q-57 29 -57 90q0 63 45 94.5t111 31.5q57 0 124 -32 l-15 -39q-32 19 -54 27t-54 8q-111 0 -111 -87q0 -29 26 -47t63.5 -28t75 -23t63.5 -42.5t26 -75.5zM342 317q0 22 -7 37t-24 25t-30.5 15t-41.5 12.5t-41 12.5q-80 -10 -80 -86q0 -21 15.5 -37t32 -22.5t52 -17.5t49.5 -16q75 20 75 77z" />
<glyph unicode="&#xa8;" horiz-adv-x="188" d="M191 584h-47v63h47v-63zM44 584h-47v63h47v-63z" />
<glyph unicode="&#xa9;" horiz-adv-x="720" d="M695 324q0 -141 -97 -237.5t-238 -96.5t-238 96.5t-97 237.5t97 237.5t238 96.5q143 0 239 -96t96 -238zM656 324q0 125 -86 213t-210 88q-125 0 -210.5 -88t-85.5 -213q0 -123 86.5 -212t209.5 -89t209.5 89t86.5 212zM459 138q-59 -19 -106 -19q-84 0 -125 55.5 t-41 147.5q0 89 40.5 144.5t129.5 55.5q47 0 98 -16l-12 -32q-49 20 -86 20q-134 0 -134 -171q0 -176 130 -176q35 0 95 23z" />
<glyph unicode="&#xaa;" d="M336 391h-25q0 2 -4.5 14t-5.5 17q-25 -37 -80 -37q-40 0 -68 18t-28 54q0 42 32 64.5t114 22.5h28v17q0 32 -14.5 47t-48.5 15q-44 0 -90 -21l-9 26q55 19 98 19q42 0 67.5 -20t25.5 -60v-99q0 -13 8 -77zM299 452v67h-20q-67 0 -94 -13.5t-27 -48.5q0 -48 63 -48 q25 0 46.5 12t31.5 31z" />
<glyph unicode="&#xab;" horiz-adv-x="340" d="M175 452l-97 -180l96 -180h-43l-93 178l93 182h44zM305 452l-97 -180l96 -180h-43l-93 178l93 182h44z" />
<glyph unicode="&#xac;" d="M440 118h-46v181h-379v39h425v-220z" />
<glyph unicode="&#xad;" horiz-adv-x="315" d="M285 232h-255v40h255v-40z" />
<glyph unicode="&#xae;" horiz-adv-x="720" d="M695 324q0 -141 -97 -237.5t-238 -96.5t-238 96.5t-97 237.5t97 237.5t238 96.5q143 0 239 -96t96 -238zM656 324q0 125 -86 213t-210 88q-125 0 -210.5 -88t-85.5 -213q0 -123 86.5 -212t209.5 -89t209.5 89t86.5 212zM511 129h-42l-144 178h-47v-178h-34v389h118 q56 0 92.5 -24.5t36.5 -76.5q0 -48 -29.5 -79t-96.5 -31zM455 417q0 38 -21.5 55t-68.5 17h-87v-154h88q50 0 69.5 22t19.5 60z" />
<glyph unicode="&#xaf;" horiz-adv-x="188" d="M203 578h-218v46h218v-46z" />
<glyph unicode="&#xb0;" horiz-adv-x="370" d="M320 479q0 -57 -40 -94t-96 -37t-95 37t-39 94t39.5 95.5t95.5 38.5t95.5 -38.5t39.5 -95.5zM274 479q0 40 -25 66t-64 26t-64.5 -26t-25.5 -66q0 -36 26.5 -62.5t62.5 -26.5t63 26.5t27 62.5z" />
<glyph unicode="&#xb1;" d="M433 251h-180v-131h-46v131h-180v40h180v130h46v-130h180v-40zM430 2h-400v43h400v-43z" />
<glyph unicode="&#xb2;" horiz-adv-x="315" d="M270 317h-213l-11 22q10 10 50.5 45t65 59t48 58.5t23.5 59.5q0 39 -20 54.5t-63 15.5q-37 0 -87 -24l-10 29q50 21 98 21q52 0 83.5 -25t31.5 -72q0 -29 -21.5 -62.5t-44 -55t-61.5 -54.5l-50 -44h181v-27z" />
<glyph unicode="&#xb3;" horiz-adv-x="315" d="M266 400q0 -47 -36 -69t-90 -22q-52 0 -90 12l11 29q50 -16 81 -16q90 0 90 66q0 46 -30 62.5t-85 16.5v25q51 0 78.5 14t27.5 54q0 36 -19 47.5t-56 11.5q-26 0 -80 -24l-11 29q45 21 91 21q48 0 78.5 -21t30.5 -63q0 -72 -79 -81q88 -13 88 -92z" />
<glyph unicode="&#xb4;" horiz-adv-x="188" d="M169 647l-111 -117h-39l96 117h54z" />
<glyph unicode="&#xb5;" d="M397 0h-33l-13 72q-4 -8 -16 -22t-25 -27.5t-36.5 -23t-49.5 -9.5q-75 0 -112 42v-212h-41v637h41v-280q0 -73 23 -113.5t90 -40.5q44 0 76.5 36t46.5 76v322h41v-360q0 -21 3.5 -51.5t4.5 -45.5z" />
<glyph unicode="&#x3bc;" d="M397 0h-33l-13 72q-4 -8 -16 -22t-25 -27.5t-36.5 -23t-49.5 -9.5q-75 0 -112 42v-212h-41v637h41v-280q0 -73 23 -113.5t90 -40.5q44 0 76.5 36t46.5 76v322h41v-360q0 -21 3.5 -51.5t4.5 -45.5z" />
<glyph unicode="&#xb6;" horiz-adv-x="540" d="M467 -188h-46v796h-101q-48 0 -78 -28.5t-30 -85.5q0 -42 29 -68.5t69 -37.5v-576h-46v526q-46 2 -79 16.5t-50.5 36.5t-25.5 46.5t-8 51.5q0 158 181 158h185v-835z" />
<glyph unicode="&#xb7;" horiz-adv-x="230" d="M150 252h-70v75h70v-75z" />
<glyph unicode="&#xb8;" horiz-adv-x="188" d="M175 -94q0 -73 -86 -73q-26 0 -84 8l14 38q56 -7 65 -7q20 0 34 8t14 24t-15.5 24t-64.5 8l21 79h39l-10 -47q34 0 53.5 -18.5t19.5 -43.5z" />
<glyph unicode="&#xb9;" horiz-adv-x="315" d="M193 313h-33v295l-70 -56l-10 29l82 66h31v-334z" />
<glyph unicode="&#xba;" d="M344 527q0 -132 -113 -132q-114 0 -114 132q0 130 114 130q113 0 113 -130zM313 527q0 51 -18 78.5t-64 27.5q-83 0 -83 -106q0 -51 18.5 -79.5t64.5 -28.5q82 0 82 108z" />
<glyph unicode="&#xbb;" horiz-adv-x="340" d="M172 270l-93 -178h-43l96 180l-97 180h44zM302 270l-93 -178h-43l96 180l-97 180h44z" />
<glyph unicode="&#xbc;" horiz-adv-x="690" d="M178 313h-33v295l-70 -56l-10 29l82 66h31v-334zM584 91h-53v-91h-33v91h-144l-12 26l161 217h28v-217h53v-26zM509 629l-367 -629h-41l364 629h44zM498 117v172l-127 -172h127z" />
<glyph unicode="&#xbd;" horiz-adv-x="690" d="M178 313h-33v295l-70 -56l-10 29l82 66h31v-334zM618 0h-213l-12 28q4 4 66 56.5t92 90t30 70.5q0 39 -20 54.5t-63 15.5q-35 0 -87 -25l-10 30q48 20 98 20q52 0 83.5 -24.5t31.5 -71.5q0 -29 -21.5 -62.5t-44 -55.5t-61.5 -56l-50 -43h181v-27zM509 629l-362 -629h-46 l362 629h46z" />
<glyph unicode="&#xbe;" horiz-adv-x="690" d="M609 91h-53v-91h-33v91h-144l-12 26l161 217h28v-217h53v-26zM534 629l-363 -629h-45l362 629h46zM261 400q0 -47 -36 -69t-90 -22q-52 0 -90 12l11 29q50 -16 81 -16q90 0 90 66q0 46 -30 62.5t-85 16.5v25q51 0 78.5 14t27.5 54q0 36 -19 47.5t-56 11.5q-26 0 -80 -24 l-11 29q46 21 91 21q48 0 78.5 -21t30.5 -63q0 -72 -79 -81q88 -13 88 -92zM523 117v172l-127 -172h127z" />
<glyph unicode="&#xbf;" horiz-adv-x="385" d="M263 576h-59v71h59v-71zM354 20q-86 -30 -136 -30q-167 0 -167 147q0 33 16.5 61t40.5 48l46 40q24 21 40.5 47.5t16.5 57.5v98h46v-103q0 -38 -16.5 -68t-40.5 -50l-46 -38q-24 -19 -40.5 -42t-16.5 -51q0 -59 29.5 -84.5t91.5 -25.5q48 0 118 35z" />
<glyph unicode="&#xc0;" horiz-adv-x="608" d="M398 681h-39l-111 117h54zM573 0h-52l-75 203h-284l-80 -203h-47l263 647h31zM434 238l-123 341l-135 -341h258z" />
<glyph unicode="&#xc1;" horiz-adv-x="608" d="M385 794l-111 -117h-39l96 117h54zM573 0h-52l-75 203h-284l-80 -203h-47l263 647h31zM434 238l-123 341l-135 -341h258z" />
<glyph unicode="&#xc2;" horiz-adv-x="608" d="M418 702h-40l-66 74l-68 -74h-40l84 107h48zM573 0h-52l-75 203h-284l-80 -203h-47l263 647h31zM434 238l-123 341l-135 -341h258z" />
<glyph unicode="&#xc3;" horiz-adv-x="608" d="M437 755q-21 -59 -74 -59q-14 0 -45.5 18t-47.5 18q-32 0 -44 -45l-35 15q16 36 32.5 49t47.5 13q15 0 46 -16.5t44 -16.5q28 0 41 39zM573 0h-52l-75 203h-284l-80 -203h-47l263 647h31zM434 238l-123 341l-135 -341h258z" />
<glyph unicode="&#xc4;" horiz-adv-x="608" d="M410 696h-47v63h47v-63zM263 696h-47v63h47v-63zM573 0h-52l-75 203h-284l-80 -203h-47l263 647h31zM434 238l-123 341l-135 -341h258z" />
<glyph unicode="&#xc5;" horiz-adv-x="608" d="M573 0h-52l-75 203h-284l-80 -203h-47l263 647h31zM434 238l-123 341l-135 -341h258zM395 753q0 -34 -24 -58t-59 -24q-34 0 -58.5 24t-24.5 58t24 58t59 24t59 -23.5t24 -58.5zM363 754q0 22 -14 37t-37 15q-22 0 -37 -16t-15 -36q0 -19 15 -35.5t37 -16.5q25 0 38 15 t13 37z" />
<glyph unicode="&#xc6;" horiz-adv-x="855" d="M795 0h-287l-37 203h-272l-114 -203h-50l367 647h384v-37h-343l49 -257h273v-37h-265l51 -279h244v-37zM464 238l-61 337l-186 -337h247z" />
<glyph unicode="&#xc7;" horiz-adv-x="527" d="M485 12q-69 -25 -144 -28l-3 -16q34 0 53.5 -18.5t19.5 -43.5q0 -73 -86 -73q-26 0 -84 8l14 38q56 -7 65 -7q20 0 34 8t14 24t-15.5 24t-64.5 8l13 49q-123 7 -179.5 97.5t-56.5 240.5q0 56 8 104t26.5 91t48 73.5t75 48t104.5 17.5q81 0 151 -23l-18 -42 q-65 28 -133 28q-214 0 -214 -296q0 -63 10 -115t33 -95.5t65 -68t100 -24.5q64 0 146 33z" />
<glyph unicode="&#xc8;" horiz-adv-x="513" d="M334 682h-39l-111 117h54zM453 0h-353v647h344v-37h-298v-257h277v-37h-277v-279h307v-37z" />
<glyph unicode="&#xc9;" horiz-adv-x="513" d="M380 794l-111 -117h-39l96 117h54zM453 0h-353v647h344v-37h-298v-257h277v-37h-277v-279h307v-37z" />
<glyph unicode="&#xca;" horiz-adv-x="513" d="M384 687h-40l-66 74l-68 -74h-40l84 107h48zM453 0h-353v647h344v-37h-298v-257h277v-37h-277v-279h307v-37z" />
<glyph unicode="&#xcb;" horiz-adv-x="513" d="M370 696h-47v63h47v-63zM223 696h-47v63h47v-63zM453 0h-353v647h344v-37h-298v-257h277v-37h-277v-279h307v-37z" />
<glyph unicode="&#xcc;" horiz-adv-x="222" d="M136 0h-46v647h46v-647zM187 692h-39l-111 117h53z" />
<glyph unicode="&#xcd;" horiz-adv-x="222" d="M188 809l-111 -117h-39l96 117h54zM134 0h-46v647h46v-647z" />
<glyph unicode="&#xce;" horiz-adv-x="222" d="M218 702h-40l-66 74l-68 -74h-40l84 107h48zM134 0h-46v647h46v-647z" />
<glyph unicode="&#xcf;" horiz-adv-x="222" d="M208 696h-47v63h47v-63zM61 696h-47v63h47v-63zM135 0h-46v647h46v-647z" />
<glyph unicode="&#xd0;" horiz-adv-x="605" d="M540 326q0 -175 -71.5 -250.5t-237.5 -75.5h-131v349h-71v37h71v261h131q172 0 240.5 -72.5t68.5 -248.5zM492 325q0 155 -56 220t-205 65h-85v-224h175v-37h-175v-312h94q131 0 191.5 72.5t60.5 215.5z" />
<glyph unicode="&#xd1;" horiz-adv-x="647" d="M429 752q-21 -59 -74 -59q-14 0 -45.5 18t-47.5 18q-32 0 -44 -45l-35 15q16 36 32.5 49t47.5 13q15 0 46 -16.5t44 -16.5q28 0 41 39zM547 0h-64l-343 593v-593h-40v647h62l341 -593v593h44v-647z" />
<glyph unicode="&#xd2;" horiz-adv-x="657" d="M384 682h-39l-111 117h54zM592 321q0 -156 -62 -246.5t-200 -90.5q-144 0 -204.5 89.5t-60.5 247.5q0 155 63 245.5t203 90.5q74 0 126 -25t81 -72t41.5 -105t12.5 -134zM544 321q0 143 -47 221t-167 78q-63 0 -106.5 -22t-67 -64t-33.5 -93.5t-10 -119.5 q0 -140 48.5 -220t168.5 -80q62 0 105.5 22.5t66.5 65t32.5 94t9.5 118.5z" />
<glyph unicode="&#xd3;" horiz-adv-x="657" d="M440 794l-111 -117h-39l96 117h54zM592 321q0 -156 -62 -246.5t-200 -90.5q-144 0 -204.5 89.5t-60.5 247.5q0 155 63 245.5t203 90.5q74 0 126 -25t81 -72t41.5 -105t12.5 -134zM544 321q0 143 -47 221t-167 78q-63 0 -106.5 -22t-67 -64t-33.5 -93.5t-10 -119.5 q0 -140 48.5 -220t168.5 -80q62 0 105.5 22.5t66.5 65t32.5 94t9.5 118.5z" />
<glyph unicode="&#xd4;" horiz-adv-x="657" d="M439 687h-40l-66 74l-68 -74h-40l84 107h48zM592 321q0 -156 -62 -246.5t-200 -90.5q-144 0 -204.5 89.5t-60.5 247.5q0 155 63 245.5t203 90.5q74 0 126 -25t81 -72t41.5 -105t12.5 -134zM544 321q0 143 -47 221t-167 78q-63 0 -106.5 -22t-67 -64t-33.5 -93.5 t-10 -119.5q0 -140 48.5 -220t168.5 -80q62 0 105.5 22.5t66.5 65t32.5 94t9.5 118.5z" />
<glyph unicode="&#xd5;" horiz-adv-x="657" d="M449 752q-21 -59 -74 -59q-14 0 -45.5 18t-47.5 18q-32 0 -44 -45l-35 15q16 36 32.5 49t47.5 13q15 0 46 -16.5t44 -16.5q28 0 41 39zM592 321q0 -156 -62 -246.5t-200 -90.5q-144 0 -204.5 89.5t-60.5 247.5q0 155 63 245.5t203 90.5q74 0 126 -25t81 -72t41.5 -105 t12.5 -134zM544 321q0 143 -47 221t-167 78q-63 0 -106.5 -22t-67 -64t-33.5 -93.5t-10 -119.5q0 -140 48.5 -220t168.5 -80q62 0 105.5 22.5t66.5 65t32.5 94t9.5 118.5z" />
<glyph unicode="&#xd6;" horiz-adv-x="657" d="M427 696h-47v63h47v-63zM280 696h-47v63h47v-63zM592 321q0 -156 -62 -246.5t-200 -90.5q-144 0 -204.5 89.5t-60.5 247.5q0 155 63 245.5t203 90.5q74 0 126 -25t81 -72t41.5 -105t12.5 -134zM544 321q0 143 -47 221t-167 78q-63 0 -106.5 -22t-67 -64t-33.5 -93.5 t-10 -119.5q0 -140 48.5 -220t168.5 -80q62 0 105.5 22.5t66.5 65t32.5 94t9.5 118.5z" />
<glyph unicode="&#xd7;" d="M411 64l-32 -32l-148 149l-148 -149l-32 32l149 148l-149 148l32 32l148 -149l148 149l32 -32l-149 -148z" />
<glyph unicode="&#xd8;" horiz-adv-x="657" d="M628 655l-86 -101q50 -82 50 -233q0 -156 -62 -246.5t-200 -90.5q-135 0 -200 84l-83 -98l-31 29l90 106q-41 79 -41 216q0 155 63 245.5t203 90.5q119 0 185 -69l81 96zM488 555q-52 65 -158 65q-63 0 -106.5 -22t-67 -64t-33.5 -93.5t-10 -119.5q0 -110 26 -177z M544 321q0 127 -33 196l-351 -414q53 -82 170 -82q62 0 105.5 22.5t66.5 65t32.5 94t9.5 118.5z" />
<glyph unicode="&#xd9;" horiz-adv-x="655" d="M394 682h-39l-111 117h54zM555 237q0 -130 -53 -191.5t-168 -61.5q-126 0 -180 61t-54 194v408h46v-398q0 -130 41.5 -179t146.5 -49q96 0 135.5 51.5t39.5 176.5v398h46v-410z" />
<glyph unicode="&#xda;" horiz-adv-x="655" d="M414 797l-111 -117h-39l96 117h54zM555 237q0 -130 -53 -191.5t-168 -61.5q-126 0 -180 61t-54 194v408h46v-398q0 -130 41.5 -179t146.5 -49q96 0 135.5 51.5t39.5 176.5v398h46v-410z" />
<glyph unicode="&#xdb;" horiz-adv-x="655" d="M431 687h-40l-66 74l-68 -74h-40l84 107h48zM555 237q0 -130 -53 -191.5t-168 -61.5q-126 0 -180 61t-54 194v408h46v-398q0 -130 41.5 -179t146.5 -49q96 0 135.5 51.5t39.5 176.5v398h46v-410z" />
<glyph unicode="&#xdc;" horiz-adv-x="655" d="M430 696h-47v63h47v-63zM283 696h-47v63h47v-63zM555 237q0 -130 -53 -191.5t-168 -61.5q-126 0 -180 61t-54 194v408h46v-398q0 -130 41.5 -179t146.5 -49q96 0 135.5 51.5t39.5 176.5v398h46v-410z" />
<glyph unicode="&#xdd;" horiz-adv-x="532" d="M373 809l-111 -117h-39l96 117h54zM515 647l-220 -356v-291h-46v287l-232 360h52l205 -315l195 315h46z" />
<glyph unicode="&#xde;" d="M414 344q0 -99 -63 -144t-165 -45h-68v-155h-46v649h46v-125h78q101 0 159.5 -43.5t58.5 -136.5zM368 344q0 141 -166 141h-84v-288h62q38 0 67.5 5.5t59 20t45.5 45.5t16 76z" />
<glyph unicode="&#xdf;" horiz-adv-x="472" d="M421 145q0 -46 -12.5 -79.5t-32.5 -53t-50 -31t-59 -15t-65 -3.5l11 36q36 0 63 5.5t53 20.5t39.5 45.5t13.5 76.5q0 39 -20.5 73.5t-52 57.5t-60 37.5t-53.5 21.5v35q123 79 123 151q0 53 -32 77t-72 24q-58 0 -80 -30.5t-22 -111.5v-482h-41v471q0 98 31 142t112 44 q64 0 104.5 -36.5t40.5 -100.5q0 -23 -12 -47t-24 -39.5t-36 -35.5t-30 -24l-24 -16l40 -18q16 -7 47.5 -27t50 -40.5t34 -54.5t15.5 -73z" />
<glyph unicode="&#xe0;" horiz-adv-x="457" d="M391 0h-33q0 5 -7.5 27.5t-8.5 30.5q-18 -30 -53 -49t-80 -19q-66 0 -113 32.5t-47 97.5q0 76 52.5 114.5t189.5 38.5h47v42q0 119 -105 119q-69 0 -149 -39l-15 36q93 36 163 36q69 0 108 -37t39 -110v-180q0 -24 12 -140zM339 96v143h-34q-119 0 -165.5 -27t-46.5 -91 q0 -45 30 -71.5t86 -26.5q44 0 78.5 20t51.5 53zM256 530h-39l-111 117h54z" />
<glyph unicode="&#xe1;" horiz-adv-x="457" d="M325 647l-111 -117h-39l96 117h54zM391 0h-33q0 5 -7.5 27.5t-8.5 30.5q-18 -30 -53 -49t-80 -19q-66 0 -113 32.5t-47 97.5q0 76 52.5 114.5t189.5 38.5h47v42q0 119 -105 119q-69 0 -149 -39l-15 36q93 36 163 36q69 0 108 -37t39 -110v-180q0 -24 12 -140zM339 96v143 h-34q-119 0 -165.5 -27t-46.5 -91q0 -45 30 -71.5t86 -26.5q44 0 78.5 20t51.5 53z" />
<glyph unicode="&#xe2;" horiz-adv-x="457" d="M323 540h-40l-66 74l-68 -74h-40l84 107h48zM391 0h-33q0 5 -7.5 27.5t-8.5 30.5q-18 -30 -53 -49t-80 -19q-66 0 -113 32.5t-47 97.5q0 76 52.5 114.5t189.5 38.5h47v42q0 119 -105 119q-69 0 -149 -39l-15 36q93 36 163 36q69 0 108 -37t39 -110v-180q0 -24 12 -140z M339 96v143h-34q-119 0 -165.5 -27t-46.5 -91q0 -45 30 -71.5t86 -26.5q44 0 78.5 20t51.5 53z" />
<glyph unicode="&#xe3;" horiz-adv-x="457" d="M337 611q-21 -59 -74 -59q-14 0 -45.5 18t-47.5 18q-32 0 -44 -45l-35 15q16 36 32.5 49t47.5 13q15 0 46 -16.5t44 -16.5q28 0 41 39zM391 0h-33q0 5 -7.5 27.5t-8.5 30.5q-18 -30 -53 -49t-80 -19q-66 0 -113 32.5t-47 97.5q0 76 52.5 114.5t189.5 38.5h47v42 q0 119 -105 119q-69 0 -149 -39l-15 36q93 36 163 36q69 0 108 -37t39 -110v-180q0 -24 12 -140zM339 96v143h-34q-119 0 -165.5 -27t-46.5 -91q0 -45 30 -71.5t86 -26.5q44 0 78.5 20t51.5 53z" />
<glyph unicode="&#xe4;" horiz-adv-x="457" d="M391 0h-33q0 5 -7.5 27.5t-8.5 30.5q-18 -30 -53 -49t-80 -19q-66 0 -113 32.5t-47 97.5q0 76 52.5 114.5t189.5 38.5h47v42q0 119 -105 119q-69 0 -149 -39l-15 36q93 36 163 36q69 0 108 -37t39 -110v-180q0 -24 12 -140zM339 96v143h-34q-119 0 -165.5 -27t-46.5 -91 q0 -45 30 -71.5t86 -26.5q44 0 78.5 20t51.5 53zM177 550h-48v67h48v-67zM325 550h-47v67h47v-67z" />
<glyph unicode="&#xe5;" horiz-adv-x="457" d="M391 0h-33q0 5 -7.5 27.5t-8.5 30.5q-18 -30 -53 -49t-80 -19q-66 0 -113 32.5t-47 97.5q0 76 52.5 114.5t189.5 38.5h47v42q0 119 -105 119q-69 0 -149 -39l-15 36q93 36 163 36q69 0 108 -37t39 -110v-180q0 -24 12 -140zM339 96v143h-34q-119 0 -165.5 -27t-46.5 -91 q0 -45 30 -71.5t86 -26.5q44 0 78.5 20t51.5 53zM303 589q0 -34 -24 -58t-59 -24q-34 0 -58.5 24t-24.5 58t24 58t59 24t59 -23.5t24 -58.5zM271 590q0 22 -14 37t-37 15q-22 0 -37 -16t-15 -36q0 -19 15 -35.5t37 -16.5q25 0 38 15t13 37z" />
<glyph unicode="&#xe6;" horiz-adv-x="749" d="M698 219h-316q0 -196 145 -196q63 0 136 39l12 -37q-73 -35 -156 -35q-108 0 -151 94q-30 -48 -67 -71t-92 -23q-67 0 -113.5 32t-46.5 98q0 76 52.5 114.5t189.5 38.5h51v42q0 119 -109 119q-69 0 -149 -39l-15 36q93 36 163 36q112 0 139 -90q43 90 145 90 q103 0 142.5 -66t39.5 -182zM657 252q0 92 -33 137t-107 45q-64 0 -97.5 -48t-38.5 -134h276zM342 103v136h-37q-119 0 -165.5 -27t-46.5 -91q0 -45 29.5 -71.5t86.5 -26.5q42 0 79 23t54 57z" />
<glyph unicode="&#xe7;" horiz-adv-x="405" d="M350 12q-46 -16 -93 -21l-5 -23q34 0 53.5 -19.5t19.5 -42.5q0 -30 -21 -50.5t-65 -20.5q-41 0 -84 6v37q56 -7 79 -7q20 0 35 9t15 24q0 16 -16.5 24.5t-65.5 8.5l15 54q-82 8 -125 70.5t-43 163.5q0 113 48.5 176t143.5 63q54 0 106 -21v-44q-45 34 -106 34 q-79 0 -114.5 -56.5t-35.5 -151.5q0 -87 37 -144t112 -57q55 0 110 35v-47z" />
<glyph unicode="&#xe8;" horiz-adv-x="461" d="M409 219h-315q0 -196 145 -196q64 0 141 41l12 -37q-77 -37 -161 -37q-94 0 -138 65t-44 169q0 43 9 83t28.5 77.5t56 60t86.5 22.5q54 0 90.5 -19t55.5 -55t26.5 -77.5t7.5 -96.5zM369 252q0 92 -33 137t-107 45q-64 0 -97.5 -48t-38.5 -134h276zM273 530h-39l-111 117 h54z" />
<glyph unicode="&#xe9;" horiz-adv-x="461" d="M309 647l-111 -117h-39l96 117h54zM409 219h-315q0 -196 145 -196q64 0 141 41l12 -37q-77 -37 -161 -37q-94 0 -138 65t-44 169q0 43 9 83t28.5 77.5t56 60t86.5 22.5q54 0 90.5 -19t55.5 -55t26.5 -77.5t7.5 -96.5zM369 252q0 92 -33 137t-107 45q-64 0 -97.5 -48 t-38.5 -134h276z" />
<glyph unicode="&#xea;" horiz-adv-x="461" d="M331 540h-40l-66 74l-68 -74h-40l84 107h48zM409 219h-315q0 -196 145 -196q64 0 141 41l12 -37q-77 -37 -161 -37q-94 0 -138 65t-44 169q0 43 9 83t28.5 77.5t56 60t86.5 22.5q54 0 90.5 -19t55.5 -55t26.5 -77.5t7.5 -96.5zM369 252q0 92 -33 137t-107 45 q-64 0 -97.5 -48t-38.5 -134h276z" />
<glyph unicode="&#xeb;" horiz-adv-x="461" d="M331 564h-47v63h47v-63zM184 564h-47v63h47v-63zM409 219h-315q0 -196 145 -196q64 0 141 41l12 -37q-77 -37 -161 -37q-94 0 -138 65t-44 169q0 43 9 83t28.5 77.5t56 60t86.5 22.5q54 0 90.5 -19t55.5 -55t26.5 -77.5t7.5 -96.5zM369 252q0 92 -33 137t-107 45 q-64 0 -97.5 -48t-38.5 -134h276z" />
<glyph unicode="&#xec;" horiz-adv-x="188" d="M168 530h-39l-111 117h54zM115 0h-41v457h41v-457z" />
<glyph unicode="&#xed;" horiz-adv-x="188" d="M170 647l-111 -117h-39l96 117h54zM115 0h-41v457h41v-457z" />
<glyph unicode="&#xee;" horiz-adv-x="188" d="M201 540h-40l-66 74l-68 -74h-40l84 107h48zM113 0h-41v457h41v-457z" />
<glyph unicode="&#xef;" horiz-adv-x="188" d="M191 574h-47v63h47v-63zM44 574h-47v63h47v-63zM116 0h-41v457h41v-457z" />
<glyph unicode="&#xf0;" d="M415 283q0 -62 -7.5 -110t-27.5 -93t-60 -69.5t-98 -24.5q-82 0 -130 62t-48 148q0 90 46.5 144.5t131.5 54.5q51 0 89.5 -32t61.5 -82q0 205 -114 285l-91 -61l-39 23l91 61q-44 21 -102 33l-20 46q98 -19 159 -54l83 56l39 -23l-85 -57q121 -92 121 -307zM364 246 q-7 17 -16.5 33.5t-26.5 36t-43.5 31.5t-57.5 12q-128 0 -128 -163q0 -78 35 -126t94 -48q74 0 108.5 51t34.5 173z" />
<glyph unicode="&#xf1;" horiz-adv-x="469" d="M365 611q-21 -59 -74 -59q-14 0 -45.5 18t-47.5 18q-32 0 -44 -45l-35 15q16 36 32.5 49t47.5 13q15 0 46 -16.5t44 -16.5q28 0 41 39zM397 0h-41v280q0 35 -4.5 60t-16 47.5t-35.5 34.5t-60 12q-45 0 -79.5 -32.5t-47.5 -69.5v-332h-41v360q0 21 -3.5 51.5t-4.5 45.5h33 l13 -72q4 8 17 22t27 27.5t38.5 23t53.5 9.5q151 0 151 -179v-288z" />
<glyph unicode="&#xf2;" horiz-adv-x="477" d="M428 231q0 -241 -189 -241q-190 0 -190 241q0 68 16 118t60 84t114 34q189 0 189 -236zM384 231q0 45 -6.5 79.5t-22 63.5t-45 44.5t-71.5 15.5q-77 0 -111.5 -55.5t-34.5 -147.5q0 -208 146 -208q83 0 114 55.5t31 152.5zM295 530h-39l-111 117h54z" />
<glyph unicode="&#xf3;" horiz-adv-x="477" d="M321 647l-111 -117h-39l96 117h54zM428 231q0 -241 -189 -241q-190 0 -190 241q0 68 16 118t60 84t114 34q189 0 189 -236zM384 231q0 45 -6.5 79.5t-22 63.5t-45 44.5t-71.5 15.5q-77 0 -111.5 -55.5t-34.5 -147.5q0 -208 146 -208q83 0 114 55.5t31 152.5z" />
<glyph unicode="&#xf4;" horiz-adv-x="477" d="M347 540h-40l-66 74l-68 -74h-40l84 107h48zM428 231q0 -241 -189 -241q-190 0 -190 241q0 68 16 118t60 84t114 34q189 0 189 -236zM384 231q0 45 -6.5 79.5t-22 63.5t-45 44.5t-71.5 15.5q-77 0 -111.5 -55.5t-34.5 -147.5q0 -208 146 -208q83 0 114 55.5t31 152.5z " />
<glyph unicode="&#xf5;" horiz-adv-x="477" d="M349 611q-21 -59 -74 -59q-14 0 -45.5 18t-47.5 18q-32 0 -44 -45l-35 15q16 36 32.5 49t47.5 13q15 0 46 -16.5t44 -16.5q28 0 41 39zM428 231q0 -241 -189 -241q-190 0 -190 241q0 68 16 118t60 84t114 34q189 0 189 -236zM384 231q0 45 -6.5 79.5t-22 63.5t-45 44.5 t-71.5 15.5q-77 0 -111.5 -55.5t-34.5 -147.5q0 -208 146 -208q83 0 114 55.5t31 152.5z" />
<glyph unicode="&#xf6;" horiz-adv-x="477" d="M330 564h-47v63h47v-63zM183 564h-47v63h47v-63zM428 231q0 -241 -189 -241q-190 0 -190 241q0 68 16 118t60 84t114 34q189 0 189 -236zM384 231q0 45 -6.5 79.5t-22 63.5t-45 44.5t-71.5 15.5q-77 0 -111.5 -55.5t-34.5 -147.5q0 -208 146 -208q83 0 114 55.5t31 152.5 z" />
<glyph unicode="&#xf7;" d="M259 363h-56v69h56v-69zM259 20h-56v69h56v-69zM430 196h-400v43h400v-43z" />
<glyph unicode="&#xf8;" horiz-adv-x="477" d="M474 441l-69 -74q23 -55 23 -136q0 -241 -189 -241q-86 0 -135 52l-60 -63l-32 30l67 70q-30 60 -30 152q0 68 16 118t60 84t114 34q96 0 143 -61l60 65zM354 376q-35 58 -115 58q-77 0 -111.5 -55.5t-34.5 -147.5q0 -71 17 -119zM384 231q0 60 -11 101l-242 -261 q35 -48 108 -48q83 0 114 55.5t31 152.5z" />
<glyph unicode="&#xf9;" horiz-adv-x="462" d="M398 0h-33l-13 72q-1 -1 -10 -13.5t-14 -18t-17.5 -17t-24.5 -17.5t-31 -11t-40 -5q-143 0 -143 179v288h41v-280q0 -73 23 -113.5t90 -40.5q45 0 77.5 32t45.5 70v332h41v-360q0 -21 3.5 -51.5t4.5 -45.5zM289 530h-39l-111 117h54z" />
<glyph unicode="&#xfa;" horiz-adv-x="462" d="M313 647l-111 -117h-39l96 117h54zM398 0h-33l-13 72q-1 -1 -10 -13.5t-14 -18t-17.5 -17t-24.5 -17.5t-31 -11t-40 -5q-143 0 -143 179v288h41v-280q0 -73 23 -113.5t90 -40.5q45 0 77.5 32t45.5 70v332h41v-360q0 -21 3.5 -51.5t4.5 -45.5z" />
<glyph unicode="&#xfb;" horiz-adv-x="462" d="M341 540h-40l-66 74l-68 -74h-40l84 107h48zM398 0h-33l-13 72q-1 -1 -10 -13.5t-14 -18t-17.5 -17t-24.5 -17.5t-31 -11t-40 -5q-143 0 -143 179v288h41v-280q0 -73 23 -113.5t90 -40.5q45 0 77.5 32t45.5 70v332h41v-360q0 -21 3.5 -51.5t4.5 -45.5z" />
<glyph unicode="&#xfc;" horiz-adv-x="462" d="M328 564h-47v63h47v-63zM181 564h-47v63h47v-63zM398 0h-33l-13 72q-1 -1 -10 -13.5t-14 -18t-17.5 -17t-24.5 -17.5t-31 -11t-40 -5q-143 0 -143 179v288h41v-280q0 -73 23 -113.5t90 -40.5q45 0 77.5 32t45.5 70v332h41v-360q0 -21 3.5 -51.5t4.5 -45.5z" />
<glyph unicode="&#xfd;" horiz-adv-x="464" d="M325 647l-111 -117h-39l96 117h54zM422 457l-191 -530q-19 -51 -43 -74t-79 -43l-12 38q71 19 88 65l40 106l-183 438l44 1l160 -392l136 391h40z" />
<glyph unicode="&#xfe;" horiz-adv-x="471" d="M422 231q0 -107 -42.5 -174t-134.5 -67q-40 0 -77.5 20t-57.5 48l-13 -238h-33q8 77 8 320v517h41v-272q17 31 54 56.5t83 25.5q88 0 130 -66t42 -170zM378 229q0 104 -35 154.5t-96 50.5q-31 0 -56.5 -12t-41.5 -31.5t-24.5 -33t-13.5 -26.5v-232q47 -76 124 -76 q143 0 143 206z" />
<glyph unicode="&#xff;" horiz-adv-x="464" d="M422 457l-191 -530q-19 -51 -43 -74t-79 -43l-12 38q71 19 88 65l40 106l-183 438l44 1l160 -392l136 391h40zM331 565h-46v62h46v-62zM186 565h-46v62h46v-62z" />
<glyph unicode="&#x152;" horiz-adv-x="897" d="M837 0h-410q-46 -16 -97 -16q-144 0 -204.5 89.5t-60.5 247.5q0 155 63 245.5t203 90.5q45 0 81 -10h416v-37h-342q87 -67 94 -257h227v-37h-226q0 -202 -92 -279h348v-37zM534 321q0 55 -5 97.5t-18.5 81.5t-36 64.5t-59 40.5t-85.5 15q-63 0 -106.5 -22t-67 -64 t-33.5 -93.5t-10 -119.5q0 -140 48.5 -220t168.5 -80q61 0 102 22.5t63 65.5t30.5 93.5t8.5 118.5z" />
<glyph unicode="&#x153;" horiz-adv-x="794" d="M743 219h-316q0 -196 145 -196q63 0 136 39l12 -37q-73 -35 -156 -35q-122 0 -159 118q-35 -118 -166 -118q-190 0 -190 241q0 68 16 118t60 84t114 34q133 0 168 -120q38 120 154 120q103 0 142.5 -66t39.5 -182zM702 252q0 92 -33 137t-107 45q-64 0 -97.5 -48 t-38.5 -134h276zM384 231q0 45 -6.5 79.5t-22 63.5t-45 44.5t-71.5 15.5q-77 0 -111.5 -55.5t-34.5 -147.5q0 -208 146 -208q83 0 114 55.5t31 152.5z" />
<glyph unicode="&#x178;" horiz-adv-x="532" d="M373 716h-47v63h47v-63zM226 716h-47v63h47v-63zM515 647l-220 -356v-291h-46v287l-232 360h52l205 -315l195 315h46z" />
<glyph unicode="&#x2c6;" horiz-adv-x="188" d="M201 540h-40l-66 74l-68 -74h-40l84 107h48z" />
<glyph unicode="&#x2dc;" horiz-adv-x="188" d="M217 611q-21 -59 -74 -59q-14 0 -45.5 18t-47.5 18q-32 0 -44 -45l-35 15q16 36 32.5 49t47.5 13q15 0 46 -16.5t44 -16.5q28 0 41 39z" />
<glyph unicode="&#x2000;" horiz-adv-x="417" />
<glyph unicode="&#x2001;" horiz-adv-x="835" />
<glyph unicode="&#x2002;" horiz-adv-x="417" />
<glyph unicode="&#x2003;" horiz-adv-x="835" />
<glyph unicode="&#x2004;" horiz-adv-x="278" />
<glyph unicode="&#x2005;" horiz-adv-x="208" />
<glyph unicode="&#x2006;" horiz-adv-x="139" />
<glyph unicode="&#x2007;" horiz-adv-x="139" />
<glyph unicode="&#x2008;" horiz-adv-x="104" />
<glyph unicode="&#x2009;" horiz-adv-x="167" />
<glyph unicode="&#x200a;" horiz-adv-x="46" />
<glyph unicode="&#x2010;" horiz-adv-x="315" d="M285 232h-255v40h255v-40z" />
<glyph unicode="&#x2011;" horiz-adv-x="315" d="M285 232h-255v40h255v-40z" />
<glyph unicode="&#x2013;" horiz-adv-x="500" d="M501 218h-502v44h502v-44z" />
<glyph unicode="&#x2014;" horiz-adv-x="1000" d="M1001 218h-1002v44h1002v-44z" />
<glyph unicode="&#x2018;" horiz-adv-x="230" d="M180 648l-85 -188h-50l99 188h36z" />
<glyph unicode="&#x2019;" horiz-adv-x="230" d="M185 647l-97 -188h-38l83 188h52z" />
<glyph unicode="&#x201a;" horiz-adv-x="230" d="M185 100l-97 -188h-38l83 188h52z" />
<glyph unicode="&#x201c;" horiz-adv-x="340" d="M175 648l-85 -188h-50l99 188h36zM300 648l-85 -188h-50l98 188h37z" />
<glyph unicode="&#x201d;" horiz-adv-x="340" d="M300 647l-99 -188h-38l85 188h52zM175 647l-98 -188h-37l85 188h50z" />
<glyph unicode="&#x201e;" horiz-adv-x="340" d="M300 100l-99 -188h-38l85 188h52zM175 100l-98 -188h-37l85 188h50z" />
<glyph unicode="&#x2022;" d="M349 324q0 -50 -34.5 -85t-84.5 -35t-84.5 35t-34.5 85t34.5 84.5t84.5 34.5t84.5 -34.5t34.5 -84.5z" />
<glyph unicode="&#x2026;" horiz-adv-x="690" d="M143 0h-56v69h56v-69zM373 0h-56v69h56v-69zM603 0h-56v69h56v-69z" />
<glyph unicode="&#x202f;" horiz-adv-x="167" />
<glyph unicode="&#x2039;" horiz-adv-x="230" d="M179 452l-97 -180l96 -180h-43l-93 178l93 182h44z" />
<glyph unicode="&#x203a;" horiz-adv-x="230" d="M188 270l-93 -178h-43l96 180l-97 180h44z" />
<glyph unicode="&#x205f;" horiz-adv-x="208" />
<glyph unicode="&#x2122;" horiz-adv-x="890" d="M770 292h-30v322l-144 -322h-15l-146 322v-322h-28v355h41l142 -312l142 312h38v-355zM355 620h-117v-329h-32v329h-116v27h265v-27z" />
<glyph horiz-adv-x="230" />
</font>
</defs>
</svg>
