<?xml version="1.0" standalone="no"?>
<!DOCTYPE svg PUBLIC "-//W3C//DTD SVG 1.1//EN" "http://www.w3.org/Graphics/SVG/1.1/DTD/svg11.dtd" >
<svg xmlns="http://www.w3.org/2000/svg">
<metadata>
This is a custom SVG webfont generated by Font Squirrel.
Designer    : J. Victor Gaultney and Annie Olsen
Foundry     : SIL International
Foundry URL : http://scripts.sil.org/
</metadata>
<defs>
<font id="webfont9GWbRghj" horiz-adv-x="1036" >
<font-face units-per-em="2048" ascent="1638" descent="-410" />
<missing-glyph horiz-adv-x="510" />
<glyph unicode=" "  horiz-adv-x="510" />
<glyph unicode="&#x09;" horiz-adv-x="510" />
<glyph unicode="&#xa0;" horiz-adv-x="510" />
<glyph unicode="!" horiz-adv-x="633" d="M476 131q0 -40 -14.5 -72t-39.5 -54t-58.5 -33.5t-70.5 -11.5q-30 0 -56 7.5t-46 24t-31.5 42t-11.5 61.5q0 39 15 71t40.5 54t58.5 34t70 12q27 0 53 -8t46.5 -24.5t32.5 -42t12 -60.5zM377 412q-19 -14 -49 -22.5t-55 -16.5l-29 21l-77 974l55 28l66 33l66 30 q32 14 52 21l50 -32z" />
<glyph unicode="&#x22;" horiz-adv-x="960" d="M347 834q-8 -4 -24 -8t-35 -7t-37 -4.5t-30 -1.5l-83 583q7 4 26 12l41 16q23 9 49 18l50 17l40 13q18 6 25 8l51 -28zM750 834q-8 -4 -24 -8t-35 -7t-37 -4.5t-30 -1.5l-83 583q11 6 44.5 19.5t71.5 26.5l71 25q33 11 44 13l51 -28z" />
<glyph unicode="#" d="M863 976h154l25 -25q-2 -11 -8 -28t-14 -35l-14 -33q-6 -16 -10 -24h-174l-65 -226h154l22 -27q-2 -10 -7.5 -26.5t-12.5 -33.5l-13 -34q-6 -15 -10 -24h-174l-83 -290q-9 -7 -24.5 -13t-32.5 -11l-34 -10l-31 -9l-26 20l89 313h-174l-83 -290q-9 -7 -24 -13t-32 -11 l-34 -10l-30 -9l-26 20l89 313h-166l-22 25q2 10 7.5 26t12.5 33l14 34q6 17 11 27h185l64 226h-163l-25 24q2 11 8 27.5t14 33.5l14 34l10 26h184l78 275q11 8 26.5 13.5t32.5 9.5l33 9q15 4 26 9l29 -22l-85 -294h174l78 275q11 8 26.5 13.5t32.5 9.5l33 9q16 4 28 9 l27 -22zM442 605h174l64 226h-173z" />
<glyph unicode="$" d="M285 951q0 -32 13 -57t35.5 -45t53.5 -36.5t68 -31.5v311q-41 -4 -72.5 -16.5t-53 -31.5t-33 -43t-11.5 -50zM742 317q0 39 -12.5 70t-35 55.5t-53 44t-66.5 35.5v-384q33 5 63 18.5t53.5 35.5t37 53t13.5 72zM575 -128q-18 -16 -39.5 -28t-46.5 -18l-34 29v136 q-85 3 -183 34t-185 86q-5 3 -7.5 21.5t-3 45t0.5 59t3 64.5t6 60.5t9 46.5l73 -4q24 -51 52.5 -95t64 -78t77.5 -57t93 -33v428l-133 49q-67 26 -120 63t-86 90.5t-33 132.5q0 43 18 92.5t61.5 94t114.5 77t178 42.5v131q14 8 23.5 14.5t18.5 11.5t19 9t25 8l34 -29v-143 q52 -3 104 -12.5t97 -23.5t80 -31.5t53 -35.5q6 -7 -1.5 -37t-21.5 -66t-31 -68.5t-30 -44.5l-69 8q-34 69 -77.5 114.5t-103.5 65.5v-344q67 -24 134.5 -52.5t121.5 -70.5t87.5 -101t33.5 -143q0 -60 -21 -120.5t-66.5 -112.5t-117 -89.5t-172.5 -50.5v-125z" />
<glyph unicode="%" horiz-adv-x="1491" d="M1233 290q0 146 -35 216t-88 70q-50 0 -78 -56t-28 -187q0 -148 31.5 -218.5t91.5 -70.5q52 0 79 57t27 189zM1438 310q0 -70 -24.5 -132t-68 -108.5t-103.5 -73.5t-132 -27t-129.5 27t-98 73.5t-62 108.5t-21.5 132t23 132t66 108.5t103.5 73.5t135.5 27q74 0 132 -27 t97.5 -73t60.5 -108.5t21 -132.5zM374 7q-11 -6 -30.5 -11.5t-41.5 -9.5l-43 -10l-34 -7l-24 31l913 1199q10 5 29.5 10.5t41.5 10.5t42 9t32 7l26 -30zM488 877q0 73 -9.5 127t-26 89t-39 52.5t-48.5 17.5q-50 0 -78 -56t-28 -187q0 -148 31 -218t91 -70q52 0 79.5 57 t27.5 188zM693 897q0 -69 -24.5 -131t-68 -108.5t-103.5 -73.5t-132 -27t-129.5 27t-98 73.5t-62 108.5t-21.5 131q0 70 23 132t65.5 108.5t103 73.5t135.5 27q74 0 132 -27t98 -73t61 -108.5t21 -132.5z" />
<glyph unicode="&#x26;" horiz-adv-x="1419" d="M497 1130q0 -52 14 -107.5t40 -114.5q47 28 78.5 61t50 67t26.5 68.5t8 66.5q0 70 -32.5 110t-78.5 40q-27 0 -47 -15t-33 -41t-19.5 -61t-6.5 -74zM573 114q57 0 109.5 17t99.5 46q-47 45 -95.5 97.5t-95.5 110.5t-91 120t-82 126q-53 -64 -73 -126.5t-20 -131.5 q0 -70 22 -119.5t57.5 -80.5t80 -45t88.5 -14zM1414 748l-27 -34l-30 -36q-15 -17 -30 -32t-27 -24q-37 17 -80 31.5t-77 16.5q21 -29 27 -59t6 -68q0 -66 -30.5 -141t-85.5 -147l41 -36l39 -33q51 -43 106.5 -54t106.5 1l16 -73q-43 -19 -90.5 -35.5t-89.5 -28.5t-73 -19 t-42 -7q-25 0 -76 31t-117 86q-79 -54 -172 -85.5t-196 -31.5q-105 0 -188 24.5t-141 72.5t-88.5 119.5t-30.5 165.5q0 106 67 212t211 212q-33 76 -52 150.5t-19 146.5q0 81 31 150t84.5 119.5t125 79t151.5 28.5q76 0 130 -20.5t89 -54.5t51.5 -78.5t16.5 -92.5 q0 -52 -26.5 -106t-70 -105t-99 -97.5t-114.5 -83.5l-31 -20q34 -57 74.5 -114.5t85.5 -112.5l90 -107q47 -53 94 -100q20 36 30.5 72.5t10.5 71.5q0 42 -13 75.5t-34.5 57t-49 36t-56.5 12.5l-29 35q5 6 16 17l23 23q13 11 26.5 20.5t23.5 13.5h481z" />
<glyph unicode="'" horiz-adv-x="557" d="M347 834q-8 -4 -24 -8t-35 -7t-37 -4.5t-30 -1.5l-83 583q7 4 26 12l41 16q23 9 49 18l50 17l40 13q18 6 25 8l51 -28z" />
<glyph unicode="(" horiz-adv-x="679" d="M601 -315q-125 66 -217.5 161t-154.5 215t-92.5 261.5t-30.5 300.5q0 164 34.5 312t98.5 273t156 224.5t206 167.5l54 -75q-60 -60 -112.5 -144t-91.5 -192.5t-62 -243t-23 -294.5q0 -146 18.5 -277.5t55 -245t90.5 -206.5t125 -162z" />
<glyph unicode=")" horiz-adv-x="679" d="M575 662q0 -164 -34.5 -312t-98.5 -273.5t-156 -225t-206 -167.5l-54 75q60 60 112.5 144t91.5 193t62 243t23 295q0 145 -18.5 277t-55 245.5t-90.5 206.5t-125 161l54 75q124 -66 217 -161t155 -214.5t92.5 -261t30.5 -300.5z" />
<glyph unicode="*" horiz-adv-x="907" d="M501 1220l217 184l30 -21l40 -31l38 -31q18 -15 26 -23l-9 -56l-291 -106l268 -96q-1 -12 -4 -36l-6 -50q-4 -26 -8.5 -49t-7.5 -34l-53 -20l-236 197l50 -278q-11 -6 -33 -15.5t-46 -18.5l-47 -18q-22 -8 -33 -10l-44 35l53 305l-216 -184l-29 22l-40 30l-39 31 q-18 15 -25 23l8 56l292 106l-269 96q1 12 4 36l7 50q3 26 7.5 49t7.5 34l52 20l237 -198l-50 279q11 6 33 15.5t47 18.5l46 18q22 8 33 11l44 -36z" />
<glyph unicode="+" horiz-adv-x="863" d="M506 225q-10 -5 -24.5 -11t-30.5 -11.5t-31.5 -10t-26.5 -6.5l-32 30v275h-276l-32 31q3 11 8.5 26t12.5 31l14 31q6 14 11 24h262v268l24 8l31 10l32 11q15 5 26 8l32 -31v-274h271l33 -31q-3 -11 -9 -27l-13 -32l-14 -30q-6 -15 -10 -23h-258v-266z" />
<glyph unicode="," horiz-adv-x="552" d="M480 70q0 -54 -23 -116t-62.5 -123.5t-92.5 -116.5t-113 -94l-68 50q56 65 88 135t32 157q0 22 -9.5 44t-27 38.5t-43 25.5t-57.5 7l-16 77q6 8 25 19t46.5 22.5t59.5 23t63 21t58 14.5t44 5q48 -23 72 -66.5t24 -122.5z" />
<glyph unicode="-" horiz-adv-x="728" d="M675 554q-3 -11 -9 -27t-13 -33l-13 -31l-11 -23h-544l-32 32q3 11 8.5 26.5t12.5 31.5l14 30q6 15 11 25h543z" />
<glyph unicode="." horiz-adv-x="552" d="M459 131q0 -40 -14.5 -72t-39 -54t-58 -33.5t-71.5 -11.5q-29 0 -55.5 7.5t-46.5 24t-31.5 42t-11.5 61.5q0 39 15 71t40.5 54t59 34t69.5 12q28 0 54 -8t46 -24.5t32 -42t12 -60.5z" />
<glyph unicode="/" horiz-adv-x="975" d="M242 -277q-10 -7 -32 -15.5t-47 -16.5l-49 -15q-23 -7 -35 -11l-44 32l701 1847q13 9 34.5 17t44.5 15.5t45 13.5l35 10l45 -29z" />
<glyph unicode="0" d="M714 565q0 137 -15.5 238.5t-43.5 168.5t-66 100t-83 33q-46 0 -80 -25t-57 -80t-34.5 -142.5t-11.5 -212.5q0 -275 53.5 -410t153.5 -135q46 0 81 25t57.5 80.5t34 144t11.5 215.5zM975 602q0 -129 -34.5 -244t-96.5 -201t-148 -136.5t-190 -50.5t-186 50.5t-140 136.5 t-88.5 201t-30.5 244t32.5 244t93.5 201.5t148 137t195 50.5q106 0 189 -50t140 -136t86.5 -201.5t29.5 -245.5z" />
<glyph unicode="1" d="M155 0v83q78 9 130 20.5t83 23.5t44 23.5t13 22.5v737q0 40 -3 62t-15 36q-6 6 -21.5 10t-45.5 3t-75.5 -7t-111.5 -20l-29 81q28 6 69.5 18t88.5 27l97 32l95 35l84 32q39 15 63 26l44 -42v-1030q0 -10 11 -21.5t39 -23.5t76.5 -24t123.5 -21v-83h-760z" />
<glyph unicode="2" d="M911 0h-799l-29 74l205 244l153 188q64 83 106.5 145t67.5 110.5t35.5 87.5t10.5 75q0 42 -9 78.5t-27.5 63.5t-48 42t-71.5 15q-41 0 -70.5 -18t-47.5 -47t-24 -65.5t0 -73.5q-17 -9 -44.5 -19.5t-58.5 -19.5t-61.5 -16t-53.5 -9l-35 68q0 52 37 107t100.5 100.5 t147.5 75t178 29.5q77 0 140 -16t107.5 -48t68.5 -79t24 -110q0 -45 -12.5 -89.5t-40 -95t-71.5 -110t-107 -134.5l-146 -168l-191 -211h399q17 0 30.5 8.5t24 22.5t18 32t12.5 37q12 44 17 100l80 -19z" />
<glyph unicode="3" d="M915 381q0 -84 -32.5 -159t-92.5 -131t-144 -88.5t-187 -32.5q-39 0 -87 9.5t-99 29.5t-101.5 51t-95.5 74l41 97q45 -34 86 -57.5t79 -38t74.5 -21t74.5 -6.5q47 0 88.5 15t72 45.5t48.5 77t18 110.5q0 69 -21.5 116t-54.5 75.5t-71 41t-71 12.5h-23q-9 0 -17 -1t-18 -2 t-25 -4l-18 90q86 23 137.5 54.5t79.5 66t36.5 69.5t8.5 66q0 34 -7 67t-23.5 59t-42.5 41.5t-64 15.5q-27 0 -50 -13t-38 -35t-20 -52.5t4 -64.5q-21 -12 -47.5 -23t-56 -20.5t-59.5 -16.5t-58 -9l-34 61q0 42 30.5 92t85.5 92.5t131.5 71.5t168.5 29q91 0 155.5 -24 t104.5 -63.5t58.5 -89t18.5 -100.5q0 -38 -15.5 -77t-43.5 -74.5t-67 -64t-87 -44.5q61 -6 111 -33.5t85 -70.5t54.5 -97.5t19.5 -115.5z" />
<glyph unicode="4" d="M570 980l-319 -505h319v505zM957 445q-21 -32 -50 -62.5t-52 -47.5h-55v-201q0 -8 6 -14.5t22 -14t43 -15.5t68 -17v-73h-579v73q65 11 106 20.5t64 18t31.5 16.5t8.5 17v190h-474l-41 41l481 791l53 18l59 21l58 20l50 19l44 -42v-728h131z" />
<glyph unicode="5" d="M919 410q0 -87 -26.5 -166.5t-82 -140.5t-140 -97t-200.5 -36q-46 0 -97 10t-102 30t-100.5 50t-92.5 70l50 90q53 -37 99 -60t85.5 -36.5t73 -18.5t62.5 -5q50 0 92 20.5t72 56t47 84.5t17 106q0 68 -17.5 120.5t-49.5 88t-76.5 54t-99.5 18.5q-80 0 -138 -24t-111 -64 l-47 33l14 86l17 106l16 115q9 60 16 116t12 105t7 84h526q29 0 51 2.5t38 6.5q18 4 32 9l37 -36l-29 -41l-38 -48.5t-38.5 -45t-30.5 -29.5h-432q-2 -29 -6 -66.5t-10 -74.5l-12 -72l-10 -56q45 20 100 30.5t119 10.5q100 0 176 -32.5t126 -86.5t75.5 -123.5t25.5 -142.5z " />
<glyph unicode="6" d="M545 645q-43 0 -93.5 -28.5t-98.5 -80.5q0 -118 17 -201.5t47 -136t70.5 -76.5t87.5 -24q43 0 72 22t46 57t24 80t7 91q0 94 -16 152t-41.5 90t-57.5 43.5t-64 11.5zM971 412q0 -47 -12 -98t-35.5 -100t-58.5 -93t-82 -77.5t-105 -53.5t-127 -20q-95 0 -178 36.5 t-145 102.5t-97.5 158.5t-35.5 205.5q0 141 48 270.5t142.5 233t235.5 175t327 97.5l27 -89q-121 -26 -209.5 -73.5t-150 -110.5t-98 -138t-51.5 -157q63 52 127 78t116 26q85 0 152.5 -27.5t114 -77t71 -118t24.5 -150.5z" />
<glyph unicode="7" d="M960 1167l-91 -217l-87 -216l-80 -206l-70 -188l-59 -162q-26 -73 -43 -126q-18 -12 -45.5 -24t-58.5 -23t-62 -20t-56 -15l-49 41l155 283l126 248l109 236l107 245h-447q-15 0 -31 -3t-34 -18.5t-38 -48t-41 -90.5l-68 25l9 68l13 92q7 48 14.5 91.5t13.5 65.5h780z " />
<glyph unicode="8" d="M358 950q0 -38 17 -66.5t46.5 -51.5t68.5 -42t83 -38q87 91 87 186q0 52 -14 87t-36.5 56t-52 29.5t-61.5 8.5q-33 0 -59 -14t-43.5 -37t-26.5 -53.5t-9 -64.5zM700 309q0 58 -19 100.5t-51.5 74.5t-75 55.5t-88.5 43.5q-32 -31 -56.5 -61.5t-40.5 -62.5t-24 -67.5 t-8 -76.5q0 -52 16 -93.5t43 -70t62 -43.5t72 -15q41 0 73 17.5t53.5 47t32.5 68.5t11 83zM957 352q0 -78 -35.5 -147t-98 -121.5t-146.5 -83t-181 -30.5q-102 0 -180 26t-130.5 70t-79.5 100.5t-27 118.5q0 52 20 101t56.5 93t87 83t110.5 70q-45 21 -85 45t-71 57t-49 77 t-18 104q0 69 31.5 128t86 101.5t127.5 66.5t157 24q95 0 165.5 -20t117 -55t69.5 -84t23 -107q0 -39 -16.5 -75t-45.5 -69t-68.5 -63.5t-85.5 -60.5q52 -24 100 -54t85 -71t59 -96t22 -128z" />
<glyph unicode="9" d="M511 570q57 0 105.5 29.5t86.5 74.5q-2 136 -20 220.5t-45 132t-60.5 64.5t-67.5 17q-84 0 -130.5 -66.5t-46.5 -185.5q0 -84 18.5 -139t45.5 -88t58 -46t56 -13zM960 731q0 -152 -47 -283.5t-141.5 -233t-236 -168.5t-330.5 -89l-25 89q139 34 234 83t154.5 110.5 t89.5 135t39 157.5q-52 -51 -116 -80t-135 -29q-88 0 -155.5 30t-113 81t-69 118.5t-23.5 142.5q0 50 15 102.5t43 101.5t68 92t90 75t109.5 50.5t125.5 18.5q92 0 170 -29t134.5 -90.5t88 -156.5t31.5 -228z" />
<glyph unicode=":" horiz-adv-x="552" d="M459 131q0 -40 -14.5 -72t-39 -54t-58 -33.5t-71.5 -11.5q-29 0 -55.5 7.5t-46.5 24t-31.5 42t-11.5 61.5q0 39 15 71t40.5 54t59 34t69.5 12q28 0 54 -8t46 -24.5t32 -42t12 -60.5zM459 825q0 -40 -14.5 -72t-39 -54t-58 -33.5t-71.5 -11.5q-29 0 -55.5 7.5t-46.5 24 t-31.5 42t-11.5 61.5q0 39 15 71t40.5 54t59 34t69.5 12q28 0 54 -8t46 -24.5t32 -42t12 -60.5z" />
<glyph unicode=";" horiz-adv-x="552" d="M480 70q0 -54 -23 -116t-62.5 -123.5t-92.5 -116.5t-113 -94l-68 50q56 65 88 135t32 157q0 22 -9.5 44t-27 38.5t-43 25.5t-57.5 7l-16 77q6 8 25 19t46.5 22.5t59.5 23t63 21t58 14.5t44 5q48 -23 72 -66.5t24 -122.5zM459 825q0 -40 -14.5 -72t-39 -54t-58 -33.5 t-71.5 -11.5q-29 0 -55.5 7.5t-46.5 24t-31.5 42t-11.5 61.5q0 39 15 71t40.5 54t59 34t69.5 12q28 0 54 -8t46 -24.5t32 -42t12 -60.5z" />
<glyph unicode="&#x3c;" horiz-adv-x="930" d="M877 333q-22 -20 -48.5 -46.5t-57.5 -45.5l-686 246l-32 39l3 12l5 18l10 34q2 8 5 16t5 15q1 3 1.5 6.5t2.5 5.5l6 15l754 272l32 -32l-7 -28q-5 -18 -10 -38l-11 -36q-5 -18 -8 -27l-529 -190l541 -193z" />
<glyph unicode="=" horiz-adv-x="930" d="M877 452q-3 -11 -9 -26.5t-13 -31.5l-13 -30q-7 -15 -10 -24h-747l-32 32q3 11 8.5 26t12.5 31l14 31q6 14 11 24h746zM877 752q-3 -11 -9 -26l-13 -32l-13 -32q-7 -14 -10 -22h-747l-32 32q3 10 8.5 25.5t12.5 31.5l14 31q6 14 11 24h746z" />
<glyph unicode="&#x3e;" horiz-adv-x="930" d="M877 635q-3 -13 -7.5 -29t-9.5 -32l-12 -33l-9 -28l-754 -272l-32 33q3 10 7.5 28l9.5 37l12 37l8 26l526 190l-539 193l-24 44l51 47q28 26 55 44l686 -245z" />
<glyph unicode="?" horiz-adv-x="932" d="M608 131q0 -40 -14.5 -72t-39 -54t-58 -33.5t-71.5 -11.5q-29 0 -55.5 7.5t-46.5 24t-31.5 42t-11.5 61.5q0 39 15 71t40.5 54t59 34t69.5 12q28 0 54 -8t46 -24.5t32 -42t12 -60.5zM866 1165q0 -75 -25.5 -136.5t-64 -115t-84 -101.5t-85.5 -96t-68 -98.5t-32 -109.5 l-6 -96q-19 -14 -45 -23.5t-54 -17.5l-32 28l-8 109q-3 57 14 112t44 107t59 102t60 99t47 96.5t19 95.5q0 124 -40.5 183t-110.5 59q-25 0 -48 -13t-40.5 -36t-28 -55.5t-10.5 -71.5q0 -14 3.5 -32.5t8.5 -32.5q-16 -8 -47 -18t-65.5 -18.5t-68.5 -15.5t-56 -9l-35 38 q-2 8 -2 24v24q0 70 37.5 131t101 106t146.5 71t175 26q82 0 146 -23t107 -64.5t65.5 -99.5t22.5 -128z" />
<glyph unicode="@" horiz-adv-x="1796" d="M1044 731q-22 45 -49.5 71t-76.5 26q-88 0 -134 -86.5t-46 -273.5q0 -85 14 -144t36.5 -95.5t50 -52.5t54.5 -16q19 0 35.5 5t33 18.5t36 37t46.5 59.5v451zM1711 572q0 -85 -20 -162.5t-55 -144.5t-82.5 -121.5t-102.5 -93t-114.5 -59.5t-119.5 -21q-30 0 -56 8 t-47.5 26.5t-37.5 49.5t-26 78q-41 -48 -71.5 -79.5t-58.5 -50t-58 -25.5t-70 -7q-51 0 -103.5 28t-94.5 85.5t-69 145.5t-27 208q0 63 13 126t38.5 121.5t63 108.5t86 87.5t107.5 58.5t128 21q23 0 43 -3.5t40 -13t41 -27.5t45 -47q55 19 95.5 39.5t84.5 51.5l31 -30 q-9 -35 -15 -73q-6 -32 -10.5 -73t-4.5 -83v-416q0 -61 14 -92t57 -31q25 0 53.5 23t52.5 67.5t39.5 110t15.5 149.5q0 171 -42 298.5t-118 212t-182.5 126.5t-235.5 42q-153 0 -270.5 -53.5t-197 -144.5t-120 -212.5t-40.5 -256.5q0 -189 52.5 -332t143 -239t212.5 -144.5 t260 -48.5q96 0 180 17.5t153 43.5t120.5 56t81.5 56l47 -87q-36 -41 -93.5 -86.5t-136 -83.5t-179 -63.5t-222.5 -25.5q-186 0 -341 60t-267 173t-174 276t-62 369q0 121 31.5 234.5t89 213t138.5 182.5t180 142.5t213.5 92.5t239.5 33q163 0 298 -48.5t232 -147 t150.5 -247t53.5 -348.5z" />
<glyph unicode="A" horiz-adv-x="1287" d="M747 550l-165 465l-150 -465h315zM392 430l-96 -289q-10 -31 24.5 -45t116.5 -23v-73h-437v73q68 12 104.5 25t46.5 43l349 1066q24 20 51.5 37t57 30.5t58.5 24t55 18.5l420 -1176q5 -14 13 -25t22 -19t35.5 -14t53.5 -10v-73h-497v73q78 5 105.5 20t16.5 48l-102 289 h-397z" />
<glyph unicode="B" horiz-adv-x="1231" d="M1129 356q0 -85 -35.5 -153.5t-102.5 -116.5t-162.5 -74t-216.5 -26q-22 0 -54.5 0.5t-71.5 1.5l-80 2q-42 1 -82 3q-95 3 -201 7h-80v73q68 14 102.5 30.5t34.5 30.5v1031q-38 -4 -73 -9t-64 -10l-13 84q45 11 106 21.5t128.5 19t136 14t128.5 5.5q115 0 205.5 -18.5 t153.5 -53.5t96.5 -85t33.5 -113q0 -108 -58 -185t-170 -112q75 -12 137.5 -45t107 -81.5t69.5 -110t25 -130.5zM565 639q-46 0 -76 -4t-59 -9v-499q0 -7 5 -13q29 -12 64.5 -16.5t75.5 -4.5q145 0 218.5 65.5t73.5 178.5q0 55 -14.5 109t-49.5 97t-93 69.5t-145 26.5z M466 1184h-17q-9 0 -19 -1v-443h19q100 0 161.5 20t96 52.5t46.5 74t12 84.5q0 50 -14.5 89.5t-49.5 67t-92.5 42t-142.5 14.5z" />
<glyph unicode="C" horiz-adv-x="1143" d="M1071 211q-64 -65 -126 -111t-123 -75t-120 -42t-116 -13q-101 0 -196.5 42t-170 121t-119.5 193.5t-45 259.5q0 160 49 290t135 222.5t202 142.5t250 49q54 0 107 -8t101 -21.5t87.5 -31.5t65.5 -39q4 -3 -0.5 -18t-13.5 -36t-21.5 -45.5t-25.5 -47t-24.5 -40.5 t-19.5 -26l-65 14q-51 88 -116.5 127.5t-143.5 39.5q-34 0 -70.5 -11t-71.5 -36t-66.5 -65.5t-55 -99.5t-37 -139t-13.5 -184q0 -128 33.5 -220t87 -151.5t120 -88t132.5 -28.5q27 0 63.5 6t80 22.5t92.5 44t102 71.5q5 -4 13 -14l16 -21l14 -20q6 -10 9 -13z" />
<glyph unicode="D" horiz-adv-x="1304" d="M1221 676q0 -125 -25.5 -223.5t-69.5 -174t-103 -128t-126 -86t-138.5 -49t-139.5 -15.5h-576v73q68 14 102.5 30.5t34.5 30.5v1023l-137 -19l-13 92q49 12 116.5 23t142 19.5t149.5 13t140 4.5q153 0 273 -41.5t202 -120.5t125 -193t43 -259zM506 1184q-18 0 -37 -0.5 t-39 -1.5v-1015q0 -7 2 -14q3 -11 11 -19.5t25 -14.5t44.5 -9t69.5 -3q38 0 80.5 13t84 41t79 70.5t65.5 101.5t45 134.5t17 169.5q0 133 -29 235t-85.5 171.5t-140 105t-192.5 35.5z" />
<glyph unicode="E" horiz-adv-x="1076" d="M1029 304q-4 -43 -9 -90.5t-11 -90t-11.5 -75.5t-9.5 -48h-945v73q68 14 102.5 30.5t34.5 30.5v991q0 12 -32.5 30t-104.5 32v73h881l40 -32q-2 -26 -6 -65t-10 -80t-12.5 -77.5t-12.5 -55.5h-75q-5 93 -25 141.5t-57 48.5h-336v-405h398l33 -35l-19 -32l-24.5 -37 t-25 -33.5t-23.5 -23.5q-15 15 -32.5 25t-40 17t-53 10t-72.5 3h-141v-445q0 -15 7 -26.5t29 -20t62 -13t106 -4.5h99q46 0 78.5 11t57.5 35.5t45.5 64.5t41.5 99z" />
<glyph unicode="F" horiz-adv-x="1039" d="M43 0v73q68 14 102.5 30.5t34.5 30.5v991q0 12 -32.5 30t-104.5 32v73h891l38 -32q-1 -26 -5 -65t-9.5 -80t-12 -77.5t-12.5 -55.5h-77q-3 93 -23.5 141.5t-58.5 48.5h-344v-405h367l36 -35q-9 -17 -21 -36t-25 -36t-25.5 -31.5t-22.5 -22.5q-15 15 -32 25t-39.5 17 t-53 10t-72.5 3h-112v-495q0 -6 8 -13t27 -14.5t51.5 -16t81.5 -17.5v-73h-555z" />
<glyph unicode="G" horiz-adv-x="1232" d="M1095 1188q5 -4 1 -18.5t-13.5 -34.5t-22.5 -44l-28 -46q-13 -22 -26 -39t-22 -25l-63 14q-33 48 -66.5 81t-69.5 52.5t-75 28t-82 8.5q-25 0 -58.5 -10t-69 -34t-70 -64t-61.5 -98.5t-44 -138t-17 -183.5q0 -134 31 -230t82.5 -158t117.5 -91.5t137 -29.5q55 0 98.5 10 t78.5 27v305q0 11 -4 21.5t-20 20.5t-48.5 20t-88.5 20v73h498v-73q-57 -14 -77 -36.5t-20 -45.5v-301q-74 -61 -138.5 -99.5t-120.5 -60.5t-106 -30.5t-95 -8.5q-73 0 -144 16.5t-135 50t-119 84.5t-95 119t-62.5 153.5t-22.5 188.5q0 166 53 297.5t147 223t221 139.5 t276 48q33 0 78.5 -7t93.5 -20t93.5 -32t77.5 -43z" />
<glyph unicode="H" horiz-adv-x="1399" d="M43 0v73q68 14 102.5 30.5t34.5 30.5v991q0 12 -32.5 30t-104.5 32v73h525v-73q-68 -14 -103 -31t-35 -31v-405h520v405q0 12 -32.5 30t-104.5 32v73h525v-73q-68 -14 -103 -31t-35 -31v-991q0 -12 33 -29.5t105 -31.5v-73h-525v73q68 14 102.5 30.5t34.5 30.5v466h-520 v-466q0 -12 32.5 -29.5t105.5 -31.5v-73h-525z" />
<glyph unicode="I" horiz-adv-x="670" d="M63 0v73q68 14 102.5 30.5t34.5 30.5v991q0 12 -32.5 30t-104.5 32v73h525v-73q-68 -14 -103 -31t-35 -31v-991q0 -12 33 -29.5t105 -31.5v-73h-525z" />
<glyph unicode="J" horiz-adv-x="685" d="M623 1187q-68 -14 -103 -31t-35 -31v-942q0 -110 -22 -189t-56.5 -136t-76.5 -97t-81 -72q-27 -22 -60.5 -41.5t-69.5 -34t-73 -23t-71 -8.5q-45 0 -88 10.5t-76.5 25.5t-54.5 31.5t-21 27.5t21 35.5t49 50.5t56 47.5t42 26.5q56 -48 103.5 -67.5t85.5 -19.5 q26 0 51.5 12t46 50.5t33 109.5t12.5 189v1014q0 6 -6.5 13t-27 15t-57 16.5t-96.5 17.5v73h575v-73z" />
<glyph unicode="K" horiz-adv-x="1267" d="M43 0v73q68 14 102.5 30.5t34.5 30.5v991q0 12 -32.5 30t-104.5 32v73h525v-73q-68 -14 -103 -31t-35 -31v-466l372 439q23 27 32.5 43t4 25t-27.5 13.5t-61 7.5v73h450v-73q-32 -4 -54.5 -8t-39.5 -10.5t-31 -17t-30 -26.5l-429 -449l482 -511q16 -18 33 -27.5t36.5 -13 t41.5 -3t48 3.5l7 -73l-65 -20q-36 -12 -72 -22t-69 -17t-57 -7q-29 0 -51.5 9t-42.5 34l-477 596v-491q0 -12 32.5 -29.5t105.5 -31.5v-73h-525z" />
<glyph unicode="L" horiz-adv-x="1043" d="M1019 304q-4 -43 -9.5 -90.5t-11 -90t-11 -75.5t-9.5 -48h-935v73q68 14 102.5 30.5t34.5 30.5v991q0 12 -32.5 30t-104.5 32v73h525v-73q-68 -14 -103 -31t-35 -31v-931q0 -18 8.5 -31.5t29.5 -23t57 -14.5t91 -5h113q46 0 77.5 11t55.5 35.5t43.5 64.5t40.5 99z" />
<glyph unicode="M" horiz-adv-x="1734" d="M1633 1187q-25 0 -58.5 -7t-69.5 -21l10 -1025q0 -12 36.5 -29.5t108.5 -31.5v-73h-522v73q68 14 107.5 30.5t39.5 30.5l-8 813l-424 -947h-94l-416 945l-8 -811q0 -12 33 -29.5t105 -31.5v-73h-420v73q69 14 103 30.5t34 30.5l10 1018q-35 20 -71.5 27.5t-65.5 7.5v73 h346q10 0 18 -3t15.5 -12t16.5 -25.5t21 -43.5l368 -835l375 835q13 30 22 46.5t17 25t15.5 10.5t16.5 2h339v-73z" />
<glyph unicode="N" horiz-adv-x="1359" d="M43 0v73q73 9 105 28t32 33v980q-65 61 -137 73v73h279q15 0 24.5 -2.5t19.5 -10.5t22 -23l30 -42l612 -848v791q0 6 -6.5 14.5t-22 17t-42 16.5t-66.5 14v73h425v-73q-72 -10 -105 -29t-33 -33v-1155q-96 8 -154 37.5t-85 66.5l-611 846v-786q0 -6 7 -14.5t23.5 -17 t42.5 -16.5t65 -13v-73h-425z" />
<glyph unicode="O" horiz-adv-x="1274" d="M946 629q0 103 -24.5 199t-69.5 170t-108 118t-140 44q-72 0 -127.5 -35.5t-93 -102t-56.5 -163t-19 -218.5q0 -112 26.5 -210t72 -170.5t106 -114t129.5 -41.5q66 0 121.5 32t96 97.5t63.5 164t23 230.5zM1198 647q0 -91 -22 -176t-61.5 -160.5t-94.5 -138t-122 -107.5 t-143 -70t-157 -25q-126 0 -227 53t-171 142t-107.5 205t-37.5 242q0 136 44.5 259t124 216t190 148t242.5 55t233 -54.5t170 -144.5t104 -206t35 -238z" />
<glyph unicode="P" horiz-adv-x="1161" d="M43 0v73q68 14 102.5 30.5t34.5 30.5v1024q-38 -5 -72.5 -10t-64.5 -10l-13 92q54 13 120 24t137.5 19t144 12.5t138.5 4.5q116 0 211.5 -23t163.5 -68t105 -111t37 -152q0 -69 -19 -127t-51.5 -104t-75 -81t-90 -58t-96 -34.5t-92.5 -11.5q-46 0 -90 7.5t-78 22.5 l-31 105q41 -19 72.5 -24.5t66.5 -5.5q43 0 85 15.5t74.5 48.5t52.5 84t20 122t-23.5 125t-66 90.5t-101.5 55t-131 18.5q-20 0 -40.5 -0.5t-42.5 -1.5v-1048q0 -6 6.5 -13t25 -15t51.5 -16t85 -17v-73h-555z" />
<glyph unicode="Q" horiz-adv-x="1274" d="M946 629q0 103 -24.5 199t-69.5 170t-108 118t-140 44q-72 0 -127.5 -35.5t-93 -102t-56.5 -163t-19 -218.5q0 -112 26.5 -210t72 -170.5t106 -114t129.5 -41.5q66 0 121.5 32t96 97.5t63.5 164t23 230.5zM1417 -125q-24 -44 -51.5 -81t-54.5 -64t-50.5 -42.5 t-38.5 -15.5q-47 0 -93.5 15.5t-94 41t-94.5 57.5l-94 66l-96 66q-47 32 -94 56q-14 -2 -29 -3t-29 -1q-124 0 -224 52.5t-171 141t-109.5 204.5t-38.5 244q0 136 44.5 259t124 216t190 148t242.5 55t233 -54.5t170 -144.5t104 -206t35 -238q0 -101 -27 -196t-76 -176 t-116 -145t-147 -104q56 -20 108 -47l101 -51q49 -24 95.5 -41t91.5 -17q12 0 24.5 2.5t28 10t36.5 21.5t51 36z" />
<glyph unicode="R" horiz-adv-x="1239" d="M43 0v73q68 14 102.5 30.5t34.5 30.5v1023l-70 -9l-67 -10l-13 92q106 23 230.5 41.5t268.5 18.5q136 0 231.5 -23t156 -64t88 -96.5t27.5 -119.5q0 -69 -20.5 -126.5t-57 -104t-88 -81t-113.5 -55.5l315 -436q16 -21 30.5 -34t32 -19.5t41 -7.5t57.5 2l15 -73 q-33 -11 -74 -22.5t-81.5 -21.5t-75 -16t-53.5 -6q-29 0 -56.5 16t-41.5 39l-287 545q-10 -1 -20 -1h-19q-26 0 -52 2.5t-54 8.5v-462q0 -12 32.5 -29.5t105.5 -31.5v-73h-525zM485 1184q-13 0 -27 -0.5t-28 -1.5v-476q27 -5 47 -6t42 -1q135 0 198 68t63 189q0 46 -14 87.5 t-47.5 73t-90.5 49.5t-143 18z" />
<glyph unicode="S" horiz-adv-x="1050" d="M968 377q0 -45 -13.5 -92t-40.5 -92.5t-68 -86t-96.5 -70.5t-125 -48t-154.5 -18q-36 0 -82.5 7t-95 19.5t-95 30.5t-81.5 41q-5 2 -8 19.5t-4.5 44t-1 60t3 67.5t7 67t11.5 58l71 -5q23 -59 56 -108t74 -84t88 -54.5t98 -19.5q45 0 87 13t74 37.5t51.5 61t19.5 84.5 q0 61 -27 105.5t-71.5 79t-100.5 62.5l-116 56q-60 27 -116.5 57.5t-101 71t-71.5 93.5t-27 126q0 47 26.5 104.5t82 107.5t142.5 84t208 34q54 0 106 -7t97 -19t79.5 -29t52.5 -37q5 -4 2.5 -18t-9 -33t-17 -41t-21.5 -42t-22 -36t-19 -23l-66 6q-22 47 -50.5 78.5 t-60 50.5t-63.5 27t-60 8q-50 0 -85.5 -13t-58.5 -35t-33.5 -49.5t-10.5 -55.5q0 -47 27.5 -83.5t72 -68t101.5 -59.5l117 -58q60 -30 117 -65t101.5 -79t72 -101t27.5 -131z" />
<glyph unicode="T" horiz-adv-x="1188" d="M300 0v73q46 9 76 19t48 19.5t25 18t7 15.5v995h-254q-15 0 -28.5 -10.5t-27.5 -35.5t-31 -65t-39 -98l-73 27q2 29 6.5 70t10.5 84l12 82q6 40 11 66h1070l38 -32q-1 -26 -4.5 -62t-9 -76t-12 -79.5t-12.5 -70.5h-75q-10 46 -16.5 83.5t-14.5 63t-20.5 39.5t-33.5 14 h-247v-995q0 -6 7 -14.5t25 -18.5t48.5 -20t76.5 -19v-73h-563z" />
<glyph unicode="U" horiz-adv-x="1369" d="M1313 1187q-68 -14 -103 -31t-35 -31v-601q0 -131 -36.5 -234t-102.5 -174t-156.5 -108.5t-198.5 -37.5q-103 0 -194 28.5t-159.5 87t-108 147.5t-39.5 211v681q0 12 -32.5 30t-104.5 32v73h525v-73q-68 -14 -103 -31t-35 -31v-616q0 -96 17 -169.5t54 -123.5t96.5 -75.5 t145.5 -25.5q71 0 120 32t79.5 85t44 122.5t13.5 143.5v627q0 12 -32.5 30t-104.5 32v73h450v-73z" />
<glyph unicode="V" horiz-adv-x="1361" d="M1328 1187q-68 -13 -106.5 -25.5t-48.5 -40.5l-376 -1039q-8 -22 -30.5 -40t-51 -32.5t-59 -24t-54.5 -15.5l-455 1151q-11 26 -41 42t-93 24v73h510v-73q-80 -6 -106 -20.5t-15 -43.5l325 -837l297 835q5 15 1.5 25t-18.5 17.5t-42 13t-68 10.5v73h431v-73z" />
<glyph unicode="W" horiz-adv-x="1741" d="M1732 1187q-44 -9 -73 -17t-46 -15.5t-24.5 -14.5t-8.5 -15l-229 -1066q-5 -21 -22.5 -36.5t-40 -26t-45.5 -17t-38 -9.5l-341 907l-287 -818q-7 -21 -25 -36t-41 -25.5t-48 -17t-45 -10.5l-260 1147q-5 25 -36 41t-102 29v73h489v-73q-49 -5 -76 -12.5t-39 -16.5 t-13.5 -19.5t0.5 -21.5l171 -732l292 875h100l335 -875l161 740q2 12 -9 21t-32 16t-50 13t-63 12v73h446v-73z" />
<glyph unicode="X" horiz-adv-x="1290" d="M733 0v73q44 4 71 10.5t39 16t10.5 23.5t-15.5 34l-236 343l-227 -343q-15 -22 -18.5 -36.5t7 -24t37.5 -15t73 -8.5v-73h-450v73q65 5 110 24.5t72 59.5l309 471l-325 475q-15 22 -29 36t-31.5 23t-40 14.5t-55.5 10.5v73h541v-73q-85 -8 -111 -24.5t4 -59.5l207 -303 l191 303q14 23 16.5 37.5t-8.5 24t-37.5 14.5t-71.5 8v73h453v-73q-36 -4 -64.5 -10t-50.5 -15.5t-38.5 -23.5t-29.5 -35l-274 -428l355 -518q15 -21 29.5 -35.5t31.5 -24t39 -15t51 -9.5v-73h-534z" />
<glyph unicode="Y" horiz-adv-x="1255" d="M345 0v73q45 9 75.5 19t48.5 19.5t25.5 18t7.5 15.5v384q-36 80 -81 165l-91 164q-46 80 -90 148t-79 115q-9 11 -19 20t-27 15t-43 9.5t-68 3.5l-4 73l66 9q38 5 75 9t69.5 7t53.5 3q28 0 56 -12t45 -34q37 -50 77 -114l82 -136l82 -148l74 -147l234 442q15 26 -9.5 41 t-101.5 25v73h418v-73q-68 -13 -101 -27t-47 -39l-321 -598v-378q0 -6 7 -14.5t25 -18.5t48.5 -20t77.5 -19v-73h-565z" />
<glyph unicode="Z" horiz-adv-x="1116" d="M1044 353q-2 -32 -4 -81l-2 -98l-4 -98l-2 -76h-944l-36 53l673 1077h-391q-16 0 -36 -17t-39.5 -48t-37 -74t-28.5 -95l-87 19l37 361q27 -6 49.5 -9.5t44 -5t44.5 -1.5h720l33 -50l-668 -1080h456q21 0 38 15t32.5 46t31.5 76.5t35 107.5z" />
<glyph unicode="[" horiz-adv-x="691" d="M666 -227q-2 -10 -7 -25l-10 -30q-5 -16 -10.5 -30t-9.5 -23h-504v1935h498l41 -33q-2 -12 -7 -29l-10 -34q-5 -16 -10 -29.5t-8 -19.5h-274v-1645h268z" />
<glyph unicode="\" horiz-adv-x="960" d="M878 -335l-34 11l-45 15q-23 8 -43.5 16.5t-29.5 15.5l-686 1848l45 29q15 -4 35 -10t41 -13.5t40.5 -15.5t33.5 -17l685 -1847z" />
<glyph unicode="]" horiz-adv-x="691" d="M68 -335l-41 34q2 12 6.5 29t9.5 33t10 29.5t8 19.5h274v1645h-267l-43 36q2 10 7 25l10 31q5 16 10.5 30t8.5 23h504v-1935h-497z" />
<glyph unicode="^" horiz-adv-x="1008" d="M907 635q-25 -23 -48.5 -38.5t-57.5 -31.5l-37 27l-283 723l-250 -680q-11 -10 -25 -20.5t-29 -20t-29 -16.5l-25 -13l-23 27l322 870q12 12 30 24l35 25q18 12 36 22t32 17z" />
<glyph unicode="_" horiz-adv-x="990" d="M937 -162q-3 -11 -9 -27t-13 -33l-13 -30l-11 -23h-806l-32 32q3 10 8.5 25.5t12.5 31.5l14 31q6 15 11 25h806z" />
<glyph unicode="`" horiz-adv-x="653" d="M452 1086q-6 -6 -17 -12l-23 -14q-13 -7 -25 -12t-21 -8l-383 377l30 56l41 8l67 13l69 12q32 5 44 6z" />
<glyph unicode="a" horiz-adv-x="1023" d="M412 145q19 0 40 4.5t46.5 16t56 32t68.5 52.5v221q-60 -10 -101 -19.5t-69 -19.5t-45.5 -21t-30.5 -24q-26 -26 -42 -56t-16 -72q0 -34 9.5 -56t24 -35t30.5 -18t29 -5zM1016 112q-42 -29 -87.5 -55t-86 -45.5t-74 -30.5t-51.5 -11q-37 0 -62.5 42t-30.5 117 q-45 -45 -90.5 -75.5t-88 -49t-81.5 -26.5t-71 -8q-42 0 -82.5 14.5t-73 43t-52.5 72t-20 101.5q0 68 24.5 115.5t61.5 84.5q24 24 55.5 46.5t84 43.5t132 40.5t200.5 37.5v118q0 31 -6 57.5t-21 45.5t-40 29.5t-63 10.5q-24 0 -48 -9t-42 -25.5t-28.5 -40t-7.5 -53.5 q1 -6 -16 -15t-43 -18.5t-57.5 -19t-60.5 -16t-52 -10t-31 -1.5l-21 54q24 60 75.5 111.5t120.5 90t150.5 60.5t164.5 22q69 0 119 -18t82.5 -50.5t48.5 -76.5t16 -95v-482q0 -42 11 -60t29 -18q7 0 14.5 1t18 4t24.5 9l34 13z" />
<glyph unicode="b" horiz-adv-x="1100" d="M804 416q0 100 -17.5 170.5t-47.5 115.5t-70.5 65.5t-86.5 20.5q-35 0 -89.5 -24t-127.5 -86v-460q80 -43 141.5 -61.5t90.5 -18.5q52 0 91 22t65 59.5t38.5 88t12.5 108.5zM1025 507q0 -58 -21 -120.5t-58 -122t-87.5 -113t-108.5 -94t-122.5 -64t-128.5 -23.5 q-27 0 -69 9.5t-91.5 26.5t-104.5 40t-109 50v1170q0 46 -3.5 71t-16.5 37.5t-37 16.5t-65 9v70l89 16q41 7 79.5 16.5t75.5 21t74 26.5l11 -10l15 -14q9 -8 18 -17v-707q50 43 98.5 73t93 49t82 27.5t66.5 8.5q74 0 133 -32t100.5 -91t64 -142.5t22.5 -187.5z" />
<glyph unicode="c" horiz-adv-x="933" d="M893 190q-65 -74 -120 -117.5t-104.5 -66.5t-95.5 -29.5t-93 -6.5q-81 0 -156 32.5t-132.5 93.5t-92 149t-34.5 199q0 108 40 202t111.5 163.5t170.5 110t218 40.5q33 0 74.5 -5.5t81.5 -16t73.5 -25t50.5 -32.5q1 -8 -2.5 -28t-10 -46t-15.5 -55t-18 -55t-18 -47 t-15 -30l-67 10q-33 98 -81 151.5t-128 53.5q-44 0 -84.5 -20t-71.5 -63.5t-50 -111.5t-19 -165q0 -80 20.5 -142.5t56 -105.5t83.5 -66t102 -23q28 0 54 3.5t57 15.5t69.5 35t91.5 62z" />
<glyph unicode="d" horiz-adv-x="1148" d="M1141 114q-46 -31 -93 -57t-87.5 -45.5t-71.5 -30.5t-45 -11q-72 0 -92 175q-46 -47 -84.5 -80t-75.5 -54t-76 -31t-85 -10q-67 0 -132.5 32.5t-117.5 93.5t-84 149t-32 199q0 100 35.5 193.5t100 165t154 114.5t196.5 43q47 0 93.5 -11t100.5 -48v343q0 55 -1.5 87.5 t-14 50t-40.5 24t-81 10.5v69q110 11 198.5 29.5t140.5 35.5l38 -37v-1214q0 -35 1.5 -59t4 -39t7 -23t10.5 -12q6 -3 13 -4.5t18.5 0t29 7.5t44.5 18zM745 269v437q-36 58 -89.5 90t-120.5 32q-50 0 -92 -19t-72.5 -59.5t-48 -102.5t-17.5 -149q0 -80 20 -142.5t52 -106 t73 -66.5t82 -23q55 0 104.5 27.5t108.5 81.5z" />
<glyph unicode="e" horiz-adv-x="991" d="M511 840q-47 0 -81 -18t-57.5 -52t-37 -82t-19.5 -108h333q23 0 30.5 7.5t7.5 28.5q0 30 -8 68.5t-28.5 73t-54.5 58.5t-85 24zM926 550q-9 -10 -26 -22t-37 -23t-40.5 -21t-36.5 -16h-473q2 -72 19.5 -132.5t49.5 -104.5t77.5 -68.5t104.5 -24.5q31 0 60.5 3.5t64 16.5 t77.5 36.5t102 64.5q6 -3 14.5 -12t15.5 -19l14 -20q6 -9 8 -13q-69 -70 -124 -114t-105.5 -68.5t-100.5 -33.5t-110 -9q-85 0 -160.5 34t-132 96t-89.5 149t-33 193q0 136 51.5 242.5t154.5 181.5q26 19 58.5 36.5t68 30t73.5 20t76 7.5q98 0 169.5 -34t118 -90.5 t69 -130.5t22.5 -155z" />
<glyph unicode="f" horiz-adv-x="696" d="M891 1454q0 -11 -9.5 -26.5t-24.5 -33t-34 -35.5t-37 -33t-34 -26.5t-26 -16.5q-48 60 -93 86t-77 26q-26 0 -49.5 -16t-41.5 -58t-29 -116t-11 -189v-86h249l37 -36q-9 -17 -23 -36l-26 -36q-14 -17 -27 -31t-22 -21q-23 12 -65.5 23.5t-122.5 11.5v-673q0 -6 9.5 -12 t33 -12.5t62 -15t97.5 -19.5v-73h-574v73q69 12 100.5 29.5t31.5 29.5v673h-119l-28 36l78 89h69v31q0 82 11.5 149t33 121.5t53 99t71.5 82.5q37 36 76.5 61.5t78 42.5t75 25t66.5 8q45 0 88.5 -12t77 -27.5t54.5 -31.5t21 -25z" />
<glyph unicode="g" horiz-adv-x="1059" d="M668 600q0 51 -13.5 95.5t-39.5 77.5t-64.5 52.5t-89.5 19.5q-25 0 -51 -11.5t-47 -34.5t-34.5 -58t-13.5 -82q0 -50 12 -94.5t37.5 -77.5t64.5 -52.5t93 -19.5q29 0 55.5 11.5t46.5 34.5t32 57.5t12 81.5zM556 -42q-48 6 -90 14t-79 16q-46 -32 -72.5 -57t-39.5 -45.5 t-16.5 -37t-3.5 -31.5q0 -33 24.5 -63.5t67.5 -53.5t101.5 -36.5t126.5 -13.5q59 0 102 14.5t71.5 39.5t42.5 57t14 67q0 19 -9 38t-36 36t-76 31.5t-128 24.5zM898 641q0 -77 -34 -140.5t-91 -109t-132 -71t-158 -25.5h-10q-38 -35 -48.5 -56.5t-10.5 -27.5q0 -9 6 -17.5 t28.5 -17t68 -17.5t123.5 -19q117 -15 194 -36.5t122.5 -51.5t63.5 -69t18 -88q0 -47 -21.5 -94t-59.5 -90.5t-89 -80.5t-110.5 -64.5t-124 -43t-128.5 -15.5q-52 0 -108.5 6.5t-111 20.5t-103.5 35.5t-86 52t-59 69.5t-22 87q0 25 10.5 51t38.5 55.5t76.5 64t125.5 76.5 q-114 46 -114 98q0 11 9.5 29.5t31 43t56.5 54.5t85 64q-56 15 -102 42t-78.5 64t-50.5 83t-18 99q0 73 36 138.5t96 114t139.5 77t166.5 28.5q69 0 129 -19t108 -51q87 11 157.5 33t111.5 37l28 -37q-3 -11 -9.5 -26t-14 -30.5t-16 -31t-17.5 -27.5q-34 -6 -69 -10t-77 -6 q21 -35 32.5 -72.5t11.5 -78.5z" />
<glyph unicode="h" horiz-adv-x="1190" d="M663 0v73q72 19 102 33t30 28v439q0 61 -6.5 100.5t-20 62.5t-35 32.5t-51.5 9.5q-58 0 -119.5 -36t-142.5 -103v-505q0 -15 34 -31t99 -30v-73h-505v73q66 17 99 30.5t33 30.5v1134q0 42 -2.5 65.5t-15 36.5t-39.5 18.5t-75 11.5v70q56 8 100.5 16t82.5 17.5t73 20.5 t72 26l44 -41v-727q115 94 215.5 136t178.5 42q43 0 83 -13.5t70.5 -44t49 -79.5t18.5 -119v-570q0 -7 6 -13.5t21 -13.5t41 -15.5t65 -18.5v-73h-505z" />
<glyph unicode="i" horiz-adv-x="615" d="M63 0v73q68 14 100 30.5t32 30.5v514q0 51 -1 82.5t-12.5 49t-38.5 25.5t-80 13v70q86 12 163 29.5t145 42.5h64v-826q0 -12 30 -29.5t103 -31.5v-73h-505zM473 1261q0 -34 -13 -62t-35.5 -48t-53 -31t-66.5 -11q-28 0 -53 6.5t-43.5 20.5t-29.5 34.5t-11 49.5 q0 34 13 62t35.5 47.5t53 30.5t65.5 11q27 0 52 -6.5t44 -20t30.5 -34t11.5 -49.5z" />
<glyph unicode="j" horiz-adv-x="590" d="M430 107q0 -116 -20.5 -195t-53 -134.5t-73 -93t-80.5 -69.5q-27 -21 -60 -40.5t-67.5 -34.5t-68 -24t-61.5 -9q-39 0 -80.5 10t-75.5 24.5t-56 30.5t-22 27q0 14 21.5 39t50 50t57 46t43.5 28q16 -20 39 -35t47 -25.5t47.5 -16t42.5 -5.5q26 0 49.5 14.5t41.5 54 t28.5 110.5t10.5 184v605q0 51 -1 82t-13 48.5t-39 25.5t-79 14v70q53 7 92.5 14.5t73.5 16t66 18.5l73 23h67v-853zM471 1261q0 -34 -12.5 -62t-35 -48t-53 -31t-66.5 -11q-28 0 -53 6.5t-44 20.5t-30 34.5t-11 49.5q0 34 13 62t36 47.5t53.5 30.5t65.5 11q27 0 52 -6.5 t43.5 -20t30 -34t11.5 -49.5z" />
<glyph unicode="k" horiz-adv-x="1129" d="M48 0v73q66 17 99 30t33 31v1132q0 46 -4.5 71t-18.5 37.5t-40 16.5t-69 9v70q97 14 178.5 32t149.5 48l44 -41v-975l263 235q33 30 42.5 47.5t2.5 26.5t-27 11.5t-46 2.5v73h447v-73q-45 -5 -88.5 -21t-86.5 -48l-304 -230l361 -409q14 -16 27.5 -25.5t30.5 -14t38.5 -5 t50.5 1.5l6 -73q-29 -7 -66 -15l-71 -14q-35 -6 -62.5 -10t-37.5 -4q-42 0 -71 12t-51 41l-358 474v-383q0 -8 3.5 -14t14.5 -12.5t33 -14.5t59 -20v-73h-482z" />
<glyph unicode="l" horiz-adv-x="615" d="M53 0v73q43 7 70.5 14.5t43.5 15t22 15.5t6 16v1132q0 45 -5 70t-19 37.5t-40 17t-68 9.5v70q50 7 93 14.5t82 16.5t77 21t77 28l43 -41v-1375q0 -8 7 -15.5t23.5 -15.5t44 -15.5t68.5 -14.5v-73h-525z" />
<glyph unicode="m" horiz-adv-x="1728" d="M1209 0v73q36 9 58.5 17.5t35.5 16t17.5 14t4.5 13.5v469q0 61 -6.5 98t-19 56t-32.5 25t-47 6q-44 0 -103 -31t-124 -94v-529q0 -7 5 -13.5t18.5 -13.5t38.5 -15.5t64 -18.5v-73h-483v73q36 9 59 17.5t35.5 16t17.5 14t5 13.5v469q0 61 -5 98t-16.5 56t-30 25t-46.5 6 q-45 0 -103 -30t-132 -95v-529q0 -15 30 -31t95 -30v-73h-497v73q66 17 99 30.5t33 30.5v555q0 40 -2.5 63t-15 35.5t-39.5 18.5t-75 12v70q52 6 94 13t79.5 16t71.5 19.5t70 23.5l42 -42l11 -124q56 49 103.5 81.5t89.5 51t80 26t74 7.5q48 0 85 -12t63 -32.5t42 -48 t22 -59.5l3 -14q56 49 104 81t90.5 51t80.5 26.5t75 7.5q48 0 91 -13.5t75.5 -44t51.5 -79.5t19 -119v-570q0 -14 31 -27.5t110 -33.5v-73h-497z" />
<glyph unicode="n" horiz-adv-x="1190" d="M663 0v73q72 19 102 33t30 28v454q0 55 -5.5 91.5t-17.5 58.5t-32 31t-50 9q-24 0 -51 -6.5t-59.5 -22t-72 -42.5t-87.5 -68v-505q0 -15 34 -31t99 -30v-73h-505v73q66 17 99 30.5t33 30.5v555q0 39 -1.5 62t-13.5 36t-39 19t-78 12v70q48 5 89.5 12t79.5 15.5t74 19.5 t72 25l42 -42l11 -144q117 100 218.5 143t179.5 43q43 0 83 -13.5t70.5 -44t49 -79.5t18.5 -119v-570q0 -7 6 -13.5t21 -13.5t41 -15.5t65 -18.5v-73h-505z" />
<glyph unicode="o" horiz-adv-x="1075" d="M758 440q0 79 -16.5 150.5t-46.5 126t-72.5 86.5t-93.5 32q-62 0 -103 -27.5t-65 -76t-33.5 -115t-9.5 -143.5q0 -79 18.5 -148t50 -120t73 -80.5t87.5 -29.5q60 0 100 23t65 67t35.5 108t10.5 147zM1010 485q0 -67 -18 -131t-50.5 -121t-77.5 -105.5t-99.5 -83.5 t-117 -54.5t-128.5 -19.5q-103 0 -187 36t-143 99t-91.5 150t-32.5 189q0 99 36.5 192t102 165t156 115.5t198.5 43.5q102 0 185.5 -36t143 -99.5t91.5 -150.5t32 -189z" />
<glyph unicode="p" horiz-adv-x="1145" d="M855 426q0 96 -20 165t-53 113t-74.5 65t-84.5 21q-18 0 -35.5 -4t-40 -16t-53 -34t-74.5 -58v-450q53 -31 91.5 -49t68 -27t53.5 -11.5t48 -2.5q39 0 71 19t55 55.5t35.5 90.5t12.5 123zM1080 500q0 -66 -17.5 -130.5t-47 -123.5t-68.5 -109.5t-82 -87.5t-88 -58 t-86 -21q-29 0 -58.5 6t-62 19.5t-69.5 35t-81 52.5v-428q0 -16 37.5 -32t131.5 -30v-73h-541v73q66 16 99 30.5t33 31.5v1034q0 37 -3 61t-15.5 38.5t-39 21t-74.5 8.5v70q57 7 99 14t77.5 15.5t68 18.5t70.5 24l42 -42l9 -123q55 49 103 80.5t88.5 50.5t74.5 26.5t63 7.5 q68 0 129.5 -27.5t107.5 -84.5t73 -143.5t27 -204.5z" />
<glyph unicode="q" horiz-adv-x="1123" d="M525 160q55 0 104.5 28t108.5 82v430q-17 29 -41.5 52.5t-52.5 40.5t-58 26t-58 9q-48 0 -88.5 -18.5t-70.5 -57.5t-47 -100.5t-17 -146.5t19 -149.5t50 -108t70.5 -65.5t80.5 -22zM568 -480v73q94 14 132 29.5t38 32.5v483q-45 -45 -84 -77t-77.5 -52t-79 -29.5 t-88.5 -9.5q-59 0 -120 32.5t-110.5 93.5t-81.5 149t-32 199q0 88 22 157t56 122t74 90t75 60q28 18 60.5 34t66.5 28t68 18.5t64 6.5q29 0 56.5 -4t56.5 -15.5t60.5 -33t68.5 -57.5q24 12 51 28l52 30q25 15 45 29t29 23l39 -37q-9 -32 -16 -69q-6 -32 -10.5 -73t-4.5 -86 v-1040q0 -8 6 -16t21 -16t40.5 -15.5t63.5 -14.5v-73h-541z" />
<glyph unicode="r" horiz-adv-x="909" d="M875 916q6 -4 6 -25.5t-4.5 -52.5t-12.5 -69t-17 -74t-19 -67t-18 -49h-73q-3 40 -12 76t-22.5 62.5t-33 42t-43.5 15.5q-20 0 -43.5 -7.5t-49.5 -29t-54.5 -61.5t-58.5 -106v-437q0 -15 41.5 -31t135.5 -30v-73h-549v73q132 30 132 61v530q0 33 -2 55.5t-5 36.5t-7.5 22 t-8.5 13q-7 7 -14.5 11.5t-19 7.5t-29.5 4.5t-46 3.5v70q55 8 95.5 15t75.5 15t68.5 18t75.5 24l42 -42l13 -145q27 39 61 73t72.5 59.5t80.5 40t85 14.5q38 0 79.5 -11.5t78.5 -32.5z" />
<glyph unicode="s" horiz-adv-x="858" d="M782 283q0 -71 -21.5 -121.5t-56 -85.5t-77.5 -56t-87.5 -32t-85 -14.5t-69.5 -3.5q-32 0 -69.5 4.5t-76.5 13.5t-77.5 23t-71.5 32q-7 3 -10.5 35.5t-2.5 77.5t5.5 94t14.5 86l81 -11q10 -53 33 -96t55 -73t71.5 -46.5t82.5 -16.5q72 0 107 26t35 86q0 40 -20.5 72 t-54.5 59t-77 50l-89 48q-42 21 -83.5 46.5t-74.5 57t-54 69.5t-21 86q0 62 30.5 111.5t80.5 84t114 53t132 18.5q43 0 86.5 -5.5t83.5 -15.5t74 -24t57 -32q6 -5 2.5 -33.5t-13 -64t-22.5 -69.5t-25 -50l-69 8q-25 88 -72 134.5t-113 46.5q-60 0 -93 -27.5t-33 -69.5 q0 -32 16 -57t45.5 -47t72.5 -44l95 -51q43 -22 87 -47t79 -57.5t57 -74t22 -97.5z" />
<glyph unicode="t" horiz-adv-x="758" d="M736 155q-133 -96 -225 -140.5t-145 -44.5q-43 0 -81.5 16.5t-67 50.5t-45.5 85.5t-17 121.5v561h-121l-29 36l78 89h72v209l202 149l38 -33v-325h305l36 -36q-9 -17 -22 -36l-28 -36q-14 -17 -27.5 -31t-23.5 -21q-12 6 -30.5 12t-41.5 11.5t-48.5 8.5t-52.5 3h-67v-468 q0 -51 6 -86.5t17.5 -57t27 -31t34.5 -9.5q18 0 37.5 3.5t44.5 11.5t56.5 22.5t73.5 37.5z" />
<glyph unicode="u" horiz-adv-x="1153" d="M1144 112q-37 -24 -81.5 -49t-86 -46t-74 -34t-44.5 -13q-18 0 -34.5 6.5t-31 25t-25.5 51t-17 83.5q-62 -54 -111.5 -86.5t-90 -50.5t-74.5 -23.5t-66 -5.5q-47 0 -92 13t-81 47.5t-58 94.5t-22 154v410q0 48 -1.5 74.5t-13 40t-36 18.5t-70.5 10v70q50 4 91.5 9 t79.5 11.5t75.5 15.5t79.5 22l35 -46v-572q0 -62 7.5 -101t22.5 -60.5t36.5 -29.5t49.5 -8q21 0 45.5 5t54 18.5t64 36.5t75.5 59v427q0 45 -3.5 72t-16.5 42t-39.5 21t-72.5 8v70q100 9 181.5 24.5t153.5 33.5l37 -46v-630q0 -31 1 -51.5t3.5 -34t7 -21.5t11.5 -13 q12 -8 33.5 -3.5t72.5 26.5z" />
<glyph unicode="v" horiz-adv-x="1040" d="M1027 857q-30 -7 -47.5 -13t-28 -13.5t-16 -17.5t-11.5 -24l-283 -707q-9 -22 -27.5 -40t-42.5 -32.5t-51 -24t-51 -15.5l-353 819q-11 27 -32.5 42t-70.5 26v73h453v-73q-39 -5 -61.5 -10.5t-33 -13t-10.5 -18t7 -26.5l215 -503l202 503q6 15 6.5 25.5t-7.5 18t-27 13 t-53 11.5v73h323v-73z" />
<glyph unicode="w" horiz-adv-x="1469" d="M1455 857q-28 -7 -45.5 -13.5t-28.5 -13t-16.5 -15t-9.5 -20.5l-221 -736q-6 -22 -24.5 -37.5t-41 -26t-44 -16.5t-34.5 -9l-255 584l-203 -495q-8 -23 -26 -38.5t-39 -26t-42 -16t-34 -8.5l-269 825q-6 18 -32.5 34.5t-76.5 27.5v73h453v-73q-43 -5 -67 -11.5t-34.5 -15 t-11 -17.5t2.5 -18l150 -472l239 607h77l251 -607l144 472q4 11 3.5 20t-9 16.5t-28 13.5t-53.5 12v73h325v-73z" />
<glyph unicode="x" horiz-adv-x="1068" d="M562 0v73q25 2 45.5 5.5t31.5 12t9.5 24t-20.5 42.5l-147 203l-157 -203q-20 -26 -20 -41.5t13.5 -24t35.5 -12.5t46 -6v-73h-386v73q37 6 63 15t45 21t32 25.5t25 28.5l231 298l-223 310q-13 18 -26 32.5t-30.5 25.5t-43 18t-62.5 10v73h495v-73q-31 -3 -50 -7.5 t-26 -13.5t-2 -24t22 -39l112 -157l121 157q18 24 24 39t-1 24t-25.5 13.5t-49.5 7.5v73h381v-73q-41 -3 -69 -10t-48 -18t-35 -25.5t-29 -32.5l-197 -255l254 -353q11 -15 24 -29t30.5 -26t41.5 -21.5t57 -13.5v-73h-492z" />
<glyph unicode="y" horiz-adv-x="1040" d="M1027 857q-30 -7 -49 -13t-31 -13.5t-18.5 -17t-11.5 -24.5l-334 -864q-43 -110 -93 -189t-106 -130t-117 -75t-125 -24q-38 0 -75 7t-65.5 17.5t-46 22.5t-17.5 21t17 34.5t40.5 54.5t48.5 55t41 36q50 -32 100.5 -39.5t87.5 6.5q37 13 79.5 56.5t77.5 129.5l29 69 l-335 812q-11 27 -36 42t-75 26v73h453v-73q-39 -5 -60 -10.5t-30 -13t-8 -18t8 -26.5l206 -502l196 502q6 15 7.5 25.5t-6 18t-26.5 13t-53 11.5v73h327v-73z" />
<glyph unicode="z" horiz-adv-x="959" d="M882 331q0 -21 -0.5 -50.5t-1 -62.5t-1.5 -66.5t-2.5 -63.5t-3 -53t-3.5 -35h-783l-26 45l529 765h-260q-44 0 -82.5 -50t-64.5 -160l-71 20l25 326q22 -6 40 -9.5t37.5 -5t42.5 -1.5h616l22 -43l-531 -767h343q18 0 31.5 15.5t25 45t22.5 71.5l26 96z" />
<glyph unicode="{" horiz-adv-x="717" d="M693 1523q-78 -49 -127.5 -114.5t-49.5 -141.5q0 -53 6.5 -93.5t14 -78.5t14 -79t6.5 -93q0 -42 -14.5 -82.5t-41 -76t-62 -64.5t-77.5 -47q100 -18 147.5 -87.5t47.5 -180.5q0 -54 -6.5 -100t-14 -88.5t-14 -83.5t-6.5 -85q0 -41 6.5 -74.5t24.5 -63.5t50.5 -57.5 t85.5 -56.5l-38 -91q-92 34 -164 69t-121 78.5t-74.5 98t-25.5 126.5q0 53 6.5 95.5t14 83.5t14 85t6.5 101q0 81 -35 115t-98 34h-21q-6 0 -11 -0.5t-11.5 -2t-21.5 -3.5l-17 83q112 31 163.5 85.5t51.5 129.5q0 55 -6.5 95t-14 77.5t-14 78t-6.5 96.5q0 67 30 124 t82.5 105t124.5 87.5t155 73.5z" />
<glyph unicode="|" horiz-adv-x="470" d="M335 -346q-9 -8 -25.5 -16.5t-35 -16.5t-36.5 -15t-30 -11l-43 30v1989q28 17 63 32.5t64 23.5l43 -29v-1987z" />
<glyph unicode="}" horiz-adv-x="717" d="M632 636q-112 -31 -163.5 -85t-51.5 -130q0 -55 6 -95t13.5 -77t14 -77.5t6.5 -96.5q0 -68 -30 -124.5t-82.5 -104.5t-124 -88t-154.5 -74l-41 78q78 49 127 114.5t49 141.5q0 52 -6.5 92.5t-14 79t-13.5 79t-6 93.5q0 42 14.5 82t40.5 75.5t62 64.5t78 47 q-101 19 -148 88t-47 181q0 54 6 100t13.5 88t14 83t6.5 85q0 42 -6.5 75.5t-24.5 63t-50.5 57t-84.5 56.5l38 91q92 -33 163.5 -68.5t120.5 -78.5t74.5 -97.5t25.5 -126.5q0 -53 -6.5 -95.5t-14 -84t-13.5 -85.5t-6 -100q0 -81 35 -115t98 -34h20q7 0 12 0.5t11.5 1.5 t21.5 4z" />
<glyph unicode="~" horiz-adv-x="999" d="M950 774q-21 -49 -53 -101.5t-71.5 -96t-85 -71.5t-93.5 -28q-42 0 -89 25t-95.5 55t-96 55t-90.5 25q-49 0 -90.5 -39t-83.5 -123l-53 27q21 49 53.5 101.5t72 96t84.5 71.5t93 28q46 0 94.5 -25t96 -55t93 -55t85.5 -25q48 0 91 39t85 121z" />
<glyph unicode="&#xa1;" horiz-adv-x="633" d="M454 -449l-54 -29l-68 -32q-34 -17 -65.5 -30.5t-50.5 -20.5l-51 31l79 1038q19 14 49 22.5t55 16.5l29 -20zM474 826q0 -39 -15 -71t-40 -54.5t-58.5 -34.5t-69.5 -12q-28 0 -54 8t-46 24.5t-32 42t-12 61.5q0 40 14.5 71.5t39 53.5t58 33.5t71.5 11.5q29 0 55.5 -7.5 t46 -24t31 -42t11.5 -60.5z" />
<glyph unicode="&#xa2;" d="M309 616q0 -67 14 -120.5t39 -93.5t59.5 -67t76.5 -42v648q-38 -10 -72 -33.5t-60 -62.5t-41.5 -96t-15.5 -133zM618 7q-18 -16 -41 -28t-47 -20l-32 32v139q-70 6 -142.5 38t-132 90t-97 140t-37.5 188q0 89 29 167t82.5 140t129 106t168.5 64v136l24 15l18 12 q8 6 18.5 10.5t25.5 8.5l34 -29v-138q8 0 16.5 0.5t17.5 0.5q33 0 76 -5.5t84.5 -16t76 -25t51.5 -33.5q2 -11 -6.5 -41t-21.5 -64t-27.5 -64.5t-23.5 -43.5l-65 17q-8 15 -23 35.5t-36.5 41t-51 38t-67.5 25.5v-666q29 1 57 8t59 24t67.5 46t83.5 74l62 -71 q-51 -57 -94.5 -97t-83 -65.5t-76.5 -40t-75 -20.5v-128z" />
<glyph unicode="&#xa3;" d="M720 521h-264q3 -118 -25 -211t-83 -171q45 4 78 5t58.5 0.5t47 -1.5t44 -2.5t49.5 -2t64 0.5q46 1 79 9.5t58.5 29.5t46.5 58t42 96l73 -25q-4 -43 -10.5 -91t-13.5 -91t-13.5 -76.5t-10.5 -48.5q-45 -25 -112 -28t-145.5 4t-163 18.5t-164 16.5t-149.5 -2.5t-119 -38.5 l-38 72q30 25 53.5 47t40.5 48t28 58.5t16 77.5t4.5 105.5t-5.5 142.5h-115l-29 33q2 7 7 19l11 25l10 24q6 12 9 20h100q-2 132 29.5 241t92.5 187t150 121.5t201 43.5q26 0 58.5 -2t70.5 -9.5t80.5 -21t89.5 -37.5l-3 -43q-1 -27 -4 -58t-7 -64t-8 -62.5t-8.5 -53 t-8.5 -36.5h-77q-14 124 -68 195t-144 71q-20 0 -44 -4t-46.5 -19.5t-43 -46t-33 -83t-16.5 -130.5t6 -189h282l32 -30z" />
<glyph unicode="&#xa4;" d="M366 757q-32 -32 -48.5 -73t-16.5 -83t15.5 -81t47.5 -71q34 -34 74 -49.5t82 -15.5t81.5 15.5t71.5 48.5q32 32 48 72t16 82t-16.5 82.5t-48.5 72.5t-71 47.5t-81 15.5t-82 -15.5t-72 -47.5zM851 183l-137 137q-43 -30 -92.5 -45t-101.5 -15q-53 0 -103 15t-95 47 l-140 -140l-42 3q-10 17 -21 38.5t-19 42.5l139 139q-31 44 -46 93.5t-15 100.5q0 52 15 102.5t46 95.5l-138 140l2 44q18 10 39 20.5t42 19.5l139 -140q91 65 197 65q51 0 100 -16t93 -48l138 138l44 1l39 -86l-137 -137q32 -45 48 -96t16 -103q0 -51 -15.5 -100.5 t-47.5 -94.5l138 -137l1 -45z" />
<glyph unicode="&#xa5;" d="M229 0v73q45 9 75 19t48 19.5t25.5 18t7.5 15.5v243h-288l-22 24q2 7 7 20l9 28l10 27l8 21h276v21q-35 77 -74 153.5t-79 146t-79 130t-74 106.5q-9 11 -18.5 20t-26.5 15t-43 9.5t-68 3.5l-4 73l67 9q39 5 77 9t72 7t55 3q28 0 56 -12t45 -34q37 -50 71.5 -102 t68.5 -110t67 -122l69 -135l193 366q15 26 -9.5 41t-101.5 25v73h418v-73q-68 -13 -101 -27t-47 -39l-284 -539v-18h267l25 -23l-37 -97h-255v-243q0 -6 7.5 -14.5t25.5 -18.5t48.5 -20t77.5 -19v-73h-565z" />
<glyph unicode="&#xa6;" horiz-adv-x="469" d="M341 775q-10 -8 -28 -16.5t-38 -17t-40 -15.5l-31 -10l-45 30v868q29 17 68 32.5t70 23.5l44 -29v-866zM341 -347q-10 -8 -28 -16.5t-38 -16.5l-39 -15l-32 -11l-45 30v858q15 9 32.5 17.5t36 16l36.5 14.5l33 11l44 -32v-856z" />
<glyph unicode="&#xa7;" horiz-adv-x="1025" d="M585 559l45 -23q24 -12 47 -25q14 20 22 43.5t8 49.5q0 50 -16.5 88t-50.5 71t-86 65t-124 71q-16 8 -32 17l-33 19q-21 -23 -34 -51.5t-13 -55.5q0 -44 16 -77t49 -63t83 -60zM920 669q0 -85 -32 -150.5t-79 -109.5q23 -27 37 -59.5t14 -71.5q0 -71 -21.5 -121 t-56 -84.5t-77.5 -54.5t-87 -31t-84.5 -14t-69.5 -3q-32 0 -69.5 5t-76.5 14.5t-77.5 23.5t-71.5 33q-5 2 -8 17.5t-4.5 40t-1 55t2.5 62.5t6.5 62.5t11.5 54.5l80 -11q11 -53 34 -96.5t55 -74.5t71 -48t83 -17q72 0 106.5 24.5t34.5 84.5q0 40 -24 71.5t-62 58t-84 50.5 l-93 47q-48 25 -96.5 57.5t-87.5 75t-63.5 96.5t-24.5 123q0 34 11 68t30 65.5t45 59t56 48.5q-35 34 -57.5 72.5t-22.5 85.5q0 62 30.5 111t80.5 82.5t114 51t132 17.5q43 0 86.5 -5.5t83.5 -16t73.5 -25t56.5 -32.5q6 -5 2.5 -33.5t-12.5 -64t-22 -70t-25 -50.5l-69 8 q-25 89 -72 136.5t-113 47.5q-61 0 -93.5 -25t-32.5 -70q0 -33 18 -58.5t51 -48.5t80 -47l102 -54q49 -26 99.5 -57.5t91 -74.5t66 -99t25.5 -132z" />
<glyph unicode="&#xa8;" horiz-adv-x="801" d="M749 1268q0 -37 -12.5 -69t-34 -56t-50 -38t-60.5 -14q-58 0 -88 31t-30 91q0 37 13 69t34.5 56t49.5 37.5t59 13.5q56 0 87.5 -30t31.5 -91zM326 1268q0 -37 -12.5 -69t-33.5 -56t-49.5 -38t-60.5 -14q-58 0 -88.5 31t-30.5 91q0 37 13 69t34.5 56t50 37.5t59.5 13.5 q56 0 87 -30t31 -91z" />
<glyph unicode="&#xa9;" horiz-adv-x="1496" d="M1068 412q-53 -57 -98.5 -92t-87 -54t-80 -25.5t-77.5 -6.5q-70 0 -135.5 28t-116.5 80.5t-81.5 127.5t-30.5 169t35 176t97 143.5t146.5 97t184.5 35.5q33 0 67.5 -6t65.5 -16.5t57 -23.5t41 -28q2 -9 -5.5 -39t-19.5 -65t-25 -66t-22 -42l-54 8q-10 34 -23.5 65.5 t-32.5 56t-45 39t-62 14.5q-41 0 -78.5 -18t-66 -56.5t-45 -99t-16.5 -144.5q0 -69 21.5 -124.5t56 -94t78 -59t87.5 -20.5q23 0 44.5 3t46 13t56 28.5t73.5 48.5q1 0 8 -9l15 -18q8 -9 14.5 -17.5t7.5 -8.5zM1292 666q0 118 -40.5 222.5t-113 182.5t-172.5 123t-219 45 q-118 0 -217.5 -45t-172 -123t-113 -182.5t-40.5 -222.5q0 -119 40.5 -224t113 -183t172 -123t217.5 -45q119 0 219 45t172.5 123t113 183t40.5 224zM1411 666q0 -96 -22.5 -185t-64.5 -166t-101 -141t-133 -109t-160.5 -70t-182.5 -25t-182 25t-159.5 70t-133 109t-101 141 t-64 166t-22.5 185q0 144 49.5 270t138 220t209.5 148.5t265 54.5q96 0 182.5 -24.5t160.5 -70t133 -108.5t101 -140t64.5 -165.5t22.5 -184.5z" />
<glyph unicode="&#xaa;" horiz-adv-x="564" d="M550 800q-46 -31 -90 -52.5t-76 -21.5q-14 0 -26 17t-18 67q-50 -49 -96 -66.5t-81 -17.5q-20 0 -41.5 6t-39 19.5t-29 35t-11.5 53.5q0 31 10.5 60.5t33.5 55t59.5 45.5t87.5 31l104 22v12q0 31 -1.5 54.5t-8.5 39.5t-20.5 24t-37.5 8q-15 0 -28.5 -4t-22.5 -13 t-13 -22.5t1 -31.5q1 -5 -18.5 -12t-44.5 -14t-48.5 -11.5t-30.5 -2.5l-11 26q13 34 41.5 63t66 49t80 31.5t83.5 11.5q36 0 63 -8t45 -28.5t27 -55t9 -87.5v-196q0 -28 4 -40.5t10 -19.5q5 -3 16.5 -0.5t39.5 13.5zM44 586v88h479v-88h-479zM337 871v131l-50 -11 q-51 -13 -79.5 -41t-28.5 -71q0 -18 5 -30t12 -18.5t15.5 -9.5t15.5 -3q21 0 46.5 10.5t63.5 42.5z" />
<glyph unicode="&#xab;" horiz-adv-x="1054" d="M464 2l-399 428v35q0 14 0.5 25t1.5 13l397 425l57 -45l-9 -18l-22 -47l-32 -68l-38 -76l-37 -76l-32 -67l-23 -47q-8 -17 -7 -17l201 -420zM473 430v35q0 14 0.5 25t1.5 13l396 425l57 -45l-9 -18l-22 -47l-33 -68l-37 -76l-37 -76l-32 -67l-22 -47q-9 -17 -8 -17 l201 -420l-58 -45z" />
<glyph unicode="&#xac;" d="M951 233q-10 -8 -25 -17l-31 -20q-16 -9 -32 -17t-28 -12l-32 33v291h-695l-33 32q3 10 8.5 25t12.5 30l14 30q6 15 11 25h794l36 -29v-371z" />
<glyph unicode="&#xad;" horiz-adv-x="728" d="M675 554q-3 -11 -9 -27t-13 -33l-13 -31l-11 -23h-544l-32 32q3 11 8.5 26.5t12.5 31.5l14 30q6 15 11 25h543z" />
<glyph unicode="&#xae;" horiz-adv-x="730" d="M711 1084q0 -74 -26 -140t-72.5 -115t-110 -77.5t-138.5 -28.5q-74 0 -137 28.5t-109 77.5t-72 115t-26 140q0 75 26 140.5t72 114.5t109 77.5t137 28.5q75 0 138.5 -28.5t110 -77.5t72.5 -114.5t26 -140.5zM637 1084q0 59 -20.5 111.5t-56.5 91.5t-86 61.5t-110 22.5 q-59 0 -108.5 -22.5t-85.5 -61.5t-56.5 -91.5t-20.5 -111.5q0 -60 20.5 -112t56.5 -91t85.5 -61.5t108.5 -22.5q60 0 110 22.5t86 61.5t56.5 91t20.5 112zM207 884v23q40 9 40 18v324q-10 -2 -19 -3l-19 -2l-4 34q29 7 67 11t80 4q43 0 74 -7.5t50.5 -20.5t28.5 -31t9 -38 q0 -93 -98 -121l94 -136q7 -11 16 -14.5t31 -1.5l3 -23q-10 -3 -23.5 -6.5t-26.5 -6.5t-24 -5t-17 -2q-9 0 -16.5 4.5t-11.5 10.5l-89 172h-8q-6 0 -12 0.5t-13 1.5v-144q0 -4 7 -8.5t30 -9.5v-23h-149zM341 1256h-11q-6 0 -11 -1v-145q5 -1 10 -1h11q51 0 71.5 20t20.5 58 q0 29 -22.5 49t-68.5 20z" />
<glyph unicode="&#xaf;" horiz-adv-x="1010" d="M931 1307q-3 -11 -10.5 -29.5t-16.5 -38.5l-17 -37l-12 -27h-764l-32 32q3 11 10 29t16 38l17 36q8 18 13 28h764z" />
<glyph unicode="&#xb0;" horiz-adv-x="733" d="M467 995q0 25 -6.5 47.5t-18 40t-28 27.5t-37.5 10t-41 -8.5t-35.5 -24.5t-24.5 -38.5t-9 -50.5q0 -24 6 -46.5t18 -40t28.5 -28t37.5 -10.5t40.5 8t35 23.5t25 38.5t9.5 52zM619 1050q0 -68 -26.5 -126.5t-69 -101t-95 -66.5t-103.5 -24q-46 0 -84.5 17t-66.5 45.5 t-43.5 67t-15.5 81.5q0 69 26 127.5t68 101t94.5 66.5t105.5 24q43 0 81.5 -17t67 -46t45 -67.5t16.5 -81.5z" />
<glyph unicode="&#xb1;" horiz-adv-x="840" d="M506 355q-10 -5 -24.5 -11t-30.5 -11.5t-31.5 -10t-26.5 -6.5l-32 30v275h-276l-32 31q3 11 8.5 26t12.5 31l14 31q6 14 11 24h262v268l24 8l31 10l32 11q15 5 26 8l32 -31v-274h271l33 -31q-3 -11 -9 -27l-13 -32l-14 -30q-6 -15 -10 -23h-258v-266zM810 224 q-3 -11 -9 -27t-13 -33l-14 -30q-6 -15 -10 -23h-679l-32 32q3 10 8.5 25.5t12.5 31.5l14 30q6 15 11 25h678z" />
<glyph unicode="&#xb2;" horiz-adv-x="711" d="M641 620h-565l-20 44l199 207q76 83 118.5 139.5t57 94t14.5 69.5q0 51 -20.5 79.5t-71.5 28.5q-50 0 -70 -33t-11 -78q-12 -6 -34.5 -12t-47.5 -11l-51 -10q-25 -4 -41 -5l-24 41q0 31 26 64t71 60.5t104.5 45t125.5 17.5q55 0 99 -9.5t75.5 -29t48.5 -48t17 -65.5 q0 -27 -7 -53t-23 -55t-43.5 -63.5t-69.5 -77.5l-98 -99l-131 -126h252q23 0 37 18t22 40q9 26 12 59l59 -12z" />
<glyph unicode="&#xb3;" horiz-adv-x="711" d="M643 849q0 -51 -23.5 -95.5t-65.5 -78.5t-101 -53.5t-130 -19.5q-28 0 -62.5 6t-70.5 18.5t-72 31.5t-67 45l28 74q64 -41 116.5 -59.5t105.5 -18.5q63 0 102.5 36t39.5 102q0 40 -12.5 66.5t-32 41.5t-43.5 21t-47 6h-16q-6 0 -12 -0.5t-12.5 -1.5t-17.5 -2l-12 64 q59 13 92.5 32t49.5 39.5t19.5 41.5t3.5 39q0 41 -18 69.5t-61 28.5q-18 0 -33.5 -7t-25.5 -19.5t-13.5 -30t3.5 -37.5q-15 -8 -34.5 -14.5t-41 -12.5t-43.5 -10t-41 -5l-24 37q0 25 21.5 56t60.5 58t92.5 45.5t118.5 18.5q64 0 109.5 -14.5t74 -38t41.5 -53.5t13 -60 q0 -23 -9.5 -46.5t-27.5 -45t-44.5 -38.5t-59.5 -26q43 -4 77 -20.5t57 -42t35.5 -58.5t12.5 -69z" />
<glyph unicode="&#xb4;" horiz-adv-x="653" d="M289 1040q-9 1 -21.5 6.5t-25.5 12t-23.5 13t-16.5 11.5l212 429q12 -1 44 -6l70 -11q37 -6 69.5 -12t43.5 -9l31 -54z" />
<glyph unicode="&#xb5;" horiz-adv-x="1165" d="M1160 97q-29 -21 -67.5 -44t-77.5 -41.5t-75.5 -30.5t-61.5 -12q-26 0 -46.5 15t-35 40.5t-23.5 60.5t-13 74q-75 -101 -137.5 -145.5t-124.5 -44.5q-44 0 -98 37t-104 100v-20q0 -92 15 -167t39 -135.5t54 -106t60 -76.5q-15 -5 -51 -19l-77 -30l-75 -32 q-35 -14 -47 -20l-46 36v1158q0 39 -1.5 62t-12.5 36.5t-36 20t-72 11.5v70q90 8 165.5 23.5t150.5 42.5l6 -6l14 -14l14 -16q8 -9 12 -14v-529q0 -44 15 -83t38 -67.5t50 -45t50 -16.5q19 0 39 4.5t43 19t51.5 41.5t63.5 72v442q0 16 -3.5 38.5t-9 44.5t-12 41t-13.5 28 l60 12q34 6 68 14l68 16q34 9 62 18l36 -46q-2 -13 -4.5 -27t-4.5 -32t-4 -41.5t-3 -54.5v-461q0 -47 2 -76.5t7 -47t12 -24t18 -6.5q22 0 43.5 6t54.5 22z" />
<glyph unicode="&#xb6;" horiz-adv-x="1241" d="M867 1143q-38 9 -80 15v-1273q0 -11 14.5 -19.5t24.5 -11.5q12 3 26.5 11.5t14.5 19.5v1258zM622 633l1 541q-20 1 -37 1.5t-29 0.5q-48 0 -94.5 -16t-83 -47t-59 -75t-22.5 -100q0 -54 16 -108.5t50 -98t87 -71t127 -27.5h44zM482 -250v73q69 14 104 31t35 31l1 640 q-18 -3 -39 -4.5t-48 -1.5q-107 0 -198.5 25t-158.5 73.5t-105 120t-38 165.5q0 85 35.5 156t101 122.5t158.5 80t209 28.5q22 0 57 -2l80 -3q44 -2 92.5 -4.5t96.5 -5.5l239 -15h64v-73q-68 -14 -103 -31t-35 -31v-1240q0 -13 32.5 -30.5t105.5 -31.5v-73h-686z" />
<glyph unicode="&#xb7;" horiz-adv-x="419" d="M369 708q0 -39 -14 -69.5t-38 -51.5t-56.5 -32t-68.5 -11q-29 0 -54.5 7.5t-44.5 23t-30.5 40t-11.5 59.5q0 38 14.5 68.5t39 52t56.5 33t68 11.5q27 0 52 -7.5t44.5 -23.5t31.5 -41t12 -59z" />
<glyph unicode="&#xb8;" horiz-adv-x="469" d="M454 -229q0 -37 -27 -72t-75 -64t-114.5 -50t-144.5 -29l-37 71q87 13 124.5 42.5t37.5 61.5q0 34 -23 48.5t-68 18.5l3 4q4 4 12.5 25t24 64.5t40.5 122.5l123 -2l-39 -101q78 -14 120.5 -48.5t42.5 -91.5z" />
<glyph unicode="&#xb9;" horiz-adv-x="711" d="M109 620v60q55 6 89.5 12.5t54.5 13.5t27.5 14.5t7.5 13.5v422q0 24 -2 37.5t-11 21.5q-4 4 -13.5 6t-28.5 1.5t-49.5 -4t-76.5 -12.5l-20 59q30 6 80 19l103 28q54 15 101.5 30t72.5 25l32 -25v-608q0 -6 6 -13t23.5 -14.5t50 -14t85.5 -12.5v-60h-532z" />
<glyph unicode="&#xba;" horiz-adv-x="575" d="M404 979q0 42 -8 81t-24 69.5t-39 48.5t-53 18t-50.5 -14t-33.5 -39t-19 -60.5t-6 -77.5t10 -81t27 -68t39.5 -46.5t47.5 -17.5q60 0 84.5 51t24.5 136zM45 586v88h485v-88h-485zM540 1003q0 -51 -21.5 -101t-58 -89t-84.5 -63t-100 -24q-56 0 -100.5 19.5t-75.5 54 t-48 81t-17 101.5q0 52 19.5 102.5t54 90t83 64t107.5 24.5q54 0 98.5 -20t76 -55.5t49 -83t17.5 -101.5z" />
<glyph unicode="&#xbb;" horiz-adv-x="1054" d="M580 428l-397 -426l-57 45l200 417l-201 419l58 45l398 -427zM988 428l-397 -426l-58 45l201 417l-201 419l58 45l398 -427z" />
<glyph unicode="&#xbc;" horiz-adv-x="1275" d="M309 3q-12 -6 -28.5 -10.5t-35 -8.5t-36.5 -7.5t-31 -6.5l-25 30l890 1203q10 4 26.5 8.5t34.5 8.5l36 9q18 4 29 6l25 -28zM1218 215q-12 -16 -28 -31.5t-29 -23.5h-30v-94q0 -7 15 -13.5t62 -15.5v-37h-329v37q37 5 60 9.5t36 8.5t17.5 8t4.5 8v89h-269l-24 19l274 381 l30 9l35 10l35 10l28 9l25 -21v-347h72zM88 637v42q45 4 74 9.5t46 11t24 11.5t7 11v350q0 19 -1 29.5t-9 17.5q-3 3 -11.5 5t-25 1.5t-42.5 -3.5t-63 -10l-16 41q24 4 63.5 14.5l81.5 22.5l80 25q38 12 59 20l25 -21v-492q0 -5 6 -10.5t21.5 -11.5t42.5 -11.5t70 -9.5v-42 h-432zM997 469l-180 -239h180v239z" />
<glyph unicode="&#xbd;" horiz-adv-x="1275" d="M88 637v42q45 4 74 9.5t46 11t24 11.5t7 11v350q0 19 -1 29.5t-9 17.5q-3 3 -11.5 5t-25 1.5t-42.5 -3.5t-63 -10l-16 41q24 4 63.5 14.5l81.5 22.5l80 25q38 12 59 20l25 -21v-492q0 -5 6 -10.5t21.5 -11.5t42.5 -11.5t70 -9.5v-42h-432zM309 3q-12 -6 -28.5 -10.5 t-35 -8.5t-36.5 -7.5t-31 -6.5l-25 30l890 1203q10 4 26.5 8.5t34.5 8.5l36 9q18 4 29 6l25 -28zM1198 0h-457l-17 36l164 165q63 66 99.5 111.5t50.5 75.5t14 56q0 41 -19.5 66t-66.5 25q-23 0 -39.5 -8t-26 -21t-13 -30t0.5 -35q-10 -5 -26.5 -9.5t-35 -9t-36.5 -7.5 t-31 -4l-19 32q0 25 21 51.5t57 48.5t84 36t102 14q90 0 142 -30.5t52 -91.5q0 -32 -16 -64.5t-53 -75.5t-98 -101l-152 -144h222q20 0 31.5 14.5t17.5 32.5q7 20 10 47l47 -10z" />
<glyph unicode="&#xbe;" horiz-adv-x="1275" d="M309 3q-12 -6 -28.5 -10.5t-35 -8.5t-36.5 -7.5t-31 -6.5l-25 30l890 1203q10 4 26.5 8.5t34.5 8.5l36 9q18 4 29 6l25 -28zM1218 215q-12 -16 -28 -31.5t-29 -23.5h-30v-94q0 -7 15 -13.5t62 -15.5v-37h-329v37q37 5 60 9.5t36 8.5t17.5 8t4.5 8v89h-269l-24 19l274 381 l30 9l35 10l35 10l28 9l25 -21v-347h72zM534 821q0 -41 -19 -76.5t-53 -62.5t-82 -42.5t-105 -15.5q-23 0 -51 5t-57.5 15t-58.5 25t-55 36l24 46q52 -32 95 -45t85 -13q26 0 49 6.5t40.5 20.5t27.5 36t10 53q0 33 -12 55.5t-30.5 36t-40 19.5t-39.5 6h-13q-5 0 -9.5 -0.5 t-10 -1.5t-14.5 -2l-9 45q48 11 77 26t44 31.5t20 33t5 31.5q0 33 -17 58.5t-60 25.5q-14 0 -26.5 -5.5t-21 -15.5t-11 -24t2.5 -30q-23 -11 -60.5 -21t-69.5 -12l-19 30q0 20 17.5 43.5t49 44t75 34.5t96.5 14q52 0 88.5 -11.5t60 -30.5t34 -43t10.5 -48q0 -18 -8.5 -37 t-24.5 -36t-38 -31t-49 -21q35 -3 63 -16t48 -33.5t31 -47t11 -55.5zM997 469l-180 -239h180v239z" />
<glyph unicode="&#xbf;" horiz-adv-x="932" d="M432 508q18 14 44 23.5t54 17.5l32 -28l8 -109q3 -57 -13.5 -111.5t-43 -106.5t-59 -102.5t-60 -99.5t-46.5 -97t-19 -95q0 -124 40 -183t109 -59q25 0 48 13t41 36t28.5 55.5t10.5 71.5q0 14 -4 32.5t-9 32.5q16 9 47 18.5t66 18.5t69 15.5t56 8.5l34 -38q2 -8 2 -24 v-24q0 -71 -37.5 -132t-100.5 -106t-146.5 -70.5t-174.5 -25.5q-83 0 -147 23t-107.5 64.5t-66 99.5t-22.5 128q0 75 25.5 136.5t64.5 115t84.5 101.5t85.5 96t68.5 98.5t32.5 109.5zM652 826q0 -39 -15 -71t-40.5 -54.5t-58.5 -34.5t-70 -12q-28 0 -54 8t-46 24.5t-32 42 t-12 61.5q0 40 14.5 71.5t39.5 53.5t58 33.5t71 11.5q29 0 55.5 -7.5t46.5 -24t31.5 -42t11.5 -60.5z" />
<glyph unicode="&#xc0;" horiz-adv-x="1287" d="M747 550l-165 465l-150 -465h315zM392 430l-96 -289q-10 -31 24.5 -45t116.5 -23v-73h-437v73q68 12 104.5 25t46.5 43l349 1066q24 20 51.5 37t57 30.5t58.5 24t55 18.5l420 -1176q5 -14 13 -25t22 -19t35.5 -14t53.5 -10v-73h-497v73q78 5 105.5 20t16.5 48l-102 289 h-397zM825 1420q-14 -19 -28.5 -35.5t-31.5 -24.5l-479 234l10 63q7 8 29.5 24l48.5 33l51 32q24 15 35 21z" />
<glyph unicode="&#xc1;" horiz-adv-x="1287" d="M747 550l-165 465l-150 -465h315zM392 430l-96 -289q-10 -31 24.5 -45t116.5 -23v-73h-437v73q68 12 104.5 25t46.5 43l349 1066q24 20 51.5 37t57 30.5t58.5 24t55 18.5l420 -1176q5 -14 13 -25t22 -19t35.5 -14t53.5 -10v-73h-497v73q78 5 105.5 20t16.5 48l-102 289 h-397zM501 1360q-17 8 -35.5 28t-32.5 39l365 340q23 -12 51 -29l53 -32q26 -15 46 -29t28 -22l9 -52z" />
<glyph unicode="&#xc2;" horiz-adv-x="1287" d="M747 550l-165 465l-150 -465h315zM392 430l-96 -289q-10 -31 24.5 -45t116.5 -23v-73h-437v73q68 12 104.5 25t46.5 43l349 1066q24 20 51.5 37t57 30.5t58.5 24t55 18.5l420 -1176q5 -14 13 -25t22 -19t35.5 -14t53.5 -10v-73h-497v73q78 5 105.5 20t16.5 48l-102 289 h-397zM971 1420q-12 -19 -26.5 -35.5t-31.5 -24.5l-281 163l-279 -163q-17 8 -31.5 24.5t-28.5 35.5l279 324h122z" />
<glyph unicode="&#xc3;" horiz-adv-x="1287" d="M747 550l-165 465l-150 -465h315zM392 430l-96 -289q-10 -31 24.5 -45t116.5 -23v-73h-437v73q68 12 104.5 25t46.5 43l349 1066q24 20 51.5 37t57 30.5t58.5 24t55 18.5l420 -1176q5 -14 13 -25t22 -19t35.5 -14t53.5 -10v-73h-497v73q78 5 105.5 20t16.5 48l-102 289 h-397zM1027 1657q-18 -41 -44 -89.5t-59 -90.5t-73.5 -70.5t-86.5 -28.5q-43 0 -82 16.5t-76 36t-73.5 36t-74.5 16.5q-23 0 -41 -7.5t-34.5 -22t-33 -36t-34.5 -49.5l-75 28q18 41 43.5 90t58.5 91.5t73 71t86 28.5t87.5 -16.5t79.5 -36.5l71 -36q34 -16 66 -16q45 0 78 28 t67 87z" />
<glyph unicode="&#xc4;" horiz-adv-x="1287" d="M747 550l-165 465l-150 -465h315zM392 430l-96 -289q-10 -31 24.5 -45t116.5 -23v-73h-437v73q68 12 104.5 25t46.5 43l349 1066q24 20 51.5 37t57 30.5t58.5 24t55 18.5l420 -1176q5 -14 13 -25t22 -19t35.5 -14t53.5 -10v-73h-497v73q78 5 105.5 20t16.5 48l-102 289 h-397zM982 1548q0 -37 -12.5 -69t-34 -56t-50 -38t-60.5 -14q-58 0 -88 31t-30 91q0 37 13 69t34.5 56t49.5 37.5t59 13.5q56 0 87.5 -30t31.5 -91zM559 1548q0 -37 -12.5 -69t-33.5 -56t-49.5 -38t-60.5 -14q-58 0 -88.5 31t-30.5 91q0 37 13 69t34.5 56t50 37.5t58.5 13.5 q57 0 88 -30t31 -91z" />
<glyph unicode="&#xc5;" horiz-adv-x="1287" d="M747 550l-165 465l-150 -465h315zM392 430l-96 -289q-10 -31 24.5 -45t116.5 -23v-73h-437v73q68 12 104.5 25t46.5 43l349 1066q24 20 51.5 37t57 30.5t58.5 24t55 18.5l420 -1176q5 -14 13 -25t22 -19t35.5 -14t53.5 -10v-73h-497v73q78 5 105.5 20t16.5 48l-102 289 h-397zM706 1563q0 48 -20 73.5t-43 25.5q-21 0 -36.5 -8.5t-26 -22t-16 -31t-5.5 -35.5q0 -46 20.5 -71t43.5 -25q40 0 61.5 27t21.5 67zM841 1604q0 -53 -20 -100t-53.5 -81.5t-76.5 -54.5t-89 -20q-39 0 -72 12.5t-56.5 35.5t-36.5 55.5t-13 72.5q0 54 20 101t53 82.5 t76.5 55.5t90.5 20q40 0 73 -13.5t56 -37t35.5 -56.5t12.5 -72z" />
<glyph unicode="&#xc6;" horiz-adv-x="1655" d="M759 1118q0 11 -7 16t-17 3.5t-21 -10.5t-18 -26l-149 -366h212v383zM1609 304l-11 -90q-5 -48 -10.5 -90.5t-10.5 -75.5t-9 -48h-944v73q68 14 101.5 30.5t33.5 30.5v490h-255l-196 -483q-13 -29 10.5 -44t97.5 -24v-73h-416v73q62 9 97 24t48 44l389 962q7 17 2.5 28.5 t-22.5 21t-51 17.5t-82 17v73h1125l37 -32q-2 -26 -5.5 -65t-9 -80t-12.5 -77.5t-14 -55.5h-75q-5 93 -24 141.5t-58 48.5h-336v-405h398l34 -35l-21 -33q-11 -19 -24 -38l-25 -35q-12 -16 -22 -25q-15 15 -35 25t-39 17t-33 10t-17 3h-216v-440q0 -15 7.5 -26.5t30 -20 t63 -13t106.5 -4.5h95q46 0 79 11t58.5 35.5t46 64.5t41.5 99z" />
<glyph unicode="&#xc7;" horiz-adv-x="1143" d="M804 -229q0 -37 -27 -72t-75 -64t-114.5 -50t-144.5 -29l-37 71q87 13 124.5 42.5t37.5 61.5q0 34 -23 48.5t-67 18.5l3 4q3 4 11.5 25t23.5 65l27 80q-78 7 -154 40q-95 42 -169.5 121t-119.5 193.5t-45 259.5q0 160 49 290t135 222.5t202 142.5t250 49q54 0 107 -8 t101 -21.5t87.5 -31.5t65.5 -39q4 -3 -0.5 -18t-13.5 -36t-21.5 -45.5t-25.5 -47t-24.5 -40.5t-19.5 -26l-65 14q-51 88 -116.5 127.5t-143.5 39.5q-34 0 -70.5 -11t-71.5 -36t-66.5 -65.5t-55 -99.5t-37 -139t-13.5 -184q0 -128 33.5 -220t87 -151.5t120 -88t132.5 -28.5 q27 0 63.5 6t80 22.5t92.5 44t102 71.5q5 -4 13 -14l16 -21l14 -20q6 -10 9 -13q-64 -65 -126 -111t-123 -75t-120 -42q-18 -4 -36 -6l-25 -66q78 -14 120.5 -48.5t42.5 -91.5z" />
<glyph unicode="&#xc8;" horiz-adv-x="1076" d="M1029 304q-4 -43 -9 -90.5t-11 -90t-11.5 -75.5t-9.5 -48h-945v73q68 14 102.5 30.5t34.5 30.5v991q0 12 -32.5 30t-104.5 32v73h881l40 -32q-2 -26 -6 -65t-10 -80t-12.5 -77.5t-12.5 -55.5h-75q-5 93 -25 141.5t-57 48.5h-336v-405h398l33 -35l-19 -32l-24.5 -37 t-25 -33.5t-23.5 -23.5q-15 15 -32.5 25t-40 17t-53 10t-72.5 3h-141v-445q0 -15 7 -26.5t29 -20t62 -13t106 -4.5h99q46 0 78.5 11t57.5 35.5t45.5 64.5t41.5 99zM728 1420q-14 -19 -28.5 -35.5t-31.5 -24.5l-479 234l10 63q7 8 29.5 24l48.5 33l51 32q24 15 35 21z" />
<glyph unicode="&#xc9;" horiz-adv-x="1076" d="M1029 304q-4 -43 -9 -90.5t-11 -90t-11.5 -75.5t-9.5 -48h-945v73q68 14 102.5 30.5t34.5 30.5v991q0 12 -32.5 30t-104.5 32v73h881l40 -32q-2 -26 -6 -65t-10 -80t-12.5 -77.5t-12.5 -55.5h-75q-5 93 -25 141.5t-57 48.5h-336v-405h398l33 -35l-19 -32l-24.5 -37 t-25 -33.5t-23.5 -23.5q-15 15 -32.5 25t-40 17t-53 10t-72.5 3h-141v-445q0 -15 7 -26.5t29 -20t62 -13t106 -4.5h99q46 0 78.5 11t57.5 35.5t45.5 64.5t41.5 99zM404 1360q-17 8 -35.5 28t-32.5 39l365 340q23 -12 51 -29l53 -32q26 -15 46 -29t28 -22l9 -52z" />
<glyph unicode="&#xca;" horiz-adv-x="1076" d="M1029 304q-4 -43 -9 -90.5t-11 -90t-11.5 -75.5t-9.5 -48h-945v73q68 14 102.5 30.5t34.5 30.5v991q0 12 -32.5 30t-104.5 32v73h881l40 -32q-2 -26 -6 -65t-10 -80t-12.5 -77.5t-12.5 -55.5h-75q-5 93 -25 141.5t-57 48.5h-336v-405h398l33 -35l-19 -32l-24.5 -37 t-25 -33.5t-23.5 -23.5q-15 15 -32.5 25t-40 17t-53 10t-72.5 3h-141v-445q0 -15 7 -26.5t29 -20t62 -13t106 -4.5h99q46 0 78.5 11t57.5 35.5t45.5 64.5t41.5 99zM874 1420q-12 -19 -26.5 -35.5t-31.5 -24.5l-281 163l-279 -163q-17 8 -31.5 24.5t-28.5 35.5l279 324h122z " />
<glyph unicode="&#xcb;" horiz-adv-x="1076" d="M1029 304q-4 -43 -9 -90.5t-11 -90t-11.5 -75.5t-9.5 -48h-945v73q68 14 102.5 30.5t34.5 30.5v991q0 12 -32.5 30t-104.5 32v73h881l40 -32q-2 -26 -6 -65t-10 -80t-12.5 -77.5t-12.5 -55.5h-75q-5 93 -25 141.5t-57 48.5h-336v-405h398l33 -35l-19 -32l-24.5 -37 t-25 -33.5t-23.5 -23.5q-15 15 -32.5 25t-40 17t-53 10t-72.5 3h-141v-445q0 -15 7 -26.5t29 -20t62 -13t106 -4.5h99q46 0 78.5 11t57.5 35.5t45.5 64.5t41.5 99zM885 1548q0 -37 -12.5 -69t-34 -56t-50 -38t-60.5 -14q-58 0 -88 31t-30 91q0 37 13 69t34.5 56t49.5 37.5 t59 13.5q56 0 87.5 -30t31.5 -91zM462 1548q0 -37 -12.5 -69t-33.5 -56t-49.5 -38t-60.5 -14q-58 0 -88.5 31t-30.5 91q0 37 13 69t34.5 56t50 37.5t58.5 13.5q57 0 88 -30t31 -91z" />
<glyph unicode="&#xcc;" horiz-adv-x="670" d="M63 0v73q68 14 102.5 30.5t34.5 30.5v991q0 12 -32.5 30t-104.5 32v73h525v-73q-68 -14 -103 -31t-35 -31v-991q0 -12 33 -29.5t105 -31.5v-73h-525zM517 1420q-14 -19 -28.5 -35.5t-31.5 -24.5l-479 234l10 63q7 8 29.5 24l48.5 33l51 32q24 15 35 21z" />
<glyph unicode="&#xcd;" horiz-adv-x="670" d="M63 0v73q68 14 102.5 30.5t34.5 30.5v991q0 12 -32.5 30t-104.5 32v73h525v-73q-68 -14 -103 -31t-35 -31v-991q0 -12 33 -29.5t105 -31.5v-73h-525zM193 1360q-17 8 -35.5 28t-32.5 39l365 340q23 -12 51 -29l53 -32q26 -15 46 -29t28 -22l9 -52z" />
<glyph unicode="&#xce;" horiz-adv-x="670" d="M63 0v73q68 14 102.5 30.5t34.5 30.5v991q0 12 -32.5 30t-104.5 32v73h525v-73q-68 -14 -103 -31t-35 -31v-991q0 -12 33 -29.5t105 -31.5v-73h-525zM663 1420q-12 -19 -26.5 -35.5t-31.5 -24.5l-281 163l-279 -163q-17 8 -31.5 24.5t-28.5 35.5l279 324h122z" />
<glyph unicode="&#xcf;" horiz-adv-x="670" d="M63 0v73q68 14 102.5 30.5t34.5 30.5v991q0 12 -32.5 30t-104.5 32v73h525v-73q-68 -14 -103 -31t-35 -31v-991q0 -12 33 -29.5t105 -31.5v-73h-525zM674 1548q0 -37 -12.5 -69t-34 -56t-50 -38t-60.5 -14q-58 0 -88 31t-30 91q0 37 13 69t34.5 56t49.5 37.5t59 13.5 q56 0 87.5 -30t31.5 -91zM251 1548q0 -37 -12.5 -69t-33.5 -56t-49.5 -38t-60.5 -14q-58 0 -88.5 31t-30.5 91q0 37 13 69t34.5 56t50 37.5t58.5 13.5q57 0 88 -30t31 -91z" />
<glyph unicode="&#xd0;" horiz-adv-x="1304" d="M1221 676q0 -125 -25.5 -223.5t-69.5 -174t-103 -128t-126 -86t-138.5 -49t-139.5 -15.5h-576v73q68 14 102.5 30.5t34.5 30.5v481h-130l-22 24l6 20l10 27l10 28l7 21h119v422l-137 -19l-13 92q49 12 116.5 23t142 19.5t149.5 13t140 4.5q153 0 273 -41.5t202 -120.5 t125 -193t43 -259zM506 1184q-18 0 -37 -0.5t-39 -1.5v-447h241l25 -23l-36 -97h-230v-448q0 -7 2 -14q3 -11 11 -19.5t25 -14.5t44.5 -9t69.5 -3q38 0 80.5 13t84 41t79 70.5t65.5 101.5t45 134.5t17 169.5q0 133 -29 235t-85.5 171.5t-140 105t-192.5 35.5z" />
<glyph unicode="&#xd1;" horiz-adv-x="1359" d="M43 0v73q73 9 105 28t32 33v980q-65 61 -137 73v73h279q15 0 24.5 -2.5t19.5 -10.5t22 -23l30 -42l612 -848v791q0 6 -6.5 14.5t-22 17t-42 16.5t-66.5 14v73h425v-73q-72 -10 -105 -29t-33 -33v-1155q-96 8 -154 37.5t-85 66.5l-611 846v-786q0 -6 7 -14.5t23.5 -17 t42.5 -16.5t65 -13v-73h-425zM1074 1657q-18 -41 -44 -89.5t-59 -90.5t-73.5 -70.5t-86.5 -28.5q-43 0 -82 16.5t-76 36t-73.5 36t-74.5 16.5q-23 0 -41 -7.5t-34.5 -22t-33 -36t-34.5 -49.5l-75 28q18 41 43.5 90t58.5 91.5t73 71t86 28.5t87.5 -16.5t79.5 -36.5l71 -36 q34 -16 66 -16q45 0 78 28t67 87z" />
<glyph unicode="&#xd2;" horiz-adv-x="1274" d="M946 629q0 103 -24.5 199t-69.5 170t-108 118t-140 44q-72 0 -127.5 -35.5t-93 -102t-56.5 -163t-19 -218.5q0 -112 26.5 -210t72 -170.5t106 -114t129.5 -41.5q66 0 121.5 32t96 97.5t63.5 164t23 230.5zM1198 647q0 -91 -22 -176t-61.5 -160.5t-94.5 -138t-122 -107.5 t-143 -70t-157 -25q-126 0 -227 53t-171 142t-107.5 205t-37.5 242q0 136 44.5 259t124 216t190 148t242.5 55t233 -54.5t170 -144.5t104 -206t35 -238zM830 1420q-14 -19 -28.5 -35.5t-31.5 -24.5l-479 234l10 63q7 8 29.5 24l48.5 33l51 32q24 15 35 21z" />
<glyph unicode="&#xd3;" horiz-adv-x="1274" d="M946 629q0 103 -24.5 199t-69.5 170t-108 118t-140 44q-72 0 -127.5 -35.5t-93 -102t-56.5 -163t-19 -218.5q0 -112 26.5 -210t72 -170.5t106 -114t129.5 -41.5q66 0 121.5 32t96 97.5t63.5 164t23 230.5zM1198 647q0 -91 -22 -176t-61.5 -160.5t-94.5 -138t-122 -107.5 t-143 -70t-157 -25q-126 0 -227 53t-171 142t-107.5 205t-37.5 242q0 136 44.5 259t124 216t190 148t242.5 55t233 -54.5t170 -144.5t104 -206t35 -238zM506 1360q-17 8 -35.5 28t-32.5 39l365 340q23 -12 51 -29l53 -32q26 -15 46 -29t28 -22l9 -52z" />
<glyph unicode="&#xd4;" horiz-adv-x="1274" d="M946 629q0 103 -24.5 199t-69.5 170t-108 118t-140 44q-72 0 -127.5 -35.5t-93 -102t-56.5 -163t-19 -218.5q0 -112 26.5 -210t72 -170.5t106 -114t129.5 -41.5q66 0 121.5 32t96 97.5t63.5 164t23 230.5zM1198 647q0 -91 -22 -176t-61.5 -160.5t-94.5 -138t-122 -107.5 t-143 -70t-157 -25q-126 0 -227 53t-171 142t-107.5 205t-37.5 242q0 136 44.5 259t124 216t190 148t242.5 55t233 -54.5t170 -144.5t104 -206t35 -238zM976 1420q-12 -19 -26.5 -35.5t-31.5 -24.5l-281 163l-279 -163q-17 8 -31.5 24.5t-28.5 35.5l279 324h122z" />
<glyph unicode="&#xd5;" horiz-adv-x="1274" d="M946 629q0 103 -24.5 199t-69.5 170t-108 118t-140 44q-72 0 -127.5 -35.5t-93 -102t-56.5 -163t-19 -218.5q0 -112 26.5 -210t72 -170.5t106 -114t129.5 -41.5q66 0 121.5 32t96 97.5t63.5 164t23 230.5zM1198 647q0 -91 -22 -176t-61.5 -160.5t-94.5 -138t-122 -107.5 t-143 -70t-157 -25q-126 0 -227 53t-171 142t-107.5 205t-37.5 242q0 136 44.5 259t124 216t190 148t242.5 55t233 -54.5t170 -144.5t104 -206t35 -238zM1032 1657q-18 -41 -44 -89.5t-59 -90.5t-73.5 -70.5t-86.5 -28.5q-43 0 -82 16.5t-76 36t-73.5 36t-74.5 16.5 q-23 0 -41 -7.5t-34.5 -22t-33 -36t-34.5 -49.5l-75 28q18 41 43.5 90t58.5 91.5t73 71t86 28.5t87.5 -16.5t79.5 -36.5l71 -36q34 -16 66 -16q45 0 78 28t67 87z" />
<glyph unicode="&#xd6;" horiz-adv-x="1274" d="M946 629q0 103 -24.5 199t-69.5 170t-108 118t-140 44q-72 0 -127.5 -35.5t-93 -102t-56.5 -163t-19 -218.5q0 -112 26.5 -210t72 -170.5t106 -114t129.5 -41.5q66 0 121.5 32t96 97.5t63.5 164t23 230.5zM1198 647q0 -91 -22 -176t-61.5 -160.5t-94.5 -138t-122 -107.5 t-143 -70t-157 -25q-126 0 -227 53t-171 142t-107.5 205t-37.5 242q0 136 44.5 259t124 216t190 148t242.5 55t233 -54.5t170 -144.5t104 -206t35 -238zM987 1548q0 -37 -12.5 -69t-34 -56t-50 -38t-60.5 -14q-58 0 -88 31t-30 91q0 37 13 69t34.5 56t49.5 37.5t59 13.5 q56 0 87.5 -30t31.5 -91zM564 1548q0 -37 -12.5 -69t-33.5 -56t-49.5 -38t-60.5 -14q-58 0 -88.5 31t-30.5 91q0 37 13 69t34.5 56t50 37.5t58.5 13.5q57 0 88 -30t31 -91z" />
<glyph unicode="&#xd7;" horiz-adv-x="863" d="M83 315l247 248l-246 247v34q10 4 26 11l34 14q17 7 33.5 12.5t27.5 8.5l226 -226l225 226q11 -3 28 -8.5t35 -12.5t34 -14t26 -11v-34l-247 -248l247 -247v-34l-27 -11l-35 -14l-34 -13q-16 -6 -25 -8l-227 227l-226 -227q-9 2 -25 8l-35 13l-35 14l-27 11v34z" />
<glyph unicode="&#xd8;" horiz-adv-x="1274" d="M946 629q0 68 -11 132.5t-31 123.5l-477 -655q44 -59 98.5 -92t116.5 -33q66 0 121.5 32t96 97.5t63.5 164t23 230.5zM308 641q0 -72 11.5 -138.5t31.5 -124.5l477 655q-44 59 -100.5 93t-123.5 34q-72 0 -127.5 -35.5t-93 -102t-56.5 -163t-19 -218.5zM1056 1094 q70 -91 106 -207t36 -240q0 -91 -22 -176t-61.5 -160.5t-94.5 -138t-122 -107.5t-143 -70t-157 -25q-85 0 -158.5 24t-133.5 69l-47 -65q-9 -8 -31 -16t-47 -15.5t-49 -12.5t-36 -7l-32 37l134 184q-69 89 -106 203.5t-37 240.5q0 136 44.5 259t124 216t190 148t242.5 55 q87 0 159.5 -24t132.5 -67l48 65q14 8 35 16t44 15t45 11.5t37 6.5l32 -37z" />
<glyph unicode="&#xd9;" horiz-adv-x="1369" d="M1313 1187q-68 -14 -103 -31t-35 -31v-601q0 -131 -36.5 -234t-102.5 -174t-156.5 -108.5t-198.5 -37.5q-103 0 -194 28.5t-159.5 87t-108 147.5t-39.5 211v681q0 12 -32.5 30t-104.5 32v73h525v-73q-68 -14 -103 -31t-35 -31v-616q0 -96 17 -169.5t54 -123.5t96.5 -75.5 t145.5 -25.5q71 0 120 32t79.5 85t44 122.5t13.5 143.5v627q0 12 -32.5 30t-104.5 32v73h450v-73zM884 1420q-14 -19 -28.5 -35.5t-31.5 -24.5l-479 234l10 63q7 8 29.5 24l48.5 33l51 32q24 15 35 21z" />
<glyph unicode="&#xda;" horiz-adv-x="1369" d="M1313 1187q-68 -14 -103 -31t-35 -31v-601q0 -131 -36.5 -234t-102.5 -174t-156.5 -108.5t-198.5 -37.5q-103 0 -194 28.5t-159.5 87t-108 147.5t-39.5 211v681q0 12 -32.5 30t-104.5 32v73h525v-73q-68 -14 -103 -31t-35 -31v-616q0 -96 17 -169.5t54 -123.5t96.5 -75.5 t145.5 -25.5q71 0 120 32t79.5 85t44 122.5t13.5 143.5v627q0 12 -32.5 30t-104.5 32v73h450v-73zM560 1360q-17 8 -35.5 28t-32.5 39l365 340q23 -12 51 -29l53 -32q26 -15 46 -29t28 -22l9 -52z" />
<glyph unicode="&#xdb;" horiz-adv-x="1369" d="M1313 1187q-68 -14 -103 -31t-35 -31v-601q0 -131 -36.5 -234t-102.5 -174t-156.5 -108.5t-198.5 -37.5q-103 0 -194 28.5t-159.5 87t-108 147.5t-39.5 211v681q0 12 -32.5 30t-104.5 32v73h525v-73q-68 -14 -103 -31t-35 -31v-616q0 -96 17 -169.5t54 -123.5t96.5 -75.5 t145.5 -25.5q71 0 120 32t79.5 85t44 122.5t13.5 143.5v627q0 12 -32.5 30t-104.5 32v73h450v-73zM1030 1420q-12 -19 -26.5 -35.5t-31.5 -24.5l-281 163l-279 -163q-17 8 -31.5 24.5t-28.5 35.5l279 324h122z" />
<glyph unicode="&#xdc;" horiz-adv-x="1369" d="M1313 1187q-68 -14 -103 -31t-35 -31v-601q0 -131 -36.5 -234t-102.5 -174t-156.5 -108.5t-198.5 -37.5q-103 0 -194 28.5t-159.5 87t-108 147.5t-39.5 211v681q0 12 -32.5 30t-104.5 32v73h525v-73q-68 -14 -103 -31t-35 -31v-616q0 -96 17 -169.5t54 -123.5t96.5 -75.5 t145.5 -25.5q71 0 120 32t79.5 85t44 122.5t13.5 143.5v627q0 12 -32.5 30t-104.5 32v73h450v-73zM1041 1548q0 -37 -12.5 -69t-34 -56t-50 -38t-60.5 -14q-58 0 -88 31t-30 91q0 37 13 69t34.5 56t49.5 37.5t59 13.5q56 0 87.5 -30t31.5 -91zM618 1548q0 -37 -12.5 -69 t-33.5 -56t-49.5 -38t-60.5 -14q-58 0 -88.5 31t-30.5 91q0 37 13 69t34.5 56t50 37.5t58.5 13.5q57 0 88 -30t31 -91z" />
<glyph unicode="&#xdd;" horiz-adv-x="1255" d="M345 0v73q45 9 75.5 19t48.5 19.5t25.5 18t7.5 15.5v384q-36 80 -81 165l-91 164q-46 80 -90 148t-79 115q-9 11 -19 20t-27 15t-43 9.5t-68 3.5l-4 73l66 9q38 5 75 9t69.5 7t53.5 3q28 0 56 -12t45 -34q37 -50 77 -114l82 -136l82 -148l74 -147l234 442q15 26 -9.5 41 t-101.5 25v73h418v-73q-68 -13 -101 -27t-47 -39l-321 -598v-378q0 -6 7 -14.5t25 -18.5t48.5 -20t77.5 -19v-73h-565zM495 1360q-17 8 -35.5 28t-32.5 39l365 340q23 -12 51 -29l53 -32q26 -15 46 -29t28 -22l9 -52z" />
<glyph unicode="&#xde;" horiz-adv-x="1161" d="M42 0v73q68 14 103 30.5t35 30.5v991q0 12 -33 30t-105 32v73h556v-73q-51 -9 -84 -17t-51.5 -15.5t-25.5 -15t-7 -14.5v-102q35 2 70 3.5t70 1.5q116 0 211.5 -23t163.5 -68t105 -111t37 -152q0 -69 -19 -127t-51.5 -104t-75 -81t-90 -58t-96 -34.5t-92.5 -11.5 q-46 0 -90 7.5t-78 22.5l-31 104q41 -19 72.5 -24t66.5 -5q43 0 85 15.5t74.5 48.5t52.5 84t20 122t-23.5 124.5t-66 89.5t-101.5 54.5t-131 18.5q-40 0 -83 -3v-783q0 -6 6.5 -13t25 -15t51.5 -16t85 -17v-73h-556z" />
<glyph unicode="&#xdf;" horiz-adv-x="1288" d="M1236 283q0 -64 -24.5 -121t-73.5 -99.5t-123 -67.5t-173 -25q-41 0 -88 8t-88 19.5t-71 24t-37 22.5q-5 6 -7.5 28.5t-3.5 52.5t0 64t3.5 64.5t6.5 53t9 29.5l80 -12q11 -58 33.5 -101t53 -72t66.5 -43.5t74 -14.5q66 0 104.5 29t38.5 88q0 47 -19.5 82.5t-52 63.5 t-73.5 51l-84 46q-43 23 -84 48t-73.5 57t-52 73.5t-19.5 97.5q0 62 24 102t60 67.5t78.5 48t78.5 43.5t60 53.5t24 78.5q0 62 -18 113.5t-51.5 89t-81.5 58t-107 20.5q-43 0 -80.5 -16.5t-65 -61t-43.5 -122.5t-16 -202v-1001h-372v73q68 12 100 29.5t32 29.5v814 q0 120 23.5 205t59 144.5t78.5 97.5t82 65q58 39 136 65.5t162 26.5q95 0 170 -32.5t127 -84t79.5 -115.5t27.5 -128q0 -82 -25.5 -134t-63.5 -85t-83 -54l-83 -40q-38 -19 -63.5 -43t-25.5 -64q0 -46 33.5 -78t84.5 -59.5t109.5 -56t109.5 -67t84.5 -93t33.5 -133.5z" />
<glyph unicode="&#xe0;" horiz-adv-x="1023" d="M412 145q19 0 40 4.5t46.5 16t56 32t68.5 52.5v221q-60 -10 -101 -19.5t-69 -19.5t-45.5 -21t-30.5 -24q-26 -26 -42 -56t-16 -72q0 -34 9.5 -56t24 -35t30.5 -18t29 -5zM1016 112q-42 -29 -87.5 -55t-86 -45.5t-74 -30.5t-51.5 -11q-37 0 -62.5 42t-30.5 117 q-45 -45 -90.5 -75.5t-88 -49t-81.5 -26.5t-71 -8q-42 0 -82.5 14.5t-73 43t-52.5 72t-20 101.5q0 68 24.5 115.5t61.5 84.5q24 24 55.5 46.5t84 43.5t132 40.5t200.5 37.5v118q0 31 -6 57.5t-21 45.5t-40 29.5t-63 10.5q-24 0 -48 -9t-42 -25.5t-28.5 -40t-7.5 -53.5 q1 -6 -16 -15t-43 -18.5t-57.5 -19t-60.5 -16t-52 -10t-31 -1.5l-21 54q24 60 75.5 111.5t120.5 90t150.5 60.5t164.5 22q69 0 119 -18t82.5 -50.5t48.5 -76.5t16 -95v-482q0 -42 11 -60t29 -18q7 0 14.5 1t18 4t24.5 9l34 13zM676 1086q-6 -6 -17 -13t-23.5 -13.5 t-24.5 -11.5t-21 -8l-382 377l29 56q10 3 41 9l67 12q36 7 68.5 12t44.5 6z" />
<glyph unicode="&#xe1;" horiz-adv-x="1023" d="M412 145q19 0 40 4.5t46.5 16t56 32t68.5 52.5v221q-60 -10 -101 -19.5t-69 -19.5t-45.5 -21t-30.5 -24q-26 -26 -42 -56t-16 -72q0 -34 9.5 -56t24 -35t30.5 -18t29 -5zM1016 112q-42 -29 -87.5 -55t-86 -45.5t-74 -30.5t-51.5 -11q-37 0 -62.5 42t-30.5 117 q-45 -45 -90.5 -75.5t-88 -49t-81.5 -26.5t-71 -8q-42 0 -82.5 14.5t-73 43t-52.5 72t-20 101.5q0 68 24.5 115.5t61.5 84.5q24 24 55.5 46.5t84 43.5t132 40.5t200.5 37.5v118q0 31 -6 57.5t-21 45.5t-40 29.5t-63 10.5q-24 0 -48 -9t-42 -25.5t-28.5 -40t-7.5 -53.5 q1 -6 -16 -15t-43 -18.5t-57.5 -19t-60.5 -16t-52 -10t-31 -1.5l-21 54q24 60 75.5 111.5t120.5 90t150.5 60.5t164.5 22q69 0 119 -18t82.5 -50.5t48.5 -76.5t16 -95v-482q0 -42 11 -60t29 -18q7 0 14.5 1t18 4t24.5 9l34 13zM455 1040q-9 1 -21.5 6.5t-25.5 12t-23.5 13 t-16.5 11.5l211 429q12 -1 44.5 -5.5t69.5 -10.5t70 -12.5t44 -9.5l30 -54z" />
<glyph unicode="&#xe2;" horiz-adv-x="1023" d="M412 145q19 0 40 4.5t46.5 16t56 32t68.5 52.5v221q-60 -10 -101 -19.5t-69 -19.5t-45.5 -21t-30.5 -24q-26 -26 -42 -56t-16 -72q0 -34 9.5 -56t24 -35t30.5 -18t29 -5zM1016 112q-42 -29 -87.5 -55t-86 -45.5t-74 -30.5t-51.5 -11q-37 0 -62.5 42t-30.5 117 q-45 -45 -90.5 -75.5t-88 -49t-81.5 -26.5t-71 -8q-42 0 -82.5 14.5t-73 43t-52.5 72t-20 101.5q0 68 24.5 115.5t61.5 84.5q24 24 55.5 46.5t84 43.5t132 40.5t200.5 37.5v118q0 31 -6 57.5t-21 45.5t-40 29.5t-63 10.5q-24 0 -48 -9t-42 -25.5t-28.5 -40t-7.5 -53.5 q1 -6 -16 -15t-43 -18.5t-57.5 -19t-60.5 -16t-52 -10t-31 -1.5l-21 54q24 60 75.5 111.5t120.5 90t150.5 60.5t164.5 22q69 0 119 -18t82.5 -50.5t48.5 -76.5t16 -95v-482q0 -42 11 -60t29 -18q7 0 14.5 1t18 4t24.5 9l34 13zM854 1107q-12 -19 -26.5 -39t-31.5 -28 l-281 223l-279 -223q-17 8 -35 28t-32 39l279 387h137z" />
<glyph unicode="&#xe3;" horiz-adv-x="1023" d="M412 145q19 0 40 4.5t46.5 16t56 32t68.5 52.5v221q-60 -10 -101 -19.5t-69 -19.5t-45.5 -21t-30.5 -24q-26 -26 -42 -56t-16 -72q0 -34 9.5 -56t24 -35t30.5 -18t29 -5zM1016 112q-42 -29 -87.5 -55t-86 -45.5t-74 -30.5t-51.5 -11q-37 0 -62.5 42t-30.5 117 q-45 -45 -90.5 -75.5t-88 -49t-81.5 -26.5t-71 -8q-42 0 -82.5 14.5t-73 43t-52.5 72t-20 101.5q0 68 24.5 115.5t61.5 84.5q24 24 55.5 46.5t84 43.5t132 40.5t200.5 37.5v118q0 31 -6 57.5t-21 45.5t-40 29.5t-63 10.5q-24 0 -48 -9t-42 -25.5t-28.5 -40t-7.5 -53.5 q1 -6 -16 -15t-43 -18.5t-57.5 -19t-60.5 -16t-52 -10t-31 -1.5l-21 54q24 60 75.5 111.5t120.5 90t150.5 60.5t164.5 22q69 0 119 -18t82.5 -50.5t48.5 -76.5t16 -95v-482q0 -42 11 -60t29 -18q7 0 14.5 1t18 4t24.5 9l34 13zM909 1377q-18 -41 -44 -89.5t-59 -90.5 t-73.5 -70.5t-86.5 -28.5q-43 0 -82 16.5t-76 36t-73.5 36t-74.5 16.5q-23 0 -41 -7.5t-34.5 -22t-33 -36t-34.5 -49.5l-75 28q18 41 43.5 90t58.5 91.5t73 71t86 28.5t87.5 -16.5t79.5 -36.5l71 -36q34 -16 66 -16q45 0 78 28t67 87z" />
<glyph unicode="&#xe4;" horiz-adv-x="1023" d="M412 145q19 0 40 4.5t46.5 16t56 32t68.5 52.5v221q-60 -10 -101 -19.5t-69 -19.5t-45.5 -21t-30.5 -24q-26 -26 -42 -56t-16 -72q0 -34 9.5 -56t24 -35t30.5 -18t29 -5zM1016 112q-42 -29 -87.5 -55t-86 -45.5t-74 -30.5t-51.5 -11q-37 0 -62.5 42t-30.5 117 q-45 -45 -90.5 -75.5t-88 -49t-81.5 -26.5t-71 -8q-42 0 -82.5 14.5t-73 43t-52.5 72t-20 101.5q0 68 24.5 115.5t61.5 84.5q24 24 55.5 46.5t84 43.5t132 40.5t200.5 37.5v118q0 31 -6 57.5t-21 45.5t-40 29.5t-63 10.5q-24 0 -48 -9t-42 -25.5t-28.5 -40t-7.5 -53.5 q1 -6 -16 -15t-43 -18.5t-57.5 -19t-60.5 -16t-52 -10t-31 -1.5l-21 54q24 60 75.5 111.5t120.5 90t150.5 60.5t164.5 22q69 0 119 -18t82.5 -50.5t48.5 -76.5t16 -95v-482q0 -42 11 -60t29 -18q7 0 14.5 1t18 4t24.5 9l34 13zM864 1268q0 -37 -12.5 -69t-34 -56t-50 -38 t-60.5 -14q-58 0 -88 31t-30 91q0 37 13 69t34.5 56t49.5 37.5t59 13.5q56 0 87.5 -30t31.5 -91zM441 1268q0 -37 -12.5 -69t-33.5 -56t-49.5 -38t-60.5 -14q-58 0 -88.5 31t-30.5 91q0 37 13 69t34.5 56t50 37.5t58.5 13.5q57 0 88 -30t31 -91z" />
<glyph unicode="&#xe5;" horiz-adv-x="1023" d="M412 145q19 0 40 4.5t46.5 16t56 32t68.5 52.5v221q-60 -10 -101 -19.5t-69 -19.5t-45.5 -21t-30.5 -24q-26 -26 -42 -56t-16 -72q0 -34 9.5 -56t24 -35t30.5 -18t29 -5zM1016 112q-42 -29 -87.5 -55t-86 -45.5t-74 -30.5t-51.5 -11q-37 0 -62.5 42t-30.5 117 q-45 -45 -90.5 -75.5t-88 -49t-81.5 -26.5t-71 -8q-42 0 -82.5 14.5t-73 43t-52.5 72t-20 101.5q0 68 24.5 115.5t61.5 84.5q24 24 55.5 46.5t84 43.5t132 40.5t200.5 37.5v118q0 31 -6 57.5t-21 45.5t-40 29.5t-63 10.5q-24 0 -48 -9t-42 -25.5t-28.5 -40t-7.5 -53.5 q1 -6 -16 -15t-43 -18.5t-57.5 -19t-60.5 -16t-52 -10t-31 -1.5l-21 54q24 60 75.5 111.5t120.5 90t150.5 60.5t164.5 22q69 0 119 -18t82.5 -50.5t48.5 -76.5t16 -95v-482q0 -42 11 -60t29 -18q7 0 14.5 1t18 4t24.5 9l34 13zM588 1243q0 48 -20 73.5t-43 25.5 q-21 0 -36.5 -8.5t-26 -22t-16 -31t-5.5 -35.5q0 -46 20.5 -71t43.5 -25q40 0 61.5 27t21.5 67zM723 1284q0 -53 -20 -100t-53.5 -81.5t-76.5 -54.5t-89 -20q-39 0 -72 12.5t-56.5 35.5t-36.5 55.5t-13 72.5q0 54 20 101t53 82.5t76.5 55.5t90.5 20q40 0 73 -13.5t56 -37 t35.5 -56.5t12.5 -72z" />
<glyph unicode="&#xe6;" horiz-adv-x="1501" d="M1436 550q-10 -10 -26 -22t-34.5 -23.5t-38 -21.5t-35.5 -16h-444q-1 -4 -1 -13v-13q0 -47 15 -99.5t44.5 -97.5t73.5 -74.5t102 -29.5q31 0 62 5.5t64.5 19t72 36.5t85.5 58q6 -3 14.5 -12t15.5 -19l14 -20q6 -9 8 -13q-60 -66 -110.5 -109.5t-99.5 -69t-100 -36 t-112 -10.5q-43 0 -89 14.5t-89.5 41.5t-81.5 66t-66 89q-45 -56 -94 -96t-98.5 -65.5t-99 -37.5t-95.5 -12q-36 0 -76 12t-74 39.5t-56 71.5t-22 108q0 59 22.5 113t70 100t121.5 82.5t177 61.5q27 7 76 11.5t100 6.5v79q0 90 -31 132.5t-96 42.5q-26 0 -54.5 -10t-51 -28 t-34 -43.5t-2.5 -57.5q1 -7 -15 -16t-41.5 -18.5t-57 -18.5t-60.5 -15.5t-51.5 -9.5t-30.5 -1l-21 51q20 53 55.5 95.5t79.5 75.5t94 56.5t99 39t94.5 23t79.5 7.5q75 0 130 -24.5t89 -79.5q33 29 68 49t70.5 32t69.5 17.5t64 5.5q88 0 155 -34.5t112 -91.5t67.5 -131 t22.5 -153zM645 264q-6 23 -9.5 48.5t-3.5 52.5v98q-35 -2 -65.5 -3.5t-40.5 -3.5q-63 -14 -104.5 -35.5t-65.5 -47.5t-34 -55t-10 -59q0 -31 9.5 -53t24.5 -35.5t32.5 -19.5t33.5 -6q23 0 50 6t56.5 20t61.5 36.5t65 56.5zM1050 845q-23 0 -51 -8.5t-54.5 -36.5t-48 -80.5 t-31.5 -139.5h307q21 0 29.5 7.5t8.5 28.5q0 53 -11.5 95.5t-32.5 72t-50.5 45.5t-65.5 16z" />
<glyph unicode="&#xe7;" horiz-adv-x="933" d="M710 -229q0 -37 -27 -72t-75 -64t-114.5 -50t-144.5 -29l-37 71q87 13 124.5 42.5t37.5 61.5q0 34 -23 48.5t-67 18.5l3 4q3 4 11.5 25t23.5 65q11 30 27 79q-65 6 -125 31q-75 33 -132.5 94t-92 149t-34.5 199q0 108 40 202t111.5 163.5t170.5 110t218 40.5 q33 0 74.5 -5.5t81.5 -16t73.5 -25t50.5 -32.5q1 -8 -2.5 -28t-10 -46t-15.5 -55t-18 -55t-18 -47t-15 -30l-67 10q-33 98 -81 151.5t-128 53.5q-44 0 -84.5 -20t-71.5 -63.5t-50 -111.5t-19 -165q0 -80 20.5 -142.5t56 -105.5t83.5 -66t102 -23q28 0 54 3.5t57 15.5 t69.5 35t91.5 62l54 -64q-65 -74 -120 -117.5t-104.5 -66.5t-95.5 -29h-1l-25 -66q78 -14 120.5 -48.5t42.5 -91.5z" />
<glyph unicode="&#xe8;" horiz-adv-x="991" d="M511 840q-47 0 -81 -18t-57.5 -52t-37 -82t-19.5 -108h333q23 0 30.5 7.5t7.5 28.5q0 30 -8 68.5t-28.5 73t-54.5 58.5t-85 24zM926 550q-9 -10 -26 -22t-37 -23t-40.5 -21t-36.5 -16h-473q2 -72 19.5 -132.5t49.5 -104.5t77.5 -68.5t104.5 -24.5q31 0 60.5 3.5t64 16.5 t77.5 36.5t102 64.5q6 -3 14.5 -12t15.5 -19l14 -20q6 -9 8 -13q-69 -70 -124 -114t-105.5 -68.5t-100.5 -33.5t-110 -9q-85 0 -160.5 34t-132 96t-89.5 149t-33 193q0 136 51.5 242.5t154.5 181.5q26 19 58.5 36.5t68 30t73.5 20t76 7.5q98 0 169.5 -34t118 -90.5 t69 -130.5t22.5 -155zM697 1086q-6 -6 -17 -13t-23.5 -13.5t-24.5 -11.5t-21 -8l-382 377l29 56q10 3 41 9l67 12q36 7 68.5 12t44.5 6z" />
<glyph unicode="&#xe9;" horiz-adv-x="991" d="M511 840q-47 0 -81 -18t-57.5 -52t-37 -82t-19.5 -108h333q23 0 30.5 7.5t7.5 28.5q0 30 -8 68.5t-28.5 73t-54.5 58.5t-85 24zM926 550q-9 -10 -26 -22t-37 -23t-40.5 -21t-36.5 -16h-473q2 -72 19.5 -132.5t49.5 -104.5t77.5 -68.5t104.5 -24.5q31 0 60.5 3.5t64 16.5 t77.5 36.5t102 64.5q6 -3 14.5 -12t15.5 -19l14 -20q6 -9 8 -13q-69 -70 -124 -114t-105.5 -68.5t-100.5 -33.5t-110 -9q-85 0 -160.5 34t-132 96t-89.5 149t-33 193q0 136 51.5 242.5t154.5 181.5q26 19 58.5 36.5t68 30t73.5 20t76 7.5q98 0 169.5 -34t118 -90.5 t69 -130.5t22.5 -155zM476 1040q-9 1 -21.5 6.5t-25.5 12t-23.5 13t-16.5 11.5l211 429q12 -1 44.5 -5.5t69.5 -10.5t70 -12.5t44 -9.5l30 -54z" />
<glyph unicode="&#xea;" horiz-adv-x="991" d="M511 840q-47 0 -81 -18t-57.5 -52t-37 -82t-19.5 -108h333q23 0 30.5 7.5t7.5 28.5q0 30 -8 68.5t-28.5 73t-54.5 58.5t-85 24zM926 550q-9 -10 -26 -22t-37 -23t-40.5 -21t-36.5 -16h-473q2 -72 19.5 -132.5t49.5 -104.5t77.5 -68.5t104.5 -24.5q31 0 60.5 3.5t64 16.5 t77.5 36.5t102 64.5q6 -3 14.5 -12t15.5 -19l14 -20q6 -9 8 -13q-69 -70 -124 -114t-105.5 -68.5t-100.5 -33.5t-110 -9q-85 0 -160.5 34t-132 96t-89.5 149t-33 193q0 136 51.5 242.5t154.5 181.5q26 19 58.5 36.5t68 30t73.5 20t76 7.5q98 0 169.5 -34t118 -90.5 t69 -130.5t22.5 -155zM875 1107q-12 -19 -26.5 -39t-31.5 -28l-281 223l-279 -223q-17 8 -35 28t-32 39l279 387h137z" />
<glyph unicode="&#xeb;" horiz-adv-x="991" d="M511 840q-47 0 -81 -18t-57.5 -52t-37 -82t-19.5 -108h333q23 0 30.5 7.5t7.5 28.5q0 30 -8 68.5t-28.5 73t-54.5 58.5t-85 24zM926 550q-9 -10 -26 -22t-37 -23t-40.5 -21t-36.5 -16h-473q2 -72 19.5 -132.5t49.5 -104.5t77.5 -68.5t104.5 -24.5q31 0 60.5 3.5t64 16.5 t77.5 36.5t102 64.5q6 -3 14.5 -12t15.5 -19l14 -20q6 -9 8 -13q-69 -70 -124 -114t-105.5 -68.5t-100.5 -33.5t-110 -9q-85 0 -160.5 34t-132 96t-89.5 149t-33 193q0 136 51.5 242.5t154.5 181.5q26 19 58.5 36.5t68 30t73.5 20t76 7.5q98 0 169.5 -34t118 -90.5 t69 -130.5t22.5 -155zM885 1268q0 -37 -12.5 -69t-34 -56t-50 -38t-60.5 -14q-58 0 -88 31t-30 91q0 37 13 69t34.5 56t49.5 37.5t59 13.5q56 0 87.5 -30t31.5 -91zM462 1268q0 -37 -12.5 -69t-33.5 -56t-49.5 -38t-60.5 -14q-58 0 -88.5 31t-30.5 91q0 37 13 69t34.5 56 t50 37.5t58.5 13.5q57 0 88 -30t31 -91z" />
<glyph unicode="&#xec;" horiz-adv-x="615" d="M63 0v73q68 14 100 30.5t32 30.5v514q0 51 -1 82.5t-12.5 49t-38.5 25.5t-80 13v70q86 12 163 29.5t145 42.5h64v-826q0 -12 30 -29.5t103 -31.5v-73h-505zM476 1086q-6 -6 -17 -13t-23.5 -13.5t-24.5 -11.5t-21 -8l-382 377l29 56q10 3 41 9l67 12q36 7 68.5 12t44.5 6z " />
<glyph unicode="&#xed;" horiz-adv-x="615" d="M63 0v73q68 14 100 30.5t32 30.5v514q0 51 -1 82.5t-12.5 49t-38.5 25.5t-80 13v70q86 12 163 29.5t145 42.5h64v-826q0 -12 30 -29.5t103 -31.5v-73h-505zM255 1040q-9 1 -21.5 6.5t-25.5 12t-23.5 13t-16.5 11.5l211 429q12 -1 44.5 -5.5t69.5 -10.5t70 -12.5t44 -9.5 l30 -54z" />
<glyph unicode="&#xee;" horiz-adv-x="615" d="M63 0v73q68 14 100 30.5t32 30.5v514q0 51 -1 82.5t-12.5 49t-38.5 25.5t-80 13v70q86 12 163 29.5t145 42.5h64v-826q0 -12 30 -29.5t103 -31.5v-73h-505zM654 1107q-12 -19 -26.5 -39t-31.5 -28l-281 223l-279 -223q-17 8 -35 28t-32 39l279 387h137z" />
<glyph unicode="&#xef;" horiz-adv-x="615" d="M63 0v73q68 14 100 30.5t32 30.5v514q0 51 -1 82.5t-12.5 49t-38.5 25.5t-80 13v70q86 12 163 29.5t145 42.5h64v-826q0 -12 30 -29.5t103 -31.5v-73h-505zM664 1268q0 -37 -12.5 -69t-34 -56t-50 -38t-60.5 -14q-58 0 -88 31t-30 91q0 37 13 69t34.5 56t49.5 37.5 t59 13.5q56 0 87.5 -30t31.5 -91zM241 1268q0 -37 -12.5 -69t-33.5 -56t-49.5 -38t-60.5 -14q-58 0 -88.5 31t-30.5 91q0 37 13 69t34.5 56t50 37.5t58.5 13.5q57 0 88 -30t31 -91z" />
<glyph unicode="&#xf0;" horiz-adv-x="1046" d="M740 612q-16 54 -44.5 94.5t-63.5 67.5t-72 40.5t-70 13.5q-90 0 -135 -90t-45 -250q0 -79 18 -150.5t48.5 -125.5t70 -85.5t82.5 -31.5q55 0 95 27.5t65.5 85t38 146.5t12.5 212v46zM980 607q0 -115 -22 -207t-59 -163t-84.5 -121.5t-99 -83t-102.5 -47.5t-94 -15 q-106 0 -190.5 36t-143 99t-89.5 150t-31 189q0 66 15 130t43 121.5t67.5 106t88.5 83.5t106 55t121 20q61 0 114 -23.5t94 -66.5q-20 78 -54 143.5t-95 133.5l-211 -87q-19 1 -34.5 2t-29.5 2.5t-29 5t-32 8.5l-11 44l262 110q-56 41 -128.5 63t-159.5 10l-12 71l268 94 l56 -38l56 -41l52 -41q26 -21 47 -40l187 77q47 -5 75 -9t54 -13l7 -42l-239 -99q129 -144 183 -299t54 -318z" />
<glyph unicode="&#xf1;" horiz-adv-x="1190" d="M663 0v73q72 19 102 33t30 28v454q0 55 -5.5 91.5t-17.5 58.5t-32 31t-50 9q-24 0 -51 -6.5t-59.5 -22t-72 -42.5t-87.5 -68v-505q0 -15 34 -31t99 -30v-73h-505v73q66 17 99 30.5t33 30.5v555q0 39 -1.5 62t-13.5 36t-39 19t-78 12v70q48 5 89.5 12t79.5 15.5t74 19.5 t72 25l42 -42l11 -144q117 100 218.5 143t179.5 43q43 0 83 -13.5t70.5 -44t49 -79.5t18.5 -119v-570q0 -7 6 -13.5t21 -13.5t41 -15.5t65 -18.5v-73h-505zM1001 1377q-18 -41 -44 -89.5t-59 -90.5t-73.5 -70.5t-86.5 -28.5q-43 0 -82 16.5t-76 36t-73.5 36t-74.5 16.5 q-23 0 -41 -7.5t-34.5 -22t-33 -36t-34.5 -49.5l-75 28q18 41 43.5 90t58.5 91.5t73 71t86 28.5t87.5 -16.5t79.5 -36.5l71 -36q34 -16 66 -16q45 0 78 28t67 87z" />
<glyph unicode="&#xf2;" horiz-adv-x="1075" d="M758 440q0 79 -16.5 150.5t-46.5 126t-72.5 86.5t-93.5 32q-62 0 -103 -27.5t-65 -76t-33.5 -115t-9.5 -143.5q0 -79 18.5 -148t50 -120t73 -80.5t87.5 -29.5q60 0 100 23t65 67t35.5 108t10.5 147zM1010 485q0 -67 -18 -131t-50.5 -121t-77.5 -105.5t-99.5 -83.5 t-117 -54.5t-128.5 -19.5q-103 0 -187 36t-143 99t-91.5 150t-32.5 189q0 99 36.5 192t102 165t156 115.5t198.5 43.5q102 0 185.5 -36t143 -99.5t91.5 -150.5t32 -189zM720 1086q-6 -6 -17 -13t-23.5 -13.5t-24.5 -11.5t-21 -8l-382 377l29 56q10 3 41 9l67 12 q36 7 68.5 12t44.5 6z" />
<glyph unicode="&#xf3;" horiz-adv-x="1075" d="M758 440q0 79 -16.5 150.5t-46.5 126t-72.5 86.5t-93.5 32q-62 0 -103 -27.5t-65 -76t-33.5 -115t-9.5 -143.5q0 -79 18.5 -148t50 -120t73 -80.5t87.5 -29.5q60 0 100 23t65 67t35.5 108t10.5 147zM1010 485q0 -67 -18 -131t-50.5 -121t-77.5 -105.5t-99.5 -83.5 t-117 -54.5t-128.5 -19.5q-103 0 -187 36t-143 99t-91.5 150t-32.5 189q0 99 36.5 192t102 165t156 115.5t198.5 43.5q102 0 185.5 -36t143 -99.5t91.5 -150.5t32 -189zM499 1040q-9 1 -21.5 6.5t-25.5 12t-23.5 13t-16.5 11.5l211 429q12 -1 44.5 -5.5t69.5 -10.5t70 -12.5 t44 -9.5l30 -54z" />
<glyph unicode="&#xf4;" horiz-adv-x="1075" d="M758 440q0 79 -16.5 150.5t-46.5 126t-72.5 86.5t-93.5 32q-62 0 -103 -27.5t-65 -76t-33.5 -115t-9.5 -143.5q0 -79 18.5 -148t50 -120t73 -80.5t87.5 -29.5q60 0 100 23t65 67t35.5 108t10.5 147zM1010 485q0 -67 -18 -131t-50.5 -121t-77.5 -105.5t-99.5 -83.5 t-117 -54.5t-128.5 -19.5q-103 0 -187 36t-143 99t-91.5 150t-32.5 189q0 99 36.5 192t102 165t156 115.5t198.5 43.5q102 0 185.5 -36t143 -99.5t91.5 -150.5t32 -189zM898 1107q-12 -19 -26.5 -39t-31.5 -28l-281 223l-279 -223q-17 8 -35 28t-32 39l279 387h137z" />
<glyph unicode="&#xf5;" horiz-adv-x="1075" d="M758 440q0 79 -16.5 150.5t-46.5 126t-72.5 86.5t-93.5 32q-62 0 -103 -27.5t-65 -76t-33.5 -115t-9.5 -143.5q0 -79 18.5 -148t50 -120t73 -80.5t87.5 -29.5q60 0 100 23t65 67t35.5 108t10.5 147zM1010 485q0 -67 -18 -131t-50.5 -121t-77.5 -105.5t-99.5 -83.5 t-117 -54.5t-128.5 -19.5q-103 0 -187 36t-143 99t-91.5 150t-32.5 189q0 99 36.5 192t102 165t156 115.5t198.5 43.5q102 0 185.5 -36t143 -99.5t91.5 -150.5t32 -189zM953 1377q-18 -41 -44 -89.5t-59 -90.5t-73.5 -70.5t-86.5 -28.5q-43 0 -82 16.5t-76 36t-73.5 36 t-74.5 16.5q-23 0 -41 -7.5t-34.5 -22t-33 -36t-34.5 -49.5l-75 28q18 41 43.5 90t58.5 91.5t73 71t86 28.5t87.5 -16.5t79.5 -36.5l71 -36q34 -16 66 -16q45 0 78 28t67 87z" />
<glyph unicode="&#xf6;" horiz-adv-x="1075" d="M758 440q0 79 -16.5 150.5t-46.5 126t-72.5 86.5t-93.5 32q-62 0 -103 -27.5t-65 -76t-33.5 -115t-9.5 -143.5q0 -79 18.5 -148t50 -120t73 -80.5t87.5 -29.5q60 0 100 23t65 67t35.5 108t10.5 147zM1010 485q0 -67 -18 -131t-50.5 -121t-77.5 -105.5t-99.5 -83.5 t-117 -54.5t-128.5 -19.5q-103 0 -187 36t-143 99t-91.5 150t-32.5 189q0 99 36.5 192t102 165t156 115.5t198.5 43.5q102 0 185.5 -36t143 -99.5t91.5 -150.5t32 -189zM908 1268q0 -37 -12.5 -69t-34 -56t-50 -38t-60.5 -14q-58 0 -88 31t-30 91q0 37 13 69t34.5 56 t49.5 37.5t59 13.5q56 0 87.5 -30t31.5 -91zM485 1268q0 -37 -12.5 -69t-33.5 -56t-49.5 -38t-60.5 -14q-58 0 -88.5 31t-30.5 91q0 37 13 69t34.5 56t50 37.5t58.5 13.5q57 0 88 -30t31 -91z" />
<glyph unicode="&#xf7;" horiz-adv-x="863" d="M538 324q0 -29 -9 -54.5t-25.5 -45t-38.5 -31t-47 -11.5q-46 0 -66.5 26.5t-20.5 74.5q0 29 9.5 54.5t26 44.5t38 30t46.5 11q87 0 87 -99zM538 845q0 -29 -9 -54.5t-25.5 -45t-38.5 -31t-47 -11.5q-46 0 -66.5 26t-20.5 74q0 29 9.5 54.5t26 44.5t38 30t46.5 11 q87 0 87 -98zM810 603q-3 -11 -9 -27l-13 -32l-14 -30q-6 -15 -10 -23h-679l-32 31q3 11 8.5 26t12.5 31l14 31q6 14 11 24h678z" />
<glyph unicode="&#xf8;" horiz-adv-x="1075" d="M760 440q0 44 -8.5 91t-19.5 85l-335 -430q31 -39 70 -65t80 -26q60 0 100.5 23t65.5 67t36 108t11 147zM316 473q0 -41 7 -84.5t18 -77.5l337 435q-29 39 -68 64t-81 25q-62 0 -103 -27.5t-65.5 -76t-34.5 -115t-10 -143.5zM997 952l-104 -134q54 -63 85.5 -149 t31.5 -184q0 -67 -18 -131t-50.5 -121t-77.5 -105.5t-99.5 -83.5t-117 -54.5t-128.5 -19.5q-67 0 -129 17t-112 46l-14 -19q-9 -8 -29 -18t-43.5 -19.5t-46.5 -17.5t-38 -12l-26 31l103 133q-54 63 -86.5 149t-32.5 184q0 99 36.5 192t102 165t156 115.5t198.5 43.5 q66 0 127 -17t110 -46l15 18q13 9 33 19l41 20q22 10 44 17.5t39 11.5z" />
<glyph unicode="&#xf9;" horiz-adv-x="1153" d="M1144 112q-37 -24 -81.5 -49t-86 -46t-74 -34t-44.5 -13q-18 0 -34.5 6.5t-31 25t-25.5 51t-17 83.5q-62 -54 -111.5 -86.5t-90 -50.5t-74.5 -23.5t-66 -5.5q-47 0 -92 13t-81 47.5t-58 94.5t-22 154v410q0 48 -1.5 74.5t-13 40t-36 18.5t-70.5 10v70q50 4 91.5 9 t79.5 11.5t75.5 15.5t79.5 22l35 -46v-572q0 -62 7.5 -101t22.5 -60.5t36.5 -29.5t49.5 -8q21 0 45.5 5t54 18.5t64 36.5t75.5 59v427q0 45 -3.5 72t-16.5 42t-39.5 21t-72.5 8v70q100 9 181.5 24.5t153.5 33.5l37 -46v-630q0 -31 1 -51.5t3.5 -34t7 -21.5t11.5 -13 q12 -8 33.5 -3.5t72.5 26.5zM738 1086q-6 -6 -17 -13t-23.5 -13.5t-24.5 -11.5t-21 -8l-382 377l29 56q10 3 41 9l67 12q36 7 68.5 12t44.5 6z" />
<glyph unicode="&#xfa;" horiz-adv-x="1153" d="M1144 112q-37 -24 -81.5 -49t-86 -46t-74 -34t-44.5 -13q-18 0 -34.5 6.5t-31 25t-25.5 51t-17 83.5q-62 -54 -111.5 -86.5t-90 -50.5t-74.5 -23.5t-66 -5.5q-47 0 -92 13t-81 47.5t-58 94.5t-22 154v410q0 48 -1.5 74.5t-13 40t-36 18.5t-70.5 10v70q50 4 91.5 9 t79.5 11.5t75.5 15.5t79.5 22l35 -46v-572q0 -62 7.5 -101t22.5 -60.5t36.5 -29.5t49.5 -8q21 0 45.5 5t54 18.5t64 36.5t75.5 59v427q0 45 -3.5 72t-16.5 42t-39.5 21t-72.5 8v70q100 9 181.5 24.5t153.5 33.5l37 -46v-630q0 -31 1 -51.5t3.5 -34t7 -21.5t11.5 -13 q12 -8 33.5 -3.5t72.5 26.5zM517 1040q-9 1 -21.5 6.5t-25.5 12t-23.5 13t-16.5 11.5l211 429q12 -1 44.5 -5.5t69.5 -10.5t70 -12.5t44 -9.5l30 -54z" />
<glyph unicode="&#xfb;" horiz-adv-x="1153" d="M1144 112q-37 -24 -81.5 -49t-86 -46t-74 -34t-44.5 -13q-18 0 -34.5 6.5t-31 25t-25.5 51t-17 83.5q-62 -54 -111.5 -86.5t-90 -50.5t-74.5 -23.5t-66 -5.5q-47 0 -92 13t-81 47.5t-58 94.5t-22 154v410q0 48 -1.5 74.5t-13 40t-36 18.5t-70.5 10v70q50 4 91.5 9 t79.5 11.5t75.5 15.5t79.5 22l35 -46v-572q0 -62 7.5 -101t22.5 -60.5t36.5 -29.5t49.5 -8q21 0 45.5 5t54 18.5t64 36.5t75.5 59v427q0 45 -3.5 72t-16.5 42t-39.5 21t-72.5 8v70q100 9 181.5 24.5t153.5 33.5l37 -46v-630q0 -31 1 -51.5t3.5 -34t7 -21.5t11.5 -13 q12 -8 33.5 -3.5t72.5 26.5zM916 1107q-12 -19 -26.5 -39t-31.5 -28l-281 223l-279 -223q-17 8 -35 28t-32 39l279 387h137z" />
<glyph unicode="&#xfc;" horiz-adv-x="1153" d="M1144 112q-37 -24 -81.5 -49t-86 -46t-74 -34t-44.5 -13q-18 0 -34.5 6.5t-31 25t-25.5 51t-17 83.5q-62 -54 -111.5 -86.5t-90 -50.5t-74.5 -23.5t-66 -5.5q-47 0 -92 13t-81 47.5t-58 94.5t-22 154v410q0 48 -1.5 74.5t-13 40t-36 18.5t-70.5 10v70q50 4 91.5 9 t79.5 11.5t75.5 15.5t79.5 22l35 -46v-572q0 -62 7.5 -101t22.5 -60.5t36.5 -29.5t49.5 -8q21 0 45.5 5t54 18.5t64 36.5t75.5 59v427q0 45 -3.5 72t-16.5 42t-39.5 21t-72.5 8v70q100 9 181.5 24.5t153.5 33.5l37 -46v-630q0 -31 1 -51.5t3.5 -34t7 -21.5t11.5 -13 q12 -8 33.5 -3.5t72.5 26.5zM926 1268q0 -37 -12.5 -69t-34 -56t-50 -38t-60.5 -14q-58 0 -88 31t-30 91q0 37 13 69t34.5 56t49.5 37.5t59 13.5q56 0 87.5 -30t31.5 -91zM503 1268q0 -37 -12.5 -69t-33.5 -56t-49.5 -38t-60.5 -14q-58 0 -88.5 31t-30.5 91q0 37 13 69 t34.5 56t50 37.5t58.5 13.5q57 0 88 -30t31 -91z" />
<glyph unicode="&#xfd;" horiz-adv-x="1040" d="M1027 857q-30 -7 -49 -13t-31 -13.5t-18.5 -17t-11.5 -24.5l-334 -864q-43 -110 -93 -189t-106 -130t-117 -75t-125 -24q-38 0 -75 7t-65.5 17.5t-46 22.5t-17.5 21t17 34.5t40.5 54.5t48.5 55t41 36q50 -32 100.5 -39.5t87.5 6.5q37 13 79.5 56.5t77.5 129.5l29 69 l-335 812q-11 27 -36 42t-75 26v73h453v-73q-39 -5 -60 -10.5t-30 -13t-8 -18t8 -26.5l206 -502l196 502q6 15 7.5 25.5t-6 18t-26.5 13t-53 11.5v73h327v-73zM484 1040q-9 1 -21.5 6.5t-25.5 12t-23.5 13t-16.5 11.5l211 429q12 -1 44.5 -5.5t69.5 -10.5t70 -12.5t44 -9.5 l30 -54z" />
<glyph unicode="&#xfe;" horiz-adv-x="1145" d="M855 429q1 92 -18 160t-50.5 112.5t-72 66.5t-83.5 22q-18 0 -37 -4t-43 -16t-55.5 -34t-75.5 -58v-450q51 -30 90 -48.5t70.5 -28.5t58 -13t52.5 -3q39 0 70 22t52 60.5t31.5 92.5t10.5 119zM1080 507q0 -66 -17 -131t-46 -125t-68 -111t-82.5 -89t-90 -59.5 t-90.5 -21.5q-26 0 -54.5 5.5t-61 18t-69.5 33t-81 50.5v-422q0 -16 37.5 -32t131.5 -30v-73h-541v73q66 16 99 30.5t33 31.5v1615q0 43 -4.5 67.5t-19 36.5t-40.5 16.5t-68 9.5v70q57 7 101.5 15.5t82.5 18t72.5 21t72.5 25.5l43 -42v-712q56 49 104 81t88.5 50.5 t74.5 25.5t63 7q68 0 128 -29.5t105 -86.5t71 -141.5t26 -195.5z" />
<glyph unicode="&#xff;" horiz-adv-x="1040" d="M1027 857q-30 -7 -49 -13t-31 -13.5t-18.5 -17t-11.5 -24.5l-334 -864q-43 -110 -93 -189t-106 -130t-117 -75t-125 -24q-38 0 -75 7t-65.5 17.5t-46 22.5t-17.5 21t17 34.5t40.5 54.5t48.5 55t41 36q50 -32 100.5 -39.5t87.5 6.5q37 13 79.5 56.5t77.5 129.5l29 69 l-335 812q-11 27 -36 42t-75 26v73h453v-73q-39 -5 -60 -10.5t-30 -13t-8 -18t8 -26.5l206 -502l196 502q6 15 7.5 25.5t-6 18t-26.5 13t-53 11.5v73h327v-73zM893 1268q0 -37 -12.5 -69t-34 -56t-50 -38t-60.5 -14q-58 0 -88 31t-30 91q0 37 13 69t34.5 56t49.5 37.5 t59 13.5q56 0 87.5 -30t31.5 -91zM470 1268q0 -37 -12.5 -69t-33.5 -56t-49.5 -38t-60.5 -14q-58 0 -88.5 31t-30.5 91q0 37 13 69t34.5 56t50 37.5t58.5 13.5q57 0 88 -30t31 -91z" />
<glyph unicode="&#x152;" horiz-adv-x="1726" d="M642 105q37 0 64.5 3t50.5 9.5t42.5 16.5t40.5 25v908q-47 48 -109 71t-127 23q-71 0 -126.5 -35.5t-93 -102.5t-57 -163.5t-19.5 -218.5q0 -112 26 -210t71 -170.5t106 -114t131 -41.5zM1679 304q-4 -43 -9 -90.5t-11 -90t-11.5 -75.5t-9.5 -48h-758q-53 -1 -87 -5.5 t-62.5 -10t-58.5 -10t-74 -4.5q-125 0 -225.5 53t-171 142t-108.5 205t-38 242q0 136 45 259t125.5 216t190.5 148t240 55q40 0 69 -4.5t54.5 -10t51 -10t58.5 -5.5h685l40 -32q-2 -26 -6 -65t-10 -80t-12.5 -77.5t-12.5 -55.5h-75q-5 93 -25 141.5t-57 48.5h-326v-405h387 l34 -35l-19 -33l-24 -38q-13 -19 -25.5 -35t-23.5 -24q-15 15 -32.5 25t-40 17t-53 10t-72.5 3h-131v-441q0 -15 5.5 -26.5t25.5 -20t58.5 -13t104.5 -4.5h99q46 0 78.5 11t57.5 35.5t45.5 64.5t41.5 99z" />
<glyph unicode="&#x153;" horiz-adv-x="1650" d="M1188 841q-85 0 -137 -68t-65 -193h334q22 0 30.5 7.5t8.5 28.5q0 27 -6 65.5t-24.5 74t-52 60.5t-88.5 25zM746 455q0 80 -17 149.5t-48 120.5t-74 80.5t-94 29.5q-54 0 -92.5 -25.5t-63.5 -72t-37 -111.5t-12 -145q0 -79 19.5 -149.5t52 -123t75 -83t88.5 -30.5 q54 0 92 26.5t63 74t36.5 113.5t11.5 146zM1585 550q-10 -10 -26 -22t-34.5 -23.5t-38 -21.5t-35.5 -16h-467q3 -69 20 -129t48.5 -104t77.5 -69t107 -25q28 0 56.5 4t62.5 17t75 36.5t94 61.5q6 -3 14.5 -12t16.5 -19l13 -20q6 -9 8 -13q-66 -73 -121.5 -117.5t-106 -68.5 t-99.5 -31.5t-101 -7.5q-85 0 -165 44t-139 124q-67 -77 -156 -122.5t-191 -45.5q-94 0 -173.5 36t-137 99t-90 150t-32.5 189q0 66 16.5 130t47 121.5t74 106t97.5 83.5t117 55t133 20q101 0 186 -40.5t144 -112.5q37 40 85 73q45 31 110.5 55.5t140.5 24.5q71 0 126 -18.5 t96 -50t69 -73t45.5 -87t25 -92t7.5 -89.5z" />
<glyph unicode="&#x178;" horiz-adv-x="1255" d="M345 0v73q45 9 75.5 19t48.5 19.5t25.5 18t7.5 15.5v384q-36 80 -81 165l-91 164q-46 80 -90 148t-79 115q-9 11 -19 20t-27 15t-43 9.5t-68 3.5l-4 73l66 9q38 5 75 9t69.5 7t53.5 3q28 0 56 -12t45 -34q37 -50 77 -114l82 -136l82 -148l74 -147l234 442q15 26 -9.5 41 t-101.5 25v73h418v-73q-68 -13 -101 -27t-47 -39l-321 -598v-378q0 -6 7 -14.5t25 -18.5t48.5 -20t77.5 -19v-73h-565zM976 1548q0 -37 -12.5 -69t-34 -56t-50 -38t-60.5 -14q-58 0 -88 31t-30 91q0 37 13 69t34.5 56t49.5 37.5t59 13.5q56 0 87.5 -30t31.5 -91zM553 1548 q0 -37 -12.5 -69t-33.5 -56t-49.5 -38t-60.5 -14q-58 0 -88.5 31t-30.5 91q0 37 13 69t34.5 56t50 37.5t58.5 13.5q57 0 88 -30t31 -91z" />
<glyph unicode="&#x2c6;" horiz-adv-x="733" d="M705 1107q-12 -19 -26.5 -39t-31.5 -28l-282 223l-278 -223q-17 8 -35.5 28t-32.5 39l279 387h137z" />
<glyph unicode="&#x2d7;" horiz-adv-x="728" d="M675 554q-3 -11 -9 -27t-13 -33l-13 -31l-11 -23h-544l-32 32q3 11 8.5 26.5t12.5 31.5l14 30q6 15 11 25h543z" />
<glyph unicode="&#x2dc;" horiz-adv-x="822" d="M805 1377q-18 -41 -44 -89.5t-59 -90.5t-73.5 -70.5t-86.5 -28.5q-43 0 -82 16.5t-76 36t-73.5 36t-74.5 16.5q-23 0 -41 -7.5t-34.5 -22t-33 -36t-34.5 -49.5l-75 28q18 41 43.5 90t58.5 91.5t73 71t86 28.5t87.5 -16.5t79.5 -36.5l71 -36q34 -16 66 -16q45 0 78 28 t67 87z" />
<glyph unicode="&#x300;" horiz-adv-x="0" d="M-274 1086q-6 -6 -17 -13t-23.5 -13.5t-24.5 -11.5t-21 -8l-382 377l29 56q10 3 41 9l67 12q36 7 68.5 12t44.5 6z" />
<glyph unicode="&#x301;" horiz-adv-x="0" d="M-601 1040q-9 1 -21.5 6.5t-25.5 12t-23.5 13t-16.5 11.5l211 429q12 -1 44.5 -5.5t69.5 -10.5t70 -12.5t44 -9.5l30 -54z" />
<glyph unicode="&#x302;" horiz-adv-x="0" d="M-176 1107q-12 -19 -26.5 -39t-31.5 -28l-281 223l-279 -223q-17 8 -35 28t-32 39l279 387h137z" />
<glyph unicode="&#x303;" horiz-adv-x="0" d="M-144 1377q-18 -41 -44 -89.5t-59 -90.5t-73.5 -70.5t-86.5 -28.5q-43 0 -82 16.5t-76 36t-73.5 36t-74.5 16.5q-23 0 -41 -7.5t-34.5 -22t-33 -36t-34.5 -49.5l-75 28q18 41 43.5 90t58.5 91.5t73 71t86 28.5t87.5 -16.5t79.5 -36.5l71 -36q34 -16 66 -16q45 0 78 28 t67 87z" />
<glyph unicode="&#x308;" horiz-adv-x="0" d="M-166 1268q0 -37 -12.5 -69t-34 -56t-50 -38t-60.5 -14q-58 0 -88 31t-30 91q0 37 13 69t34.5 56t49.5 37.5t59 13.5q56 0 87.5 -30t31.5 -91zM-589 1268q0 -37 -12.5 -69t-33.5 -56t-49.5 -38t-60.5 -14q-58 0 -88.5 31t-30.5 91q0 37 13 69t34.5 56t50 37.5t58.5 13.5 q57 0 88 -30t31 -91z" />
<glyph unicode="&#x30a;" horiz-adv-x="0" d="M-442 1243q0 48 -20 73.5t-43 25.5q-21 0 -36.5 -8.5t-26 -22t-16 -31t-5.5 -35.5q0 -46 20.5 -71t43.5 -25q40 0 61.5 27t21.5 67zM-307 1284q0 -53 -20 -100t-53.5 -81.5t-76.5 -54.5t-89 -20q-39 0 -72 12.5t-56.5 35.5t-36.5 55.5t-13 72.5q0 54 20 101t53 82.5 t76.5 55.5t90.5 20q40 0 73 -13.5t56 -37t35.5 -56.5t12.5 -72z" />
<glyph unicode="&#x2000;" horiz-adv-x="900" />
<glyph unicode="&#x2001;" horiz-adv-x="1800" />
<glyph unicode="&#x2002;" horiz-adv-x="900" />
<glyph unicode="&#x2003;" horiz-adv-x="1800" />
<glyph unicode="&#x2004;" horiz-adv-x="600" />
<glyph unicode="&#x2005;" horiz-adv-x="450" />
<glyph unicode="&#x2006;" horiz-adv-x="300" />
<glyph unicode="&#x2007;" horiz-adv-x="300" />
<glyph unicode="&#x2008;" horiz-adv-x="225" />
<glyph unicode="&#x2009;" horiz-adv-x="360" />
<glyph unicode="&#x200a;" horiz-adv-x="100" />
<glyph unicode="&#x2010;" horiz-adv-x="728" d="M675 554q-3 -11 -9 -27t-13 -33l-13 -31l-11 -23h-544l-32 32q3 11 8.5 26.5t12.5 31.5l14 30q6 15 11 25h543z" />
<glyph unicode="&#x2011;" horiz-adv-x="728" d="M675 554q-3 -11 -9 -27t-13 -33l-13 -31l-11 -23h-544l-32 32q3 11 8.5 26.5t12.5 31.5l14 30q6 15 11 25h543z" />
<glyph unicode="&#x2013;" horiz-adv-x="990" d="M938 554q-3 -11 -9 -27t-13 -33l-14 -31q-6 -15 -10 -23h-807l-32 32q3 11 8.5 26.5t12.5 31.5l14 30q6 15 11 25h807z" />
<glyph unicode="&#x2014;" horiz-adv-x="1645" d="M1592 554q-3 -11 -9 -27t-13 -33l-14 -31q-6 -15 -10 -23h-1461l-32 32q3 11 8.5 26.5t12.5 31.5l14 30q6 15 11 25h1461z" />
<glyph unicode="&#x2018;" horiz-adv-x="529" d="M454 961q-6 -8 -26 -19.5t-47.5 -23.5t-59 -23.5t-60.5 -20.5t-52.5 -14t-35.5 -4q-51 38 -75.5 87t-24.5 115q0 55 19.5 111.5t52.5 108.5t77 96.5t92 75.5l65 -50q-36 -48 -60 -109.5t-24 -127.5q0 -55 37 -90t106 -37z" />
<glyph unicode="&#x2019;" horiz-adv-x="531" d="M454 1245q0 -55 -19.5 -111.5t-52.5 -108.5t-76.5 -96.5t-91.5 -75.5l-66 50q36 48 60 110t24 127q0 55 -37 90t-106 37l-16 75q6 8 26 19.5t47.5 23.5t59 23.5t60.5 20.5t52.5 14t35.5 4q51 -38 75.5 -87t24.5 -115z" />
<glyph unicode="&#x201a;" horiz-adv-x="531" d="M454 36q0 -55 -19.5 -111.5t-52.5 -108.5t-76.5 -96.5t-91.5 -75.5l-66 50q36 48 60 110t24 127q0 55 -37 90.5t-106 37.5l-16 75q6 8 26 19t47.5 23t59 24t60.5 21t52.5 14t35.5 4q51 -38 75.5 -87.5t24.5 -115.5z" />
<glyph unicode="&#x201c;" horiz-adv-x="1012" d="M458 961q-6 -8 -26 -19.5t-47.5 -23.5t-59 -23.5t-60.5 -20.5t-52.5 -14t-35.5 -4q-51 38 -75.5 87t-24.5 115q0 55 19.5 111.5t52.5 108.5t77 96.5t92 75.5l65 -50q-37 -48 -60.5 -109.5t-23.5 -127.5q0 -55 37 -90t106 -37zM939 961q-6 -8 -26 -19.5t-47.5 -23.5 t-59 -23.5t-60.5 -20.5t-52.5 -14t-35.5 -4q-51 38 -75.5 87t-24.5 115q0 55 19.5 111.5t52.5 108.5t76.5 96.5t91.5 75.5l66 -50q-37 -48 -60.5 -109.5t-23.5 -127.5q0 -55 36.5 -90t105.5 -37z" />
<glyph unicode="&#x201d;" horiz-adv-x="1013" d="M454 1245q0 -55 -19.5 -111.5t-52.5 -108.5t-76.5 -96.5t-91.5 -75.5l-66 50q36 48 60 110t24 127q0 55 -37 90t-106 37l-16 75q6 8 26 19.5t47.5 23.5t59 23.5t60.5 20.5t52.5 14t35.5 4q51 -38 75.5 -87t24.5 -115zM934 1245q0 -55 -19.5 -111.5t-52.5 -108.5 t-76.5 -96.5t-91.5 -75.5l-65 50q36 48 60 110t24 127q0 55 -37 90t-106 37l-16 75q6 8 26 19.5t47 23.5t58.5 23.5t61 20.5t53 14t35.5 4q51 -38 75 -87t24 -115z" />
<glyph unicode="&#x201e;" horiz-adv-x="1020" d="M454 36q0 -55 -19.5 -111.5t-52.5 -108.5t-76.5 -96.5t-91.5 -75.5l-66 50q36 48 60 110t24 127q0 55 -37 90.5t-106 37.5l-16 75q6 8 26 19t47.5 23t59 24t60.5 21t52.5 14t35.5 4q51 -38 75.5 -87.5t24.5 -115.5zM934 36q0 -55 -19.5 -111.5t-52.5 -108.5t-76.5 -96.5 t-91.5 -75.5l-65 50q36 48 60 110t24 127q0 55 -37 90.5t-106 37.5l-16 75q6 8 26 19t47 23t58.5 24t61 21t53 14t35.5 4q51 -38 75 -87.5t24 -115.5z" />
<glyph unicode="&#x2022;" horiz-adv-x="569" d="M498 662q0 -61 -17.5 -111t-49 -86t-75 -56t-96.5 -20q-48 0 -83.5 16.5t-59 46.5t-35.5 71t-12 89q0 60 18.5 110t50.5 86.5t75.5 56.5t94.5 20q45 0 80.5 -16.5t59.5 -46t36.5 -70.5t12.5 -90z" />
<glyph unicode="&#x2026;" horiz-adv-x="1677" d="M459 131q0 -40 -14.5 -72t-39 -54t-58 -33.5t-71.5 -11.5q-29 0 -55.5 7.5t-46.5 24t-31.5 42t-11.5 61.5q0 39 15 71t40.5 54t59 34t69.5 12q28 0 54 -8t46 -24.5t32 -42t12 -60.5zM1021 131q0 -40 -14.5 -72t-39 -54t-58 -33.5t-71.5 -11.5q-29 0 -55.5 7.5t-46.5 24 t-31.5 42t-11.5 61.5q0 39 15 71t40.5 54t59 34t69.5 12q28 0 54 -8t46 -24.5t32 -42t12 -60.5zM1584 131q0 -40 -14.5 -72t-39 -54t-58 -33.5t-71.5 -11.5q-29 0 -55.5 7.5t-46.5 24t-31.5 42t-11.5 61.5q0 39 15 71t40.5 54t59 34t69.5 12q28 0 54 -8t46 -24.5t32 -42 t12 -60.5z" />
<glyph unicode="&#x202f;" horiz-adv-x="360" />
<glyph unicode="&#x2039;" horiz-adv-x="647" d="M464 2l-399 428v35q0 14 0.5 25t1.5 13l397 425l57 -45l-9 -18l-22 -47l-32 -68l-38 -76l-37 -76l-32 -67l-23 -47q-8 -17 -7 -17l201 -420z" />
<glyph unicode="&#x203a;" horiz-adv-x="647" d="M580 428l-397 -426l-57 45l200 417l-201 419l58 45l398 -427z" />
<glyph unicode="&#x205f;" horiz-adv-x="450" />
<glyph unicode="&#x20ac;" d="M685 437h-301q14 -93 42.5 -155t65 -99.5t78.5 -53.5t83 -16q27 0 55 5t61 20.5t73 43.5t91 74q14 -14 27 -32l25 -35q-60 -68 -113 -111t-102.5 -67t-96 -32.5t-92.5 -8.5q-79 0 -152.5 29.5t-134 88t-103.5 146t-61 203.5h-84l-29 33q2 7 6 19l8 25l8 24l7 19h74v27 q0 44 3 88h-47l-29 33q2 7 6 19l8 24l8 24l7 20h62q22 112 68.5 195.5t115 138.5t156.5 82t193 27q50 0 96 -8t87 -21.5t75 -31.5t60 -39q4 -3 -0.5 -16.5t-13.5 -33t-21.5 -42.5t-25.5 -44t-24.5 -37.5t-19.5 -24.5l-65 14q-46 74 -98 113t-127 39q-30 0 -62.5 -12 t-61.5 -45.5t-52 -94.5t-35 -159h362l33 -30l-33 -90h-371q-1 -18 -1 -36v-79h312l33 -30z" />
<glyph unicode="&#x2122;" horiz-adv-x="1234" d="M167 807v36q38 8 50.5 14.5t12.5 11.5v339h-102q-13 0 -23.5 -16.5t-28.5 -58.5l-31 9q1 10 3 26l4 34q2 18 5 34t5 25h441l16 -12q-1 -9 -2.5 -24t-3.5 -31.5t-4.5 -32.5t-5.5 -26h-31l-13 53q-5 20 -23 20h-99v-339q0 -5 12.5 -11.5t50.5 -14.5v-36h-233zM1177 1225 q-10 0 -23.5 -2t-27.5 -7l4 -351q0 -5 14.5 -11t44.5 -11v-36h-215v36q28 5 43.5 11t15.5 11l-4 272l-172 -330h-41l-170 330l-3 -272q0 -5 13 -11t42 -11v-36h-172v36q28 5 42 11t14 11l4 348q-15 7 -29.5 9.5t-26.5 2.5v36h144q8 0 14 -5.5t16 -25.5l150 -291l153 291 q11 22 16.5 26.5t13.5 4.5h140v-36z" />
<glyph unicode="&#x2219;" horiz-adv-x="419" d="M369 708q0 -39 -14 -69.5t-38 -51.5t-56.5 -32t-68.5 -11q-29 0 -54.5 7.5t-44.5 23t-30.5 40t-11.5 59.5q0 38 14.5 68.5t39 52t56.5 33t68 11.5q27 0 52 -7.5t44.5 -23.5t31.5 -41t12 -59z" />
<glyph horiz-adv-x="615" d="M63 0v73q68 14 100 30.5t32 30.5v514q0 51 -1 82.5t-12.5 49t-38.5 25.5t-80 13v70q86 12 163 29.5t145 42.5h64v-826q0 -12 30 -29.5t103 -31.5v-73h-505z" />
<glyph horiz-adv-x="0" d="M-675 1040q-17 8 -35.5 28t-32.5 39l365 340q23 -12 51 -29l53 -32q26 -15 46 -29t28 -22l9 -52z" />
<glyph horiz-adv-x="0" d="M-241 1100q-14 -19 -28.5 -35.5t-31.5 -24.5l-479 234l10 63q7 8 29.5 24l48.5 33l51 32q24 15 35 21z" />
<glyph horiz-adv-x="0" d="M-176 1100q-12 -19 -26.5 -35.5t-31.5 -24.5l-281 163l-279 -163q-17 8 -31.5 24.5t-28.5 35.5l279 324h122z" />
<glyph horiz-adv-x="0" d="M-144 1337q-18 -41 -44 -89.5t-59 -90.5t-73.5 -70.5t-86.5 -28.5q-43 0 -82 16.5t-76 36t-73.5 36t-74.5 16.5q-23 0 -41 -7.5t-34.5 -22t-33 -36t-34.5 -49.5l-75 28q18 41 43.5 90t58.5 91.5t73 71t86 28.5t87.5 -16.5t79.5 -36.5l71 -36q34 -16 66 -16q45 0 78 28 t67 87z" />
<glyph horiz-adv-x="0" d="M-166 1228q0 -37 -12.5 -69t-34 -56t-50 -38t-60.5 -14q-58 0 -88 31t-30 91q0 37 13 69t34.5 56t49.5 37.5t59 13.5q56 0 87.5 -30t31.5 -91zM-589 1228q0 -37 -12.5 -69t-33.5 -56t-49.5 -38t-60.5 -14q-58 0 -88.5 31t-30.5 91q0 37 13 69t34.5 56t50 37.5t58.5 13.5 q57 0 88 -30t31 -91z" />
</font>
</defs>
</svg>
