<?xml version="1.0" standalone="no"?>
<!DOCTYPE svg PUBLIC "-//W3C//DTD SVG 1.1//EN" "http://www.w3.org/Graphics/SVG/1.1/DTD/svg11.dtd" >
<svg xmlns="http://www.w3.org/2000/svg">
<metadata>
This is a custom SVG webfont generated by Font Squirrel.
Designer    : J. Victor Gaultney and Annie Olsen
Foundry     : SIL International
Foundry URL : http://scripts.sil.org/
</metadata>
<defs>
<font id="webfontxFZtZk8k" horiz-adv-x="932" >
<font-face units-per-em="2048" ascent="1638" descent="-410" />
<missing-glyph horiz-adv-x="491" />
<glyph unicode=" "  horiz-adv-x="491" />
<glyph unicode="&#x09;" horiz-adv-x="491" />
<glyph unicode="&#xa0;" horiz-adv-x="491" />
<glyph unicode="!" horiz-adv-x="478" d="M351 167q0 -33 -12 -68.5t-36 -64t-58.5 -47t-79.5 -18.5q-63 0 -92 31.5t-29 82.5q0 32 13 66t37.5 62.5t59 46.5t77.5 18q60 0 90 -30.5t30 -78.5zM300 412q-20 -14 -49.5 -26.5t-54.5 -20.5l-24 21l55 935q20 12 53 29l67 33l67 31q33 15 53 22l42 -32z" />
<glyph unicode="&#x22;" horiz-adv-x="890" d="M707 855q-8 -5 -21.5 -8.5t-28 -5.5t-29 -3.5t-25.5 -1.5l-5 516q12 6 43 18l66 24q35 13 66 23t42 13l44 -28zM333 855q-8 -5 -21.5 -8.5t-28 -5.5t-29 -3.5t-25.5 -1.5l-5 516q12 6 43 18l66 24q35 13 66 23t42 13l44 -28z" />
<glyph unicode="#" d="M840 976h144l20 -25q-4 -11 -12 -28l-17 -35l-17 -33l-13 -24h-163l-89 -226h146l17 -27q-3 -10 -10 -26l-16 -34l-17.5 -33.5t-12.5 -24.5h-164l-114 -290q-9 -7 -24 -13t-32 -11l-33 -10l-29 -9l-21 20l123 313h-163l-114 -290q-9 -7 -24 -13t-32 -11l-33 -10l-29 -9 l-21 20l123 313h-153l-18 25q4 10 12 26l16 33l16 34q9 17 15 27h169l89 226h-152l-20 24q4 11 11.5 27.5t16.5 33.5l17 34l14 26h170l109 275q11 8 26.5 13.5t31.5 9.5l31 9q15 4 26 9l24 -22l-116 -294h161l109 275q11 8 26.5 13.5t31.5 9.5l31 9q15 4 26 9l23 -22z M401 605h162l89 226h-162z" />
<glyph unicode="$" d="M309 950q0 -23 5 -43.5t19.5 -40t39 -39t63.5 -39.5l45 321q-38 -5 -70 -20t-54.5 -36.5t-35 -48t-12.5 -54.5zM644 343q0 55 -30.5 96.5t-99.5 81.5l-56 -403q88 16 137 74.5t49 150.5zM906 1144q4 -3 -0.5 -18.5t-14 -38t-22.5 -49t-26 -49.5t-24.5 -39.5t-17.5 -20.5 l-58 8q-15 55 -51 99t-97 63l-50 -360q72 -31 127.5 -63t93.5 -69.5t58 -83.5t20 -105q0 -78 -26 -149.5t-77 -130t-127 -100t-176 -58.5l-15 -111q-18 -15 -42.5 -27t-48.5 -18l-28 29l16 117q-3 0 -6.5 -0.5t-6.5 -0.5q-46 0 -101 15.5t-103 39.5t-80 52.5t-32 54.5 q0 10 6.5 29.5t17.5 43t25 47.5t28 43.5t27.5 32t23.5 12.5q9 0 18.5 -13.5t22.5 -35.5l28 -47q16 -26 38 -50.5t50 -44.5t65 -29l65 455l-36 15q-63 25 -111.5 54t-81 64t-49.5 77t-17 94q0 55 22.5 111t69.5 103.5t120 82t174 48.5l17 115q26 16 44 29.5t44 21.5l30 -30 l-18 -128h3q42 0 82.5 -7.5t78 -19.5t70 -27.5t58.5 -32.5z" />
<glyph unicode="%" horiz-adv-x="1387" d="M1116 416q0 86 -23 123t-57 37q-30 0 -52.5 -21t-39 -55t-27.5 -76t-17.5 -84.5t-9 -80.5t-2.5 -63q0 -79 20.5 -115.5t63.5 -36.5q25 0 45.5 18t36.5 48t28 68.5t19.5 80t11 82.5t3.5 75zM1307 400q0 -76 -24.5 -153t-72 -139t-117 -101t-158.5 -39q-54 0 -98.5 20.5 t-77 55t-50 80t-17.5 96.5q0 76 25.5 153t74 138.5t119 100.5t160.5 39q51 0 94 -17.5t74.5 -50.5t49.5 -79.5t18 -103.5zM269 6q-11 -6 -30.5 -11.5t-40.5 -10.5l-40 -8q-20 -4 -33 -7l-19 31l1014 1199q10 5 29 10.5t40 10.5t40.5 9t30.5 7l21 -30zM505 1004q0 43 -6 73.5 t-17 49.5t-26 27.5t-32 8.5q-30 0 -52.5 -21t-39 -55t-27.5 -76t-17.5 -84t-9 -80t-2.5 -63q0 -80 20.5 -116t63.5 -36q25 0 45.5 18t37 47.5t28 68t19.5 80t11.5 82.5t3.5 76zM694 988q0 -76 -24.5 -153t-71.5 -139t-116 -101t-159 -39q-54 0 -99 20t-77 54.5t-49.5 80 t-17.5 96.5q0 76 25.5 153t74 138.5t119 100.5t160.5 39q51 0 94 -17.5t74.5 -50.5t49 -79t17.5 -103z" />
<glyph unicode="&#x26;" horiz-adv-x="1293" d="M576 1130q-8 -52 -2.5 -107.5t21.5 -114.5q48 29 81.5 61.5t56 66t34.5 67.5t17 66q11 71 -13.5 111.5t-69.5 40.5q-26 0 -47 -15t-36.5 -41t-25.5 -61t-16 -74zM507 114q53 0 103.5 16.5t98.5 45.5q-37 45 -75 98t-73.5 111t-68 120t-58.5 127q-59 -63 -86.5 -125 t-37.5 -131q-9 -70 5 -120t43 -81.5t68.5 -46t80.5 -14.5zM1369 748l-29 -34l-32 -36l-32 -32q-16 -15 -28 -24q-32 17 -70 31.5t-69 16.5q15 -29 16.5 -61t-3.5 -71q-9 -66 -46.5 -140t-97.5 -145l32 -35l30 -32q42 -43 91.5 -54t97.5 1l5 -73q-42 -19 -88 -35.5 t-86.5 -28.5t-70.5 -19t-40 -7q-23 0 -65 30.5t-95 85.5q-80 -53 -170 -84.5t-187 -31.5t-171 25t-121.5 73.5t-66 120.5t-5.5 166q14 106 91 211t226 211q-20 76 -27.5 150t2.5 146q11 81 49 150t94.5 119.5t126.5 79t145 28.5q70 0 117.5 -20.5t75.5 -55t37.5 -79 t2.5 -93.5q-7 -52 -39 -105.5t-80 -104.5t-106 -97.5t-118 -83.5l-30 -19q46 -116 115 -228t143 -208q45 71 56 141q6 43 -1.5 77.5t-24 58.5t-40 37t-50.5 13l-23 35l18 17q11 11 24.5 22.5t26.5 21t23 13.5h445z" />
<glyph unicode="'" horiz-adv-x="478" d="M333 855q-8 -5 -21.5 -8.5t-28 -5.5t-29 -3.5t-25.5 -1.5l-5 516q12 6 43 18l66 24q35 13 66 23t42 13l44 -28z" />
<glyph unicode="(" horiz-adv-x="632" d="M748 1529q-67 -55 -128 -134t-111.5 -184.5t-89.5 -238t-61 -292.5q-21 -146 -24 -280t13.5 -251t54 -215.5t97.5 -173.5l-59 -75q-99 60 -172 158.5t-116 224.5t-55 274t11 307q23 164 76.5 312.5t131.5 272t178 218.5t216 152z" />
<glyph unicode=")" horiz-adv-x="632" d="M544 635q-23 -164 -76.5 -311.5t-131.5 -270.5t-178 -217t-216 -151l-38 75q67 55 127.5 133.5t111.5 183t89.5 236t61.5 292.5q21 145 24 279.5t-13.5 252.5t-54 217.5t-97.5 174.5l59 75q99 -60 172 -159.5t116 -226t55 -275.5t-11 -308z" />
<glyph unicode="*" horiz-adv-x="741" d="M444 1220l227 184l24 -21q16 -14 33 -31l32 -31q14 -15 20 -23l-15 -56l-285 -106l235 -96q-2 -12 -8 -36l-13 -50q-7 -26 -14.5 -49t-11.5 -34l-52 -20l-192 198l8 -279q-11 -6 -33 -16l-46 -18l-46 -18q-22 -8 -32 -10l-35 35l91 305l-227 -184q-9 7 -25 22l-33 30 q-17 16 -31.5 31t-20.5 23l17 56l285 106l-236 96l9 36l13 50l14 49q6 23 11 34l51 20l193 -198l-8 279q11 6 32.5 15.5t45.5 18.5l46 18q22 8 33 11l36 -36z" />
<glyph unicode="+" horiz-adv-x="819" d="M769 604q-4 -11 -11.5 -27l-15.5 -33l-18 -31l-12 -23h-234l-36 -265q-9 -5 -23.5 -11t-30.5 -11.5t-31 -10t-25 -6.5l-24 30l38 274h-262l-24 32q4 10 12 26l15 31q8 16 16.5 31t13.5 25h249l37 267q8 3 23 8l30 10l30 11l26 8l24 -31l-38 -273h245z" />
<glyph unicode="," horiz-adv-x="478" d="M375 117q0 -41 -14.5 -87.5t-39.5 -94t-58.5 -93.5t-70 -87t-74.5 -74t-73 -54l-57 50q76 81 114.5 161t38.5 139q0 19 -6.5 37.5t-20 33t-34.5 22t-51 4.5l-4 78q11 9 32 21t47 24t55 23t56.5 19.5t50.5 14t38 5.5q18 -10 31 -22t22 -28.5t13.5 -38.5t4.5 -53z" />
<glyph unicode="-" horiz-adv-x="679" d="M633 549q-4 -11 -11 -26l-16 -31l-17 -30q-8 -14 -12 -22h-523l-26 32q4 11 11 25.5t15 29.5l18 29l14 24h520z" />
<glyph unicode="." horiz-adv-x="478" d="M351 167q0 -33 -12 -68.5t-36 -64t-58.5 -47t-79.5 -18.5q-63 0 -92 31.5t-29 82.5q0 32 13 66t37.5 62.5t59 46.5t77.5 18q60 0 90 -30.5t30 -78.5z" />
<glyph unicode="/" horiz-adv-x="888" d="M102 -270q-10 -7 -34 -16l-52 -20q-28 -10 -54 -18l-37 -12l-36 32l898 1839q13 9 36 18.5t48 18.5t48.5 16t38.5 11l39 -29z" />
<glyph unicode="0" d="M657 809q0 79 -10.5 135.5t-29.5 92t-44 52t-55 16.5q-53 0 -91.5 -39.5t-66 -103t-45 -142.5t-27.5 -158t-14 -149.5t-4 -117.5q0 -153 35 -223.5t109 -70.5q46 0 82.5 34.5t63.5 91.5t45.5 131t30 152.5t16.5 156t5 142.5zM897 784q0 -149 -30 -284t-106 -264 q-33 -56 -74.5 -104.5t-92 -84.5t-109 -57t-125.5 -21q-75 0 -136 36.5t-103.5 99t-65.5 144.5t-23 173q0 78 7 147.5t22.5 134t40.5 128t60 129.5q31 57 73.5 107t94 87t111.5 58.5t128 21.5q70 0 130 -32t104 -90.5t69 -142t25 -186.5z" />
<glyph unicode="1" d="M771 0h-702l11 83q74 9 123.5 20.5t80 23.5t44 23.5t15.5 22.5l100 737q5 40 5.5 62t-8.5 36q-5 6 -19 10t-41.5 3t-70.5 -7t-106 -20l-15 81q27 6 66 18l86 27l94 32l92 35l82 32q38 15 62 26l35 -42l-140 -1030q-2 -10 6.5 -21.5t32.5 -23.5t67 -24t111 -21z" />
<glyph unicode="2" d="M887 1021q0 -42 -11 -85.5t-38.5 -96t-73.5 -116t-116.5 -144t-167.5 -181.5l-224 -227h360q16 0 30 8.5t25.5 23t20.5 32.5t17 37q17 45 28 102l74 -19l-63 -355h-740l-16 74q179 181 303.5 321t202.5 248.5t113 189.5t35 144q0 72 -32 107t-93 35q-37 0 -63.5 -18 t-43 -46.5t-24.5 -64t-7 -71.5q-16 -9 -43 -19.5t-57.5 -19.5t-59.5 -16t-50 -9l-24 68q7 52 46.5 107t101.5 100.5t141 75t165 29.5q55 0 106.5 -11t91 -36.5t63 -66t23.5 -100.5z" />
<glyph unicode="3" d="M838 1001q0 -54 -17.5 -100.5t-48.5 -85t-73 -68t-90 -49.5q51 -6 89.5 -30t64 -61t38.5 -83t13 -96q0 -94 -38 -177.5t-103.5 -146t-153.5 -99t-189 -36.5q-35 0 -77.5 11t-86.5 32t-86 52t-77 70l54 97q73 -68 140.5 -94.5t136.5 -26.5q51 0 95 21.5t75.5 59.5 t49.5 91.5t18 118.5q0 52 -13 90t-36.5 62.5t-55 36t-67.5 11.5h-20q-8 0 -15.5 -1t-16 -2t-22.5 -4l-6 90q132 34 206.5 107.5t74.5 194.5q0 63 -24 98t-77 35q-27 0 -49.5 -11.5t-39 -32.5t-24.5 -50.5t-6 -66.5q-20 -11 -47.5 -23t-57 -21.5t-58.5 -16.5t-51 -8l-24 61 q4 28 21.5 60t45.5 63.5t65.5 61t82 51.5t94.5 35.5t104 13.5q80 0 134 -19.5t87 -52t47 -75t14 -87.5z" />
<glyph unicode="4" d="M232 475h280l70 505zM872 444q-24 -32 -54.5 -62t-53.5 -47h-59l-27 -201q-2 -8 3 -14.5t18.5 -14t37.5 -15.5t61 -17l-9 -73h-536l10 73q61 11 100.5 20.5t62 18t31.5 16.5t10 17l26 190h-437l-33 41l552 791l51 18l58 21l56 20l49 19l35 -42l-100 -728h128z" />
<glyph unicode="5" d="M911 1187q-12 -17 -32 -41l-42 -50l-42 -44t-32 -29h-396q-6 -29 -15 -67l-20 -74l-20 -72q-9 -34 -16 -56q37 18 92.5 29.5t112.5 11.5q83 0 144 -27.5t101.5 -72.5t60.5 -102t20 -116q0 -60 -13.5 -120.5t-40.5 -117t-67 -106t-93.5 -86t-120 -57.5t-145.5 -21 q-44 0 -89.5 10.5t-89.5 30.5t-85 50.5t-76 69.5l56 90q45 -35 84 -58t73 -36.5t65.5 -18.5t61.5 -5q55 0 101 26.5t79 71t51.5 104t18.5 125.5q0 49 -13.5 89.5t-38 69t-60 44.5t-79.5 16q-74 0 -131.5 -24t-111.5 -64l-41 33q12 36 27 85.5l31 105.5l31 116q16 59 29 115 l26 105q11 49 17 84h487q25 0 45.5 2.5t34.5 6.5q17 4 30 10z" />
<glyph unicode="6" d="M492 644q-41 0 -88 -28t-97 -79q-5 -41 -7.5 -81.5t-2.5 -82.5q0 -75 11.5 -127t32.5 -84.5t49.5 -47.5t62.5 -15q33 0 58.5 16.5t45 44.5t33.5 64t22.5 74t12.5 76.5t4 70.5q0 61 -12.5 100t-32 61t-44 30t-48.5 8zM875 1160q-116 -22 -204.5 -66.5t-154 -106.5 t-109.5 -139.5t-70 -165.5q63 51 123.5 77t114.5 26q67 0 120 -22t90.5 -62t57.5 -95.5t20 -122.5q0 -54 -14 -113.5t-41 -116.5t-66 -108.5t-89.5 -90.5t-111.5 -62t-132 -23q-73 0 -137 28.5t-112 80t-75.5 123.5t-27.5 159q0 108 23.5 211.5t69.5 197t114.5 174.5 t158 144t199.5 105t240 57z" />
<glyph unicode="7" d="M970 1167l-114 -217l-109 -216l-102 -206l-91 -188l-76 -162l-57 -127q-18 -12 -45 -24t-57 -22.5t-60 -19.5t-54 -15l-40 40l125 193l108 175l95 164l89 158l86 159l88 165h-420q-14 0 -29.5 -3.5t-34.5 -19t-41.5 -48t-50.5 -90.5l-60 25l18 67l25 92l25 91 q13 44 22 66h735z" />
<glyph unicode="8" d="M385 940q0 -36 14 -63t37.5 -49.5t54.5 -40.5t66 -36q45 41 77 95t32 129q0 70 -35 107t-96 37q-32 0 -59 -15.5t-47.5 -41t-32 -57.5t-11.5 -65zM615 342q0 50 -15 87t-39.5 65t-57.5 49t-69 40q-35 -31 -64 -64.5t-50 -71.5t-32.5 -81t-11.5 -92q0 -43 12 -76.5t32 -57 t47.5 -35.5t57.5 -12q44 0 79 22t60 57t38 80t13 90zM894 1001q0 -52 -21 -95.5t-55 -80t-76.5 -67.5t-84.5 -58q39 -22 75.5 -49t64 -63t44 -82.5t16.5 -108.5q0 -85 -39.5 -162.5t-105 -136.5t-150.5 -94t-176 -35q-92 0 -158.5 23t-109.5 62t-64 89.5t-21 106.5 q0 65 26 121.5t68.5 104.5t97.5 87.5t113 69.5q-34 19 -65 42t-54 53t-37 69t-14 92q0 73 34.5 136.5t93 110t135.5 73t163 26.5q78 0 135 -17.5t93.5 -48.5t54 -74t17.5 -94z" />
<glyph unicode="9" d="M461 570q57 0 105 30t89 76q9 82 9 175q0 75 -10 124.5t-28 79t-42.5 41.5t-52.5 12q-57 0 -95 -32t-61 -81.5t-32.5 -109.5t-9.5 -115q0 -57 12 -95t30.5 -61.5t41.5 -33.5t44 -10zM907 862q0 -171 -52 -325t-154 -275.5t-254 -201.5t-353 -103l-12 89 q121 28 212.5 71.5t158 104t110 138.5t67.5 174q-52 -49 -115.5 -80.5t-136.5 -31.5q-71 0 -123.5 24.5t-87 66t-51 96.5t-16.5 116q0 60 16.5 121t47 118t73.5 106t96 86t114.5 58t128.5 21q74 0 135 -22.5t104.5 -68.5t67.5 -116.5t24 -165.5z" />
<glyph unicode=":" horiz-adv-x="478" d="M351 167q0 -33 -12 -68.5t-36 -64t-58.5 -47t-79.5 -18.5q-63 0 -92 31.5t-29 82.5q0 32 13 66t37.5 62.5t59 46.5t77.5 18q60 0 90 -30.5t30 -78.5zM445 852q0 -33 -12 -68t-35.5 -63.5t-58 -47t-79.5 -18.5q-63 0 -92 31t-29 82q0 32 13 66t37.5 62.5t59 46.5t77.5 18 q60 0 89.5 -30.5t29.5 -78.5z" />
<glyph unicode=";" horiz-adv-x="478" d="M375 117q0 -41 -14.5 -87.5t-39.5 -94t-58.5 -93.5t-70 -87t-74.5 -74t-73 -54l-57 50q76 81 114.5 161t38.5 139q0 19 -6.5 37.5t-20 33t-34.5 22t-51 4.5l-4 78q11 9 32 21t47 24t55 23t56.5 19.5t50.5 14t38 5.5q18 -10 31 -22t22 -28.5t13.5 -38.5t4.5 -53zM447 852 q0 -33 -12 -68t-35.5 -63.5t-58 -47t-79.5 -18.5q-63 0 -92.5 31t-29.5 82q0 32 13 66t37.5 62.5t59 46.5t77.5 18q60 0 90 -30.5t30 -78.5z" />
<glyph unicode="&#x3c;" horiz-adv-x="885" d="M852 888l-50 -129l-504 -191l460 -193l16 -44l-50 -45q-28 -26 -58 -45l-584 245l-24 40q4 13 10 29l14 33l14 32l12 27l718 273z" />
<glyph unicode="=" horiz-adv-x="885" d="M839 754q-4 -11 -11.5 -27l-15.5 -33l-18 -31l-12 -23h-674l-25 32q4 10 11 26l16 31l17 31q8 15 14 25h673zM798 454q-4 -11 -11.5 -27t-16.5 -33l-16 -31q-9 -15 -13 -23h-674l-24 32q4 10 11 25.5t16 31.5l16 31q8 15 14 25h673z" />
<glyph unicode="&#x3e;" horiz-adv-x="885" d="M820 635q-5 -14 -12 -30l-12 -33l-14 -31l-13 -27l-718 -273l-25 33q4 10 10 28l14 38l15 36q7 18 11 27l503 190l-460 193l-15 44l50 46q27 25 57 44l584 -245z" />
<glyph unicode="?" horiz-adv-x="878" d="M518 167q0 -33 -12 -68.5t-36 -64t-58.5 -47t-79.5 -18.5q-62 0 -91.5 31.5t-29.5 82.5q0 32 13 66t37.5 62.5t59 46.5t77.5 18q60 0 90 -30.5t30 -78.5zM892 1186q0 -84 -28.5 -149.5t-72 -120t-95.5 -101.5t-98.5 -95.5t-80.5 -101.5t-43 -118l-11 -88 q-19 -14 -49.5 -27.5t-55.5 -21.5l-23 21l5 124q2 63 25.5 117.5t57 104t72 96t71.5 94t54.5 98.5t21.5 110q0 41 -8 76.5t-24.5 61t-40.5 40t-56 14.5q-33 0 -58 -18t-39.5 -49t-18 -72.5t5.5 -89.5q-22 -10 -52 -20t-62 -18.5t-62 -15t-52 -8.5l-28 39q0 64 33 128.5 t93.5 116.5t145 84.5t187.5 32.5q69 0 122.5 -19t90 -52t55 -77.5t18.5 -95.5z" />
<glyph unicode="@" horiz-adv-x="1695" d="M946 355q5 42 14 95l17 106l17 102l15 81q-26 23 -53 39t-55 16q-40 0 -73 -20t-59 -52.5t-45.5 -75.5t-32.5 -89t-19.5 -92.5t-6.5 -85.5q0 -56 8 -98t20.5 -69.5t27.5 -41.5t30 -14q32 0 82 50.5t113 148.5zM1620 549q-12 -87 -45.5 -164t-81 -142.5t-103.5 -118 t-112.5 -89.5t-108.5 -56.5t-92 -19.5q-15 0 -35 9.5t-39.5 34.5t-35.5 69.5t-23 114.5q-26 -43 -59.5 -84t-70.5 -73t-75 -51.5t-73 -19.5q-34 0 -73.5 19t-74 60.5t-57.5 107t-23 159.5q0 79 19 154.5t55.5 144.5t90.5 129.5t125 108.5q27 18 63 35t74 30t76 21t70 8 q41 0 79.5 -18t71.5 -38q32 16 64 30l58 26l32 -65q-17 -14 -28.5 -25t-20.5 -25.5t-15.5 -35.5t-13.5 -55q-15 -72 -27 -139.5t-20.5 -124t-12.5 -99.5t-4 -65q0 -75 17 -107.5t41 -32.5q25 0 51.5 22.5t50.5 66.5t44 109t33 150q25 169 -3 295.5t-94.5 210.5t-163 126 t-207.5 42q-83 0 -159 -25.5t-143 -71t-123 -108.5t-99.5 -138.5t-73 -161t-42.5 -175.5q-17 -121 -4 -221.5t49 -181t91.5 -140.5t124 -100t146.5 -60t159 -20t160 21t148.5 52t124 64.5t86.5 59.5l31 -93q-38 -38 -100 -83.5t-142.5 -84.5t-178.5 -65.5t-208 -26.5 q-114 0 -217.5 26.5t-190 77.5t-153.5 124t-109.5 166.5t-57 205.5t3.5 240q16 112 58.5 220.5t107.5 204.5t150 177.5t186 140.5t215 92t237 33q141 0 262.5 -52t205.5 -152.5t121.5 -246.5t10.5 -333z" />
<glyph unicode="A" horiz-adv-x="1194" d="M371 429l-127 -288q-13 -31 16 -44.5t104 -23.5l-9 -73h-405l10 73q64 12 99.5 25t48.5 43l468 1064q25 20 53.5 37.5t58.5 31.5t59 24.5t54 18.5l227 -1176q3 -14 8.5 -25t17 -19t30.5 -14t49 -10l-9 -73h-461l10 73q72 5 100.5 20t22.5 48l-54 288h-371zM719 550 l-90 472l-205 -472h295z" />
<glyph unicode="B" horiz-adv-x="1089" d="M1024 410q0 -98 -41.5 -179t-114 -139t-169.5 -90.5t-208 -32.5q-20 0 -49.5 1t-64 3.5t-72.5 5t-74 5.5q-85 7 -180 16h-59l6 73q64 14 98 30.5t36 30.5l144 1034q-41 -5 -75.5 -11.5t-66.5 -13.5v84q93 26 213.5 44.5t260.5 18.5q205 0 307.5 -66.5t102.5 -183.5 q0 -105 -64.5 -188.5t-186.5 -128.5q57 -8 104 -35.5t81 -69.5t53 -95t19 -113zM548 634q-43 0 -67.5 -4t-48.5 -9l-68 -487q-3 -10 15 -22q33 -17 72.5 -23t80.5 -6q60 0 105.5 23t77 62.5t47.5 92.5t16 114q0 50 -11.5 96.5t-38.5 82.5t-71 58t-109 22zM566 1184h-29 q-13 0 -27 -1l-62 -443h33q53 0 105 13.5t93.5 42.5t67 76t25.5 115q0 55 -19.5 93t-49.5 61t-66.5 33t-70.5 10z" />
<glyph unicode="C" horiz-adv-x="1040" d="M1076 1190q2 -3 -4 -18t-17 -36.5t-25.5 -46.5t-29.5 -47l-28 -42q-14 -18 -23 -25l-60 15q-14 32 -33.5 61.5t-46 52.5t-60 36.5t-74.5 13.5q-40 0 -77 -11.5t-77 -42.5q-63 -49 -105 -123t-67.5 -155.5t-36 -162t-10.5 -143.5q0 -109 28 -182.5t70.5 -117.5t92.5 -63 t95 -19q25 0 57.5 5.5t73 22t90.5 44.5t112 73q5 -2 10.5 -12t10.5 -21l9 -22q4 -10 6 -13q-68 -68 -133.5 -113.5t-126 -73t-115.5 -39.5t-102 -12q-87 0 -163 32.5t-133 94.5t-90 152.5t-33 206.5q0 94 20 191.5t60.5 190t102.5 176t146 150.5q36 28 80.5 51t92 39 t97 24.5t96.5 8.5q49 0 97 -8t90.5 -21.5t76.5 -31.5t56 -39z" />
<glyph unicode="D" horiz-adv-x="1208" d="M572 1184q-15 0 -30 -1.5t-30 -2.5l-138 -1018q-4 -29 23 -42t103 -13q69 0 127.5 26.5t106.5 72t84.5 106t61.5 129.5t37.5 142.5t12.5 143.5q0 107 -20 191.5t-63.5 143.5t-111.5 90.5t-163 31.5zM1182 753q0 -88 -21 -178t-61 -173.5t-98 -157t-132.5 -127.5 t-164.5 -85.5t-194 -31.5h-519l10 73q63 14 97 30.5t36 30.5l142 1025l-141 -20v93q57 14 120 24.5t126 18t123 11.5t111 4q145 0 252 -37.5t176.5 -107.5t103.5 -169t34 -223z" />
<glyph unicode="E" horiz-adv-x="1009" d="M947 304l-21 -90l-23 -90q-11 -43 -20.5 -76t-15.5 -48h-875l10 73q65 14 99.5 30.5t36.5 30.5l136 991q2 12 -26 30t-93 32l10 73h817l32 -32q-5 -26 -14 -65t-20 -80t-22 -77.5t-19 -55.5h-70q8 93 -4 141.5t-47 48.5h-311l-56 -405h369l27 -35q-9 -14 -23 -33l-27 -37 q-14 -19 -28 -35.5t-25 -24.5q-13 15 -28.5 25.5t-37 17t-52.5 9.5t-74 3h-116l-60 -441q-2 -15 3 -26.5t24.5 -20t56 -13t97.5 -4.5h92q42 0 73.5 11t57.5 35.5t50 64.5t52 99z" />
<glyph unicode="F" horiz-adv-x="953" d="M815 700l-25 -36q-13 -20 -27 -38t-27.5 -33t-24.5 -23q-13 15 -28.5 25.5t-36.5 17t-49 9.5t-65 3h-96l-67 -491q-1 -6 5.5 -13t23.5 -14.5t46 -16t73 -17.5l-10 -73h-515l10 73q65 14 99.5 30.5t36.5 30.5l136 991q2 12 -26 30t-93 32l10 73h826l30 -32q-4 -26 -13 -65 t-19.5 -80t-21.5 -77.5t-19 -55.5h-71q9 93 -3.5 141.5t-47.5 48.5h-319l-56 -405h335z" />
<glyph unicode="G" horiz-adv-x="1120" d="M1119 547q-54 -16 -78 -37.5t-27 -44.5q-4 -27 -9.5 -69t-10.5 -86.5t-10 -83t-7 -57.5q-76 -61 -141 -99.5t-120.5 -61t-103 -31t-87.5 -8.5q-92 0 -175.5 36t-148 103t-102.5 163.5t-38 216.5q0 95 21.5 187.5t61 176t94.5 156t121 128.5q42 36 89.5 64.5t101.5 48.5 t116.5 30.5t134.5 10.5q35 0 79 -7t87.5 -20t82.5 -32t65 -43q4 -4 -1.5 -19t-16.5 -36t-27 -45l-30 -48q-16 -22 -30.5 -39.5t-23.5 -25.5l-58 13q-18 37 -40.5 69t-52.5 56t-69 37.5t-89 13.5q-44 0 -93.5 -24t-99.5 -72q-39 -37 -73 -99.5t-58.5 -136.5t-38.5 -152.5 t-14 -148.5q0 -107 27.5 -183.5t71.5 -125t97.5 -71.5t106.5 -23q34 0 73.5 8.5t74.5 34.5l42 294q1 10 -3 20t-25 20t-64 20t-118 22l6 73h536z" />
<glyph unicode="H" horiz-adv-x="1306" d="M642 1187q-65 -14 -100 -31t-37 -31l-55 -405h480l56 405q2 12 -25.5 30t-92.5 32l9 73h487l-10 -73q-65 -14 -99.5 -31t-36.5 -31l-136 -991q-2 -12 26 -29.5t93 -31.5l-9 -73h-487l10 73q65 14 99 30.5t36 30.5l64 466h-481l-63 -466q-2 -12 25.5 -29.5t93.5 -31.5 l-10 -73h-487l10 73q65 14 99.5 30.5t36.5 30.5l136 991q2 12 -26 30t-93 32l10 73h487z" />
<glyph unicode="I" horiz-adv-x="632" d="M661 1187q-64 -14 -99 -31t-37 -31l-136 -991q-2 -12 25.5 -29.5t93.5 -31.5l-10 -73h-485l10 73q63 14 98 30.5t37 30.5l135 991q2 12 -25.5 30t-92.5 32l10 73h486z" />
<glyph unicode="J" horiz-adv-x="638" d="M685 1187q-63 -14 -98.5 -31t-37.5 -31l-124 -920q-15 -112 -46.5 -191t-71.5 -135.5t-84 -96t-85 -71.5q-27 -21 -62 -40.5t-73 -34.5t-75.5 -23.5t-67.5 -8.5q-37 0 -72.5 10.5t-63.5 25.5t-45.5 31t-17.5 28q0 7 10.5 21.5t27 32.5t36.5 36.5t39.5 34t35.5 25.5t24 10 q10 0 25 -13.5t35.5 -30t46 -30t56.5 -13.5q24 0 50 12.5t50.5 50.5t46.5 109.5t38 188.5l136 992q1 6 -5 13t-24 15t-50.5 16.5t-86.5 17.5l10 73h535z" />
<glyph unicode="K" horiz-adv-x="1205" d="M642 1187q-65 -14 -100 -31t-37 -31l-63 -465l409 438q25 27 36 43t7 25t-23 13.5t-55 7.5l9 73h417l-10 -73q-31 -4 -52.5 -8t-38 -10.5t-31 -17t-30.5 -26.5l-462 -449l353 -473q13 -17 33.5 -24.5t46 -7.5t53.5 7t56 19l27 -71q-31 -26 -75 -51t-88 -45t-83 -32 t-61 -12q-29 0 -48.5 10t-37.5 39l-357 590l-67 -491q-2 -12 25.5 -29.5t93.5 -31.5l-10 -73h-487l10 73q65 14 99.5 30.5t36.5 30.5l136 991q2 12 -26 30t-93 32l10 73h487z" />
<glyph unicode="L" horiz-adv-x="993" d="M938 304q-9 -43 -21 -90l-23 -90q-11 -43 -20.5 -76t-15.5 -48h-866l10 73q65 14 99.5 30.5t36.5 30.5l136 991q2 12 -26 30t-93 32l10 73h487l-10 -73q-65 -14 -100 -31t-37 -31l-128 -933q-2 -18 4 -31.5t24.5 -22.5t51 -13.5t83.5 -4.5h104q42 0 73 11t56.5 35.5 t49 64.5t51.5 99z" />
<glyph unicode="M" horiz-adv-x="1606" d="M1632 1187q-23 0 -55.5 -7t-67.5 -21l-127 -1025q-2 -12 29.5 -29.5t97.5 -31.5l-10 -73h-481l10 73q64 14 103 30.5t41 30.5l101 821l-523 -955h-87l-260 954l-120 -820q-2 -12 26 -29.5t93 -31.5l-9 -73h-387l9 73q66 14 100 30.5t36 30.5l149 1019q-30 20 -62.5 27 t-59.5 7l10 73h321q9 0 16 -3t13 -12t12 -25.5t14 -43.5l229 -832l457 832q15 29 26 45.5t19.5 25t16 11t16.5 2.5h313z" />
<glyph unicode="N" horiz-adv-x="1265" d="M1341 1187q-69 -10 -101 -28.5t-34 -33.5l-159 -1155q-87 8 -137.5 36.5t-73.5 73.5l-447 842l-108 -788q-1 -6 4 -14.5t19 -17t37 -16.5t58 -13l-10 -73h-391l10 73q69 9 100.5 28t33.5 33l135 981q-51 60 -119 72l10 73h255q16 0 25.5 -2t18 -10t17.5 -24l22 -42 l453 -853l109 796q1 6 -4 14.5t-18 17t-36.5 16.5t-59.5 14l9 73h391z" />
<glyph unicode="O" horiz-adv-x="1172" d="M917 756q0 84 -16 157.5t-47 128t-77.5 85.5t-106.5 31q-61 0 -111 -29t-89 -77.5t-68 -112t-48 -133t-28 -140.5t-9 -134q0 -93 16 -171t47.5 -134.5t76.5 -87.5t104 -31q64 0 115 30.5t90.5 81t68 117t47 138.5t27 145t8.5 136zM1156 774q0 -71 -13.5 -144t-38.5 -144 t-61.5 -137.5t-81.5 -123.5q-42 -54 -94.5 -100.5t-111.5 -81t-123 -54.5t-131 -20q-102 0 -181 41t-133.5 111.5t-83 164.5t-28.5 199q0 74 12.5 146t35.5 140t55.5 130t72.5 117q42 56 93 105.5t111.5 86.5t130.5 58.5t149 21.5q107 0 186 -41t131.5 -111.5t78 -164.5 t25.5 -199z" />
<glyph unicode="P" horiz-adv-x="1063" d="M1088 942q0 -85 -36.5 -161.5t-99.5 -134.5t-146.5 -92t-177.5 -34q-38 0 -77 9.5t-66 24.5l-17 104q34 -14 61.5 -23.5t62.5 -9.5q59 0 106 19.5t80 55.5t50.5 88t17.5 117q0 84 -25 138t-66 85.5t-95 43.5t-111 12h-17q-8 0 -16 -1l-145 -1049q-2 -6 4 -13t23 -15 t47 -16t77 -17l-9 -73h-521l10 73q63 14 97 30.5t36 30.5l142 1027q-35 -5 -70.5 -11.5t-72.5 -14.5v90q49 15 106.5 27t117.5 20.5t121 13t118 4.5q116 0 207.5 -22t154.5 -66t96 -109t33 -151z" />
<glyph unicode="Q" horiz-adv-x="1200" d="M917 756q0 84 -16 157.5t-47 128t-77.5 85.5t-106.5 31q-61 0 -111 -29t-89 -77.5t-68 -112t-48 -133t-28 -140.5t-9 -134q0 -93 16 -171t47.5 -134.5t76.5 -87.5t104 -31q64 0 115 30.5t90.5 81t68 117t47 138.5t27 145t8.5 136zM1253 -125q-29 -44 -59.5 -80.5 t-59 -63.5t-52.5 -42t-38 -15q-43 0 -84.5 15.5t-81.5 40.5t-80 58l-78 65l-80 65q-39 32 -80 56q-14 -2 -29 -3.5t-30 -1.5q-102 0 -181 41t-133.5 111.5t-83 164.5t-28.5 199q0 74 12.5 146t35.5 140t55.5 130t72.5 117q42 56 93 105.5t111.5 86.5t130.5 58.5t149 21.5 q107 0 186 -41t131.5 -111.5t78 -164.5t25.5 -199q0 -71 -13.5 -144t-38.5 -144t-61.5 -137.5t-81.5 -123.5q-48 -60 -107 -111t-127 -86q50 -20 95 -48l88 -52q43 -24 83.5 -41t82.5 -17q12 0 23.5 2.5t27 10t36.5 21.5l52 36z" />
<glyph unicode="R" horiz-adv-x="1145" d="M562 1184q-12 0 -24 -0.5t-24 -0.5l-65 -479q24 -8 47 -10t49 -2q52 0 100.5 16.5t86 48.5t59.5 78.5t22 106.5q0 74 -23.5 121t-60.5 74t-81 37t-86 10zM1160 117q-39 -26 -85 -50t-88.5 -42t-76 -28.5t-46.5 -10.5q-17 0 -33.5 4.5t-33 18.5t-33 40t-32.5 68l-180 464 q-28 1 -59.5 3.5t-58.5 9.5l-62 -460q-3 -12 28.5 -29.5t94.5 -31.5l-10 -73h-493l10 73q63 14 97.5 30.5t36.5 30.5l139 1027q-38 -5 -74 -11.5t-68 -13.5l1 91q45 13 100 24.5t116 20t127.5 13.5t134.5 5q105 0 187 -20.5t138.5 -61t86 -100t29.5 -137.5 q0 -49 -21.5 -103.5t-62.5 -105.5t-101 -93t-138 -65l221 -390q15 -26 30 -38.5t35.5 -14.5t48.5 4.5t69 19.5z" />
<glyph unicode="S" horiz-adv-x="975" d="M962 1198q4 -3 -0.5 -18t-14 -35.5t-23 -44.5t-27 -45t-25.5 -36.5t-19 -19.5l-59 6q-12 42 -33 73t-46.5 51.5t-55 31t-59.5 10.5q-51 0 -88.5 -15t-62 -40t-36.5 -56.5t-12 -64.5q0 -22 7 -46t29 -50t62.5 -55.5t107.5 -63.5q79 -41 136 -79t94 -79t54.5 -87t17.5 -102 q0 -94 -41 -178t-112.5 -147.5t-168 -101t-206.5 -37.5q-34 0 -74 6t-79.5 16.5t-76 25t-64.5 32t-45 36.5t-17 38q0 10 7.5 28t20.5 39t28.5 43t31.5 40t31 29.5t25 11.5q11 0 24.5 -15t30.5 -37l40 -50q22 -26 50.5 -48.5t63 -37.5t77.5 -15q48 0 90.5 16t74 45t50 71 t18.5 95q0 43 -14.5 80t-47 71.5t-85 67.5t-128.5 69q-66 31 -109 65.5t-67.5 72t-34.5 78.5t-10 86q0 66 33.5 131t96 116t150 83t195.5 32q95 0 171 -27.5t124 -64.5z" />
<glyph unicode="T" horiz-adv-x="1109" d="M758 0h-521l9 73q44 9 73 19t47 19.5t26 18t9 15.5l136 995h-234q-14 0 -27.5 -10.5t-30 -35.5t-37.5 -65l-50 -98l-64 27l16 70q9 41 20 84l23 82q11 40 20 66h991l29 -32q-4 -25 -12.5 -62l-18.5 -78l-22 -79l-20 -69h-69q-3 47 -4.5 84.5t-6 63t-14.5 39t-30 13.5 h-227l-136 -995q-1 -6 4.5 -14.5t20.5 -18.5t42 -20t68 -19z" />
<glyph unicode="U" horiz-adv-x="1268" d="M1325 1187q-63 -14 -94 -31t-33 -31l-87 -613q-18 -131 -66 -232.5t-117.5 -170.5t-157.5 -104.5t-187 -35.5q-82 0 -156 25t-130 73t-89 118.5t-33 162.5q0 53 9 115l94 662q2 12 -25 30t-92 32l9 73h482l-10 -73q-63 -14 -98 -31t-37 -31l-88 -615q-4 -29 -6.5 -58 t-2.5 -55q0 -140 60.5 -210.5t186.5 -70.5q65 0 114 27t84 74.5t56.5 112t31.5 139.5l92 656q1 6 -4.5 14t-18.5 16t-35 16.5t-54 15.5l10 73h402z" />
<glyph unicode="V" horiz-adv-x="1246" d="M1342 1187q-66 -13 -103 -25.5t-50 -40.5l-490 -1039q-10 -22 -33.5 -40t-52 -32.5t-58 -24t-53.5 -15.5l-263 1151q-6 26 -31.5 42t-83.5 24l10 73h473l-10 -73q-74 -6 -100.5 -21t-19.5 -43l184 -839l391 837q13 29 -11 42.5t-98 23.5l10 73h399z" />
<glyph unicode="W" horiz-adv-x="1595" d="M1699 1187q-79 -17 -112 -30.5t-39 -31.5l-357 -1066q-8 -21 -26.5 -36.5t-41 -26t-44.5 -17t-37 -9.5l-192 907l-377 -818q-9 -22 -28.5 -37t-42.5 -25t-46 -16.5t-41 -10.5l-83 1147q-2 25 -28 41t-90 29l10 73h452l-9 -73q-46 -5 -72 -12.5t-39 -16.5t-16 -19.5 t-2 -21.5l57 -731l391 874h94l189 -874l250 739q4 12 -5 21t-27 16t-44 13t-57 12l9 73h413z" />
<glyph unicode="X" horiz-adv-x="1212" d="M1118 0h-493l9 73q42 4 68 10.5t38.5 16t12 23.5t-10.5 34l-173 346l-259 -346q-17 -22 -22 -36.5t4 -24t33 -15t66 -8.5l-10 -73h-416l10 73q61 5 105 24.5t74 59.5l352 474l-235 472q-12 22 -23 36t-25.5 23t-35 14.5t-50.5 10.5l10 73h501l-10 -73 q-80 -8 -106.5 -24.5t-4.5 -59.5l151 -304l218 304q16 23 20.5 37.5t-4.5 24t-33.5 14.5t-64.5 8l10 73h419l-10 -73q-34 -4 -61 -10t-48.5 -15.5t-39 -23.5t-32.5 -35l-312 -427l260 -519q10 -21 21.5 -35.5t26.5 -24t34 -15t46 -9.5z" />
<glyph unicode="Y" horiz-adv-x="1170" d="M802 0h-523l10 73q43 9 72 19t47 19.5t26 18t9 15.5l53 388q-21 78 -50.5 161.5t-61.5 163t-64.5 148t-60.5 116.5q-7 12 -15.5 20.5t-23.5 14t-39 7.5t-62 1l3 73l64 11q37 6 73 11t68 8.5t51 3.5q23 0 47 -12t37 -35q28 -50 59 -116.5t60.5 -140t55.5 -149t46 -141.5 l277 443q17 27 -4 41.5t-91 24.5l10 73h387l-10 -73q-32 -6 -56 -12.5t-41 -14t-29 -17t-20 -22.5l-379 -598l-52 -378q-1 -6 4.5 -14.5t21 -18.5t42.5 -20t69 -19z" />
<glyph unicode="Z" horiz-adv-x="1064" d="M319 130h424q20 0 38 15t36.5 46t39.5 77l47 109l77 -21l-15 -82l-16 -100l-17 -98q-8 -47 -12 -76h-879l-26 53l768 1079h-363q-15 0 -36 -17t-44 -48t-45 -74.5t-40 -96.5l-78 19l84 364q25 -7 45 -11t39.5 -5.5t41 -2t48.5 -0.5h622l23 -51z" />
<glyph unicode="[" horiz-adv-x="724" d="M824 1566q-3 -12 -10 -28.5t-15 -32.5l-15 -29q-7 -13 -11 -19h-262l-227 -1648h256l36 -37q-3 -10 -10 -24l-14 -31l-14 -30q-7 -14 -12 -23h-476l272 1935h468z" />
<glyph unicode="\" horiz-adv-x="857" d="M685 -336l-35 12q-23 8 -48.5 18t-47.5 19.5t-29 16.5l-387 1840l44 29q14 -4 36 -11t45.5 -16t45 -18.5t33.5 -18.5l385 -1839z" />
<glyph unicode="]" horiz-adv-x="676" d="M418 -336h-468l-36 36q4 12 10.5 28t14 32t14.5 29.5t11 19.5h262l232 1648h-254l-37 34q3 11 9 26t14 31l14 29q6 14 11 22h473z" />
<glyph unicode="^" horiz-adv-x="938" d="M854 635q-28 -23 -52.5 -38.5t-58.5 -31.5l-30 27l-160 723l-330 -680q-11 -10 -26 -20.5t-30.5 -20t-29.5 -16.5l-24 -13l-19 27l422 870q13 12 31 24l37 25q19 12 37 22t32 17z" />
<glyph unicode="_" horiz-adv-x="921" d="M791 -164q-3 -11 -10 -26l-15 -31l-16 -31l-13 -24h-744l-24 34q3 10 10 24l15 31q8 16 17 31l15 25h740z" />
<glyph unicode="`" horiz-adv-x="606" d="M577 1055q-20 -12 -43 -22.5t-41 -13.5l-288 363l40 51l41 7l62 12q33 6 62.5 10.5t42.5 4.5z" />
<glyph unicode="a" horiz-adv-x="986" d="M583 378l13 90l16 94l14 90q7 42 13 73q-29 27 -61 48t-63 21q-42 -1 -77 -21t-62.5 -53t-48.5 -75.5t-34.5 -88.5t-20.5 -91.5t-7 -85.5q0 -56 8 -98t21.5 -69.5t31 -41.5t36.5 -14q32 0 90 57t131 165zM980 106q-42 -30 -83.5 -56.5t-77.5 -47t-64.5 -32t-46.5 -11.5 q-17 0 -38.5 11t-41 38.5t-35 73.5t-20.5 116q-32 -44 -68.5 -87t-76 -77t-81 -54.5t-81.5 -20.5q-36 0 -76 19t-73.5 60.5t-56 107t-22.5 159.5q0 79 20 154.5t58 144.5t93 129.5t126 108.5q27 18 60 35t70 30t77.5 21t82.5 8t82.5 -19t75.5 -41q34 17 68 31.5t61 28.5 l31 -65q-17 -14 -28 -25t-19.5 -25.5t-14.5 -35.5t-13 -55q-15 -72 -27 -139.5t-20.5 -124t-12.5 -99.5t-4 -65q0 -69 15 -113.5t38 -44.5q20 0 43.5 5.5t63.5 22.5z" />
<glyph unicode="b" horiz-adv-x="1020" d="M623 758q-14 0 -38.5 -14t-56.5 -44t-70 -78t-78 -115q-10 -69 -15.5 -122t-5.5 -84q0 -26 15.5 -53.5t38 -49.5t48.5 -36.5t47 -15.5q50 -2 86 24.5t63 66.5q20 30 34 66.5t22.5 75.5t12.5 78t4 73q0 52 -7.5 94t-22 72t-34 46t-43.5 16zM964 610q-2 -106 -45 -214.5 t-118 -207.5q-35 -45 -78.5 -86.5t-95.5 -73t-110 -50.5t-121 -19q-34 0 -82 23.5t-92.5 62.5t-75.5 90t-32 105q0 26 6 78.5t15.5 121.5t22.5 150l25 164l25 166l23 153q10 71 16 126.5t6 86.5q0 23 -5 36.5t-13 20t-17 8.5t-18 2t-24.5 -4.5t-30.5 -9.5q-18 -6 -37 -13 l-17 69q45 22 101 44t108 40t94 29.5t60 11.5q34 0 45.5 -18t11.5 -64q0 -43 -9.5 -121t-23.5 -175.5t-32 -206.5l-34 -214q50 66 96 107.5t87.5 65.5t77 33t63.5 9q48 1 89.5 -20.5t72.5 -63t49 -102.5t17 -140z" />
<glyph unicode="c" horiz-adv-x="873" d="M906 823q-21 -21 -50 -47.5t-59 -50.5t-57 -40t-43 -16t-33 19l-36 44q-19 23 -42.5 42.5t-52.5 19.5q-54 0 -96.5 -37t-71 -95.5t-43.5 -131t-15 -142.5q0 -65 10.5 -115.5t30 -86t45.5 -54t58 -18.5q54 0 129.5 39.5t183.5 127.5q4 -5 11 -15l15 -22l14 -20 q7 -10 9 -14q-78 -71 -143 -119.5t-120.5 -77.5t-103.5 -41.5t-93 -12.5q-42 0 -91.5 17t-92 59t-70.5 112t-28 175q0 67 14 136t45.5 134.5t82 125.5t124.5 109q28 18 65 37.5t79 35.5t86 26t86 10q44 0 79 -14.5t64 -33.5l56 -38q27 -18 54 -27z" />
<glyph unicode="d" horiz-adv-x="1018" d="M589 381q9 66 23 153l29 182q-28 30 -60 54t-69 24q-42 0 -76.5 -20t-62 -52.5t-48 -75.5t-34 -89t-20 -92.5t-6.5 -85.5q0 -112 31 -167.5t73 -55.5q14 0 35 12t49 38.5t62 69.5t74 105zM988 104l-84 -55q-41 -26 -77 -46t-66 -32t-50 -12q-17 0 -38 12t-40.5 40.5 t-34 75t-19.5 114.5q-81 -117 -161 -179.5t-149 -62.5q-39 0 -80 20.5t-74.5 64t-55 111t-21.5 160.5q0 79 19.5 153.5t57 142t92 126t125.5 105.5q28 18 62 34.5t71 30t75.5 21.5t74.5 8q13 0 27.5 -5.5t30.5 -14.5l17 114q8 56 14 104t9.5 87t3.5 65q0 23 -3.5 36.5 t-10 20t-14.5 8.5t-17 2t-26 -5l-33 -9l-41 -13l-16 69l104 47q54 23 102 40t85.5 27.5t55.5 10.5q34 0 52 -18t18 -64q0 -39 -7 -100.5t-18.5 -137l-25.5 -161.5l-30 -173l-30 -172q-15 -84 -26.5 -157.5t-18.5 -131t-7 -91.5q0 -85 15 -126.5t38 -41.5q26 0 49.5 5.5 t58.5 20.5z" />
<glyph unicode="e" horiz-adv-x="865" d="M399 737q-50 -58 -81.5 -131.5t-36.5 -170.5q99 44 157.5 80t88.5 68t39 62t9 63q0 46 -20.5 69.5t-48.5 23.5q-8 0 -21 -4.5t-28 -12.5t-30.5 -20t-27.5 -27zM825 760q0 -28 -6.5 -59t-26 -65t-56 -71.5t-96.5 -77t-147 -81.5t-208 -85q7 -48 21 -86.5t33.5 -65 t42.5 -41t48 -14.5q43 0 124 39t202 136q6 -3 13 -13t14 -21.5t12 -22.5l7 -14q-82 -71 -148.5 -120.5t-122.5 -80.5t-103.5 -44.5t-92.5 -13.5q-41 0 -91 18.5t-93.5 59t-73 106t-29.5 160.5q0 78 19 149.5t54.5 136.5t85.5 123.5t113 111.5q22 19 55 38.5t71 36t79 27 t80 10.5q57 0 98.5 -15.5t68.5 -40.5t40 -56.5t13 -63.5z" />
<glyph unicode="f" horiz-adv-x="657" d="M1016 1396q-21 -15 -54 -42l-68 -52q-34 -26 -63 -45t-41 -19q-16 0 -32 18l-32 42q-18 22 -38.5 40.5t-46.5 18.5q-42 0 -71 -39.5t-48.5 -99.5t-30.5 -131t-18 -135l-6 -47h249l27 -35q-10 -14 -29.5 -34t-41 -39.5t-41.5 -35.5t-30 -21q-11 28 -42.5 36.5t-95.5 8.5 h-10l-68 -592q-13 -110 -56.5 -212.5t-105 -191t-135 -159t-147.5 -115.5l-41 85q50 28 90.5 85t71 130.5t50.5 157.5t29 166l75 646h-140l-23 39l131 81h45q10 80 28.5 154t48.5 140t75 123.5t108 104.5q54 39 111 66t119 27q49 0 96 -17.5t86.5 -39.5t69.5 -42t45 -25z " />
<glyph unicode="g" horiz-adv-x="961" d="M944 871q-34 -28 -53.5 -69t-28.5 -113q-14 -119 -20 -212t-10 -173.5t-10 -153t-20 -149.5q-12 -69 -41.5 -133t-71.5 -120t-92.5 -101.5t-105.5 -78t-111.5 -50.5t-108.5 -18q-50 0 -102 11t-94 28t-68.5 36.5t-26.5 37.5q0 11 9 28t23 35.5t30.5 37.5t32 33.5t27.5 24 t16 9.5q12 0 29 -17t45 -38t69.5 -38t100.5 -17q37 0 68.5 13t57 45t45.5 86t35 137q14 84 19.5 153t8.5 135q-40 -60 -81.5 -111t-84 -89t-85.5 -59.5t-86 -21.5q-33 0 -73 19t-75 60.5t-58.5 107t-23.5 159.5q0 159 75.5 298.5t224.5 238.5q56 37 130.5 65.5t165.5 28.5 q38 0 80 -21.5t80 -45.5q34 22 66 38l58 29zM361 156q12 0 34 13.5t53 45.5t70.5 84t85.5 129q4 54 10 113.5t17 130.5q3 22 12 43q-32 30 -66.5 54.5t-66.5 24.5q-42 0 -77 -20t-63 -52.5t-49 -75.5t-35 -89t-21 -92.5t-7 -85.5q0 -112 29.5 -167.5t73.5 -55.5z" />
<glyph unicode="h" horiz-adv-x="1076" d="M1048 110l-96 -54q-50 -27 -97.5 -48.5t-88 -35t-68.5 -13.5q-29 0 -52 31.5t-23 85.5q0 18 6 60.5t15 97.5l19 117l19 119q9 56 15 102t6 68q0 32 -3 52.5t-9 32.5t-15.5 16.5t-22.5 4.5t-37 -8t-53.5 -26.5t-62 -50t-60.5 -79.5t-47 -119.5t-33 -161.5q-9 -55 -14 -93 t-7 -65t-2.5 -45.5t0.5 -34.5q-13 -7 -45 -21l-68 -31l-68 -31q-32 -14 -44 -21l-41 38l22 131l28 168l31 190l32 200l28 193q14 94 24.5 174t16.5 140.5t6 92.5q0 23 -3.5 36.5t-9 20t-13 8.5t-15.5 2q-10 0 -28 -5l-35 -9l-45 -13l-16 69q42 19 96 41l106 40 q51 19 93.5 31.5t61.5 12.5q28 0 47 -18t19 -64q0 -24 -5.5 -76t-15.5 -120l-20 -143l-22 -147l-22 -132l-15 -97q117 116 220.5 164.5t192.5 48.5q31 0 55.5 -7t40.5 -25t24.5 -49.5t8.5 -79.5q0 -35 -6 -83t-15 -102l-20 -112l-20 -108q-10 -52 -16 -95.5t-6 -71.5 q0 -34 9 -46.5t27 -12.5q28 0 50.5 8.5t59.5 24.5z" />
<glyph unicode="i" horiz-adv-x="568" d="M538 110l-96 -55q-49 -27 -94.5 -48.5t-85 -34.5t-67.5 -13q-34 0 -57.5 31.5t-23.5 85.5q0 30 7 81t17 112t22 127l22 126q10 59 17 106t7 72q0 23 -3 36.5t-8 20t-13 8.5t-17 2q-8 0 -23.5 -3.5t-30.5 -8.5q-18 -5 -38 -12l-18 67l95 41q53 22 103.5 41t91.5 31.5 t60 12.5q28 0 43.5 -19t15.5 -65q0 -29 -7 -80.5t-18 -113.5l-23 -130l-24 -130q-11 -63 -18 -114.5t-7 -80.5q0 -31 6.5 -45t23.5 -14q15 0 28.5 2t27.5 6t29.5 10t36.5 15zM561 1262q0 -28 -11.5 -58t-34 -55t-55 -41.5t-75.5 -16.5q-53 0 -77.5 25.5t-24.5 59.5 q0 27 11.5 57t34 55.5t55 42.5t74.5 17q53 0 78 -26t25 -60z" />
<glyph unicode="j" horiz-adv-x="564" d="M454 870q0 -11 -2.5 -38.5t-6.5 -64.5l-9 -79l-8 -84l-9 -74q-4 -35 -6 -57q-8 -69 -18 -164t-29 -220q-16 -100 -48.5 -178t-73 -138.5t-85.5 -105t-86 -76.5q-55 -43 -122 -67t-125 -24q-42 0 -82 11.5t-71 27.5t-50 32.5t-19 26.5q0 13 18 41t42 56t47 49.5t33 21.5 q11 0 29 -15l42 -33q24 -19 54 -34t66 -15q40 0 67 18.5t46.5 59t34.5 105.5t30 159q12 74 21 141l18 124q7 57 12 101.5t8 73.5q3 24 6.5 60t6.5 72.5t5 68.5t2 48q0 23 -3 36.5t-8.5 20t-13 8.5t-16.5 2t-24.5 -3.5t-30.5 -8.5q-18 -5 -37 -12l-19 67q42 19 96 41l104 41 q50 19 91 31.5t59 12.5q28 0 46 -12t18 -54zM535 1262q0 -28 -11.5 -58t-34 -55t-55 -41.5t-75.5 -16.5q-53 0 -77.5 25.5t-24.5 59.5q0 27 11.5 57t34 55.5t55.5 42.5t75 17q53 0 77.5 -26t24.5 -60z" />
<glyph unicode="k" horiz-adv-x="1004" d="M515 1417q0 -39 -6 -97t-15.5 -129t-22.5 -153l-27 -166l-28 -174l-28 -169l170 126q69 51 110.5 85.5t51.5 54.5t-13 27.5t-81 5.5l-8 69q81 12 160.5 22.5t142.5 10.5q59 0 78.5 -17.5t19.5 -51.5q0 -15 -21.5 -41t-63 -60.5t-100.5 -76t-134 -87.5l-125 -77 q25 -28 49 -66.5t47 -80.5l45 -82q22 -41 43 -73.5t41.5 -52.5t40.5 -20q23 0 57 6t72 27l32 -64q-33 -28 -71 -55t-75 -48.5t-70 -35t-55 -13.5q-34 0 -65.5 30t-62 77t-59.5 106l-57 116l-55 107q-26 50 -52 81l-20 -142q-9 -66 -14.5 -120t-6 -93t5.5 -58q-14 -7 -47 -22 l-70 -31l-70 -32q-32 -14 -44 -21l-43 38q4 29 14 91l24 147l31 184l32 204l32 205q16 102 28 190.5t19.5 157.5t7.5 107q0 25 -3 39t-9 21t-15 8.5t-21 1.5q-8 0 -25 -4.5t-34 -9.5l-42 -13l-18 69q42 19 98 41l108 40q53 19 96.5 31.5t61.5 12.5q14 0 25 -3t18.5 -13.5 t11.5 -31t4 -55.5z" />
<glyph unicode="l" horiz-adv-x="547" d="M517 110q-49 -31 -99 -58.5t-97 -48t-88 -32.5t-72 -12q-28 0 -50 30t-22 89q0 25 7 82.5t18 135.5l27 173l31 193l30 194q15 97 26.5 181t18.5 149t7 100q0 23 -4.5 36.5t-11.5 20t-16.5 8.5t-18.5 2q-8 0 -24.5 -4.5t-32.5 -9.5l-40 -13l-18 69q42 19 97 41l107 40 q53 19 96 31.5t62 12.5q28 0 44.5 -18t16.5 -64q0 -39 -7 -105t-19 -149l-27 -180l-30 -192l-30 -192l-27 -176q-12 -81 -19 -144t-7 -97t9.5 -46.5t25.5 -12.5q23 0 50 8t71 25z" />
<glyph unicode="m" horiz-adv-x="1563" d="M1514 110l-96 -54q-49 -27 -95 -48.5t-86 -35t-67 -13.5q-15 0 -28.5 8t-24.5 23.5t-17.5 37t-6.5 48.5q0 18 7 58l15 95q9 54 20.5 115.5t20.5 120t15.5 110t6.5 84.5q0 45 -10.5 65t-28.5 20q-11 0 -30 -6.5t-43.5 -23t-53 -44t-56.5 -70.5q-18 -27 -31 -56.5 t-24 -65.5t-19.5 -81t-17.5 -102q-13 -91 -16.5 -147t-1.5 -85q-14 -7 -46 -21l-70 -31l-68 -31q-33 -14 -46 -21l-40 38q22 102 41.5 204t34 190.5t23 157.5t8.5 106q0 48 -11 68.5t-33 20.5q-8 0 -25.5 -6.5t-42 -22.5t-53.5 -43.5t-58 -69.5q-18 -26 -32 -56t-25.5 -67.5 t-20.5 -82.5t-18 -101q-15 -91 -20 -147t-3 -85q-13 -7 -45 -21l-69 -31l-68 -31q-32 -14 -44 -21l-40 38q21 106 40 213t33.5 201.5t23 170t8.5 118.5q0 23 -3 36.5t-8.5 21t-12.5 9.5t-15 2q-10 0 -26 -4t-33 -9l-40 -13l-16 69l96 40q53 22 103.5 40.5t91.5 31t59 12.5 q15 0 25.5 -5t16.5 -17.5t8.5 -35t2.5 -57.5q0 -16 -2.5 -44t-5.5 -54q59 62 110 103t97 65.5t87.5 34.5t82.5 10q37 0 63 -14t42.5 -37t23.5 -53.5t7 -63.5q0 -7 -0.5 -15t-1.5 -20q58 58 106.5 97.5t90.5 62.5t79.5 33t75.5 10q29 0 55 -9.5t45 -30.5t30 -54.5t11 -81.5 q0 -38 -6 -86.5t-15 -101t-20 -106.5l-19 -103q-9 -49 -15 -90.5t-6 -69.5q0 -34 10 -45.5t27 -11.5q29 0 54 7.5t66 23.5z" />
<glyph unicode="n" horiz-adv-x="1080" d="M1056 110q-45 -27 -95 -54t-96.5 -48.5t-86 -35t-64.5 -13.5q-35 0 -58 31.5t-23 85.5q0 18 6 60.5t15 97.5l20 117q11 62 20 118.5t15 102.5t6 68q0 59 -10.5 82.5t-42.5 23.5q-13 0 -37 -8.5t-53 -28t-60.5 -51t-60.5 -78.5q-30 -48 -46.5 -115t-33.5 -164 q-8 -45 -13 -78.5t-7.5 -61t-3 -51t0.5 -47.5q-13 -7 -46 -21l-68 -31l-68 -31q-32 -14 -44 -21l-40 38q14 67 27 139l25 142q12 70 22 136.5t17 122.5t11 98.5t4 66.5q0 23 -2.5 36.5t-7.5 20t-12 8.5t-16 2t-25 -4t-33 -9l-41 -13l-19 69l98 40q55 22 107 40.5t93.5 31 t56.5 12.5q14 0 23 -4.5t14.5 -16.5t7.5 -34t2 -58q0 -21 -2 -48t-5 -52q109 109 215 161t196 52q31 0 56 -6.5t41.5 -24.5t25.5 -49t9 -79q0 -35 -6.5 -83t-15.5 -102.5t-20.5 -112t-20.5 -109.5t-15.5 -95.5t-6.5 -71.5q0 -34 9 -46.5t27 -12.5q23 0 45.5 8t63.5 25z" />
<glyph unicode="o" horiz-adv-x="909" d="M638 481q0 76 -13 135t-34.5 99t-50.5 61t-61 21q-58 0 -97.5 -35t-64 -89.5t-35 -121t-10.5 -130.5q0 -67 14.5 -126t38 -103.5t53.5 -70.5t62 -26q37 0 66 17t51 46.5t37.5 68t25 81.5t14 87.5t4.5 85.5zM871 559q0 -67 -17 -135.5t-49 -133t-77 -123t-101 -104.5 q-26 -21 -58 -40t-66 -33.5t-67.5 -22.5t-63.5 -8q-78 0 -140 29.5t-105 81t-66 122t-23 152.5q0 72 14 139t44 129t77 119.5t114 108.5q26 20 57.5 37.5t65.5 30.5t69.5 20.5t68.5 7.5q78 0 138.5 -28t101.5 -78t62 -119t21 -152z" />
<glyph unicode="p" horiz-adv-x="1025" d="M625 760q-17 0 -46.5 -16.5t-64 -48t-71 -77t-68.5 -104.5l-17 -104l-21 -121q17 -25 43 -48.5t55 -41.5t59 -29t55 -11q43 0 76.5 25t51.5 65q25 54 36 127.5t11 148.5q0 53 -8.5 96.5t-22.5 74t-32 47.5t-36 17zM423 870q0 -41 -15 -141q55 64 101.5 104.5t87 63.5 t76 31t68.5 8q44 0 84 -20t70 -59.5t47.5 -97t17.5 -132.5q0 -59 -10.5 -121t-28.5 -122.5t-42.5 -116.5t-52.5 -101q-23 -38 -52 -75t-63 -66t-72 -47.5t-79 -18.5q-26 0 -56.5 13.5t-62.5 38t-65 59t-63 76.5l-23 -140q-17 -103 -27 -176t-14.5 -121.5t-3.5 -76.5t6 -42 q-15 -4 -48 -16l-69 -26l-70 -28l-45 -20l-40 36q4 29 14 87l24 135l31 169l33 185l33 186l27 170t19.5 139.5t7.5 92.5q0 23 -4 36.5t-11 20t-15 8.5t-17 2t-25 -3.5t-31 -8.5q-18 -5 -37 -12l-18 67q44 21 99 43.5t106.5 40.5t93.5 30t60 12q26 0 40 -13.5t14 -52.5z" />
<glyph unicode="q" horiz-adv-x="959" d="M371 156q30 0 86 54.5t135 168.5l28 174l29 169q-30 28 -63.5 50t-65.5 22q-42 0 -77.5 -20t-65 -52.5t-52 -75.5t-37.5 -89t-23 -92.5t-8 -85.5q0 -56 10 -98t26 -69.5t36.5 -41.5t41.5 -14zM951 871l-29 -25q-13 -11 -22 -25.5t-16.5 -35.5t-13.5 -55l-44 -263 l-40 -249q-18 -119 -32.5 -224t-22 -187.5t-7.5 -138.5t11 -78l-27 -10l-42 -15l-50 -19l-48 -18l-41 -16q-18 -8 -26 -12l-43 36q4 34 14 96l22 146l29 181l34 207q-86 -107 -154.5 -157t-133.5 -50q-36 0 -76.5 19t-75 60.5t-57 107t-22.5 159.5q0 79 20.5 155.5t59.5 146 t94.5 129.5t126.5 106q28 18 64.5 35t75.5 30t77.5 21t70.5 8q42 0 83.5 -20t77.5 -43q34 18 68 33l61 30z" />
<glyph unicode="r" horiz-adv-x="836" d="M892 850q-8 -11 -20 -30l-26 -44l-28 -47l-28.5 -44t-24.5 -32.5t-17 -12.5q-19 0 -36 12t-32.5 26.5t-30.5 26.5t-30 12q-26 0 -58 -25t-64 -70t-61 -106t-50 -133q-21 -75 -34.5 -157.5t-10.5 -162.5l-49 -21l-68 -31l-66 -31q-31 -14 -43 -21l-40 38q22 107 41 213 t33.5 200t22.5 169.5t8 120.5q0 23 -3.5 36.5t-9 20t-13 8.5t-15.5 2q-10 0 -25.5 -3.5t-31.5 -8.5q-18 -5 -38 -12l-18 67q42 19 96 41t105.5 41t93 31.5t59.5 12.5q14 0 23 -4.5t14.5 -16t7.5 -30.5t2 -49q0 -11 -1.5 -29.5t-4.5 -40.5l-6 -46q-3 -23 -6 -42 q48 79 90 129.5t79 79t70.5 39t65.5 10.5q18 0 39.5 -10t44.5 -24l48 -28q24 -15 46 -24z" />
<glyph unicode="s" horiz-adv-x="786" d="M788 844l-38 -50q-22 -27 -43.5 -50t-39.5 -39t-28 -16q-16 0 -35 21l-44 46q-25 24 -54.5 45t-65.5 21q-56 0 -85 -28.5t-29 -76.5q0 -47 41 -82t122 -76q41 -21 80.5 -46t71 -57t50.5 -73t19 -94q0 -46 -19.5 -88.5t-52.5 -79t-76.5 -66.5t-91 -51.5t-96.5 -33 t-92 -11.5q-64 0 -119 16t-95.5 39.5t-63.5 50.5t-23 48q0 14 14.5 44.5t33.5 62t38.5 55t30.5 23.5q9 0 19 -16l23 -40q14 -23 32.5 -50.5t43 -51t57 -39.5t74.5 -16q66 0 104 36.5t38 94.5q0 34 -17 63t-45.5 54.5t-64.5 47t-73 40.5q-53 27 -88 54.5t-55.5 56t-29 59 t-8.5 62.5q0 63 37 115t93.5 89.5t124.5 58t130 20.5q54 0 95 -12.5t75.5 -28t64 -30.5t60.5 -21z" />
<glyph unicode="t" horiz-adv-x="693" d="M663 155q-55 -44 -110 -80t-105.5 -61.5t-92 -40t-69.5 -14.5q-30 0 -60.5 15t-55 41.5t-39.5 63.5t-15 81q0 19 0.5 38t2 39.5t4 43.5t7.5 51l72 453h-135l-23 39l120 81h57l6 35q6 41 12.5 64.5t15 37.5t18.5 22l23 18l191 94l28 -25q-8 -9 -16 -32q-8 -20 -16.5 -57 t-18.5 -99l-9 -58h241l28 -35q-10 -14 -29.5 -34t-40.5 -39.5t-40 -35.5t-28 -21q-12 28 -47 36.5t-99 8.5h-4l-57 -361q-3 -19 -5.5 -40.5t-4 -41t-2 -36.5t-0.5 -27q0 -62 18.5 -88t46.5 -26q35 0 82 15t122 49z" />
<glyph unicode="u" horiz-adv-x="1101" d="M1069 106l-81 -54q-40 -26 -77.5 -46.5t-70 -33.5t-56.5 -13q-22 0 -44.5 15t-41.5 46t-31.5 78t-15.5 110q-38 -54 -82.5 -99.5t-92 -78.5t-96 -52t-93.5 -19q-29 0 -60 15.5t-57 46.5t-43 77t-17 107q0 30 5 71.5t12 88t16 95.5t16 94.5t12 83t5 62.5q0 23 -3 36.5 t-8.5 20t-13 8.5t-16.5 2t-24.5 -3.5t-31.5 -8.5q-18 -5 -39 -12l-16 67q42 19 97 41t107.5 41t95 31.5t60.5 12.5q29 0 39 -19t10 -65q0 -29 -6 -75.5t-15 -101.5l-19 -114l-19 -114q-9 -55 -15 -101.5t-6 -75.5q0 -57 16.5 -86t36.5 -29q17 0 43 14t59.5 44t73 77.5 t84.5 114.5q6 41 13.5 83t13.5 81t10.5 73t4.5 58q0 23 -2.5 36.5t-7.5 20t-11.5 8.5t-15.5 2t-23.5 -3.5t-28.5 -8.5q-17 -5 -35 -12l-18 67q42 19 96 41l104 41q50 19 91.5 31.5t59.5 12.5q28 0 37 -19t9 -65q0 -29 -5.5 -72t-13.5 -92l-17 -104l-17 -104 q-8 -50 -13.5 -95t-5.5 -78q0 -91 14 -127t39 -36q26 0 48.5 6.5t58.5 21.5z" />
<glyph unicode="v" horiz-adv-x="977" d="M972 852q0 -32 -23 -89t-75 -152t-136 -235l-207 -336q-9 -5 -32 -16l-49 -24l-50 -25q-24 -12 -34 -16l-40 38q-11 85 -28 184.5t-35 195t-36 175.5t-32 126q-8 27 -17 43t-18.5 25t-18.5 11.5t-18 2.5q-10 0 -26 -3.5t-32 -8.5q-18 -5 -40 -12l-24 67l91 45l92 42 q44 20 79 33t50 13q29 0 47.5 -28.5t39.5 -98.5q8 -26 19 -74.5t23 -108.5l23 -124l21 -119l16 -95q7 -41 8 -54q69 109 111.5 193.5t66.5 145t32 98t8 51.5q0 49 -55 49q-17 0 -33.5 -3.5t-38.5 -11.5l-22 65q31 17 75.5 37.5t89 38t84 29t62.5 10.5q35 -1 58.5 -18.5 t23.5 -65.5z" />
<glyph unicode="w" horiz-adv-x="1388" d="M1391 860q0 -27 -7 -59t-23.5 -76.5t-44.5 -104.5t-70 -142l-100 -188l-134 -246l-32 -17l-49 -25l-49 -26q-24 -13 -34 -17l-41 38l-23 167q-11 83 -23 158t-24.5 138.5t-25.5 109.5q-9 -35 -28.5 -89.5t-48.5 -121.5t-67.5 -144.5t-84.5 -159.5l-34 -19l-56 -29 l-56 -30q-26 -14 -36 -18l-39 38l-13 124l-14 135l-15 136q-7 67 -14 123.5t-13 99t-11 63.5q-6 27 -14.5 43t-18 25t-19.5 11.5t-19 2.5t-25 -3.5t-33 -8.5q-19 -5 -41 -12l-22 67l92 46q49 24 93 43t79 31.5t51 12.5q28 0 42.5 -32.5t30.5 -104.5q5 -21 11.5 -62.5 t13.5 -93.5l13 -109l13 -110q6 -53 10 -97t6 -69q40 78 75.5 158.5t62 155t43 138.5t18.5 109q20 19 48 39.5t56 37.5t53.5 28.5t40.5 11.5q4 0 10.5 -16.5t14.5 -43.5t16.5 -62.5t16.5 -72.5l15 -74q8 -37 13 -67q7 -47 15 -95l16 -93q8 -46 14 -88.5t10 -78.5 q105 188 159 311t54 183q0 21 -14.5 33t-40.5 12q-14 0 -38 -4t-46 -11l-25 67q37 23 77 41.5t77 31.5t69 20t53 7q17 0 32 -2.5t26.5 -10.5t18.5 -23t7 -40z" />
<glyph unicode="x" horiz-adv-x="946" d="M930 102l-84 -56q-41 -26 -78 -45.5t-69 -30.5t-57 -11q-28 0 -56 25.5t-55.5 69t-54 101t-52.5 120.5l-88 -121l-101 -149q-18 -2 -52.5 -7.5t-72 -12.5t-71.5 -14t-53 -12l-30 43l96 87l110 103l109 108l100 108l-53 134q-27 65 -52.5 115t-49.5 80t-46 30q-9 0 -30 -4 t-43 -9l-56 -13l-21 69l88 44l88 40q41 19 74 30.5t49 11.5q26 0 53 -30t54.5 -80t55.5 -115l57 -135l61 79q28 38 48 68t31.5 51t11.5 27q0 21 -24 30t-88 2l-5 71q33 7 71.5 12.5t76 10t70 7t53.5 2.5q59 0 83.5 -16t24.5 -37q0 -38 -93 -143t-271 -289l50 -120 q25 -57 49 -100.5t46 -69t43 -25.5q23 0 57 7t71 26z" />
<glyph unicode="y" horiz-adv-x="979" d="M961 860q0 -34 -26.5 -104.5t-74 -171.5l-112.5 -228l-144 -274q-69 -129 -136.5 -236t-138 -184t-147.5 -119.5t-165 -42.5q-39 0 -77 9.5t-68 23.5t-49 29t-19 26q0 15 16.5 44t39 60t46 56.5t37.5 32.5q48 -45 96 -66.5t85 -21.5q57 0 117 59t128 169 q-11 59 -26 130.5t-33 146.5l-38 148l-38 140q-19 65 -37 116.5t-32 82.5q-23 51 -39 66.5t-33 15.5q-9 0 -25.5 -3.5t-32.5 -8.5q-19 -5 -40 -12l-20 67l93 44q48 23 90.5 41t76.5 29.5t52 11.5q28 0 49 -29t45 -98q18 -50 38 -115.5t40.5 -141t40.5 -157.5t38 -165l78 162 q36 79 63.5 146.5t43.5 118t16 74.5q0 50 -53 53q-17 2 -35.5 -4t-47.5 -19l-26 67q36 21 77 40.5t81 34.5t75.5 24t60.5 9q17 0 33 -2.5t29 -10.5t20.5 -23t7.5 -40z" />
<glyph unicode="z" horiz-adv-x="784" d="M784 874q-55 -59 -98 -112l-82 -105q-38 -51 -72 -102l-72 -105l-80 -114q-42 -59 -95 -126l27 8q12 3 26.5 5.5t28.5 2.5q20 0 51 -8l63 -19q33 -10 65.5 -18.5t58.5 -8.5q9 0 21 3.5t26 14.5t30.5 33t35.5 58l59 -35q-28 -62 -53 -111.5t-53.5 -84t-64 -52.5t-84.5 -18 q-44 0 -86.5 10.5t-81.5 23.5l-74 22q-34 11 -60 11q-32 0 -79 -20t-123 -58l-36 50q50 60 100 127l97 133l93 133l86 124l76 108q36 49 65 84h-231q-24 0 -42 -5.5t-33 -21t-28 -42t-28 -68.5l-65 16q9 45 21 94l23 94l20 83q8 37 12 58q19 -5 52 -13t68 -8h488z" />
<glyph unicode="{" horiz-adv-x="688" d="M788 1523q-40 -24 -74 -53t-60 -61.5t-43 -68.5t-23 -73q-7 -53 -6.5 -93.5t2 -78.5t2 -79t-6.5 -93q-6 -42 -25 -82.5t-48 -76t-66.5 -64.5t-79.5 -47q91 -18 125.5 -87.5t18.5 -180.5q-7 -54 -19 -100t-25 -89l-24 -83q-12 -41 -18 -85q-6 -41 -5 -74.5t13.5 -63.5 t39 -57.5t71.5 -56.5l-47 -91q-81 34 -142.5 69t-101.5 78.5t-56 98t-6 126.5q7 53 18.5 95.5t24.5 83.5t25 85t20 101q11 81 -17 115t-87 34h-19q-6 0 -11 -0.5t-11.5 -2t-19.5 -3.5l-5 83q109 31 164.5 85.5t66.5 129.5q7 55 7 95t-2 77.5t-2.5 78t7.5 96.5q9 67 44.5 124 t91 105t127.5 87.5t155 73.5z" />
<glyph unicode="|" horiz-adv-x="440" d="M193 -274q-10 -7 -26.5 -16t-35 -18t-36.5 -16.5t-30 -11.5l-37 32l261 1843q28 17 63 34.5t64 25.5l37 -29z" />
<glyph unicode="}" horiz-adv-x="687" d="M603 636q-109 -31 -164.5 -85t-66.5 -130q-8 -55 -7.5 -95t3 -77t2.5 -77.5t-7 -96.5q-10 -68 -46 -124.5t-91.5 -104.5t-127.5 -88t-154 -74l-26 78q79 49 133.5 114.5t64.5 141.5q7 52 7 92.5t-1.5 79t-2 79t6.5 93.5q6 42 25 82t48.5 75.5t66.5 64.5t79 47 q-91 19 -125 88t-19 181q7 54 19 100l26 88l24 83q11 41 17 85q6 41 5 75t-13.5 63.5t-39.5 57t-72 56.5l49 91q81 -33 142.5 -68.5t101 -78.5t55.5 -97.5t6 -126.5q-8 -53 -19.5 -95.5t-24 -84t-24.5 -85.5t-19 -100q-12 -81 16 -115t87 -34h19q6 0 10.5 0.5t11.5 1.5t21 4 z" />
<glyph unicode="~" horiz-adv-x="984" d="M950 774q-26 -49 -63 -101.5t-80 -96t-89 -71.5t-90 -28q-39 0 -79.5 25t-81 55t-81.5 55t-81 25q-46 0 -90 -39t-94 -123l-46 27q27 49 64 101.5t79.5 96t88.5 71.5t90 28q43 0 84.5 -25t82 -55t79 -55t76.5 -25q44 0 89.5 39t95.5 121z" />
<glyph unicode="&#xa1;" horiz-adv-x="478" d="M98 736q0 32 13 66.5t37.5 63t59 46.5t77.5 18q60 0 90.5 -31t30.5 -79q0 -33 -12.5 -68t-36.5 -63.5t-58.5 -47t-78.5 -18.5q-63 0 -92.5 31.5t-29.5 81.5zM224 -422q-21 -12 -54 -28l-68 -34l-67 -32q-32 -14 -52 -21l-42 32l209 993q20 14 50.5 26t53.5 20l25 -21z " />
<glyph unicode="&#xa2;" d="M318 510q0 -92 29 -148t70 -80l86 625q-43 -20 -77.5 -62.5t-58.5 -97.5t-36.5 -117t-12.5 -120zM636 1054q8 0 17 0.5t18 0.5q47 0 89 -16.5t78 -37.5t65.5 -40.5t50.5 -24.5q-12 -10 -29 -28l-36 -37l-39 -41l-39.5 -36.5t-34 -27t-25.5 -10.5q-11 0 -24 18.5 t-28.5 43.5t-36 51t-46.5 40l-89 -643q27 5 55 18t59.5 34.5t68.5 51.5l83 67l11 -17l16 -21q8 -11 14.5 -21t8.5 -14l-103 -92q-47 -39 -86.5 -68t-75 -48t-70.5 -30l-17 -121q-18 -17 -46 -31.5t-51 -22.5l-19 22l19 138q-29 0 -62.5 7.5t-67.5 24.5t-65.5 44t-56 67 t-39 93.5t-14.5 123.5q0 67 18.5 135.5t56 133.5t93 124.5t129.5 108.5q29 19 62.5 34.5t72.5 26.5l18 130l47 32q21 13 49 21l20 -23z" />
<glyph unicode="&#xa3;" d="M627 521h-244q-13 -118 -51.5 -211t-99.5 -171q42 4 72.5 5t54 0.5t43 -1.5t40.5 -2.5t45.5 -2t58.5 0.5q43 1 75 9.5t58 29.5t50.5 58t52.5 96l64 -25q-10 -43 -22.5 -91t-25.5 -91l-24 -77l-15 -48q-45 -25 -107 -28t-133.5 4t-148 18.5t-149.5 16.5t-138.5 -2.5 t-115.5 -38.5l-25 72l56 47q25 22 44.5 48t33.5 58.5t25 77.5t19 105.5t15 142.5h-107l-22 33q3 7 9 19l13 25l14 24l10 20h93q16 132 60 241t111 187t155 121.5t192 43.5q24 0 54 -2t64 -9.5t71.5 -21t76.5 -37.5q-3 -17 -9 -43l-12 -58l-15 -64l-15 -62 q-8 -30 -15.5 -53.5t-12.5 -36.5h-72q4 124 -36 195t-123 71q-19 0 -41 -4t-45.5 -19.5t-46 -45.5t-41.5 -82.5t-33.5 -131t-20.5 -189.5h260l27 -30z" />
<glyph unicode="&#xa4;" d="M503 820q-43 0 -82 -18t-69 -48.5t-50 -70t-26 -82.5q-5 -39 4 -78t30.5 -69.5t55 -50t77.5 -19.5q43 0 81.5 18t68.5 48.5t49.5 70t25.5 81.5q6 40 -3 78.5t-30.5 69t-55 49.5t-76.5 21zM714 183l-104 137q-40 -29 -86 -44.5t-97 -15.5q-52 0 -95 16.5t-75 45.5 l-145 -139l-38 3l-13 38q-7 22 -12 42l145 140q-20 43 -28 92t-1 101q7 54 29 104t54 94l-108 142l9 44q17 10 39 19l41 19l105 -139q42 30 89 47t98 17q50 0 91.5 -17.5t73.5 -46.5l143 137l39 1l23 -85l-143 -139q22 -45 30.5 -95.5t1.5 -101.5q-8 -52 -29 -102t-54 -93 l107 -139l-6 -45z" />
<glyph unicode="&#xa5;" d="M1073 1136q-62 -13 -93.5 -27t-47.5 -39l-339 -557l-1 -9h237l19 -23l-46 -96h-226l-32 -241q-1 -6 4.5 -14.5t20.5 -18t40.5 -19.5t66.5 -19l-9 -73h-509l10 73q42 9 70 19t45.5 19t25 17.5t8.5 15.5l31 241h-257l-16 24q2 6 8 19l13 28q6 15 12 28l10 20h247l2 14 q-20 76 -46 154.5t-54.5 151t-57.5 136.5t-56 111q-7 12 -15 20.5t-22.5 14t-37.5 7.5t-60 1l4 73q27 4 63 10t72.5 11t69 8.5t50.5 3.5q23 0 46 -12t35 -34q28 -50 55 -108t52.5 -121t48.5 -129t42 -132l234 386q17 26 -3.5 41t-88.5 25l10 72h375z" />
<glyph unicode="&#xa6;" horiz-adv-x="440" d="M357 774q-10 -8 -28.5 -16.5t-39 -17t-40.5 -15.5l-31 -10l-38 30l113 798q15 9 32.5 17t36 15.5t36 13.5t32.5 10l38 -29zM207 -278q-9 -7 -27 -15.5t-38 -16.5l-40 -15l-31 -11l-36 32l111 786q13 9 30.5 17.5t35.5 16t35.5 14t32.5 11.5l41 -32z" />
<glyph unicode="&#xa7;" horiz-adv-x="922" d="M639 511q15 20 25.5 43.5t14.5 49.5q7 50 -2.5 88t-35.5 71t-68.5 65t-102.5 71q-27 16 -54 36q-22 -23 -37.5 -51.5t-19.5 -55.5q-6 -44 4 -77t35.5 -63t67.5 -60l97 -69zM880 669q-12 -85 -49.5 -150.5t-85.5 -108.5q17 -28 24.5 -60.5t2.5 -71.5q-10 -71 -36 -121 t-62 -84.5t-77.5 -54.5t-83 -31t-78 -14t-62.5 -3q-29 0 -62.5 5t-67 14.5t-66 23.5t-59.5 33q-4 2 -4.5 17.5t1.5 40t6.5 55t11 62.5t14.5 62.5t17 54.5l71 -11q2 -53 17 -96.5t39.5 -74.5t57.5 -48t72 -17q65 0 99.5 24.5t42.5 84.5q6 40 -11.5 71.5t-48 58t-69.5 50.5 l-77 47q-39 25 -78.5 57.5t-68.5 75t-43.5 96.5t-5.5 123q5 34 19.5 68t35.5 65.5t48.5 59t57.5 48.5q-27 34 -42 72.5t-8 85.5q9 62 42.5 111t83 82.5t110 51t121.5 17.5q39 0 77.5 -5.5t73 -16t62.5 -25t46 -32.5q5 -5 -2.5 -33.5t-20.5 -64t-29 -70t-29 -50.5l-61 8 q-11 89 -46.5 136.5t-94.5 47.5q-54 0 -87.5 -25t-39.5 -70q-5 -33 8 -58.5t40 -48.5t65 -47l85 -54q40 -26 81 -57.5t71.5 -74.5t46 -99t5.5 -132z" />
<glyph unicode="&#xa8;" horiz-adv-x="1042" d="M538 1270q0 -31 -11 -64t-31.5 -60t-50.5 -44.5t-67 -17.5q-48 0 -70.5 30t-22.5 70q0 29 11 62t31.5 60.5t49.5 46t66 18.5q24 0 42 -8.5t29.5 -22.5t17.5 -32.5t6 -37.5zM925 1270q0 -31 -11 -64t-31.5 -60t-50.5 -44.5t-67 -17.5q-47 0 -70 30t-23 70q0 29 11 62 t31.5 60.5t49.5 46t66 18.5q24 0 42 -8.5t29.5 -22.5t17.5 -32.5t6 -37.5z" />
<glyph unicode="&#xa9;" horiz-adv-x="1360" d="M1044 942l-40 -30l-48 -36q-24 -17 -45.5 -29t-32.5 -12q-13 0 -28 17l-34 40q-18 21 -40.5 38.5t-50.5 17.5q-36 0 -67 -18t-56 -48t-44.5 -70t-32.5 -83t-19.5 -87t-6.5 -83q0 -56 15.5 -95t41.5 -64t60 -36t71 -11q45 0 106 30t148 106q4 -5 10 -13.5t13 -17t12.5 -16 t7.5 -11.5q-66 -60 -119 -100t-99 -64t-87.5 -34t-83.5 -10t-91 14.5t-91.5 49t-70.5 93t-28 146.5q0 49 9.5 103.5t34.5 109t66.5 108.5t106.5 103q23 18 54 35t67 30t76 21t81 8q46 0 82.5 -14t65 -32t49.5 -35t38 -21zM1185 719q0 101 -30 187t-85 149t-132 98.5 t-171 35.5q-82 0 -156.5 -25.5t-139 -70t-117 -106t-89.5 -133t-57.5 -150.5t-20.5 -159q0 -102 30 -188.5t85.5 -150.5t133 -100t172.5 -36q82 0 157 25.5t139 70.5t116 107t88.5 134t56.5 151.5t20 160.5zM1295 752q0 -95 -22.5 -191.5t-65 -185t-103.5 -165.5t-139 -134 t-171.5 -89.5t-200.5 -32.5q-120 0 -215.5 45.5t-161.5 123.5t-101.5 182t-35.5 221q0 93 23.5 187t67 180.5t105.5 161.5t140 130.5t170 87.5t195 32q120 0 215 -43t162 -118t102.5 -176t35.5 -216z" />
<glyph unicode="&#xaa;" horiz-adv-x="616" d="M594 643q-5 -16 -15 -29.5t-15 -27.5h-495l-25 28q5 16 15 30.5t16 29.5h493zM393 953l9 59q4 30 8.5 57.5t8.5 48.5l6 33v1q-15 12 -31.5 20t-32.5 8q-37 0 -63.5 -23.5t-43.5 -58.5t-25 -74.5t-8 -70.5q0 -60 14.5 -92t35.5 -32t50.5 31.5t71.5 92.5zM608 798 q-46 -29 -87.5 -49.5t-63.5 -20.5q-9 0 -21 6t-23 20t-19 36t-10 54q-38 -51 -75.5 -83.5t-72.5 -32.5q-23 0 -48 10t-45.5 32t-34 57t-13.5 85q0 87 45 161.5t122 127.5q29 20 67 35.5t87 15.5q23 0 46 -11t43 -24q38 21 70 35l18 -35l-17 -13q-7 -6 -12.5 -13.5 t-9.5 -18.5t-8 -29q-9 -39 -15 -77.5t-9.5 -71.5t-5.5 -58.5t-2 -37.5q0 -35 6 -57t19 -22q11 0 21.5 2.5t32.5 11.5z" />
<glyph unicode="&#xab;" horiz-adv-x="969" d="M51 426q2 19 5 35l4 25q1 11 3 13l422 423l47 -45l-11 -18l-27 -47l-38 -66l-45 -77l-45 -76l-38 -66l-28 -47q-10 -17 -9 -17l128 -419l-60 -45zM425 426q2 19 5 35q2 14 4 25t3 13l423 423l46 -45l-10 -18l-27 -47l-39 -66l-44 -77l-44 -76l-39 -66l-27 -47 q-10 -17 -9 -17l127 -419l-60 -45z" />
<glyph unicode="&#xac;" d="M806 324q-7 -6 -20 -24l-26 -40q-13 -20 -26 -37t-22 -20q-3 -2 -9 0t-13 5.5t-13.5 6t-9.5 1.5l25 223l-485 52l-161 26q3 7 8 20t12 27l12 27q6 13 10 20q133 2 226.5 4t156.5 3.5t99 3.5t54.5 4t24 3.5t6.5 3.5q69 0 106 -3.5t55 -8.5q20 -5 24 -12z" />
<glyph unicode="&#xad;" horiz-adv-x="679" d="M633 549q-4 -11 -11 -26l-16 -31l-17 -30q-8 -14 -12 -22h-523l-26 32q4 11 11 25.5t15 29.5l18 29l14 24h520z" />
<glyph unicode="&#xae;" horiz-adv-x="704" d="M755 1084q-11 -77 -43 -143t-80 -114.5t-110 -76t-132 -27.5q-71 0 -125.5 27.5t-89.5 76t-49.5 114.5t-3.5 143q10 76 42.5 142t80.5 114.5t110 76.5t132 28t124.5 -27.5t90 -76t49.5 -114.5t4 -143zM683 1084q8 59 -1.5 112t-35.5 92.5t-69.5 63t-102.5 23.5 t-107 -23.5t-83.5 -63t-58.5 -92.5t-31 -112q-8 -60 1 -112.5t35.5 -92.5t69 -63t101.5 -23t107.5 23t84.5 63t59 92.5t31 112.5zM269 883l2 26q37 9 39 19l43 317q-9 -2 -17 -3l-17 -2l2 37q27 7 60 12.5t70 5.5q39 0 66 -9.5t43.5 -25t22.5 -35t3 -39.5q-6 -45 -35 -73 t-71 -39l76 -132q5 -11 15 -12.5t30 6.5l3 -18l-3 -2q-8 -5 -20.5 -11.5t-25.5 -12.5l-23 -10q-11 -5 -16 -5q-8 0 -15.5 6t-9.5 12l-69 171h-15q-5 0 -10 2l-19 -140q-2 -10 35 -19l-2 -26h-142zM423 1252l-20 -140q5 -1 8 -1h9q40 0 63.5 13.5t28.5 52.5q4 29 -13 52 t-63 23h-13z" />
<glyph unicode="&#xaf;" horiz-adv-x="905" d="M962 1281q-3 -11 -12 -29l-19 -36l-19 -34l-15 -25h-707l-23 32q4 10 12 27t18 35l19 35q9 17 15 27h704z" />
<glyph unicode="&#xb0;" horiz-adv-x="669" d="M407 874q27 0 48.5 13.5t36.5 34.5t23.5 47t8.5 52q0 18 -5 36t-14.5 32t-24 22.5t-33.5 8.5q-21 0 -42 -11.5t-38 -31t-27.5 -46.5t-10.5 -57q0 -47 23 -73.5t55 -26.5zM667 1073q0 -73 -30.5 -134.5t-77 -106.5t-101.5 -70t-104 -25q-45 0 -76.5 16t-52 41.5t-30 58 t-9.5 65.5q0 69 29.5 130.5t75 108t100.5 74t107 27.5q40 0 71.5 -15t53.5 -40.5t33 -59t11 -70.5z" />
<glyph unicode="&#xb1;" horiz-adv-x="819" d="M709 225q-4 -11 -11.5 -27l-15.5 -32l-17 -32l-12 -23h-624l-24 32q4 10 11 25l16 32q8 16 16.5 31t13.5 25h623zM779 734q-4 -11 -11.5 -27l-15.5 -33l-17 -31l-12 -23h-237l-37 -265q-9 -5 -23 -11t-30 -11.5t-31 -10t-25 -6.5l-25 30l37 274h-253l-25 32q4 10 12 26 l16 31l16 31q8 15 14 25h240l37 267l23 8l31 10l31 11l26 8l24 -31l-38 -273h249z" />
<glyph unicode="&#xb2;" horiz-adv-x="663" d="M691 1232q0 -44 -19 -87.5t-66 -99.5t-127 -131l-202 -183h234q21 0 36.5 18t26.5 41q12 26 20 59l52 -12l-41 -220h-521l-12 47l214 204q84 84 132.5 145t67.5 105.5t19 85.5q0 32 -15 53.5t-57 21.5q-48 0 -69.5 -33t-19.5 -78q-12 -6 -33.5 -12t-46.5 -11l-48 -9 q-23 -5 -38 -6l-17 41q4 31 32.5 64t73 60t101 45t118.5 18q101 1 153 -35.5t52 -90.5z" />
<glyph unicode="&#xb3;" horiz-adv-x="661" d="M653 1217q0 -32 -11.5 -60.5t-32 -52t-48.5 -41.5t-60 -27q38 -4 65 -19t44 -37t25 -48.5t8 -53.5q0 -57 -26.5 -108t-72 -89t-106 -60t-128.5 -22q-25 0 -55.5 6t-62 18t-62 30.5t-55.5 43.5l36 77q54 -41 99 -59.5t92 -18.5q31 0 59 11t49 31.5t33.5 50.5t11.5 68 q0 33 -9 54.5t-24 34t-34 18t-40 5.5q-17 0 -25.5 -0.5t-28.5 -3.5l-3 64q52 12 86.5 30t54.5 40.5t28 48t8 54.5q0 15 -2.5 28.5t-9.5 24.5t-19 17.5t-31 6.5q-16 0 -31 -7t-26 -19.5t-16.5 -30t-2.5 -37.5q-14 -8 -33 -14.5t-40 -12.5t-42 -10t-39 -5l-17 37q4 25 28 56 t63.5 58t91.5 45.5t111 18.5t97.5 -13t61.5 -33.5t32 -45.5t9 -49z" />
<glyph unicode="&#xb4;" horiz-adv-x="606" d="M607 1367l-378 -348q-16 4 -34.5 18.5t-32.5 31.5l234 398l38 -7q28 -5 58 -11t56.5 -12.5t35.5 -9.5z" />
<glyph unicode="&#xb5;" horiz-adv-x="1111" d="M1097 215q-45 -76 -88 -125.5t-82 -78.5t-73.5 -40.5t-62.5 -11.5q-27 0 -49 19.5t-38.5 53t-26.5 78t-12 94.5q-69 -118 -139.5 -181.5t-144.5 -63.5q-53 0 -98.5 35t-78.5 96q-12 -100 -1 -182.5t29.5 -144t37.5 -101t24 -52.5l-30 -12l-48 -20l-55 -22l-55 -23 l-45 -20q-20 -9 -28 -13l-41 36q7 56 18 128l26 152l28 167l30 170l28 163l24 145q8 64 18 124.5t10 114.5q0 23 -3 36.5t-8.5 20t-12.5 8.5t-15 2q-10 0 -25.5 -3.5t-31.5 -8.5q-18 -5 -38 -12l-14 67q28 13 64 27l72 28l74 27q37 13 67.5 22.5t52.5 15.5t30 6 q28 0 37.5 -19t9.5 -65q0 -29 -4.5 -70.5t-12.5 -88.5l-15 -97l-15 -96q-8 -46 -12.5 -86t-4.5 -67q0 -83 24 -125.5t59 -42.5q19 0 42.5 12t52.5 40.5t63.5 77t76.5 122.5l15 87l14 84q6 40 10 73t4 55q0 32 -3.5 65t-13.5 52q18 7 53 19l76 27l77 26q37 12 58 17 q8 -11 16.5 -24t11.5 -22l-16 -76l-21 -104l-24 -118l-20.5 -118.5t-15.5 -107t-6 -82.5q0 -63 11 -87.5t26 -24.5q20 0 49.5 21t73.5 81z" />
<glyph unicode="&#xb6;" horiz-adv-x="1109" d="M1135 1187q-64 -14 -98 -31t-36 -31l-171 -1240q-2 -13 25 -30.5t92 -31.5l-11 -73h-612l10 73q64 14 98.5 31t36.5 31l89 640q-17 -3 -36.5 -4.5t-44.5 -1.5q-97 0 -176.5 25t-133.5 73.5t-78.5 120t-11.5 165.5q12 85 54 156t108.5 122.5t155 80t192.5 28.5q20 0 52 -2 l71 -3q39 -2 82 -4.5t85 -5.5l210 -15h57zM572 633l76 541q-18 2 -33 2h-27q-44 0 -88.5 -16t-82 -47t-64 -75t-33.5 -100q-8 -54 -0.5 -108.5t32.5 -98t69 -71t111 -27.5h40zM860 1142q-17 5 -35 9t-36 6l-175 -1272q-1 -6 2 -11t8 -9t10.5 -7t10.5 -4q11 3 25 11.5 t16 19.5z" />
<glyph unicode="&#xb7;" horiz-adv-x="478" d="M397 678q0 -33 -12 -68t-35.5 -63.5t-58 -47t-79.5 -18.5q-63 0 -92.5 31.5t-29.5 82.5q0 31 13 65t37.5 62.5t59 46.5t77.5 18q60 0 90 -30.5t30 -78.5z" />
<glyph unicode="&#xb8;" horiz-adv-x="324" d="M234 -221q0 -53 -34 -97t-90 -69t-127 -24.5t-146 36.5l-2 69q42 -17 76.5 -19.5t59.5 5.5t39 23.5t14 35.5q0 21 -20.5 34.5t-50.5 11.5q16 32 28 60t21.5 54t17 51.5t13.5 53.5l98 -2q-4 -28 -10.5 -57t-11.5 -43q63 -2 94 -38t31 -85z" />
<glyph unicode="&#xb9;" horiz-adv-x="671" d="M605 617h-491l8 60q51 6 84.5 12.5t53 13.5t27 14.5t8.5 13.5l60 422q4 24 4.5 37.5t-7.5 21.5q-3 4 -11.5 6t-26 1.5t-46 -4t-71.5 -12.5l-11 59q28 6 76 19l100 28q52 15 98 30t71 25l25 -25l-87 -608q-1 -6 3.5 -13t20 -14.5t44.5 -14t77 -12.5z" />
<glyph unicode="&#xba;" horiz-adv-x="508" d="M410 1014q0 75 -27.5 115t-63.5 40q-31 0 -51 -18t-31.5 -46.5t-16 -64t-4.5 -69.5q0 -33 8 -62t21 -51t30 -35t36 -13q29 0 48 19.5t30.5 49.5t16 66t4.5 69zM510 643q-5 -16 -13 -29.5t-13 -27.5h-438l-24 28q5 16 12.5 30.5t13.5 29.5h437zM548 1049q0 -72 -35 -140.5 t-95 -117.5q-33 -27 -69.5 -45t-80.5 -18q-43 0 -77.5 15.5t-59 43.5t-37.5 65.5t-13 82.5q0 76 31 139.5t102 119.5q33 26 71.5 42t76.5 16q49 0 84 -15t57.5 -42t33.5 -64t11 -82z" />
<glyph unicode="&#xbb;" horiz-adv-x="969" d="M46 44l10 18l27 47l39 67l44 76l44 76l39 68l27 46l10 18l-10 30l-23 78l-31 100l-30 100l-24 78l-9 31l59 45l308 -426q-3 -19 -5 -35l-3 -25q-2 -11 -2 -12l-424 -425zM901 496l-1 -11q-1 -11 -3 -24.5t-4 -24.5t-3 -12l-423 -425l-47 45l121 208l44 76l39 67l27 47 l10 18l-6 17q-5 18 -14 47l-21 68l-23 76l-64 209l60 45z" />
<glyph unicode="&#xbc;" horiz-adv-x="1184" d="M913 469l-194 -239h157zM1082 215q-13 -16 -30.5 -31.5t-30.5 -23.5h-31l-15 -94q-1 -7 12 -13.5t55 -15.5l-5 -37h-305l6 37q35 5 57 9.5t34.5 8.5t17 8t5.5 8l14 89h-249l-19 19l312 381l30 9l33 10l33 10q17 5 29 9l20 -21l-55 -347h71zM127 637l7 42q42 4 70 9.5 t44.5 11t24 11.5t7.5 11l55 350q3 19 3 29.5t-5 17.5q-5 6 -33.5 6t-99.5 -13l-8 41q23 4 61.5 14.5l78.5 22.5l78 25q37 12 57 20l20 -21l-77 -492q-1 -5 3.5 -10.5t18 -11.5t37.5 -11.5t63 -9.5l-6 -42h-399zM215 3q-12 -6 -28 -10.5t-33.5 -8.5t-34.5 -7.5t-30 -6.5 l-18 30l985 1203q10 4 26 8.5t34 8.5l34 9q17 4 28 6l19 -28z" />
<glyph unicode="&#xbd;" horiz-adv-x="1184" d="M127 637l7 42q42 4 70 9.5t44.5 11t24 11.5t7.5 11l55 350q3 19 3 29.5t-5 17.5q-5 6 -33.5 6t-99.5 -13l-8 41q23 4 61.5 14.5l78.5 22.5l78 25q37 12 57 20l20 -21l-77 -492q-1 -5 3.5 -10.5t18 -11.5t37.5 -11.5t63 -9.5l-6 -42h-399zM215 3q-12 -6 -28 -10.5 t-33.5 -8.5t-34.5 -7.5t-30 -6.5l-18 30l985 1203q10 4 26 8.5t34 8.5l34 9q17 4 28 6l19 -28zM1066 0h-423l-9 36l172 156q70 67 113 117.5t62 87t20 66.5q3 72 -67 72q-20 0 -35 -8t-24.5 -21.5t-14 -30.5t-4.5 -34q-9 -5 -25 -9l-33 -10q-18 -4 -35 -7t-29 -4l-15 32 q4 25 27 51.5t58.5 48.5t81 36t95.5 14q33 0 62.5 -6t52 -19t35 -34t11.5 -51t-16.5 -62t-55.5 -76.5t-108 -106.5l-174 -153h201q19 0 32 14.5t21 32.5q10 21 15 48l44 -10z" />
<glyph unicode="&#xbe;" horiz-adv-x="1184" d="M913 469l-194 -239h157zM1082 215q-13 -16 -30.5 -31.5t-30.5 -23.5h-31l-15 -94q-1 -7 12 -13.5t55 -15.5l-5 -37h-305l6 37q35 5 57 9.5t34.5 8.5t17 8t5.5 8l14 89h-249l-19 19l312 381l30 9l33 10l33 10q17 5 29 9l20 -21l-55 -347h71zM215 3q-12 -6 -28 -10.5 t-33.5 -8.5t-34.5 -7.5t-30 -6.5l-18 30l985 1203q10 4 26 8.5t34 8.5l34 9q17 4 28 6l19 -28zM571 838q-2 -44 -24 -83t-59 -68t-86 -46t-105 -17q-20 0 -45 5.5t-50.5 15.5t-50 25t-43.5 35l31 46q42 -33 81 -45.5t78 -12.5q54 0 91.5 34.5t39.5 96.5q3 55 -25.5 78.5 t-69.5 23.5q-14 0 -20.5 -0.5t-22.5 -3.5l-3 45q83 19 119.5 54.5t37.5 85.5q1 32 -12 49t-43 17t-49.5 -20t-16.5 -55q-11 -5 -27.5 -11t-34 -10.5t-34.5 -8t-30 -3.5l-13 30q3 20 23 43.5t52.5 44t74 34.5t88.5 14t78 -10t49.5 -26.5t26 -37.5t6.5 -44q-1 -48 -37.5 -84 t-91.5 -56q30 -3 52 -15t37 -30.5t22 -41.5t6 -48z" />
<glyph unicode="&#xbf;" horiz-adv-x="878" d="M343 733q0 33 12 68t36 63.5t58.5 47t79.5 18.5q63 0 92 -31.5t29 -82.5q0 -32 -13 -65.5t-37.5 -62t-59 -46.5t-77.5 -18q-60 0 -90 30.5t-30 78.5zM714 -168q0 -64 -33 -128.5t-93.5 -116.5t-145.5 -85t-188 -33q-69 0 -122 19t-89.5 52t-55 77.5t-18.5 95.5 q0 84 28.5 150t72 120.5t95.5 101.5t98.5 95t80.5 101t43 118l11 89q19 14 49.5 27.5t55.5 21.5l22 -22l-4 -123q-3 -64 -26 -118t-56.5 -103.5t-72 -96.5t-71.5 -94.5t-54.5 -98.5t-21.5 -110q0 -41 8 -76t24.5 -61t40.5 -40.5t56 -14.5q33 0 57.5 18t39.5 49t18.5 73 t-5.5 89q21 10 51.5 20t62.5 18.5t62 15t52 8.5z" />
<glyph unicode="&#xc0;" horiz-adv-x="1194" d="M371 429l-127 -288q-13 -31 16 -44.5t104 -23.5l-9 -73h-405l10 73q64 12 99.5 25t48.5 43l468 1064q25 20 53.5 37.5t58.5 31.5t59 24.5t54 18.5l227 -1176q3 -14 8.5 -25t17 -19t30.5 -14t49 -10l-9 -73h-461l10 73q72 5 100.5 20t22.5 48l-54 288h-371zM719 550 l-90 472l-205 -472h295zM878 1408q-14 -20 -30 -40t-32 -29l-424 236l16 62q17 11 43 25l54 28l52 24l38 17z" />
<glyph unicode="&#xc1;" horiz-adv-x="1194" d="M371 429l-127 -288q-13 -31 16 -44.5t104 -23.5l-9 -73h-405l10 73q64 12 99.5 25t48.5 43l468 1064q25 20 53.5 37.5t58.5 31.5t59 24.5t54 18.5l227 -1176q3 -14 8.5 -25t17 -19t30.5 -14t49 -10l-9 -73h-461l10 73q72 5 100.5 20t22.5 48l-54 288h-371zM719 550 l-90 472l-205 -472h295zM1072 1575l-471 -236q-14 9 -26.5 29t-21.5 40l354 323l42 -23l47 -25l43 -25q20 -12 33 -21v-62z" />
<glyph unicode="&#xc2;" horiz-adv-x="1194" d="M371 429l-127 -288q-13 -31 16 -44.5t104 -23.5l-9 -73h-405l10 73q64 12 99.5 25t48.5 43l468 1064q25 20 53.5 37.5t58.5 31.5t59 24.5t54 18.5l227 -1176q3 -14 8.5 -25t17 -19t30.5 -14t49 -10l-9 -73h-461l10 73q72 5 100.5 20t22.5 48l-54 288h-371zM719 550 l-90 472l-205 -472h295zM1038 1399q-14 -20 -29 -36t-31 -24l-234 175l-277 -175q-9 6 -23.5 23t-24.5 37l290 308h122z" />
<glyph unicode="&#xc3;" horiz-adv-x="1194" d="M371 429l-127 -288q-13 -31 16 -44.5t104 -23.5l-9 -73h-405l10 73q64 12 99.5 25t48.5 43l468 1064q25 20 53.5 37.5t58.5 31.5t59 24.5t54 18.5l227 -1176q3 -14 8.5 -25t17 -19t30.5 -14t49 -10l-9 -73h-461l10 73q72 5 100.5 20t22.5 48l-54 288h-371zM719 550 l-90 472l-205 -472h295zM1117 1631q-14 -27 -32.5 -58t-40 -62t-45.5 -59.5t-50.5 -50.5t-54.5 -35t-57 -13q-40 0 -73.5 16t-65 35.5t-63 36t-66.5 16.5q-21 0 -38.5 -7.5t-35 -22t-36 -35.5t-39.5 -49l-65 28q22 40 52.5 89t66.5 91.5t77 71t84 28.5t78.5 -16.5 t67.5 -36.5l60 -36q29 -16 59 -16q42 0 76.5 28.5t73.5 86.5z" />
<glyph unicode="&#xc4;" horiz-adv-x="1194" d="M371 429l-127 -288q-13 -31 16 -44.5t104 -23.5l-9 -73h-405l10 73q64 12 99.5 25t48.5 43l468 1064q25 20 53.5 37.5t58.5 31.5t59 24.5t54 18.5l227 -1176q3 -14 8.5 -25t17 -19t30.5 -14t49 -10l-9 -73h-461l10 73q72 5 100.5 20t22.5 48l-54 288h-371zM719 550 l-90 472l-205 -472h295zM674 1551q0 -30 -11 -63t-31.5 -60.5t-50.5 -45t-67 -17.5q-48 0 -70.5 30.5t-22.5 69.5q0 30 11 62.5t31.5 60.5t49.5 46t66 18q48 0 71.5 -30.5t23.5 -70.5zM1061 1551q0 -30 -11 -63t-31.5 -60.5t-50.5 -45t-67 -17.5q-47 0 -70 30.5t-23 69.5 q0 30 11 62.5t31.5 60.5t49.5 46t66 18q48 0 71.5 -30.5t23.5 -70.5z" />
<glyph unicode="&#xc5;" horiz-adv-x="1194" d="M371 429l-127 -288q-13 -31 16 -44.5t104 -23.5l-9 -73h-405l10 73q64 12 99.5 25t48.5 43l468 1064q25 20 53.5 37.5t58.5 31.5t59 24.5t54 18.5l227 -1176q3 -14 8.5 -25t17 -19t30.5 -14t49 -10l-9 -73h-461l10 73q72 5 100.5 20t22.5 48l-54 288h-371zM719 550 l-90 472l-205 -472h295zM810 1584q0 30 -14 49t-36 19q-19 0 -35 -9.5t-27.5 -26t-18 -38t-6.5 -45.5q0 -31 15 -50.5t38 -18.5q17 0 32.5 9.5t27 26t18 38.5t6.5 46zM943 1621q0 -44 -19.5 -92.5t-53.5 -89t-80.5 -67.5t-99.5 -27q-35 0 -61.5 12.5t-44.5 32.5t-27 46.5 t-9 53.5q0 48 19 98t52.5 91t78.5 67.5t98 26.5q34 0 61.5 -12t46.5 -33t29 -48.5t10 -58.5z" />
<glyph unicode="&#xc6;" horiz-adv-x="1535" d="M814 1117q1 11 -4.5 16t-15.5 3.5t-21 -10t-20 -26.5l-187 -365h196zM1487 304l-21 -90l-23 -90l-20 -76q-9 -33 -15 -48h-871l10 73q63 14 97 30.5t36 30.5l67 491h-235l-248 -484q-16 -29 4.5 -44t86.5 -24l-10 -73h-384l10 73q57 9 92 24t51 44l490 962q9 17 6 28.5 t-18 21t-44 17.5t-73 17l9 73h1039l29 -32q-5 -26 -13.5 -65t-19 -80t-21.5 -77.5t-20 -55.5h-70q8 93 -3 141t-47 48h-309l-56 -404h367l27 -35l-23 -33l-28 -37q-14 -19 -28 -35t-24 -25q-23 29 -59 42t-84 13h-162l-61 -441q-2 -15 3 -26.5t24.5 -20t56 -13t97.5 -4.5h87 q43 0 75 11t58.5 35.5t51 64.5t52.5 99z" />
<glyph unicode="&#xc7;" horiz-adv-x="1040" d="M637 -221q0 -53 -34 -97t-89.5 -69t-127 -24.5t-146.5 36.5l-2 69q42 -17 77 -19.5t59.5 5.5t38.5 23.5t14 35.5q0 21 -20.5 34.5t-49.5 11.5l27 60q12 28 21.5 54t16.5 52q4 12 7 25q-59 7 -112 29q-76 33 -133 95t-90 152.5t-33 206.5q0 94 20 191.5t60.5 190 t102.5 176t146 150.5q36 28 80.5 51t92 39t97 24.5t96.5 8.5q49 0 97 -8t90.5 -21.5t76.5 -31.5t56 -39q2 -3 -4 -18t-17 -36.5t-25.5 -46.5t-29.5 -47l-28 -42q-14 -18 -23 -25l-60 15q-14 32 -33.5 61.5t-46 52.5t-60 36.5t-74.5 13.5q-40 0 -77 -11.5t-77 -42.5 q-63 -49 -105 -123t-67.5 -155.5t-36 -162t-10.5 -143.5q0 -109 28 -182.5t70.5 -117.5t92.5 -63t95 -19q25 0 57.5 5.5t73 22t90.5 44.5t112 73q5 -2 10.5 -12t10.5 -21l9 -22q4 -10 6 -13q-68 -68 -133.5 -113.5t-126 -73t-115.5 -39.5q-27 -6 -53 -9q-2 -15 -6 -31 q-6 -29 -11 -43q63 -2 94 -38t31 -85z" />
<glyph unicode="&#xc8;" horiz-adv-x="1009" d="M947 304l-21 -90l-23 -90q-11 -43 -20.5 -76t-15.5 -48h-875l10 73q65 14 99.5 30.5t36.5 30.5l136 991q2 12 -26 30t-93 32l10 73h817l32 -32q-5 -26 -14 -65t-20 -80t-22 -77.5t-19 -55.5h-70q8 93 -4 141.5t-47 48.5h-311l-56 -405h369l27 -35q-9 -14 -23 -33l-27 -37 q-14 -19 -28 -35.5t-25 -24.5q-13 15 -28.5 25.5t-37 17t-52.5 9.5t-74 3h-116l-60 -441q-2 -15 3 -26.5t24.5 -20t56 -13t97.5 -4.5h92q42 0 73.5 11t57.5 35.5t50 64.5t52 99zM785 1408q-14 -20 -30 -40t-32 -29l-424 236l16 62q17 11 43 25l54 28l52 24l38 17z" />
<glyph unicode="&#xc9;" horiz-adv-x="1009" d="M947 304l-21 -90l-23 -90q-11 -43 -20.5 -76t-15.5 -48h-875l10 73q65 14 99.5 30.5t36.5 30.5l136 991q2 12 -26 30t-93 32l10 73h817l32 -32q-5 -26 -14 -65t-20 -80t-22 -77.5t-19 -55.5h-70q8 93 -4 141.5t-47 48.5h-311l-56 -405h369l27 -35q-9 -14 -23 -33l-27 -37 q-14 -19 -28 -35.5t-25 -24.5q-13 15 -28.5 25.5t-37 17t-52.5 9.5t-74 3h-116l-60 -441q-2 -15 3 -26.5t24.5 -20t56 -13t97.5 -4.5h92q42 0 73.5 11t57.5 35.5t50 64.5t52 99zM979 1575l-471 -236q-14 9 -26.5 29t-21.5 40l354 323l42 -23l47 -25l43 -25q20 -12 33 -21 v-62z" />
<glyph unicode="&#xca;" horiz-adv-x="1009" d="M947 304l-21 -90l-23 -90q-11 -43 -20.5 -76t-15.5 -48h-875l10 73q65 14 99.5 30.5t36.5 30.5l136 991q2 12 -26 30t-93 32l10 73h817l32 -32q-5 -26 -14 -65t-20 -80t-22 -77.5t-19 -55.5h-70q8 93 -4 141.5t-47 48.5h-311l-56 -405h369l27 -35q-9 -14 -23 -33l-27 -37 q-14 -19 -28 -35.5t-25 -24.5q-13 15 -28.5 25.5t-37 17t-52.5 9.5t-74 3h-116l-60 -441q-2 -15 3 -26.5t24.5 -20t56 -13t97.5 -4.5h92q42 0 73.5 11t57.5 35.5t50 64.5t52 99zM945 1399q-14 -20 -29 -36t-31 -24l-234 175l-277 -175q-9 6 -23.5 23t-24.5 37l290 308h122z " />
<glyph unicode="&#xcb;" horiz-adv-x="1009" d="M947 304l-21 -90l-23 -90q-11 -43 -20.5 -76t-15.5 -48h-875l10 73q65 14 99.5 30.5t36.5 30.5l136 991q2 12 -26 30t-93 32l10 73h817l32 -32q-5 -26 -14 -65t-20 -80t-22 -77.5t-19 -55.5h-70q8 93 -4 141.5t-47 48.5h-311l-56 -405h369l27 -35q-9 -14 -23 -33l-27 -37 q-14 -19 -28 -35.5t-25 -24.5q-13 15 -28.5 25.5t-37 17t-52.5 9.5t-74 3h-116l-60 -441q-2 -15 3 -26.5t24.5 -20t56 -13t97.5 -4.5h92q42 0 73.5 11t57.5 35.5t50 64.5t52 99zM581 1551q0 -30 -11 -63t-31.5 -60.5t-50.5 -45t-67 -17.5q-48 0 -70.5 30.5t-22.5 69.5 q0 30 11 62.5t31.5 60.5t49.5 46t66 18q48 0 71.5 -30.5t23.5 -70.5zM968 1551q0 -30 -11 -63t-31.5 -60.5t-50.5 -45t-67 -17.5q-47 0 -70 30.5t-23 69.5q0 30 11 62.5t31.5 60.5t49.5 46t66 18q48 0 71.5 -30.5t23.5 -70.5z" />
<glyph unicode="&#xcc;" horiz-adv-x="632" d="M661 1187q-64 -14 -99 -31t-37 -31l-136 -991q-2 -12 25.5 -29.5t93.5 -31.5l-10 -73h-485l10 73q63 14 98 30.5t37 30.5l135 991q2 12 -25.5 30t-92.5 32l10 73h486zM594 1408q-14 -20 -30 -40t-32 -29l-424 236l16 62q17 11 43 25l54 28l52 24l38 17z" />
<glyph unicode="&#xcd;" horiz-adv-x="632" d="M661 1187q-64 -14 -99 -31t-37 -31l-136 -991q-2 -12 25.5 -29.5t93.5 -31.5l-10 -73h-485l10 73q63 14 98 30.5t37 30.5l135 991q2 12 -25.5 30t-92.5 32l10 73h486zM788 1575l-471 -236q-14 9 -26.5 29t-21.5 40l354 323l42 -23l47 -25l43 -25q20 -12 33 -21v-62z" />
<glyph unicode="&#xce;" horiz-adv-x="632" d="M661 1187q-64 -14 -99 -31t-37 -31l-136 -991q-2 -12 25.5 -29.5t93.5 -31.5l-10 -73h-485l10 73q63 14 98 30.5t37 30.5l135 991q2 12 -25.5 30t-92.5 32l10 73h486zM754 1399q-14 -20 -29 -36t-31 -24l-234 175l-277 -175q-9 6 -23.5 23t-24.5 37l290 308h122z" />
<glyph unicode="&#xcf;" horiz-adv-x="632" d="M661 1187q-64 -14 -99 -31t-37 -31l-136 -991q-2 -12 25.5 -29.5t93.5 -31.5l-10 -73h-485l10 73q63 14 98 30.5t37 30.5l135 991q2 12 -25.5 30t-92.5 32l10 73h486zM390 1551q0 -30 -11 -63t-31.5 -60.5t-50.5 -45t-67 -17.5q-48 0 -70.5 30.5t-22.5 69.5q0 30 11 62.5 t31.5 60.5t49.5 46t66 18q48 0 71.5 -30.5t23.5 -70.5zM777 1551q0 -30 -11 -63t-31.5 -60.5t-50.5 -45t-67 -17.5q-47 0 -70 30.5t-23 69.5q0 30 11 62.5t31.5 60.5t49.5 46t66 18q48 0 71.5 -30.5t23.5 -70.5z" />
<glyph unicode="&#xd0;" horiz-adv-x="1208" d="M572 1184q-15 0 -30 -1.5t-30 -2.5l-63 -460h238l26 -32l-49 -88h-231l-59 -438q-4 -29 23 -42t103 -13q69 0 127.5 26.5t106.5 72t84.5 106t61.5 129.5t37.5 142.5t12.5 143.5q0 107 -20 191.5t-63.5 143.5t-111.5 90.5t-163 31.5zM1182 753q0 -88 -21 -178t-61 -173.5 t-98 -157t-132.5 -127.5t-164.5 -85.5t-194 -31.5h-519l10 73q63 14 97 30.5t36 30.5l64 466h-115l-26 30q3 8 10 20l14 25l14 25q6 12 11 20h109l61 439l-141 -20v93q57 14 120 24.5t126 18t123 11.5t111 4q145 0 252 -37.5t176.5 -107.5t103.5 -169t34 -223z" />
<glyph unicode="&#xd1;" horiz-adv-x="1265" d="M1341 1187q-69 -10 -101 -28.5t-34 -33.5l-159 -1155q-87 8 -137.5 36.5t-73.5 73.5l-447 842l-108 -788q-1 -6 4 -14.5t19 -17t37 -16.5t58 -13l-10 -73h-391l10 73q69 9 100.5 28t33.5 33l135 981q-51 60 -119 72l10 73h255q16 0 25.5 -2t18 -10t17.5 -24l22 -42 l453 -853l109 796q1 6 -4 14.5t-18 17t-36.5 16.5t-59.5 14l9 73h391zM1162 1631q-14 -27 -32.5 -58t-40 -62t-45.5 -59.5t-50.5 -50.5t-54.5 -35t-57 -13q-40 0 -73.5 16t-65 35.5t-63 36t-66.5 16.5q-21 0 -38.5 -7.5t-35 -22t-36 -35.5t-39.5 -49l-65 28q22 40 52.5 89 t66.5 91.5t77 71t84 28.5t78.5 -16.5t67.5 -36.5l60 -36q29 -16 59 -16q42 0 76.5 28.5t73.5 86.5z" />
<glyph unicode="&#xd2;" horiz-adv-x="1172" d="M917 756q0 84 -16 157.5t-47 128t-77.5 85.5t-106.5 31q-61 0 -111 -29t-89 -77.5t-68 -112t-48 -133t-28 -140.5t-9 -134q0 -93 16 -171t47.5 -134.5t76.5 -87.5t104 -31q64 0 115 30.5t90.5 81t68 117t47 138.5t27 145t8.5 136zM1156 774q0 -71 -13.5 -144t-38.5 -144 t-61.5 -137.5t-81.5 -123.5q-42 -54 -94.5 -100.5t-111.5 -81t-123 -54.5t-131 -20q-102 0 -181 41t-133.5 111.5t-83 164.5t-28.5 199q0 74 12.5 146t35.5 140t55.5 130t72.5 117q42 56 93 105.5t111.5 86.5t130.5 58.5t149 21.5q107 0 186 -41t131.5 -111.5t78 -164.5 t25.5 -199zM888 1408q-14 -20 -30 -40t-32 -29l-424 236l16 62q17 11 43 25l54 28l52 24l38 17z" />
<glyph unicode="&#xd3;" horiz-adv-x="1172" d="M917 756q0 84 -16 157.5t-47 128t-77.5 85.5t-106.5 31q-61 0 -111 -29t-89 -77.5t-68 -112t-48 -133t-28 -140.5t-9 -134q0 -93 16 -171t47.5 -134.5t76.5 -87.5t104 -31q64 0 115 30.5t90.5 81t68 117t47 138.5t27 145t8.5 136zM1156 774q0 -71 -13.5 -144t-38.5 -144 t-61.5 -137.5t-81.5 -123.5q-42 -54 -94.5 -100.5t-111.5 -81t-123 -54.5t-131 -20q-102 0 -181 41t-133.5 111.5t-83 164.5t-28.5 199q0 74 12.5 146t35.5 140t55.5 130t72.5 117q42 56 93 105.5t111.5 86.5t130.5 58.5t149 21.5q107 0 186 -41t131.5 -111.5t78 -164.5 t25.5 -199zM1082 1575l-471 -236q-14 9 -26.5 29t-21.5 40l354 323l42 -23l47 -25l43 -25q20 -12 33 -21v-62z" />
<glyph unicode="&#xd4;" horiz-adv-x="1172" d="M917 756q0 84 -16 157.5t-47 128t-77.5 85.5t-106.5 31q-61 0 -111 -29t-89 -77.5t-68 -112t-48 -133t-28 -140.5t-9 -134q0 -93 16 -171t47.5 -134.5t76.5 -87.5t104 -31q64 0 115 30.5t90.5 81t68 117t47 138.5t27 145t8.5 136zM1156 774q0 -71 -13.5 -144t-38.5 -144 t-61.5 -137.5t-81.5 -123.5q-42 -54 -94.5 -100.5t-111.5 -81t-123 -54.5t-131 -20q-102 0 -181 41t-133.5 111.5t-83 164.5t-28.5 199q0 74 12.5 146t35.5 140t55.5 130t72.5 117q42 56 93 105.5t111.5 86.5t130.5 58.5t149 21.5q107 0 186 -41t131.5 -111.5t78 -164.5 t25.5 -199zM1048 1399q-14 -20 -29 -36t-31 -24l-234 175l-277 -175q-9 6 -23.5 23t-24.5 37l290 308h122z" />
<glyph unicode="&#xd5;" horiz-adv-x="1172" d="M917 756q0 84 -16 157.5t-47 128t-77.5 85.5t-106.5 31q-61 0 -111 -29t-89 -77.5t-68 -112t-48 -133t-28 -140.5t-9 -134q0 -93 16 -171t47.5 -134.5t76.5 -87.5t104 -31q64 0 115 30.5t90.5 81t68 117t47 138.5t27 145t8.5 136zM1156 774q0 -71 -13.5 -144t-38.5 -144 t-61.5 -137.5t-81.5 -123.5q-42 -54 -94.5 -100.5t-111.5 -81t-123 -54.5t-131 -20q-102 0 -181 41t-133.5 111.5t-83 164.5t-28.5 199q0 74 12.5 146t35.5 140t55.5 130t72.5 117q42 56 93 105.5t111.5 86.5t130.5 58.5t149 21.5q107 0 186 -41t131.5 -111.5t78 -164.5 t25.5 -199zM1127 1631q-14 -27 -32.5 -58t-40 -62t-45.5 -59.5t-50.5 -50.5t-54.5 -35t-57 -13q-40 0 -73.5 16t-65 35.5t-63 36t-66.5 16.5q-21 0 -38.5 -7.5t-35 -22t-36 -35.5t-39.5 -49l-65 28q22 40 52.5 89t66.5 91.5t77 71t84 28.5t78.5 -16.5t67.5 -36.5l60 -36 q29 -16 59 -16q42 0 76.5 28.5t73.5 86.5z" />
<glyph unicode="&#xd6;" horiz-adv-x="1172" d="M917 756q0 84 -16 157.5t-47 128t-77.5 85.5t-106.5 31q-61 0 -111 -29t-89 -77.5t-68 -112t-48 -133t-28 -140.5t-9 -134q0 -93 16 -171t47.5 -134.5t76.5 -87.5t104 -31q64 0 115 30.5t90.5 81t68 117t47 138.5t27 145t8.5 136zM1156 774q0 -71 -13.5 -144t-38.5 -144 t-61.5 -137.5t-81.5 -123.5q-42 -54 -94.5 -100.5t-111.5 -81t-123 -54.5t-131 -20q-102 0 -181 41t-133.5 111.5t-83 164.5t-28.5 199q0 74 12.5 146t35.5 140t55.5 130t72.5 117q42 56 93 105.5t111.5 86.5t130.5 58.5t149 21.5q107 0 186 -41t131.5 -111.5t78 -164.5 t25.5 -199zM684 1551q0 -30 -11 -63t-31.5 -60.5t-50.5 -45t-67 -17.5q-48 0 -70.5 30.5t-22.5 69.5q0 30 11 62.5t31.5 60.5t49.5 46t66 18q48 0 71.5 -30.5t23.5 -70.5zM1071 1551q0 -30 -11 -63t-31.5 -60.5t-50.5 -45t-67 -17.5q-47 0 -70 30.5t-23 69.5q0 30 11 62.5 t31.5 60.5t49.5 46t66 18q48 0 71.5 -30.5t23.5 -70.5z" />
<glyph unicode="&#xd7;" horiz-adv-x="819" d="M50 315l262 248l-194 247l5 34l25 11l32 14q16 7 32 12.5t26 8.5l179 -228l242 228q9 -3 23.5 -8.5t30 -12.5t29.5 -14l21 -11l-5 -34l-262 -247l195 -248l-5 -34q-10 -4 -26 -11l-33 -14l-32 -13q-15 -6 -24 -8l-181 229l-242 -229q-8 2 -22 8l-30 13l-29 14l-22 11z " />
<glyph unicode="&#xd8;" horiz-adv-x="1171" d="M917 756q0 62 -9 118l-526 -651q31 -55 76 -85t103 -30q64 0 115 30.5t90.5 81t68 117t47 138.5t27 145t8.5 136zM317 532q0 -43 3 -82t10 -75l530 654q-31 60 -78.5 94.5t-111.5 34.5q-61 0 -111 -29t-89 -77.5t-68 -112t-48 -133t-28 -140.5t-9 -134zM1156 774 q0 -71 -13.5 -144t-38.5 -144t-61.5 -137.5t-81.5 -123.5q-42 -54 -94.5 -100.5t-111.5 -81t-123 -54.5t-131 -20q-76 0 -139 23t-114 65l-48 -59q-10 -8 -32 -16t-46.5 -15.5t-47.5 -12.5t-35 -7l-25 37l144 178q-41 67 -62 149.5t-21 173.5q0 74 12.5 146t35.5 140 t55.5 130t72.5 117q42 56 93 105.5t111.5 86.5t130.5 58.5t149 21.5q82 0 147 -24t115 -68l53 66q14 8 35.5 16t44 15t43.5 11.5t35 6.5l25 -37l-150 -186q37 -66 55 -146.5t18 -169.5z" />
<glyph unicode="&#xd9;" horiz-adv-x="1268" d="M1325 1187q-63 -14 -94 -31t-33 -31l-87 -613q-18 -131 -66 -232.5t-117.5 -170.5t-157.5 -104.5t-187 -35.5q-82 0 -156 25t-130 73t-89 118.5t-33 162.5q0 53 9 115l94 662q2 12 -25 30t-92 32l9 73h482l-10 -73q-63 -14 -98 -31t-37 -31l-88 -615q-4 -29 -6.5 -58 t-2.5 -55q0 -140 60.5 -210.5t186.5 -70.5q65 0 114 27t84 74.5t56.5 112t31.5 139.5l92 656q1 6 -4.5 14t-18.5 16t-35 16.5t-54 15.5l10 73h402zM936 1408q-14 -20 -30 -40t-32 -29l-424 236l16 62q17 11 43 25l54 28l52 24l38 17z" />
<glyph unicode="&#xda;" horiz-adv-x="1268" d="M1325 1187q-63 -14 -94 -31t-33 -31l-87 -613q-18 -131 -66 -232.5t-117.5 -170.5t-157.5 -104.5t-187 -35.5q-82 0 -156 25t-130 73t-89 118.5t-33 162.5q0 53 9 115l94 662q2 12 -25 30t-92 32l9 73h482l-10 -73q-63 -14 -98 -31t-37 -31l-88 -615q-4 -29 -6.5 -58 t-2.5 -55q0 -140 60.5 -210.5t186.5 -70.5q65 0 114 27t84 74.5t56.5 112t31.5 139.5l92 656q1 6 -4.5 14t-18.5 16t-35 16.5t-54 15.5l10 73h402zM1130 1575l-471 -236q-14 9 -26.5 29t-21.5 40l354 323l42 -23l47 -25l43 -25q20 -12 33 -21v-62z" />
<glyph unicode="&#xdb;" horiz-adv-x="1268" d="M1325 1187q-63 -14 -94 -31t-33 -31l-87 -613q-18 -131 -66 -232.5t-117.5 -170.5t-157.5 -104.5t-187 -35.5q-82 0 -156 25t-130 73t-89 118.5t-33 162.5q0 53 9 115l94 662q2 12 -25 30t-92 32l9 73h482l-10 -73q-63 -14 -98 -31t-37 -31l-88 -615q-4 -29 -6.5 -58 t-2.5 -55q0 -140 60.5 -210.5t186.5 -70.5q65 0 114 27t84 74.5t56.5 112t31.5 139.5l92 656q1 6 -4.5 14t-18.5 16t-35 16.5t-54 15.5l10 73h402zM1096 1399q-14 -20 -29 -36t-31 -24l-234 175l-277 -175q-9 6 -23.5 23t-24.5 37l290 308h122z" />
<glyph unicode="&#xdc;" horiz-adv-x="1268" d="M1325 1187q-63 -14 -94 -31t-33 -31l-87 -613q-18 -131 -66 -232.5t-117.5 -170.5t-157.5 -104.5t-187 -35.5q-82 0 -156 25t-130 73t-89 118.5t-33 162.5q0 53 9 115l94 662q2 12 -25 30t-92 32l9 73h482l-10 -73q-63 -14 -98 -31t-37 -31l-88 -615q-4 -29 -6.5 -58 t-2.5 -55q0 -140 60.5 -210.5t186.5 -70.5q65 0 114 27t84 74.5t56.5 112t31.5 139.5l92 656q1 6 -4.5 14t-18.5 16t-35 16.5t-54 15.5l10 73h402zM732 1551q0 -30 -11 -63t-31.5 -60.5t-50.5 -45t-67 -17.5q-48 0 -70.5 30.5t-22.5 69.5q0 30 11 62.5t31.5 60.5t49.5 46 t66 18q48 0 71.5 -30.5t23.5 -70.5zM1119 1551q0 -30 -11 -63t-31.5 -60.5t-50.5 -45t-67 -17.5q-47 0 -70 30.5t-23 69.5q0 30 11 62.5t31.5 60.5t49.5 46t66 18q48 0 71.5 -30.5t23.5 -70.5z" />
<glyph unicode="&#xdd;" horiz-adv-x="1170" d="M802 0h-523l10 73q43 9 72 19t47 19.5t26 18t9 15.5l53 388q-21 78 -50.5 161.5t-61.5 163t-64.5 148t-60.5 116.5q-7 12 -15.5 20.5t-23.5 14t-39 7.5t-62 1l3 73l64 11q37 6 73 11t68 8.5t51 3.5q23 0 47 -12t37 -35q28 -50 59 -116.5t60.5 -140t55.5 -149t46 -141.5 l277 443q17 27 -4 41.5t-91 24.5l10 73h387l-10 -73q-32 -6 -56 -12.5t-41 -14t-29 -17t-20 -22.5l-379 -598l-52 -378q-1 -6 4.5 -14.5t21 -18.5t42.5 -20t69 -19zM1076 1575l-471 -236q-14 9 -26.5 29t-21.5 40l354 323l42 -23l47 -25l43 -25q20 -12 33 -21v-62z" />
<glyph unicode="&#xde;" horiz-adv-x="1067" d="M670 1187q-47 -9 -78.5 -17t-50.5 -15.5t-27.5 -15t-9.5 -14.5l-15 -108q32 5 67 8t73 3q96 0 173.5 -24.5t132 -69t84 -107t29.5 -137.5q0 -87 -34 -166t-95.5 -138t-147 -94t-187.5 -35q-42 0 -77.5 8t-63.5 25l-11 104q36 -19 70 -24t66 -5q51 0 95 20t76.5 57.5 t51 90.5t18.5 118q0 69 -19.5 119.5t-52.5 82.5t-76.5 47.5t-92.5 15.5q-23 0 -47 -3t-47 -8l-104 -771q-2 -6 4 -13t23 -15t46 -16t74 -17l-9 -73h-515l10 73q63 14 96.5 30.5t35.5 30.5l136 991q2 12 -25 30t-90 32l9 73h515z" />
<glyph unicode="&#xdf;" horiz-adv-x="1122" d="M1075 1225q0 -83 -24 -139.5t-60 -96.5t-78 -69l-78 -56q-36 -27 -60 -58t-24 -75q0 -36 24 -65t60 -56.5t77.5 -55.5t77.5 -62.5t60 -78.5t24 -102q0 -62 -32.5 -124.5t-89 -113t-131 -82.5t-158.5 -32q-42 0 -87 15.5t-81.5 39t-60.5 50t-24 48.5q0 7 6.5 23.5t16.5 37 t23 42.5t26 40.5t24 30.5t19 12q6 0 15 -15.5t20 -38.5l26 -52q15 -27 33.5 -50.5t41.5 -39t50 -15.5q26 0 50.5 7t44 24t31 45t11.5 70q0 57 -23.5 97t-59 70.5t-76.5 56t-76.5 55t-59 66.5t-23.5 90q0 49 13.5 85.5t35.5 64.5t51 50l57 44l57 44q29 22 51 50t35.5 63.5 t13.5 83.5q0 45 -15 85t-39 70.5t-55 48.5t-63 18q-62 0 -107 -35t-77 -93.5t-51 -135t-28 -159.5l-88 -759q-13 -111 -56.5 -213.5t-105 -191t-135 -158.5t-147.5 -115l-42 85q50 28 91 85t71.5 130.5t50.5 157.5t29 166l88 760q20 165 97.5 299t205.5 227q57 43 130.5 68 t146.5 25q79 0 140.5 -26t103.5 -68t64 -94.5t22 -104.5z" />
<glyph unicode="&#xe0;" horiz-adv-x="986" d="M583 378l13 90l16 94l14 90q7 42 13 73q-29 27 -61 48t-63 21q-42 -1 -77 -21t-62.5 -53t-48.5 -75.5t-34.5 -88.5t-20.5 -91.5t-7 -85.5q0 -56 8 -98t21.5 -69.5t31 -41.5t36.5 -14q32 0 90 57t131 165zM980 106q-42 -30 -83.5 -56.5t-77.5 -47t-64.5 -32t-46.5 -11.5 q-17 0 -38.5 11t-41 38.5t-35 73.5t-20.5 116q-32 -44 -68.5 -87t-76 -77t-81 -54.5t-81.5 -20.5q-36 0 -76 19t-73.5 60.5t-56 107t-22.5 159.5q0 79 20 154.5t58 144.5t93 129.5t126 108.5q27 18 60 35t70 30t77.5 21t82.5 8t82.5 -19t75.5 -41q34 17 68 31.5t61 28.5 l31 -65q-17 -14 -28 -25t-19.5 -25.5t-14.5 -35.5t-13 -55q-15 -72 -27 -139.5t-20.5 -124t-12.5 -99.5t-4 -65q0 -69 15 -113.5t38 -44.5q20 0 43.5 5.5t63.5 22.5zM689 1055q-20 -12 -43 -22.5t-41 -13.5l-288 363l40 51l41 7l62 12q33 6 62.5 10.5t42.5 4.5z" />
<glyph unicode="&#xe1;" horiz-adv-x="986" d="M583 378l13 90l16 94l14 90q7 42 13 73q-29 27 -61 48t-63 21q-42 -1 -77 -21t-62.5 -53t-48.5 -75.5t-34.5 -88.5t-20.5 -91.5t-7 -85.5q0 -56 8 -98t21.5 -69.5t31 -41.5t36.5 -14q32 0 90 57t131 165zM980 106q-42 -30 -83.5 -56.5t-77.5 -47t-64.5 -32t-46.5 -11.5 q-17 0 -38.5 11t-41 38.5t-35 73.5t-20.5 116q-32 -44 -68.5 -87t-76 -77t-81 -54.5t-81.5 -20.5q-36 0 -76 19t-73.5 60.5t-56 107t-22.5 159.5q0 79 20 154.5t58 144.5t93 129.5t126 108.5q27 18 60 35t70 30t77.5 21t82.5 8t82.5 -19t75.5 -41q34 17 68 31.5t61 28.5 l31 -65q-17 -14 -28 -25t-19.5 -25.5t-14.5 -35.5t-13 -55q-15 -72 -27 -139.5t-20.5 -124t-12.5 -99.5t-4 -65q0 -69 15 -113.5t38 -44.5q20 0 43.5 5.5t63.5 22.5zM957 1367l-378 -348q-16 4 -34.5 18.5t-32.5 31.5l234 398l39 -7l57 -11q30 -6 56.5 -12.5t35.5 -9.5z" />
<glyph unicode="&#xe2;" horiz-adv-x="986" d="M583 378l13 90l16 94l14 90q7 42 13 73q-29 27 -61 48t-63 21q-42 -1 -77 -21t-62.5 -53t-48.5 -75.5t-34.5 -88.5t-20.5 -91.5t-7 -85.5q0 -56 8 -98t21.5 -69.5t31 -41.5t36.5 -14q32 0 90 57t131 165zM980 106q-42 -30 -83.5 -56.5t-77.5 -47t-64.5 -32t-46.5 -11.5 q-17 0 -38.5 11t-41 38.5t-35 73.5t-20.5 116q-32 -44 -68.5 -87t-76 -77t-81 -54.5t-81.5 -20.5q-36 0 -76 19t-73.5 60.5t-56 107t-22.5 159.5q0 79 20 154.5t58 144.5t93 129.5t126 108.5q27 18 60 35t70 30t77.5 21t82.5 8t82.5 -19t75.5 -41q34 17 68 31.5t61 28.5 l31 -65q-17 -14 -28 -25t-19.5 -25.5t-14.5 -35.5t-13 -55q-15 -72 -27 -139.5t-20.5 -124t-12.5 -99.5t-4 -65q0 -69 15 -113.5t38 -44.5q20 0 43.5 5.5t63.5 22.5zM918 1079q-14 -20 -33 -36t-35 -24l-224 227l-287 -227q-9 6 -27 23t-28 37l299 378h137z" />
<glyph unicode="&#xe3;" horiz-adv-x="986" d="M583 378l13 90l16 94l14 90q7 42 13 73q-29 27 -61 48t-63 21q-42 -1 -77 -21t-62.5 -53t-48.5 -75.5t-34.5 -88.5t-20.5 -91.5t-7 -85.5q0 -56 8 -98t21.5 -69.5t31 -41.5t36.5 -14q32 0 90 57t131 165zM980 106q-42 -30 -83.5 -56.5t-77.5 -47t-64.5 -32t-46.5 -11.5 q-17 0 -38.5 11t-41 38.5t-35 73.5t-20.5 116q-32 -44 -68.5 -87t-76 -77t-81 -54.5t-81.5 -20.5q-36 0 -76 19t-73.5 60.5t-56 107t-22.5 159.5q0 79 20 154.5t58 144.5t93 129.5t126 108.5q27 18 60 35t70 30t77.5 21t82.5 8t82.5 -19t75.5 -41q34 17 68 31.5t61 28.5 l31 -65q-17 -14 -28 -25t-19.5 -25.5t-14.5 -35.5t-13 -55q-15 -72 -27 -139.5t-20.5 -124t-12.5 -99.5t-4 -65q0 -69 15 -113.5t38 -44.5q20 0 43.5 5.5t63.5 22.5zM988 1342q-14 -27 -32.5 -58t-40 -62t-45.5 -59.5t-50.5 -50.5t-54.5 -35t-57 -13q-40 0 -73.5 16 t-65 35.5t-63 36t-66.5 16.5q-21 0 -38.5 -7.5t-35 -22t-36 -35.5t-39.5 -49l-64 27q21 41 51.5 90t67 91.5t77.5 71t84 28.5q42 0 78 -16.5t68 -35.5l60 -36q29 -17 59 -17q41 0 75.5 28.5t74.5 86.5z" />
<glyph unicode="&#xe4;" horiz-adv-x="986" d="M583 378l13 90l16 94l14 90q7 42 13 73q-29 27 -61 48t-63 21q-42 -1 -77 -21t-62.5 -53t-48.5 -75.5t-34.5 -88.5t-20.5 -91.5t-7 -85.5q0 -56 8 -98t21.5 -69.5t31 -41.5t36.5 -14q32 0 90 57t131 165zM980 106q-42 -30 -83.5 -56.5t-77.5 -47t-64.5 -32t-46.5 -11.5 q-17 0 -38.5 11t-41 38.5t-35 73.5t-20.5 116q-32 -44 -68.5 -87t-76 -77t-81 -54.5t-81.5 -20.5q-36 0 -76 19t-73.5 60.5t-56 107t-22.5 159.5q0 79 20 154.5t58 144.5t93 129.5t126 108.5q27 18 60 35t70 30t77.5 21t82.5 8t82.5 -19t75.5 -41q34 17 68 31.5t61 28.5 l31 -65q-17 -14 -28 -25t-19.5 -25.5t-14.5 -35.5t-13 -55q-15 -72 -27 -139.5t-20.5 -124t-12.5 -99.5t-4 -65q0 -69 15 -113.5t38 -44.5q20 0 43.5 5.5t63.5 22.5zM553 1270q0 -31 -11 -64t-31.5 -60t-50 -44.5t-66.5 -17.5q-48 0 -71 30t-23 70q0 29 11 62t31.5 60.5 t50 46t66.5 18.5q24 0 41.5 -8.5t29 -22.5t17.5 -32.5t6 -37.5zM940 1270q0 -31 -11 -64t-31.5 -60t-50.5 -44.5t-67 -17.5q-47 0 -70 30t-23 70q0 29 11 62t31.5 60.5t49.5 46t66 18.5q24 0 42 -8.5t29.5 -22.5t17.5 -32.5t6 -37.5z" />
<glyph unicode="&#xe5;" horiz-adv-x="986" d="M583 378l13 90l16 94l14 90q7 42 13 73q-29 27 -61 48t-63 21q-42 -1 -77 -21t-62.5 -53t-48.5 -75.5t-34.5 -88.5t-20.5 -91.5t-7 -85.5q0 -56 8 -98t21.5 -69.5t31 -41.5t36.5 -14q32 0 90 57t131 165zM980 106q-42 -30 -83.5 -56.5t-77.5 -47t-64.5 -32t-46.5 -11.5 q-17 0 -38.5 11t-41 38.5t-35 73.5t-20.5 116q-32 -44 -68.5 -87t-76 -77t-81 -54.5t-81.5 -20.5q-36 0 -76 19t-73.5 60.5t-56 107t-22.5 159.5q0 79 20 154.5t58 144.5t93 129.5t126 108.5q27 18 60 35t70 30t77.5 21t82.5 8t82.5 -19t75.5 -41q34 17 68 31.5t61 28.5 l31 -65q-17 -14 -28 -25t-19.5 -25.5t-14.5 -35.5t-13 -55q-15 -72 -27 -139.5t-20.5 -124t-12.5 -99.5t-4 -65q0 -69 15 -113.5t38 -44.5q20 0 43.5 5.5t63.5 22.5zM680 1264q0 30 -14 49t-36 19q-19 0 -35 -9.5t-27.5 -26t-18 -38t-6.5 -45.5q0 -31 15 -50.5t38 -18.5 q17 0 32.5 9.5t27 26t18 38.5t6.5 46zM813 1301q0 -44 -19.5 -92.5t-53.5 -89t-80.5 -67.5t-99.5 -27q-35 0 -61.5 12.5t-44.5 32.5t-27 46.5t-9 53.5q0 48 19 98t52.5 91t78.5 67.5t98 26.5q34 0 61.5 -12t46.5 -33t29 -48.5t10 -58.5z" />
<glyph unicode="&#xe6;" horiz-adv-x="1325" d="M892 737q-55 -60 -84 -136t-36 -167q99 43 158.5 79.5t91 69.5t41.5 65t10 67q0 41 -22.5 63.5t-51.5 22.5q-18 0 -49 -17.5t-58 -46.5zM559 376q1 8 2 17t3 17l12 80l14 85l12 79q5 38 10 65q-31 29 -64.5 52t-65.5 23q-42 0 -77 -20t-63 -52.5t-49.5 -75.5t-36 -89 t-21.5 -92.5t-7 -85.5q0 -59 9 -101t24 -69t33 -40t36 -13q30 0 90.5 57t138.5 163zM870 894l-24 -20q-10 -8 -18.5 -17t-15.5 -20.5t-13 -28.5l23 20l23 18q24 18 55.5 34.5t66 29t69.5 19.5t66 7q52 0 91.5 -15.5t66.5 -40.5t41 -56.5t14 -63.5q0 -28 -6 -59.5 t-25.5 -65.5t-56 -71t-96.5 -76.5t-148 -82t-210 -87.5q6 -51 22 -89t37 -63.5t44 -38.5t44 -13q43 0 124 39t203 136q5 -3 12 -13t13 -22l12 -22l8 -14q-83 -71 -151.5 -120.5t-125.5 -80.5t-103.5 -44.5t-86.5 -13.5q-31 0 -71 14t-78.5 44.5t-69.5 79t-44 117.5 q-36 -52 -77 -98t-84 -81t-86 -55.5t-83 -20.5q-34 0 -73 19t-72.5 60.5t-56 107t-22.5 159.5q0 79 19.5 154.5t57 144.5t92.5 129.5t127 108.5q27 18 59.5 35t69.5 30t77 21t82 8q40 0 73 -14.5t60 -31.5q20 12 45 23.5t57 22.5z" />
<glyph unicode="&#xe7;" horiz-adv-x="873" d="M558 -221q0 -53 -34 -97t-89.5 -69t-127 -24.5t-146.5 36.5l-2 69q42 -17 77 -19.5t59.5 5.5t38.5 23.5t14 35.5q0 21 -20.5 34.5t-49.5 11.5l27 60q12 28 21.5 54t16.5 52q1 4 3 8q-39 2 -85 17q-49 17 -91.5 59t-70.5 112t-28 175q0 67 14 136t45.5 134.5t82 125.5 t124.5 109q28 18 65 37.5t79 35.5t86 26t86 10q44 0 79 -14.5t64 -33.5l56 -38q27 -18 54 -27q-21 -21 -50 -47.5t-59 -50.5t-57 -40t-43 -16t-33 19l-36 44q-19 23 -42.5 42.5t-52.5 19.5q-54 0 -96.5 -37t-71 -95.5t-43.5 -131t-15 -142.5q0 -65 10.5 -115.5t30 -86 t45.5 -54t58 -18.5q54 0 129.5 39.5t183.5 127.5q4 -5 11 -15l15 -22l14 -20q7 -10 9 -14q-78 -71 -143 -119.5t-121 -77.5q-53 -28 -99 -40l-6 -28q-6 -29 -11 -43q63 -2 94 -38t31 -85z" />
<glyph unicode="&#xe8;" horiz-adv-x="865" d="M399 737q-50 -58 -81.5 -131.5t-36.5 -170.5q99 44 157.5 80t88.5 68t39 62t9 63q0 46 -20.5 69.5t-48.5 23.5q-8 0 -21 -4.5t-28 -12.5t-30.5 -20t-27.5 -27zM825 760q0 -28 -6.5 -59t-26 -65t-56 -71.5t-96.5 -77t-147 -81.5t-208 -85q7 -48 21 -86.5t33.5 -65 t42.5 -41t48 -14.5q43 0 124 39t202 136q6 -3 13 -13t14 -21.5t12 -22.5l7 -14q-82 -71 -148.5 -120.5t-122.5 -80.5t-103.5 -44.5t-92.5 -13.5q-41 0 -91 18.5t-93.5 59t-73 106t-29.5 160.5q0 78 19 149.5t54.5 136.5t85.5 123.5t113 111.5q22 19 55 38.5t71 36t79 27 t80 10.5q57 0 98.5 -15.5t68.5 -40.5t40 -56.5t13 -63.5zM647 1055q-20 -12 -43 -22.5t-41 -13.5l-288 363l40 51l41 7l62 12q33 6 62.5 10.5t42.5 4.5z" />
<glyph unicode="&#xe9;" horiz-adv-x="865" d="M399 737q-50 -58 -81.5 -131.5t-36.5 -170.5q99 44 157.5 80t88.5 68t39 62t9 63q0 46 -20.5 69.5t-48.5 23.5q-8 0 -21 -4.5t-28 -12.5t-30.5 -20t-27.5 -27zM825 760q0 -28 -6.5 -59t-26 -65t-56 -71.5t-96.5 -77t-147 -81.5t-208 -85q7 -48 21 -86.5t33.5 -65 t42.5 -41t48 -14.5q43 0 124 39t202 136q6 -3 13 -13t14 -21.5t12 -22.5l7 -14q-82 -71 -148.5 -120.5t-122.5 -80.5t-103.5 -44.5t-92.5 -13.5q-41 0 -91 18.5t-93.5 59t-73 106t-29.5 160.5q0 78 19 149.5t54.5 136.5t85.5 123.5t113 111.5q22 19 55 38.5t71 36t79 27 t80 10.5q57 0 98.5 -15.5t68.5 -40.5t40 -56.5t13 -63.5zM915 1367l-378 -348q-16 4 -34.5 18.5t-32.5 31.5l234 398l39 -7l57 -11q30 -6 56.5 -12.5t35.5 -9.5z" />
<glyph unicode="&#xea;" horiz-adv-x="865" d="M399 737q-50 -58 -81.5 -131.5t-36.5 -170.5q99 44 157.5 80t88.5 68t39 62t9 63q0 46 -20.5 69.5t-48.5 23.5q-8 0 -21 -4.5t-28 -12.5t-30.5 -20t-27.5 -27zM825 760q0 -28 -6.5 -59t-26 -65t-56 -71.5t-96.5 -77t-147 -81.5t-208 -85q7 -48 21 -86.5t33.5 -65 t42.5 -41t48 -14.5q43 0 124 39t202 136q6 -3 13 -13t14 -21.5t12 -22.5l7 -14q-82 -71 -148.5 -120.5t-122.5 -80.5t-103.5 -44.5t-92.5 -13.5q-41 0 -91 18.5t-93.5 59t-73 106t-29.5 160.5q0 78 19 149.5t54.5 136.5t85.5 123.5t113 111.5q22 19 55 38.5t71 36t79 27 t80 10.5q57 0 98.5 -15.5t68.5 -40.5t40 -56.5t13 -63.5zM876 1079q-14 -20 -33 -36t-35 -24l-224 227l-287 -227q-9 6 -27 23t-28 37l299 378h137z" />
<glyph unicode="&#xeb;" horiz-adv-x="865" d="M399 737q-50 -58 -81.5 -131.5t-36.5 -170.5q99 44 157.5 80t88.5 68t39 62t9 63q0 46 -20.5 69.5t-48.5 23.5q-8 0 -21 -4.5t-28 -12.5t-30.5 -20t-27.5 -27zM825 760q0 -28 -6.5 -59t-26 -65t-56 -71.5t-96.5 -77t-147 -81.5t-208 -85q7 -48 21 -86.5t33.5 -65 t42.5 -41t48 -14.5q43 0 124 39t202 136q6 -3 13 -13t14 -21.5t12 -22.5l7 -14q-82 -71 -148.5 -120.5t-122.5 -80.5t-103.5 -44.5t-92.5 -13.5q-41 0 -91 18.5t-93.5 59t-73 106t-29.5 160.5q0 78 19 149.5t54.5 136.5t85.5 123.5t113 111.5q22 19 55 38.5t71 36t79 27 t80 10.5q57 0 98.5 -15.5t68.5 -40.5t40 -56.5t13 -63.5zM511 1270q0 -31 -11 -64t-31.5 -60t-50 -44.5t-66.5 -17.5q-48 0 -71 30t-23 70q0 29 11 62t31.5 60.5t50 46t66.5 18.5q24 0 41.5 -8.5t29 -22.5t17.5 -32.5t6 -37.5zM898 1270q0 -31 -11 -64t-31.5 -60 t-50.5 -44.5t-67 -17.5q-47 0 -70 30t-23 70q0 29 11 62t31.5 60.5t49.5 46t66 18.5q24 0 42 -8.5t29.5 -22.5t17.5 -32.5t6 -37.5z" />
<glyph unicode="&#xec;" horiz-adv-x="568" d="M538 110l-96 -55q-49 -27 -94.5 -48.5t-85 -34.5t-67.5 -13q-34 0 -57.5 31.5t-23.5 85.5q0 30 7 81t17 112t22 127l22 126q10 59 17 106t7 72q0 23 -3 36.5t-8 20t-13 8.5t-17 2q-8 0 -23.5 -3.5t-30.5 -8.5q-18 -5 -38 -12l-18 67l95 41q53 22 103.5 41t91.5 31.5 t60 12.5q28 0 43.5 -19t15.5 -65q0 -29 -7 -80.5t-18 -113.5l-23 -130l-24 -130q-11 -63 -18 -114.5t-7 -80.5q0 -31 6.5 -45t23.5 -14q15 0 28.5 2t27.5 6t29.5 10t36.5 15zM496 1055q-20 -12 -43 -22.5t-41 -13.5l-288 363l40 51l41 7l62 12q33 6 62.5 10.5t42.5 4.5z" />
<glyph unicode="&#xed;" horiz-adv-x="568" d="M538 110l-96 -55q-49 -27 -94.5 -48.5t-85 -34.5t-67.5 -13q-34 0 -57.5 31.5t-23.5 85.5q0 30 7 81t17 112t22 127l22 126q10 59 17 106t7 72q0 23 -3 36.5t-8 20t-13 8.5t-17 2q-8 0 -23.5 -3.5t-30.5 -8.5q-18 -5 -38 -12l-18 67l95 41q53 22 103.5 41t91.5 31.5 t60 12.5q28 0 43.5 -19t15.5 -65q0 -29 -7 -80.5t-18 -113.5l-23 -130l-24 -130q-11 -63 -18 -114.5t-7 -80.5q0 -31 6.5 -45t23.5 -14q15 0 28.5 2t27.5 6t29.5 10t36.5 15zM764 1367l-378 -348q-16 4 -34.5 18.5t-32.5 31.5l234 398l39 -7l57 -11q30 -6 56.5 -12.5 t35.5 -9.5z" />
<glyph unicode="&#xee;" horiz-adv-x="568" d="M538 110l-96 -55q-49 -27 -94.5 -48.5t-85 -34.5t-67.5 -13q-34 0 -57.5 31.5t-23.5 85.5q0 30 7 81t17 112t22 127l22 126q10 59 17 106t7 72q0 23 -3 36.5t-8 20t-13 8.5t-17 2q-8 0 -23.5 -3.5t-30.5 -8.5q-18 -5 -38 -12l-18 67l95 41q53 22 103.5 41t91.5 31.5 t60 12.5q28 0 43.5 -19t15.5 -65q0 -29 -7 -80.5t-18 -113.5l-23 -130l-24 -130q-11 -63 -18 -114.5t-7 -80.5q0 -31 6.5 -45t23.5 -14q15 0 28.5 2t27.5 6t29.5 10t36.5 15zM725 1079q-14 -20 -33 -36t-35 -24l-224 227l-287 -227q-9 6 -27 23t-28 37l299 378h137z" />
<glyph unicode="&#xef;" horiz-adv-x="568" d="M538 110l-96 -55q-49 -27 -94.5 -48.5t-85 -34.5t-67.5 -13q-34 0 -57.5 31.5t-23.5 85.5q0 30 7 81t17 112t22 127l22 126q10 59 17 106t7 72q0 23 -3 36.5t-8 20t-13 8.5t-17 2q-8 0 -23.5 -3.5t-30.5 -8.5q-18 -5 -38 -12l-18 67l95 41q53 22 103.5 41t91.5 31.5 t60 12.5q28 0 43.5 -19t15.5 -65q0 -29 -7 -80.5t-18 -113.5l-23 -130l-24 -130q-11 -63 -18 -114.5t-7 -80.5q0 -31 6.5 -45t23.5 -14q15 0 28.5 2t27.5 6t29.5 10t36.5 15zM360 1270q0 -31 -11 -64t-31.5 -60t-50 -44.5t-66.5 -17.5q-48 0 -71 30t-23 70q0 29 11 62 t31.5 60.5t50 46t66.5 18.5q24 0 41.5 -8.5t29 -22.5t17.5 -32.5t6 -37.5zM747 1270q0 -31 -11 -64t-31.5 -60t-50.5 -44.5t-67 -17.5q-47 0 -70 30t-23 70q0 29 11 62t31.5 60.5t49.5 46t66 18.5q24 0 42 -8.5t29.5 -22.5t17.5 -32.5t6 -37.5z" />
<glyph unicode="&#xf0;" horiz-adv-x="960" d="M440 91q61 0 105 42t74 108t47 145.5t24 154.5q-7 58 -28.5 106t-51.5 82.5t-64.5 54t-67.5 19.5q-39 0 -69.5 -17.5t-54 -47.5t-40 -69.5t-26.5 -84t-15 -90.5t-5 -89q0 -68 15 -125.5t39 -99.5t55 -65.5t63 -23.5zM904 707q0 -158 -43 -295t-116.5 -237.5t-170.5 -158 t-204 -57.5q-83 0 -145 28.5t-103.5 79t-62.5 118.5t-21 147q0 125 38 235t103.5 192t153 129.5t186.5 47.5q46 0 86.5 -26t71.5 -66q-15 72 -42 134.5t-65 113.5l-212 -97q-32 4 -59.5 10.5t-54.5 17.5l-5 42l245 112q-47 34 -100 45t-128 -1v79l270 109q48 -33 88 -67.5 t74 -70.5l199 91q40 -6 66.5 -13t47.5 -16l2 -43l-240 -110q81 -116 111 -236.5t30 -236.5z" />
<glyph unicode="&#xf1;" horiz-adv-x="1080" d="M1056 110q-45 -27 -95 -54t-96.5 -48.5t-86 -35t-64.5 -13.5q-35 0 -58 31.5t-23 85.5q0 18 6 60.5t15 97.5l20 117q11 62 20 118.5t15 102.5t6 68q0 59 -10.5 82.5t-42.5 23.5q-13 0 -37 -8.5t-53 -28t-60.5 -51t-60.5 -78.5q-30 -48 -46.5 -115t-33.5 -164 q-8 -45 -13 -78.5t-7.5 -61t-3 -51t0.5 -47.5q-13 -7 -46 -21l-68 -31l-68 -31q-32 -14 -44 -21l-40 38q14 67 27 139l25 142q12 70 22 136.5t17 122.5t11 98.5t4 66.5q0 23 -2.5 36.5t-7.5 20t-12 8.5t-16 2t-25 -4t-33 -9l-41 -13l-19 69l98 40q55 22 107 40.5t93.5 31 t56.5 12.5q14 0 23 -4.5t14.5 -16.5t7.5 -34t2 -58q0 -21 -2 -48t-5 -52q109 109 215 161t196 52q31 0 56 -6.5t41.5 -24.5t25.5 -49t9 -79q0 -35 -6.5 -83t-15.5 -102.5t-20.5 -112t-20.5 -109.5t-15.5 -95.5t-6.5 -71.5q0 -34 9 -46.5t27 -12.5q23 0 45.5 8t63.5 25z M1024 1342q-14 -27 -32.5 -58t-40 -62t-45.5 -59.5t-50.5 -50.5t-54.5 -35t-57 -13q-40 0 -73.5 16t-65 35.5t-63 36t-66.5 16.5q-21 0 -38.5 -7.5t-35 -22t-36 -35.5t-39.5 -49l-64 27q21 41 51.5 90t67 91.5t77.5 71t84 28.5q42 0 78 -16.5t68 -35.5l60 -36q29 -17 59 -17 q41 0 75.5 28.5t74.5 86.5z" />
<glyph unicode="&#xf2;" horiz-adv-x="909" d="M638 481q0 76 -13 135t-34.5 99t-50.5 61t-61 21q-58 0 -97.5 -35t-64 -89.5t-35 -121t-10.5 -130.5q0 -67 14.5 -126t38 -103.5t53.5 -70.5t62 -26q37 0 66 17t51 46.5t37.5 68t25 81.5t14 87.5t4.5 85.5zM871 559q0 -67 -17 -135.5t-49 -133t-77 -123t-101 -104.5 q-26 -21 -58 -40t-66 -33.5t-67.5 -22.5t-63.5 -8q-78 0 -140 29.5t-105 81t-66 122t-23 152.5q0 72 14 139t44 129t77 119.5t114 108.5q26 20 57.5 37.5t65.5 30.5t69.5 20.5t68.5 7.5q78 0 138.5 -28t101.5 -78t62 -119t21 -152zM635 1055q-20 -12 -43 -22.5t-41 -13.5 l-288 363l40 51l41 7l62 12q33 6 62.5 10.5t42.5 4.5z" />
<glyph unicode="&#xf3;" horiz-adv-x="909" d="M638 481q0 76 -13 135t-34.5 99t-50.5 61t-61 21q-58 0 -97.5 -35t-64 -89.5t-35 -121t-10.5 -130.5q0 -67 14.5 -126t38 -103.5t53.5 -70.5t62 -26q37 0 66 17t51 46.5t37.5 68t25 81.5t14 87.5t4.5 85.5zM871 559q0 -67 -17 -135.5t-49 -133t-77 -123t-101 -104.5 q-26 -21 -58 -40t-66 -33.5t-67.5 -22.5t-63.5 -8q-78 0 -140 29.5t-105 81t-66 122t-23 152.5q0 72 14 139t44 129t77 119.5t114 108.5q26 20 57.5 37.5t65.5 30.5t69.5 20.5t68.5 7.5q78 0 138.5 -28t101.5 -78t62 -119t21 -152zM903 1367l-378 -348q-16 4 -34.5 18.5 t-32.5 31.5l234 398l39 -7l57 -11q30 -6 56.5 -12.5t35.5 -9.5z" />
<glyph unicode="&#xf4;" horiz-adv-x="909" d="M638 481q0 76 -13 135t-34.5 99t-50.5 61t-61 21q-58 0 -97.5 -35t-64 -89.5t-35 -121t-10.5 -130.5q0 -67 14.5 -126t38 -103.5t53.5 -70.5t62 -26q37 0 66 17t51 46.5t37.5 68t25 81.5t14 87.5t4.5 85.5zM871 559q0 -67 -17 -135.5t-49 -133t-77 -123t-101 -104.5 q-26 -21 -58 -40t-66 -33.5t-67.5 -22.5t-63.5 -8q-78 0 -140 29.5t-105 81t-66 122t-23 152.5q0 72 14 139t44 129t77 119.5t114 108.5q26 20 57.5 37.5t65.5 30.5t69.5 20.5t68.5 7.5q78 0 138.5 -28t101.5 -78t62 -119t21 -152zM864 1079q-14 -20 -33 -36t-35 -24 l-224 227l-287 -227q-9 6 -27 23t-28 37l299 378h137z" />
<glyph unicode="&#xf5;" horiz-adv-x="909" d="M638 481q0 76 -13 135t-34.5 99t-50.5 61t-61 21q-58 0 -97.5 -35t-64 -89.5t-35 -121t-10.5 -130.5q0 -67 14.5 -126t38 -103.5t53.5 -70.5t62 -26q37 0 66 17t51 46.5t37.5 68t25 81.5t14 87.5t4.5 85.5zM871 559q0 -67 -17 -135.5t-49 -133t-77 -123t-101 -104.5 q-26 -21 -58 -40t-66 -33.5t-67.5 -22.5t-63.5 -8q-78 0 -140 29.5t-105 81t-66 122t-23 152.5q0 72 14 139t44 129t77 119.5t114 108.5q26 20 57.5 37.5t65.5 30.5t69.5 20.5t68.5 7.5q78 0 138.5 -28t101.5 -78t62 -119t21 -152zM934 1342q-14 -27 -32.5 -58t-40 -62 t-45.5 -59.5t-50.5 -50.5t-54.5 -35t-57 -13q-40 0 -73.5 16t-65 35.5t-63 36t-66.5 16.5q-21 0 -38.5 -7.5t-35 -22t-36 -35.5t-39.5 -49l-64 27q21 41 51.5 90t67 91.5t77.5 71t84 28.5q42 0 78 -16.5t68 -35.5l60 -36q29 -17 59 -17q41 0 75.5 28.5t74.5 86.5z" />
<glyph unicode="&#xf6;" horiz-adv-x="909" d="M638 481q0 76 -13 135t-34.5 99t-50.5 61t-61 21q-58 0 -97.5 -35t-64 -89.5t-35 -121t-10.5 -130.5q0 -67 14.5 -126t38 -103.5t53.5 -70.5t62 -26q37 0 66 17t51 46.5t37.5 68t25 81.5t14 87.5t4.5 85.5zM871 559q0 -67 -17 -135.5t-49 -133t-77 -123t-101 -104.5 q-26 -21 -58 -40t-66 -33.5t-67.5 -22.5t-63.5 -8q-78 0 -140 29.5t-105 81t-66 122t-23 152.5q0 72 14 139t44 129t77 119.5t114 108.5q26 20 57.5 37.5t65.5 30.5t69.5 20.5t68.5 7.5q78 0 138.5 -28t101.5 -78t62 -119t21 -152zM499 1270q0 -31 -11 -64t-31.5 -60 t-50 -44.5t-66.5 -17.5q-48 0 -71 30t-23 70q0 29 11 62t31.5 60.5t50 46t66.5 18.5q24 0 41.5 -8.5t29 -22.5t17.5 -32.5t6 -37.5zM886 1270q0 -31 -11 -64t-31.5 -60t-50.5 -44.5t-67 -17.5q-47 0 -70 30t-23 70q0 29 11 62t31.5 60.5t49.5 46t66 18.5q24 0 42 -8.5 t29.5 -22.5t17.5 -32.5t6 -37.5z" />
<glyph unicode="&#xf7;" horiz-adv-x="819" d="M764 604q-4 -11 -11.5 -27t-16.5 -33l-16 -31q-9 -15 -13 -23h-628l-24 32q4 10 11 26l16 31q8 16 16.5 31t13.5 25h626zM471 324q-4 -29 -15.5 -54.5t-29 -45t-38.5 -31t-44 -11.5q-42 0 -56.5 26t-8.5 74q4 29 16 55t29.5 45t38.5 30t43 11q80 0 65 -99zM543 845 q-4 -29 -16 -54.5t-29.5 -45t-38.5 -31t-44 -11.5q-42 0 -56.5 26t-7.5 74q4 29 16 54.5t29 44.5t38 30t44 11q79 0 65 -98z" />
<glyph unicode="&#xf8;" horiz-adv-x="909" d="M272 421q0 -23 1.5 -45.5t5.5 -43.5l312 381q-22 42 -51 63t-61 21q-58 0 -97.5 -35t-64 -89.5t-35 -121t-10.5 -130.5zM638 481q0 23 -1.5 45t-3.5 42l-310 -375q24 -45 54.5 -71.5t62.5 -26.5q37 0 66 17t51 46.5t37.5 68t25 81.5t14 87.5t4.5 85.5zM871 559 q0 -67 -17 -135.5t-49 -133t-77 -123t-101 -104.5q-26 -21 -58 -40t-66 -33.5t-67.5 -22.5t-63.5 -8q-57 0 -105 15.5t-87 44.5l-15 -18q-9 -6 -29 -15l-44 -18q-23 -10 -44.5 -18t-33.5 -11l-28 37l111 135q-59 97 -59 233q0 72 14 139t44 129t77 119.5t114 108.5 q26 20 57.5 37.5t65.5 30.5t69.5 20.5t68.5 7.5q55 0 100.5 -14t82.5 -40l12 15q12 6 32 15l42 18l42 16q20 8 33 12l30 -39l-107 -129q56 -95 56 -231z" />
<glyph unicode="&#xf9;" horiz-adv-x="1101" d="M1069 106l-81 -54q-40 -26 -77.5 -46.5t-70 -33.5t-56.5 -13q-22 0 -44.5 15t-41.5 46t-31.5 78t-15.5 110q-38 -54 -82.5 -99.5t-92 -78.5t-96 -52t-93.5 -19q-29 0 -60 15.5t-57 46.5t-43 77t-17 107q0 30 5 71.5t12 88t16 95.5t16 94.5t12 83t5 62.5q0 23 -3 36.5 t-8.5 20t-13 8.5t-16.5 2t-24.5 -3.5t-31.5 -8.5q-18 -5 -39 -12l-16 67q42 19 97 41t107.5 41t95 31.5t60.5 12.5q29 0 39 -19t10 -65q0 -29 -6 -75.5t-15 -101.5l-19 -114l-19 -114q-9 -55 -15 -101.5t-6 -75.5q0 -57 16.5 -86t36.5 -29q17 0 43 14t59.5 44t73 77.5 t84.5 114.5q6 41 13.5 83t13.5 81t10.5 73t4.5 58q0 23 -2.5 36.5t-7.5 20t-11.5 8.5t-15.5 2t-23.5 -3.5t-28.5 -8.5q-17 -5 -35 -12l-18 67q42 19 96 41l104 41q50 19 91.5 31.5t59.5 12.5q28 0 37 -19t9 -65q0 -29 -5.5 -72t-13.5 -92l-17 -104l-17 -104 q-8 -50 -13.5 -95t-5.5 -78q0 -91 14 -127t39 -36q26 0 48.5 6.5t58.5 21.5zM727 1055q-20 -12 -43 -22.5t-41 -13.5l-288 363l40 51l41 7l62 12q33 6 62.5 10.5t42.5 4.5z" />
<glyph unicode="&#xfa;" horiz-adv-x="1101" d="M1069 106l-81 -54q-40 -26 -77.5 -46.5t-70 -33.5t-56.5 -13q-22 0 -44.5 15t-41.5 46t-31.5 78t-15.5 110q-38 -54 -82.5 -99.5t-92 -78.5t-96 -52t-93.5 -19q-29 0 -60 15.5t-57 46.5t-43 77t-17 107q0 30 5 71.5t12 88t16 95.5t16 94.5t12 83t5 62.5q0 23 -3 36.5 t-8.5 20t-13 8.5t-16.5 2t-24.5 -3.5t-31.5 -8.5q-18 -5 -39 -12l-16 67q42 19 97 41t107.5 41t95 31.5t60.5 12.5q29 0 39 -19t10 -65q0 -29 -6 -75.5t-15 -101.5l-19 -114l-19 -114q-9 -55 -15 -101.5t-6 -75.5q0 -57 16.5 -86t36.5 -29q17 0 43 14t59.5 44t73 77.5 t84.5 114.5q6 41 13.5 83t13.5 81t10.5 73t4.5 58q0 23 -2.5 36.5t-7.5 20t-11.5 8.5t-15.5 2t-23.5 -3.5t-28.5 -8.5q-17 -5 -35 -12l-18 67q42 19 96 41l104 41q50 19 91.5 31.5t59.5 12.5q28 0 37 -19t9 -65q0 -29 -5.5 -72t-13.5 -92l-17 -104l-17 -104 q-8 -50 -13.5 -95t-5.5 -78q0 -91 14 -127t39 -36q26 0 48.5 6.5t58.5 21.5zM995 1367l-378 -348q-16 4 -34.5 18.5t-32.5 31.5l234 398l39 -7l57 -11q30 -6 56.5 -12.5t35.5 -9.5z" />
<glyph unicode="&#xfb;" horiz-adv-x="1101" d="M1069 106l-81 -54q-40 -26 -77.5 -46.5t-70 -33.5t-56.5 -13q-22 0 -44.5 15t-41.5 46t-31.5 78t-15.5 110q-38 -54 -82.5 -99.5t-92 -78.5t-96 -52t-93.5 -19q-29 0 -60 15.5t-57 46.5t-43 77t-17 107q0 30 5 71.5t12 88t16 95.5t16 94.5t12 83t5 62.5q0 23 -3 36.5 t-8.5 20t-13 8.5t-16.5 2t-24.5 -3.5t-31.5 -8.5q-18 -5 -39 -12l-16 67q42 19 97 41t107.5 41t95 31.5t60.5 12.5q29 0 39 -19t10 -65q0 -29 -6 -75.5t-15 -101.5l-19 -114l-19 -114q-9 -55 -15 -101.5t-6 -75.5q0 -57 16.5 -86t36.5 -29q17 0 43 14t59.5 44t73 77.5 t84.5 114.5q6 41 13.5 83t13.5 81t10.5 73t4.5 58q0 23 -2.5 36.5t-7.5 20t-11.5 8.5t-15.5 2t-23.5 -3.5t-28.5 -8.5q-17 -5 -35 -12l-18 67q42 19 96 41l104 41q50 19 91.5 31.5t59.5 12.5q28 0 37 -19t9 -65q0 -29 -5.5 -72t-13.5 -92l-17 -104l-17 -104 q-8 -50 -13.5 -95t-5.5 -78q0 -91 14 -127t39 -36q26 0 48.5 6.5t58.5 21.5zM956 1079q-14 -20 -33 -36t-35 -24l-224 227l-287 -227q-9 6 -27 23t-28 37l299 378h137z" />
<glyph unicode="&#xfc;" horiz-adv-x="1101" d="M1069 106l-81 -54q-40 -26 -77.5 -46.5t-70 -33.5t-56.5 -13q-22 0 -44.5 15t-41.5 46t-31.5 78t-15.5 110q-38 -54 -82.5 -99.5t-92 -78.5t-96 -52t-93.5 -19q-29 0 -60 15.5t-57 46.5t-43 77t-17 107q0 30 5 71.5t12 88t16 95.5t16 94.5t12 83t5 62.5q0 23 -3 36.5 t-8.5 20t-13 8.5t-16.5 2t-24.5 -3.5t-31.5 -8.5q-18 -5 -39 -12l-16 67q42 19 97 41t107.5 41t95 31.5t60.5 12.5q29 0 39 -19t10 -65q0 -29 -6 -75.5t-15 -101.5l-19 -114l-19 -114q-9 -55 -15 -101.5t-6 -75.5q0 -57 16.5 -86t36.5 -29q17 0 43 14t59.5 44t73 77.5 t84.5 114.5q6 41 13.5 83t13.5 81t10.5 73t4.5 58q0 23 -2.5 36.5t-7.5 20t-11.5 8.5t-15.5 2t-23.5 -3.5t-28.5 -8.5q-17 -5 -35 -12l-18 67q42 19 96 41l104 41q50 19 91.5 31.5t59.5 12.5q28 0 37 -19t9 -65q0 -29 -5.5 -72t-13.5 -92l-17 -104l-17 -104 q-8 -50 -13.5 -95t-5.5 -78q0 -91 14 -127t39 -36q26 0 48.5 6.5t58.5 21.5zM591 1270q0 -31 -11 -64t-31.5 -60t-50 -44.5t-66.5 -17.5q-48 0 -71 30t-23 70q0 29 11 62t31.5 60.5t50 46t66.5 18.5q24 0 41.5 -8.5t29 -22.5t17.5 -32.5t6 -37.5zM978 1270q0 -31 -11 -64 t-31.5 -60t-50.5 -44.5t-67 -17.5q-47 0 -70 30t-23 70q0 29 11 62t31.5 60.5t49.5 46t66 18.5q24 0 42 -8.5t29.5 -22.5t17.5 -32.5t6 -37.5z" />
<glyph unicode="&#xfd;" horiz-adv-x="979" d="M961 860q0 -34 -26.5 -104.5t-74 -171.5l-112.5 -228l-144 -274q-69 -129 -136.5 -236t-138 -184t-147.5 -119.5t-165 -42.5q-39 0 -77 9.5t-68 23.5t-49 29t-19 26q0 15 16.5 44t39 60t46 56.5t37.5 32.5q48 -45 96 -66.5t85 -21.5q57 0 117 59t128 169 q-11 59 -26 130.5t-33 146.5l-38 148l-38 140q-19 65 -37 116.5t-32 82.5q-23 51 -39 66.5t-33 15.5q-9 0 -25.5 -3.5t-32.5 -8.5q-19 -5 -40 -12l-20 67l93 44q48 23 90.5 41t76.5 29.5t52 11.5q28 0 49 -29t45 -98q18 -50 38 -115.5t40.5 -141t40.5 -157.5t38 -165l78 162 q36 79 63.5 146.5t43.5 118t16 74.5q0 50 -53 53q-17 2 -35.5 -4t-47.5 -19l-26 67q36 21 77 40.5t81 34.5t75.5 24t60.5 9q17 0 33 -2.5t29 -10.5t20.5 -23t7.5 -40zM966 1367l-378 -348q-16 4 -34.5 18.5t-32.5 31.5l234 398l39 -7l57 -11q30 -6 56.5 -12.5t35.5 -9.5z " />
<glyph unicode="&#xfe;" horiz-adv-x="1029" d="M629 760q-17 0 -44.5 -14t-60.5 -43.5t-69 -74t-70 -104.5l-40 -242q16 -22 41.5 -45t54 -41.5t58.5 -30t55 -11.5q35 0 71 22.5t57 72.5q15 33 24 69t14 72t6.5 70.5t1.5 64.5q0 61 -10 105.5t-24.5 73.5t-32 42.5t-32.5 13.5zM511 1427q0 -20 -6 -75.5t-17.5 -143.5 t-29.5 -206l-39 -261q54 66 100.5 104.5t86 58.5t74 26t65.5 6q44 0 84 -20t70 -59.5t47.5 -97t17.5 -132.5q0 -50 -8 -107t-24.5 -116.5t-42 -120t-59.5 -117.5q-24 -39 -54 -76.5t-65 -66.5t-74 -46.5t-80 -17.5q-24 0 -54 12.5t-61.5 36t-63 56t-58.5 73.5l-23 -131 q-18 -103 -28.5 -176t-15 -121.5t-3.5 -76.5t6 -42q-15 -4 -48.5 -16l-69.5 -26l-70 -28q-33 -14 -46 -20l-40 36l36 205l44 244l45 265l45 270l40 256l32 225q15 102 23 176t8 109q0 23 -4 36.5t-11.5 20t-17 8.5t-20.5 2q-9 0 -25 -4.5t-31 -9.5q-18 -6 -37 -13l-17 69 q42 19 97 41l107 40q53 19 96 31.5t62 12.5q38 0 47.5 -22t9.5 -71z" />
<glyph unicode="&#xff;" horiz-adv-x="979" d="M961 860q0 -34 -26.5 -104.5t-74 -171.5l-112.5 -228l-144 -274q-69 -129 -136.5 -236t-138 -184t-147.5 -119.5t-165 -42.5q-39 0 -77 9.5t-68 23.5t-49 29t-19 26q0 15 16.5 44t39 60t46 56.5t37.5 32.5q48 -45 96 -66.5t85 -21.5q57 0 117 59t128 169 q-11 59 -26 130.5t-33 146.5l-38 148l-38 140q-19 65 -37 116.5t-32 82.5q-23 51 -39 66.5t-33 15.5q-9 0 -25.5 -3.5t-32.5 -8.5q-19 -5 -40 -12l-20 67l93 44q48 23 90.5 41t76.5 29.5t52 11.5q28 0 49 -29t45 -98q18 -50 38 -115.5t40.5 -141t40.5 -157.5t38 -165l78 162 q36 79 63.5 146.5t43.5 118t16 74.5q0 50 -53 53q-17 2 -35.5 -4t-47.5 -19l-26 67q36 21 77 40.5t81 34.5t75.5 24t60.5 9q17 0 33 -2.5t29 -10.5t20.5 -23t7.5 -40zM562 1270q0 -31 -11 -64t-31.5 -60t-50 -44.5t-66.5 -17.5q-48 0 -71 30t-23 70q0 29 11 62t31.5 60.5 t50 46t66.5 18.5q24 0 41.5 -8.5t29 -22.5t17.5 -32.5t6 -37.5zM949 1270q0 -31 -11 -64t-31.5 -60t-50.5 -44.5t-67 -17.5q-47 0 -70 30t-23 70q0 29 11 62t31.5 60.5t49.5 46t66 18.5q24 0 42 -8.5t29.5 -22.5t17.5 -32.5t6 -37.5z" />
<glyph unicode="&#x152;" horiz-adv-x="1602" d="M557 108q34 0 60 3.5t48 10t41.5 17t40.5 25.5l123 898q-35 48 -89.5 72t-114.5 24q-74 0 -132.5 -42t-102 -115.5t-71 -173.5t-40.5 -215q-12 -108 0.5 -200t44 -159.5t81 -106t111.5 -38.5zM1575 1260l32 -32q-5 -26 -14 -65t-20 -80t-22 -77.5t-19 -55.5h-70 q9 93 -3 141.5t-47 48.5h-300l-56 -405h357l27 -35l-23 -33l-27 -38q-14 -19 -28 -35t-25 -24q-12 15 -26 25t-34 17t-47.5 10t-66.5 3h-122l-60 -441q-2 -15 1.5 -26.5t21 -20t52.5 -13t96 -4.5h90q43 0 74.5 11t57.5 35.5t50.5 64.5t52.5 99l64 -26q-9 -43 -21 -90 l-22 -90q-11 -43 -20.5 -76t-15.5 -48h-679q-55 0 -91 -4.5t-65 -10.5t-58.5 -10.5t-71.5 -4.5q-111 0 -195 49.5t-137 133t-75 193t-9 229.5q9 94 38 183.5t73.5 169t103 146t127.5 114.5t147 75t161 27q39 0 66.5 -4.5t51.5 -10.5t48.5 -10.5t57.5 -4.5h620z" />
<glyph unicode="&#x153;" horiz-adv-x="1440" d="M976 737q-55 -56 -86 -133t-39 -169q102 46 162.5 82t93 67.5t42 61t9.5 62.5q0 41 -23 67t-53 26q-25 0 -52 -18t-54 -46zM640 482q0 76 -13.5 135t-36 99t-53.5 60.5t-65 20.5q-52 0 -90.5 -34.5t-64.5 -89t-39 -121t-13 -130.5q0 -67 15.5 -126.5t40 -104t54 -70.5 t58.5 -26q56 0 95.5 37.5t64 94.5t36 125t11.5 130zM1402 760q0 -28 -6.5 -58.5t-27 -65t-57.5 -71.5t-98 -76.5t-149 -82t-211 -86.5q6 -46 21.5 -84t36 -65t45 -42t50.5 -15q22 0 52 9t70 30t90 54.5t112 81.5q4 -3 12 -13t15.5 -21.5t13.5 -22t8 -14.5 q-82 -71 -148.5 -120.5t-122.5 -80.5t-105 -44.5t-96 -13.5q-24 0 -55 8t-63.5 26t-62.5 47.5t-52 73.5q-24 -27 -51 -51q-25 -22 -57.5 -41t-67 -33t-68.5 -22t-62 -8q-77 0 -138 29.5t-103.5 81t-65.5 122t-23 152.5q0 72 14 138.5t43.5 128t76 119t111.5 110.5 q25 20 58 37.5t68 30.5t69.5 20.5t63.5 7.5q106 0 175 -47.5t104 -130.5q34 34 75 66q23 18 55 38t69 36.5t78 27t83 10.5q54 0 95.5 -15.5t69.5 -40.5t42 -56.5t14 -63.5z" />
<glyph unicode="&#x178;" horiz-adv-x="1170" d="M802 0h-523l10 73q43 9 72 19t47 19.5t26 18t9 15.5l53 388q-21 78 -50.5 161.5t-61.5 163t-64.5 148t-60.5 116.5q-7 12 -15.5 20.5t-23.5 14t-39 7.5t-62 1l3 73l64 11q37 6 73 11t68 8.5t51 3.5q23 0 47 -12t37 -35q28 -50 59 -116.5t60.5 -140t55.5 -149t46 -141.5 l277 443q17 27 -4 41.5t-91 24.5l10 73h387l-10 -73q-32 -6 -56 -12.5t-41 -14t-29 -17t-20 -22.5l-379 -598l-52 -378q-1 -6 4.5 -14.5t21 -18.5t42.5 -20t69 -19zM678 1551q0 -30 -11 -63t-31.5 -60.5t-50.5 -45t-67 -17.5q-48 0 -70.5 30.5t-22.5 69.5q0 30 11 62.5 t31.5 60.5t49.5 46t66 18q48 0 71.5 -30.5t23.5 -70.5zM1065 1551q0 -30 -11 -63t-31.5 -60.5t-50.5 -45t-67 -17.5q-47 0 -70 30.5t-23 69.5q0 30 11 62.5t31.5 60.5t49.5 46t66 18q48 0 71.5 -30.5t23.5 -70.5z" />
<glyph unicode="&#x2c6;" horiz-adv-x="651" d="M744 1079q-14 -20 -33 -36t-35 -24l-224 227l-287 -227q-9 6 -27 23t-28 37l299 378h137z" />
<glyph unicode="&#x2d7;" horiz-adv-x="679" d="M633 549q-4 -11 -11 -26l-16 -31l-17 -30q-8 -14 -12 -22h-523l-26 32q4 11 11 25.5t15 29.5l18 29l14 24h520z" />
<glyph unicode="&#x2dc;" horiz-adv-x="745" d="M868 1342q-14 -27 -32 -58t-39.5 -62t-45.5 -59.5t-50.5 -50.5t-54.5 -35t-57 -13q-40 0 -73.5 16t-65 35.5t-63 36t-66.5 16.5q-21 0 -38.5 -7.5t-35 -22t-36 -35.5t-39.5 -49l-65 27q22 41 52.5 90t66.5 91.5t77 71t84 28.5t78.5 -16.5t66.5 -35.5l61 -36 q29 -17 59 -17q42 0 76.5 28.5t73.5 86.5z" />
<glyph unicode="&#x300;" horiz-adv-x="0" d="M-168 1055q-20 -12 -43 -22.5t-41 -13.5l-288 363l40 51l41 7l62 12q33 6 62.5 10.5t42.5 4.5z" />
<glyph unicode="&#x301;" horiz-adv-x="0" d="M22 1367l-378 -348q-16 4 -34.5 18.5t-32.5 31.5l234 398l39 -7l57 -11q30 -6 56.5 -12.5t35.5 -9.5z" />
<glyph unicode="&#x302;" horiz-adv-x="0" d="M-31 1079q-14 -20 -33 -36t-35 -24l-224 227l-287 -227q-9 6 -27 23t-28 37l299 378h137z" />
<glyph unicode="&#x303;" horiz-adv-x="0" d="M51 1342q-14 -27 -32.5 -58t-40 -62t-45.5 -59.5t-50.5 -50.5t-54.5 -35t-57 -13q-40 0 -73.5 16t-65 35.5t-63 36t-66.5 16.5q-21 0 -38.5 -7.5t-35 -22t-36 -35.5t-39.5 -49l-64 27q21 41 51.5 90t67 91.5t77.5 71t84 28.5q42 0 78 -16.5t68 -35.5l60 -36 q29 -17 59 -17q41 0 75.5 28.5t74.5 86.5z" />
<glyph unicode="&#x308;" horiz-adv-x="0" d="M-407 1270q0 -31 -11 -64t-31.5 -60t-50 -44.5t-66.5 -17.5q-48 0 -71 30t-23 70q0 29 11 62t31.5 60.5t50 46t66.5 18.5q24 0 41.5 -8.5t29 -22.5t17.5 -32.5t6 -37.5zM-20 1270q0 -31 -11 -64t-31.5 -60t-50.5 -44.5t-67 -17.5q-47 0 -70 30t-23 70q0 29 11 62 t31.5 60.5t49.5 46t66 18.5q24 0 42 -8.5t29.5 -22.5t17.5 -32.5t6 -37.5z" />
<glyph unicode="&#x30a;" horiz-adv-x="0" d="M-256 1264q0 30 -14 49t-36 19q-19 0 -35 -9.5t-27.5 -26t-18 -38t-6.5 -45.5q0 -31 15 -50.5t38 -18.5q17 0 32.5 9.5t27 26t18 38.5t6.5 46zM-123 1301q0 -44 -19.5 -92.5t-53.5 -89t-80.5 -67.5t-99.5 -27q-35 0 -61.5 12.5t-44.5 32.5t-27 46.5t-9 53.5q0 48 19 98 t52.5 91t78.5 67.5t98 26.5q34 0 61.5 -12t46.5 -33t29 -48.5t10 -58.5z" />
<glyph unicode="&#x2000;" horiz-adv-x="900" />
<glyph unicode="&#x2001;" horiz-adv-x="1800" />
<glyph unicode="&#x2002;" horiz-adv-x="900" />
<glyph unicode="&#x2003;" horiz-adv-x="1800" />
<glyph unicode="&#x2004;" horiz-adv-x="600" />
<glyph unicode="&#x2005;" horiz-adv-x="450" />
<glyph unicode="&#x2006;" horiz-adv-x="300" />
<glyph unicode="&#x2007;" horiz-adv-x="300" />
<glyph unicode="&#x2008;" horiz-adv-x="225" />
<glyph unicode="&#x2009;" horiz-adv-x="360" />
<glyph unicode="&#x200a;" horiz-adv-x="100" />
<glyph unicode="&#x2010;" horiz-adv-x="679" d="M633 549q-4 -11 -11 -26l-16 -31l-17 -30q-8 -14 -12 -22h-523l-26 32q4 11 11 25.5t15 29.5l18 29l14 24h520z" />
<glyph unicode="&#x2011;" horiz-adv-x="679" d="M633 549q-4 -11 -11 -26l-16 -31l-17 -30q-8 -14 -12 -22h-523l-26 32q4 11 11 25.5t15 29.5l18 29l14 24h520z" />
<glyph unicode="&#x2013;" horiz-adv-x="903" d="M857 549q-4 -11 -11 -26l-16 -31l-17 -30q-8 -14 -12 -22h-747l-26 32q4 11 11 25.5t15 29.5l18 29l14 24h744z" />
<glyph unicode="&#x2014;" horiz-adv-x="1542" d="M1496 549q-4 -11 -12 -26l-15 -31q-8 -16 -16 -30t-13 -22h-1386l-26 32q4 11 11 25.5t15 29.5l18 29l14 24h1384z" />
<glyph unicode="&#x2018;" horiz-adv-x="478" d="M471 1400q-23 -25 -46 -57t-41 -66.5t-29 -70t-11 -68.5q1 -51 34.5 -75t84.5 -22l9 -77q-7 -7 -27.5 -18t-47.5 -22.5t-58 -23t-59.5 -21t-51.5 -14.5t-34 -4q-26 17 -48.5 54t-22.5 95q0 64 26.5 127.5t68.5 121.5t93.5 107t101.5 84z" />
<glyph unicode="&#x2019;" horiz-adv-x="478" d="M483 1292q0 -63 -26.5 -126.5t-68.5 -121.5t-93.5 -107.5t-102.5 -84.5l-57 50q22 25 45 57.5t41 67t29 70t11 67.5q0 51 -34 75.5t-85 22.5l-9 76q7 7 27.5 18t47.5 23t58 23.5t59.5 21t51.5 14.5t34 4q27 -17 49.5 -54t22.5 -96z" />
<glyph unicode="&#x201a;" horiz-adv-x="530" d="M373 107q0 -64 -26.5 -127.5t-68.5 -121.5t-93.5 -107t-102.5 -84l-57 50q22 25 45 57t41 66.5t29 70t11 68.5q0 50 -34.5 74.5t-84.5 23.5l-9 76q7 7 27.5 18t47.5 23t58 23.5t59.5 20.5t51.5 14.5t34 4.5q26 -18 49 -54.5t23 -95.5z" />
<glyph unicode="&#x201c;" horiz-adv-x="929" d="M471 1400q-23 -25 -46 -57t-41 -66.5t-29 -70t-11 -68.5q1 -51 34.5 -75t84.5 -22l9 -77q-7 -7 -27.5 -18t-47.5 -22.5t-58 -23t-59.5 -21t-51.5 -14.5t-34 -4q-26 17 -48.5 54t-22.5 95q0 64 26.5 127.5t68.5 121.5t93.5 107t101.5 84zM914 1400q-23 -25 -45.5 -57 t-40.5 -66.5t-29.5 -70t-11.5 -68.5q1 -51 34.5 -75t84.5 -22l9 -77q-7 -7 -27.5 -18t-47.5 -22.5t-58 -23t-59.5 -21t-51.5 -14.5t-34 -4q-26 17 -48.5 54t-22.5 95q0 64 26.5 127.5t68.5 121.5t93.5 107t101.5 84z" />
<glyph unicode="&#x201d;" horiz-adv-x="929" d="M483 1292q0 -63 -26.5 -126.5t-68.5 -121.5t-93.5 -107.5t-102.5 -84.5l-57 50q22 25 45 57.5t41 67t29 70t11 67.5q0 51 -34 75.5t-85 22.5l-9 76q7 7 27.5 18t47.5 23t58 23.5t59.5 21t51.5 14.5t34 4q27 -17 49.5 -54t22.5 -96zM926 1292q0 -63 -26.5 -126.5 t-68.5 -121.5t-93.5 -107.5t-101.5 -84.5l-58 50q22 25 45 57.5t41 67t29 70t11 67.5q-1 51 -34.5 75.5t-83.5 22.5l-9 76q7 7 27.5 18t47.5 23t58 23.5t59.5 21t51.5 14.5t34 4q26 -17 48.5 -54t22.5 -96z" />
<glyph unicode="&#x201e;" horiz-adv-x="968" d="M373 107q0 -64 -26.5 -127.5t-68.5 -121.5t-93.5 -107t-102.5 -84l-57 50q22 25 45 57t41 66.5t29 70t11 68.5q0 50 -34.5 74.5t-84.5 23.5l-9 76q7 7 27.5 18t47.5 23t58 23.5t59.5 20.5t51.5 14.5t34 4.5q26 -18 49 -54.5t23 -95.5zM816 107q0 -64 -26.5 -127.5 t-68.5 -121.5t-93.5 -107t-101.5 -84l-58 50q22 25 45 57t41 66.5t29 70t11 68.5q-1 51 -34.5 75t-83.5 23l-9 76q7 7 27.5 18t47.5 23t58 23.5t59.5 20.5t51.5 14.5t34 4.5q26 -18 48.5 -54.5t22.5 -95.5z" />
<glyph unicode="&#x2022;" horiz-adv-x="529" d="M479 713q0 -56 -17.5 -114t-51 -104.5t-82.5 -76t-113 -29.5q-38 0 -66 13t-46.5 36t-27.5 54t-9 67q0 56 18 114t52.5 105t84 77t111.5 30q38 0 66 -13.5t46 -37t26.5 -55t8.5 -66.5z" />
<glyph unicode="&#x2026;" horiz-adv-x="1460" d="M351 167q0 -33 -12 -68.5t-36 -64t-58.5 -47t-79.5 -18.5q-63 0 -92 31.5t-29 82.5q0 32 13 66t37.5 62.5t59 46.5t77.5 18q60 0 90 -30.5t30 -78.5zM842 167q0 -33 -12 -68.5t-36 -64t-58.5 -47t-79.5 -18.5q-63 0 -92 31.5t-29 82.5q0 32 13 66t37.5 62.5t59 46.5 t77.5 18q60 0 90 -30.5t30 -78.5zM1333 167q0 -33 -12 -68.5t-36 -64t-58.5 -47t-79.5 -18.5q-63 0 -92 31.5t-29 82.5q0 32 13 66t37.5 62.5t59 46.5t77.5 18q60 0 90 -30.5t30 -78.5z" />
<glyph unicode="&#x202f;" horiz-adv-x="360" />
<glyph unicode="&#x2039;" horiz-adv-x="595" d="M51 426q2 19 5 35l4 25q1 11 3 13l422 423l47 -45l-11 -18l-27 -47l-38 -66l-45 -77l-45 -76l-38 -66l-28 -47q-10 -17 -9 -17l128 -419l-60 -45z" />
<glyph unicode="&#x203a;" horiz-adv-x="594" d="M46 44l10 18l27 47l39 67l44 76l44 76l39 68l27 46l10 18l-10 30l-23 78l-31 100l-30 100l-24 78l-9 31l59 45l308 -426q-3 -19 -5 -35l-3 -25q-2 -11 -2 -12l-424 -425z" />
<glyph unicode="&#x205f;" horiz-adv-x="450" />
<glyph unicode="&#x20ac;" d="M591 436h-278q0 -92 18 -154t46.5 -99.5t65 -53.5t73.5 -16q25 0 51.5 5t59.5 20.5t73.5 43.5t94.5 74q11 -14 21 -32l17 -35q-65 -68 -119.5 -111t-103.5 -67t-93 -32.5t-87 -8.5q-72 0 -136 29.5t-111.5 88t-75.5 145.5t-28 203h-78l-23 33l8 19l10 24l12 25l9 20h69 q1 7 1.5 13.5t2.5 13.5q3 23 6.5 44.5t7.5 42.5h-43l-23 33l8 19l10 25l12 24l9 20h58q36 112 90 195.5t124.5 138.5t155 82t181.5 27q93 0 165.5 -29t114.5 -71q3 -3 -2.5 -16.5t-17.5 -32.5l-26 -43l-28 -44q-15 -21 -28.5 -37.5t-21.5 -24.5l-58 14q-32 74 -75 113 t-112 39q-28 0 -59.5 -12t-62.5 -45.5t-60.5 -94.5t-53.5 -159h334l25 -30l-41 -91h-343l-6 -35q-3 -19 -5 -38q-2 -11 -3 -21l-2 -20h287l26 -30z" />
<glyph unicode="&#x2122;" horiz-adv-x="1206" d="M597 1249q-2 -9 -5 -24t-7 -31.5t-8.5 -32.5t-8.5 -26h-28q-3 33 -5 53t-18 20h-90l-46 -339q-1 -5 9.5 -11.5t45.5 -14.5l-6 -36h-210l6 36q35 8 47 14.5t13 11.5l46 339h-92q-11 0 -23.5 -17t-34.5 -58l-26 9q3 10 7 26l9 34l8 34l8 25h397zM1187 1225q-20 0 -47 -9 l-44 -351q-1 -5 11 -11t39 -11l-6 -36h-193l5 36q26 5 41 11t15 11l34 274l-201 -332h-37l-108 329l-39 -271q-1 -5 9.5 -11t37.5 -11l-6 -36h-155l6 36q26 5 39 11t14 11l50 348q-11 7 -24 9.5t-24 2.5l5 36h130q8 0 12.5 -5.5t10.5 -25.5l95 -292l178 292q12 22 17 26.5 t13 4.5h127z" />
<glyph unicode="&#x2219;" horiz-adv-x="478" d="M397 678q0 -33 -12 -68t-35.5 -63.5t-58 -47t-79.5 -18.5q-63 0 -92.5 31.5t-29.5 82.5q0 31 13 65t37.5 62.5t59 46.5t77.5 18q60 0 90 -30.5t30 -78.5z" />
<glyph horiz-adv-x="568" d="M538 110l-96 -55q-49 -27 -94.5 -48.5t-85 -34.5t-67.5 -13q-34 0 -57.5 31.5t-23.5 85.5q0 30 7 81t17 112t22 127l22 126q10 59 17 106t7 72q0 23 -3 36.5t-8 20t-13 8.5t-17 2q-8 0 -23.5 -3.5t-30.5 -8.5q-18 -5 -38 -12l-18 67l95 41q53 22 103.5 41t91.5 31.5 t60 12.5q28 0 43.5 -19t15.5 -65q0 -29 -7 -80.5t-18 -113.5l-23 -130l-24 -130q-11 -63 -18 -114.5t-7 -80.5q0 -31 6.5 -45t23.5 -14q15 0 28.5 2t27.5 6t29.5 10t36.5 15z" />
<glyph horiz-adv-x="0" d="M7 1255l-471 -236q-14 9 -26.5 29t-21.5 40l354 323l42 -23l47 -25l43 -25q20 -12 33 -21v-62z" />
<glyph horiz-adv-x="0" d="M-109 1088q-14 -20 -30 -40t-32 -29l-424 236l16 62q17 11 43 25l54 28l52 24l38 17z" />
<glyph horiz-adv-x="0" d="M-34 1079q-14 -20 -29 -36t-31 -24l-234 175l-277 -175q-9 6 -23.5 23t-24.5 37l290 308h122z" />
<glyph horiz-adv-x="0" d="M50 1311q-14 -27 -32.5 -58t-40 -62t-45.5 -59.5t-50.5 -50.5t-54.5 -35t-57 -13q-40 0 -73.5 16t-65 35.5t-63 36t-66.5 16.5q-21 0 -38.5 -7.5t-35 -22t-36 -35.5t-39.5 -49l-65 28q22 40 52.5 89t66.5 91.5t77 71t84 28.5t78.5 -16.5t67.5 -36.5l60 -36q29 -16 59 -16 q42 0 76.5 28.5t73.5 86.5z" />
<glyph horiz-adv-x="0" d="M-408 1231q0 -30 -11 -63t-31.5 -60.5t-50.5 -45t-67 -17.5q-48 0 -70.5 30.5t-22.5 69.5q0 30 11 62.5t31.5 60.5t49.5 46t66 18q48 0 71.5 -30.5t23.5 -70.5zM-21 1231q0 -30 -11 -63t-31.5 -60.5t-50.5 -45t-67 -17.5q-47 0 -70 30.5t-23 69.5q0 30 11 62.5t31.5 60.5 t49.5 46t66 18q48 0 71.5 -30.5t23.5 -70.5z" />
</font>
</defs>
</svg>
