<?xml version="1.0" standalone="no"?>
<!DOCTYPE svg PUBLIC "-//W3C//DTD SVG 1.1//EN" "http://www.w3.org/Graphics/SVG/1.1/DTD/svg11.dtd" >
<svg xmlns="http://www.w3.org/2000/svg">
<metadata>
This is a custom SVG webfont generated by Font Squirrel.
Designer    : J. Victor Gaultney and Annie Olsen
Foundry     : SIL International
Foundry URL : http://scripts.sil.org/
</metadata>
<defs>
<font id="webfontY1vE4adJ" horiz-adv-x="823" >
<font-face units-per-em="2048" ascent="1638" descent="-410" />
<missing-glyph horiz-adv-x="410" />
<glyph unicode=" "  horiz-adv-x="410" />
<glyph unicode="&#x09;" horiz-adv-x="410" />
<glyph unicode="&#xa0;" horiz-adv-x="410" />
<glyph unicode="!" horiz-adv-x="410" d="M283 152q0 -31 -10.5 -63.5t-30 -59t-46.5 -43.5t-61 -17q-40 0 -62 27t-22 72q0 29 11.5 60.5t32 57.5t47.5 43t59 17q37 0 59.5 -26t22.5 -68zM250 389q-20 -14 -34.5 -22.5t-39.5 -16.5l-24 21l86 970l35 24q21 14 44.5 28t47.5 25.5t45 17.5l36 -25z" />
<glyph unicode="&#x22;" horiz-adv-x="791" d="M305 874q-17 -9 -34.5 -12.5t-39.5 -3.5l33 524l28 14l33 14l33 12q15 5 25 8l37 -21zM631 874q-16 -9 -34 -12.5t-40 -3.5l33 524l28 14l33 14l33 12q15 5 25 8l36 -21z" />
<glyph unicode="#" d="M354 590h176l95 256h-176zM770 961h141l19 -25q-8 -22 -20 -47.5t-21 -42.5h-161l-95 -256h145l19 -27l-19 -45q-11 -26 -20 -43h-168l-113 -305q-18 -14 -41 -24t-49 -19l-20 20l121 328h-176l-113 -305q-19 -14 -41.5 -24t-48.5 -19l-23 20l122 328h-134l-19 25 q8 20 19 45t22 45h154l95 256h-138l-19 24q8 22 19 46.5t22 44.5h159l108 290q21 16 43.5 24t44.5 17l22 -22l-115 -309h176l107 290q22 16 44.5 24t43.5 17l23 -22z" />
<glyph unicode="$" d="M249 950q0 -19 6.5 -39.5t23.5 -42.5t47 -46t78 -51l51 361q-47 -3 -85 -20.5t-65 -43.5t-41.5 -57t-14.5 -61zM614 343q0 31 -8.5 59t-28 54t-50 51.5t-74.5 51.5l-65 -464q48 9 89 32t71.5 55.5t48 73.5t17.5 87zM793 1144q6 -4 -5 -23.5t-28 -42t-36 -42t-28 -25.5 l-28 5q-24 33 -59 62t-76 44l-55 -390q69 -36 118.5 -70.5t81 -71.5t46.5 -79t15 -93q0 -76 -28.5 -146.5t-78.5 -128.5t-117 -100t-143 -60l-17 -121q-9 -8 -15 -12.5t-12.5 -7.5t-13.5 -5l-20 -5l-20 21l16 117q-7 0 -14 -0.5t-14 -0.5q-36 0 -84 12.5t-91 32t-73 44.5 t-30 50q0 12 11.5 34t27.5 44t34 38.5t32 16.5q10 0 26.5 -21.5t42 -48.5t62 -51t87.5 -29l72 508l-24 12q-63 30 -105.5 64t-68.5 69t-37 71t-11 70q0 56 24 111t68 101.5t106 80t137 46.5l16 114l19 12l10 6q4 2 10 4t19 6l22 -22l-16 -113h1q72 0 135 -26t109 -61z" />
<glyph unicode="%" horiz-adv-x="1315" d="M1075 387q0 91 -30.5 134.5t-73.5 43.5q-31 0 -54 -19t-40.5 -49.5t-29 -69t-18 -77.5t-9.5 -74.5t-3 -60.5q0 -84 29 -124t76 -40q29 0 52 18t40 47t28.5 66t19 74.5t10.5 71.5t3 59zM1212 377q0 -66 -23.5 -138t-66.5 -132t-102.5 -99t-132.5 -39q-48 0 -86 21 t-64.5 57.5t-40.5 86.5t-14 108q0 43 10.5 90t30.5 92t48.5 85.5t64.5 71t79 48.5t91 18q49 0 87.5 -20.5t64.5 -57t40 -86t14 -106.5zM256 16q-10 -7 -27.5 -14.5t-36.5 -13.5l-38 -13l-31 -10l-19 35l963 1188q28 17 64.5 29t64.5 20l25 -33zM506 975q0 91 -31 134.5 t-76 43.5q-31 0 -54 -19t-40 -49.5t-28.5 -69t-18 -77.5t-9.5 -74.5t-3 -60.5q0 -84 30 -124t76 -40q29 0 52 18t40 47t29 66t19 74.5t10.5 71.5t3.5 59zM641 965q0 -44 -10.5 -91t-30.5 -92t-48.5 -86t-64.5 -72t-79.5 -49t-92.5 -18q-48 0 -85.5 21t-64 57.5t-40.5 86.5 t-14 107q0 44 10.5 91t30.5 92t48.5 85.5t65 71t79 48.5t91.5 18q48 0 86.5 -20.5t64.5 -57t40 -86t14 -106.5z" />
<glyph unicode="&#x26;" horiz-adv-x="1190" d="M516 1130q-8 -57 -1.5 -120t23.5 -129q67 40 112 76.5t73.5 71t43 67.5t19.5 65q7 37 5 70t-14.5 58t-37 39.5t-61.5 14.5q-36 0 -64 -18.5t-48 -48.5t-32.5 -68.5t-17.5 -77.5zM446 84q80 0 148.5 25.5t125.5 67.5q-39 52 -78.5 113.5t-76 129t-69 139.5t-56.5 146 q-55 -43 -94.5 -82.5t-66.5 -78.5t-42.5 -78.5t-21.5 -82.5q-9 -70 7 -125.5t49 -94t79 -59t96 -20.5zM1274 748q-26 -31 -51 -51.5t-49 -37.5q-15 9 -35 16t-40 12.5t-40 8.5t-35 4q7 -18 10.5 -35t4.5 -37.5t-1 -46t-6 -59.5q-10 -69 -46.5 -145.5t-94.5 -148.5l47 -54 q22 -26 43 -47q31 -32 69.5 -42.5t92.5 3.5l2 -43q-85 -38 -140 -57t-75 -19t-61.5 37.5t-95.5 103.5q-78 -63 -171.5 -102t-198.5 -39q-84 0 -151.5 26.5t-112.5 76.5t-64.5 123.5t-6.5 166.5q7 57 34.5 114.5t72 113t104.5 109t133 103.5q-17 71 -22.5 139t3.5 132 q11 81 44 150t80.5 119.5t105.5 79t118 28.5q57 0 94.5 -21.5t58 -57t26 -81.5t-1.5 -96q-16 -102 -93 -192t-192 -164l-69 -44q23 -66 54 -132t67 -130t75 -123.5t78 -111.5q32 45 52 92.5t28 91.5q7 48 -0.5 89t-24.5 71t-41 47t-51 17l-17 28q13 13 33.5 28t40.5 23h399z " />
<glyph unicode="'" horiz-adv-x="410" d="M305 874q-17 -9 -34.5 -12.5t-39.5 -3.5l33 524l28 14q16 7 32.5 13.5t32 12t26.5 8.5l37 -21z" />
<glyph unicode="(" horiz-adv-x="604" d="M705 1559q-69 -48 -134.5 -132.5t-121.5 -198.5t-99 -255t-65 -301q-21 -146 -19.5 -287t23 -265t62 -225t98.5 -165l-37 -45q-94 50 -159 146t-101.5 223t-43 277.5t16.5 309.5q23 164 73.5 316.5t123 280t164 222.5t196.5 144z" />
<glyph unicode=")" horiz-adv-x="604" d="M500 627q-23 -165 -74 -314t-123.5 -272.5t-164 -215t-195.5 -140.5l-25 45q68 48 134 129.5t122.5 192t99.5 248t66 298.5q20 145 18.5 289t-23 271.5t-61.5 231.5t-98 169l37 45q94 -50 158.5 -149.5t100.5 -230.5t43 -284.5t-15 -312.5z" />
<glyph unicode="*" horiz-adv-x="725" d="M415 1188l271 196l20 -15l22 -17q12 -9 21.5 -18t14.5 -17l-4 -41l-324 -142l262 -128q-5 -25 -11 -59t-15 -56l-37 -23l-234 213l-10 -325l-25 -14l-28 -13.5t-27.5 -12t-23.5 -7.5l-31 18l87 352l-271 -196l-43 33q-24 19 -35 34l6 43l321 140l-262 129q3 12 5.5 27.5 t5.5 31.5l8 31q3 14 8 24l37 23l233 -211l11 325q10 6 23 13l28 14q15 7 28.5 12.5t24.5 8.5l33 -21z" />
<glyph unicode="+" horiz-adv-x="770" d="M720 596q-3 -10 -8 -23l-10 -25q-5 -12 -11 -24l-10 -19h-232l-38 -269q-9 -5 -21.5 -9.5t-25.5 -8.5t-26 -7.5t-23 -5.5l-20 22l39 278h-240l-19 24l19 45q11 26 22 46h234l39 271q17 6 46.5 15t49.5 14l21 -23l-40 -277h236z" />
<glyph unicode="," horiz-adv-x="410" d="M303 102q0 -26 -11.5 -60t-32 -72t-47.5 -78t-59 -77t-67 -68t-70 -52l-34 35q153 162 153 270q0 18 -5.5 35.5t-18 29.5t-33 17.5t-51.5 1.5l-9 45q11 12 40.5 29t64 33t67 27.5t48.5 10.5q18 -10 30 -19.5t20 -23t11.5 -33.5t3.5 -51z" />
<glyph unicode="-" horiz-adv-x="641" d="M580 541q-8 -22 -20 -45l-21 -41h-478l-18 24q8 22 19.5 44t23.5 42h475z" />
<glyph unicode="." horiz-adv-x="410" d="M283 152q0 -31 -10.5 -63.5t-30 -59t-46.5 -43.5t-61 -17q-40 0 -62 27t-22 72q0 29 11.5 60.5t32 57.5t47.5 43t59 17q37 0 59.5 -26t22.5 -68z" />
<glyph unicode="/" horiz-adv-x="819" d="M43 -285q-10 -7 -26 -14.5t-34 -14.5l-35 -12l-30 -10l-29 25l904 1861q27 17 59 29t61 20l31 -22z" />
<glyph unicode="0" d="M649 786q0 82 -13.5 144.5t-37 104.5t-55 63.5t-66.5 21.5q-56 0 -98.5 -37.5t-73.5 -97.5t-51.5 -135t-32.5 -150.5t-17 -144t-5 -115.5q0 -176 46.5 -265t127.5 -89q58 0 101 38.5t73.5 100.5t50 139.5t31 155.5t16 148t4.5 118zM803 784q0 -60 -6 -128.5t-21 -140.5 t-40.5 -143.5t-63.5 -135.5q-33 -56 -70.5 -104.5t-80.5 -84.5t-93.5 -57t-108.5 -21q-70 0 -121 34.5t-84.5 95t-50 143.5t-16.5 180q0 58 6.5 125t21 136.5t38.5 140.5t59 137q31 57 68.5 107t81.5 87t95 58.5t111 21.5q70 0 122 -34t86 -94t50.5 -143t16.5 -180z" />
<glyph unicode="1" d="M666 0h-603l7 53q72 9 120.5 20.5t78 23.5t42.5 23.5t15 22.5l108 797q6 40 6.5 62t-8.5 36q-5 6 -19.5 10t-43 3t-71.5 -7t-103 -20l-13 51q39 12 93.5 33t110.5 46l108 48q52 25 84 43l28 -35l-145 -1067q-2 -10 6.5 -21.5t32 -23.5t65.5 -24t109 -21z" />
<glyph unicode="2" d="M784 1006q0 -62 -28 -138t-98 -180t-190 -243.5t-304 -329.5h375q15 0 27.5 8t24 21t20.5 29.5t17 33.5q18 40 29 92l43 -12l-51 -287h-635l-14 74q182 181 305 321t197.5 248.5t106.5 189.5t32 144q0 72 -45 118t-129 46q-37 0 -67.5 -19t-53 -49t-37 -67t-18.5 -72 l-29 -17q-14 -8 -28 -14.5t-29.5 -11t-36.5 -6.5l-21 30q7 52 43.5 108.5t91 103.5t122.5 77.5t137 30.5q50 0 94 -13.5t77 -41.5t52.5 -71t19.5 -103z" />
<glyph unicode="3" d="M733 1001q0 -54 -17.5 -100.5t-48.5 -85t-73 -68t-90 -49.5q45 -6 83 -30t65 -61t42 -83t15 -96q0 -94 -31 -177.5t-88 -146t-138 -99t-182 -36.5q-71 0 -139 35.5t-143 114.5l39 67q38 -34 68.5 -56t58.5 -35t56.5 -18t63.5 -5q71 0 124.5 27t89.5 73t54.5 105t18.5 124 q0 58 -17.5 100t-45.5 69t-64 40t-72 13h-18q-5 0 -9.5 -1t-11 -2t-20.5 -4l-6 60q58 17 111 40.5t93.5 58.5t64.5 83.5t24 114.5q0 31 -8.5 61.5t-26.5 54t-46.5 38t-68.5 14.5q-35 0 -63.5 -13.5t-49 -36.5t-31 -53.5t-9.5 -64.5q-34 -17 -63.5 -26.5t-67.5 -12.5l-21 31 q6 42 39.5 89.5t83.5 87.5t112 66.5t126 26.5q60 0 105 -19.5t74 -52t43.5 -75t14.5 -87.5z" />
<glyph unicode="4" d="M162 455h338l80 585zM756 426q-12 -15 -22.5 -26t-20.5 -19l-19 -15q-10 -7 -20 -16h-64l-32 -246q-2 -8 2.5 -14.5t17.5 -14t36.5 -15.5t59.5 -17l-6 -43h-440l6 43q59 11 97 20.5t60 18t31 16.5t11 17l30 235h-444l-27 33l553 791q42 18 75 37l60 34l27 -35l-102 -753 h108z" />
<glyph unicode="5" d="M799 1194q-12 -16 -27 -33t-30 -32t-29.5 -28t-26.5 -22h-348q-6 -29 -18 -75l-24 -95l-25 -91q-12 -42 -19 -64q37 12 86.5 19t95.5 7q69 0 123 -25t90.5 -67t56 -97t19.5 -114q0 -60 -13 -120.5t-37.5 -117t-60.5 -106t-82.5 -86t-103.5 -57.5t-123 -21 q-83 0 -159.5 35.5t-147.5 114.5l41 67q45 -35 81.5 -57.5t67.5 -35t57 -17t52 -4.5q75 0 128 33.5t86.5 86.5t49.5 119.5t16 132.5q0 49 -14 90.5t-41 71.5t-66 47t-89 17q-102 0 -209 -80l-37 33l23 83l29 101l30 108l29 107l24 100q12 47 18 82h394q25 0 45.5 2.5 t34.5 6.5q17 4 30 10z" />
<glyph unicode="6" d="M451 659q-58 0 -112 -27t-111 -93q-7 -42 -10 -83t-3 -83q0 -150 53 -223.5t144 -73.5q40 0 71.5 16.5t54.5 44.5t39 64t25.5 74t14 76.5t4.5 70.5q0 71 -15.5 117t-40 72.5t-54.5 37t-60 10.5zM799 1190q-108 -23 -196 -73.5t-156.5 -121t-116.5 -157.5t-76 -183 q69 65 133 90t117 25q128 0 193 -76t65 -211q0 -54 -12.5 -113.5t-37 -116.5t-59.5 -108.5t-79.5 -90.5t-98.5 -62t-115 -23q-65 0 -118.5 28.5t-92 80t-60 123.5t-21.5 159q0 108 22.5 211.5t66 197t106 174.5t143 144t177.5 105t208 57z" />
<glyph unicode="7" d="M866 1167l-113 -218l-112 -217l-105 -208l-94 -190l-79 -164q-35 -74 -58 -127q-66 -48 -155 -74l-33 33q98 153 179 293l154 272l138 259l133 253h-410q-13 0 -26.5 -1.5t-29.5 -15t-36.5 -44t-48.5 -88.5l-37 18l15 58l20 71l20 71q10 34 19 56h635z" />
<glyph unicode="8" d="M287 940q0 -39 17 -69t45.5 -55t65.5 -47l76 -44q33 22 61 47.5t48 56t31.5 66.5t11.5 80q0 81 -47 123.5t-125 42.5q-40 0 -73.5 -17t-58 -45t-38.5 -64.5t-14 -74.5zM592 342q0 55 -17.5 95t-46.5 71t-66 55.5t-76 47.5q-49 -33 -87.5 -67t-65.5 -74t-41 -87.5 t-14 -108.5q0 -43 13 -80t38 -64.5t60 -43.5t80 -16q55 0 97 24.5t70 63.5t42 87.5t14 96.5zM778 1001q0 -55 -19 -101t-50 -84t-71.5 -70t-82.5 -59q37 -23 70.5 -50.5t59 -62t41 -78.5t15.5 -99q0 -85 -35 -162.5t-94.5 -136.5t-137.5 -94t-163 -35q-69 0 -121 23t-87 62 t-52.5 89.5t-17.5 106.5q0 69 25 128t65.5 108.5t93 90t107.5 70.5q-32 20 -61 42.5t-51 51.5t-35 65t-13 83q0 73 30.5 136.5t81.5 110t117 73t137 26.5q61 0 107.5 -17.5t78 -48.5t47 -74t15.5 -94z" />
<glyph unicode="9" d="M420 555q74 0 128.5 38t96.5 100q4 35 6 70.5t2 72.5q0 81 -15 137t-39 91t-54.5 50.5t-61.5 15.5q-46 0 -81 -16.5t-61.5 -44t-45 -64t-30 -76.5t-16.5 -81t-5 -78q0 -65 17.5 -107t43.5 -66t57 -33t58 -9zM803 862q0 -171 -48 -325t-140.5 -275.5t-228 -201.5 t-310.5 -103l-8 59q118 27 210.5 79t161.5 124t114.5 161.5t69.5 193.5q-52 -59 -117.5 -94.5t-139.5 -35.5q-60 0 -108.5 21t-83 58.5t-53 89t-18.5 112.5q0 56 15 116t42 116.5t66 107t87 88.5t103.5 60t117.5 22q54 0 103 -22.5t85.5 -68.5t58 -116.5t21.5 -165.5z" />
<glyph unicode=":" horiz-adv-x="410" d="M283 152q0 -31 -10.5 -63.5t-30 -59t-46.5 -43.5t-61 -17q-40 0 -62 27t-22 72q0 29 11.5 60.5t32 57.5t47.5 43t59 17q37 0 59.5 -26t22.5 -68zM383 866q0 -30 -10.5 -62t-29.5 -58t-46 -43t-61 -17q-41 0 -62.5 26.5t-21.5 71.5q0 28 11.5 59.5t31.5 57.5t47 43t59 17 q37 0 59.5 -25.5t22.5 -69.5z" />
<glyph unicode=";" horiz-adv-x="410" d="M303 102q0 -26 -11.5 -60t-32 -72t-47.5 -78t-59 -77t-67 -68t-70 -52l-34 35q153 162 153 270q0 18 -5.5 35.5t-18 29.5t-33 17.5t-51.5 1.5l-9 45q11 12 40.5 29t64 33t67 27.5t48.5 10.5q18 -10 30 -19.5t20 -23t11.5 -33.5t3.5 -51zM383 866q0 -30 -10.5 -62 t-29.5 -58t-46 -43t-61 -17q-41 0 -62.5 26.5t-21.5 71.5q0 28 11.5 59.5t31.5 57.5t47 43t59 17q37 0 59.5 -25.5t22.5 -69.5z" />
<glyph unicode="&#x3c;" horiz-adv-x="840" d="M805 874q-4 -10 -9 -24l-9 -28l-10 -28q-5 -13 -9 -22l-540 -208l484 -210l11 -37l-21 -17l-17 -14q-8 -7 -18.5 -14t-25.5 -16l-569 248l-22 26q6 23 18 51t20 44l698 274z" />
<glyph unicode="=" horiz-adv-x="840" d="M805 746q-3 -10 -8 -23l-10 -25q-5 -12 -11 -24l-10 -19h-657l-19 24l19 45q11 26 22 46h656zM765 446q-3 -10 -8 -23l-10 -25q-5 -12 -11 -24l-10 -19h-657l-19 24l19 45q11 26 22 46h656z" />
<glyph unicode="&#x3e;" horiz-adv-x="840" d="M785 625q-7 -22 -17 -49t-21 -46l-698 -274l-19 25q4 10 8 23l10 28l10 28q4 14 9 23l540 208l-484 210l-11 37l20 17l17 14q9 7 19.5 14t25.5 16l569 -248z" />
<glyph unicode="?" horiz-adv-x="813" d="M442 152q0 -31 -10.5 -63.5t-30 -59t-47 -43.5t-61.5 -17q-38 0 -61 27t-23 72q0 29 11.5 60.5t31.5 57.5t47 43t59 17q39 0 61.5 -26t22.5 -68zM809 1186q0 -88 -25.5 -154t-64.5 -120t-85.5 -100t-89 -95t-75 -104.5t-43.5 -127.5l-12 -96q-19 -14 -34 -23.5t-40 -17.5 l-23 21l5 116q1 67 26 123t61.5 107t78.5 98.5t77.5 96.5t59.5 102.5t24 115.5q0 100 -43.5 153.5t-130.5 53.5q-41 0 -73 -19t-51.5 -51.5t-25.5 -75.5t3 -91q-22 -10 -39.5 -16.5t-34 -11t-33.5 -7t-39 -4.5l-20 31q0 64 28 125t80 109t125.5 77t165.5 29q64 0 110.5 -19 t77 -52t45.5 -77.5t15 -95.5z" />
<glyph unicode="@" horiz-adv-x="1593" d="M1161 842l-2 -2q-7 -14 -12 -33t-10 -47q-15 -72 -28 -147.5t-22.5 -142.5t-14.5 -118t-5 -73q0 -57 5 -93t13.5 -56.5t19.5 -28t23 -7.5q25 0 63.5 33t76.5 90t69.5 132.5t44.5 160.5q17 113 9 209t-36.5 174t-74 138t-104 100.5t-127 61.5t-142.5 21 q-93 0 -175.5 -27.5t-153.5 -76.5t-129.5 -116t-103 -146t-74 -166.5t-42.5 -177.5q-25 -182 9.5 -323t113 -238.5t193.5 -148t250 -50.5q75 0 149 17.5t139 44t117 56.5t84 56l16 -55q-38 -38 -95.5 -80t-130.5 -77t-159.5 -58t-183.5 -23q-166 0 -298 59t-219 168.5 t-123 265t-9 347.5q16 112 56.5 220.5t101.5 204.5t140.5 177.5t171.5 140.5t195.5 92t213.5 33q133 0 244 -52t186 -152.5t106 -246.5t4 -333q-12 -87 -40.5 -164t-68.5 -142.5t-87 -118t-96 -89.5t-96.5 -56.5t-86.5 -19.5q-18 0 -35.5 12.5t-32 47t-23.5 95t-9 157.5 l-58 -99q-33 -55 -70.5 -102.5t-78 -79t-82.5 -31.5q-34 0 -71.5 19t-69 60.5t-52 107t-20.5 159.5q0 79 15.5 154.5t48 144.5t83 129.5t121.5 108.5q27 18 59 35t66.5 30t68.5 21t66 8q40 0 75 -19t65 -39q23 16 48.5 30.5t51.5 27.5l20 -35q-20 -16 -32 -28.5t-20 -30.5h1 zM943 429l15 96l16 96l16 84q6 38 10 59q-15 12 -31.5 23.5t-35.5 21.5t-39.5 16t-43.5 6q-46 0 -85 -22.5t-71 -59.5t-57 -84.5t-41.5 -98t-25.5 -99.5t-9 -88q0 -65 11 -117t29.5 -89t44 -57t54.5 -20q25 0 55.5 30.5t62.5 78.5t64.5 107t60.5 117z" />
<glyph unicode="A" horiz-adv-x="1147" d="M371 444l-143 -333q-14 -31 15.5 -44.5t106.5 -23.5l-6 -43h-379l6 43q63 12 101 25.5t51 42.5l487 1118q13 12 31 24.5l37 24.5l36 22l31 17l216 -1206q2 -14 7.5 -24.5t17.5 -19t32.5 -14.5t52.5 -10l-4 -43h-385l4 43q71 5 102 20.5t25 47.5l-58 333h-384zM739 535 l-94 544l-235 -544h329z" />
<glyph unicode="B" horiz-adv-x="1014" d="M551 1206q-30 0 -57 -0.5t-51 -1.5l-65 -479h32q70 0 135.5 11t116 40t80.5 80t30 131q0 61 -21.5 103t-54.5 68t-72 37t-73 11zM518 649q-44 0 -81 -4.5t-71 -9.5l-73 -531q-3 -8 11 -19q19 -9 42 -15.5t47.5 -10t48.5 -5t45 -1.5q66 0 119.5 27.5t91.5 72.5t59 103 t21 119q0 50 -14.5 99t-45.5 88t-80.5 63t-119.5 24zM934 410q0 -98 -38 -179t-103 -139t-151 -90.5t-181 -32.5q-20 0 -48 1t-59 4l-66 4l-65 6q-75 7 -157 16h-66l6 43q63 14 101 30.5t40 30.5l149 1089q-45 -6 -82 -13t-73 -15v62q46 13 94 24.5t101 20t113 13.5t129 5 q81 0 145.5 -17t110 -49.5t70 -79t24.5 -104.5q0 -52 -16.5 -101t-46 -90.5t-70 -74t-88.5 -51.5q51 -12 92.5 -40t71.5 -68.5t46.5 -92.5t16.5 -112z" />
<glyph unicode="C" horiz-adv-x="995" d="M1016 1190q4 -5 -7 -22t-28.5 -38t-37 -41.5t-32.5 -31.5l-30 8q-41 45 -99.5 74.5t-140.5 29.5q-40 0 -90 -19t-90 -50q-63 -49 -107.5 -123t-72.5 -155.5t-41 -162t-13 -143.5q0 -109 29.5 -188.5t76 -131t102 -76t108.5 -24.5q56 0 134.5 35.5t190.5 124.5q5 -2 9 -8 l8 -14q4 -7 7 -13.5t5 -9.5q-68 -68 -127.5 -114t-113.5 -73.5t-103 -39t-96 -11.5q-75 0 -144 32.5t-121.5 94.5t-84 152.5t-31.5 206.5q0 94 18.5 191.5t57.5 190t100 176t145 150.5q73 57 157.5 90t178.5 33q99 0 169 -29t114 -71z" />
<glyph unicode="D" horiz-adv-x="1118" d="M1077 745q0 -88 -17 -177.5t-51 -172t-84 -155t-116.5 -126t-148.5 -84t-179 -30.5h-481l6 43q63 14 101 30.5t40 30.5l149 1089l-153 -17v63q115 28 227.5 39.5t215.5 11.5q117 0 208 -39t154 -110t96 -171.5t33 -224.5zM504 1206h-30q-15 0 -30 -1l-145 -1066 q-2 -15 4 -25t23 -17t48.5 -10t80.5 -3q74 0 136.5 28t113.5 76t90.5 112t66 135.5t40 146.5t13.5 145q0 107 -27 195t-79 151t-128.5 98t-176.5 35z" />
<glyph unicode="E" horiz-adv-x="946" d="M856 244q-20 -87 -40.5 -151t-31.5 -93h-784l6 43q63 14 101 30.5t40 30.5l146 1051q2 12 -29 30t-96 32l6 43h737l25 -25q-5 -26 -12.5 -57t-17 -62t-19.5 -59t-19 -47h-43q5 46 4 76.5t-8 49t-19 26t-30 7.5h-335l-59 -434h374l20 -28q-10 -14 -22.5 -29t-26 -29.5 t-26.5 -26.5l-23 -22q-16 17 -34 27.5t-44.5 16.5t-65 8.5t-94.5 2.5h-69l-68 -501q-2 -15 3 -26.5t24 -20t55 -13t96 -4.5h121q42 0 71 5t52.5 22.5t45.5 51.5t50 93z" />
<glyph unicode="F" horiz-adv-x="891" d="M944 1235q-5 -26 -12.5 -57t-17 -62t-19.5 -59t-18 -47h-41q4 46 2 76.5t-9 49t-19 26t-30 7.5h-343l-60 -434h323l23 -28l-23 -29l-26 -30q-13 -14 -26 -26l-23 -22q-34 34 -78.5 44.5t-110.5 10.5h-70l-75 -551q-2 -12 32 -27t121 -34l-6 -43h-438l6 43q63 14 101 30.5 t40 30.5l146 1051q2 12 -29 30t-96 32l6 43h746z" />
<glyph unicode="G" horiz-adv-x="1073" d="M1057 539q-54 -16 -79 -37.5t-28 -44.5l-10 -71l-12 -88l-12 -85q-5 -40 -7 -59q-76 -61 -134 -97.5t-105 -56t-87.5 -25.5t-80.5 -6q-83 0 -160 33.5t-136 98t-94.5 158.5t-35.5 214q0 95 22 191.5t62.5 185t96.5 164t124 129.5q85 67 189 107t223 40q30 0 65 -7t70 -20 t68 -32t59 -43q6 -5 -5 -22t-29 -37.5t-38.5 -40.5t-34.5 -31l-28 6q-26 31 -55 52t-62.5 33.5t-72 17.5t-83.5 5q-38 0 -92.5 -26t-108.5 -70q-51 -41 -91.5 -107t-69.5 -143.5t-44.5 -158t-15.5 -150.5q0 -107 32.5 -185.5t83.5 -130.5t114 -77t125 -25q54 0 106 16t87 42 l40 301q1 10 -4 20t-27.5 20t-66.5 20t-119 22l6 43h461z" />
<glyph unicode="H" horiz-adv-x="1235" d="M578 1217q-63 -14 -101 -31t-41 -31l-61 -450h556l62 450q2 12 -29 30t-94 32l4 43h412l-6 -43q-63 -14 -101 -31t-40 -31l-146 -1051q-2 -12 29 -29.5t96 -31.5l-6 -43h-410l7 43q63 14 100 30.5t39 30.5l70 510h-556l-69 -510q-3 -12 28.5 -29.5t94.5 -31.5l-6 -43 h-410l6 43q63 14 101 30.5t40 30.5l146 1051q2 12 -29 30t-96 32l6 43h410z" />
<glyph unicode="I" horiz-adv-x="573" d="M598 1217q-63 -14 -101 -31t-40 -31l-146 -1051q-2 -12 29 -29.5t96 -31.5l-6 -43h-410l7 43q63 14 100.5 30.5t40.5 30.5l143 1051q2 12 -29 30t-94 32l7 43h409z" />
<glyph unicode="J" horiz-adv-x="578" d="M623 1217q-63 -14 -101.5 -31t-40.5 -31l-131 -950q-16 -119 -42 -198.5t-58.5 -134.5t-70.5 -92t-79 -69q-27 -21 -58.5 -38t-63 -29t-58.5 -18.5t-45 -6.5q-28 0 -53 9.5t-44 22t-30.5 26t-11.5 22.5q0 10 14.5 27t34 33t40 28t32.5 12q10 0 20.5 -9t25 -19.5 t35.5 -19.5t52 -9q24 0 53 17t58 61t54.5 120t41.5 193l141 1022q1 6 -5.5 13t-25 15t-52 16.5t-87.5 17.5l4 43h457z" />
<glyph unicode="K" horiz-adv-x="1102" d="M578 1217q-63 -14 -101 -31t-41 -31l-69 -507l458 480q25 26 33 42t0.5 25.5t-30 14t-56.5 7.5l6 43h383l-6 -43q-31 -4 -54.5 -8t-42.5 -11t-35 -17t-32 -26l-485 -484l350 -515q14 -21 30 -32t38.5 -12.5t55 7.5t79.5 28l18 -36q-38 -29 -74.5 -52.5t-69 -39.5 t-60 -24.5t-46.5 -8.5q-15 0 -27.5 2.5t-23.5 10t-22 20t-23 32.5l-366 586l-72 -533q-3 -12 28.5 -29.5t94.5 -31.5l-6 -43h-410l6 43q63 14 101 30.5t40 30.5l146 1051q2 12 -29 30t-96 32l6 43h410z" />
<glyph unicode="L" horiz-adv-x="918" d="M848 244q-20 -87 -40.5 -151t-33.5 -93h-774l6 43q63 14 101 30.5t40 30.5l146 1051q2 12 -29 30t-96 32l6 43h410l-6 -43q-63 -14 -101 -31t-41 -31l-137 -1001q-2 -18 4 -30.5t24.5 -20t51 -10.5t82.5 -3h127q42 0 71.5 5t53.5 22.5t46 51.5t50 93z" />
<glyph unicode="M" horiz-adv-x="1511" d="M1532 1217q-27 0 -62 -9.5t-71 -26.5l-121 -1077q-2 -12 31 -29.5t98 -31.5l-6 -43h-410l6 43q63 14 103.5 30.5t42.5 30.5l108 955l-540 -1059h-41l-278 1047l-136 -943q-2 -12 28 -29.5t95 -31.5l-6 -43h-369l6 43q65 14 101.5 30.5t38.5 30.5l156 1075 q-31 21 -64.5 29.5t-59.5 8.5l6 43h265q8 0 13.5 -3t10 -12t9.5 -25.5t12 -43.5l249 -895l459 895q14 27 23.5 43.5t17 25.5t14 12t15.5 3h260z" />
<glyph unicode="N" horiz-adv-x="1239" d="M1288 1217q-66 -10 -99.5 -27.5t-35.5 -34.5l-164 -1186q-21 3 -38 7t-31 12t-26 21.5t-24 35.5l-497 959l-123 -900q-3 -12 25 -31t96 -30l-6 -43h-365l6 43q68 9 101.5 28t35.5 33l146 1050q-26 30 -57 42.5t-74 20.5l6 43h178q22 0 34.5 -1t22 -8.5t17.5 -23.5l24 -45 l484 -924l123 897q1 6 -5 14.5t-20.5 17t-38.5 16.5t-59 14l6 43h364z" />
<glyph unicode="O" horiz-adv-x="1116" d="M936 756q0 84 -18 158.5t-53 130t-86 88t-117 32.5q-76 0 -136.5 -29.5t-107.5 -78.5t-80 -114t-54.5 -135t-31.5 -141.5t-10 -134.5q0 -93 19.5 -172.5t55.5 -137t86.5 -90t112.5 -32.5q77 0 138.5 31t108 82.5t79.5 119t54 140.5t30.5 146.5t9.5 136.5zM1085 774 q0 -71 -11.5 -144t-35 -144t-58 -137.5t-79.5 -123.5q-42 -54 -89.5 -100.5t-101 -81t-113 -54.5t-126.5 -20q-96 0 -167.5 41t-119 111.5t-71 164.5t-23.5 199q0 63 11.5 133.5t33 141t52.5 137t71 121.5q42 56 90.5 105.5t104 86.5t118.5 58.5t134 21.5q98 0 170 -41 t118.5 -111.5t69 -164.5t22.5 -199z" />
<glyph unicode="P" horiz-adv-x="965" d="M975 942q0 -85 -33 -159.5t-90.5 -129.5t-134.5 -86.5t-164 -31.5q-38 0 -77 9.5t-66 24.5l-11 74q34 -14 67.5 -23.5t65.5 -9.5q66 0 121 21.5t94.5 60.5t61.5 93.5t22 119.5q0 84 -27 141.5t-73 93t-107 51t-128 15.5h-27q-13 0 -26 -1l-150 -1101q-2 -6 4 -13t23 -15 t47 -16t77 -17l-6 -43h-438l6 43q63 14 101 30.5t40 30.5l149 1091q-35 -5 -73 -12t-82 -18v60q42 15 86.5 27.5t95.5 20.5t109.5 12.5t126.5 4.5q96 0 173 -22t131 -66t83 -109t29 -151z" />
<glyph unicode="Q" horiz-adv-x="1135" d="M936 756q0 84 -18 158.5t-53 130t-86 88t-117 32.5q-76 0 -136.5 -29.5t-107.5 -78.5t-80 -114t-54.5 -135t-31.5 -141.5t-10 -134.5q0 -93 19.5 -172.5t55.5 -137t86.5 -90t112.5 -32.5q77 0 138.5 31t108 82.5t79.5 119t54 140.5t30.5 146.5t9.5 136.5zM1104 -117 q-29 -44 -57 -77.5t-53.5 -56t-46.5 -34.5t-36 -12q-56 0 -106 29t-98 71t-95.5 88.5t-97.5 80.5q-21 -3 -43 -3q-96 0 -167.5 41t-119 111.5t-71 164.5t-23.5 199q0 63 11.5 133.5t33 141t52.5 137t71 121.5q42 56 90.5 105.5t104 86.5t118.5 58.5t134 21.5q98 0 170 -41 t118.5 -111.5t69 -164.5t22.5 -199q0 -71 -11.5 -144t-35 -144t-58 -137.5t-79.5 -123.5q-54 -69 -115.5 -124.5t-133.5 -90.5q39 -24 76 -54l72 -55q35 -26 69.5 -43.5t68.5 -17.5q12 0 24.5 4t29 13t38.5 24l53 37z" />
<glyph unicode="R" horiz-adv-x="1077" d="M1077 109q-39 -26 -77 -48.5t-70 -39t-57.5 -26t-38.5 -9.5q-17 0 -32.5 5t-31 19.5t-32.5 40t-36 66.5l-226 472q-29 2 -59.5 6t-55.5 10l-68 -501q-3 -12 28.5 -29.5t94.5 -31.5l-6 -43h-410l6 43q63 14 101 30.5t40 30.5l149 1089q-39 -5 -77.5 -11.5t-77.5 -14.5v60 q45 13 90.5 24.5t95.5 20t107 13.5t125 5q88 0 159.5 -20.5t122.5 -61t79 -100t28 -137.5q0 -39 -17.5 -95.5t-57 -112t-103.5 -102t-158 -64.5l234 -413q18 -32 34.5 -49t39 -21t55.5 5t84 28zM514 1206h-36q-18 0 -35 -1l-72 -527q29 -8 57.5 -12t56.5 -4q63 0 121 17.5 t102 52t70.5 87t26.5 123.5q0 74 -27.5 124.5t-70 81.5t-94 44.5t-99.5 13.5z" />
<glyph unicode="S" horiz-adv-x="899" d="M872 1198q4 -3 0 -13.5t-12.5 -24.5t-21 -30t-25.5 -30.5t-24.5 -25.5t-18.5 -15l-29 6q-17 24 -38 45.5t-46 38.5t-52.5 27t-57.5 10q-54 0 -96 -17.5t-70.5 -45t-43.5 -61.5t-15 -67q0 -22 7 -46t29 -50t62.5 -55.5t107.5 -63.5q79 -41 134 -78t89 -76.5t49 -84.5 t15 -101q0 -94 -39 -179t-105.5 -150t-155 -103.5t-187.5 -38.5q-38 0 -86.5 13t-92 34t-73 47t-29.5 52q0 12 12 35t28.5 46.5t35 40.5t31.5 17q12 0 29 -24.5t44.5 -54.5t68 -54.5t99.5 -24.5q61 0 113.5 20.5t91.5 56t61.5 83.5t22.5 104q0 41 -12 76.5t-42 69t-80 66.5 t-126 69q-66 31 -109 66.5t-67.5 72t-34.5 74.5t-10 74q0 66 30.5 131t86 116t134 83t175.5 32q72 0 133.5 -27.5t109.5 -64.5z" />
<glyph unicode="T" horiz-adv-x="1067" d="M684 0h-446l6 43q86 19 121.5 38.5t37.5 33.5l147 1054h-271q-13 0 -24.5 -5.5t-25.5 -23.5t-33 -52.5t-46 -92.5l-37 19q3 26 9.5 58.5t15 66t18 65t18.5 56.5h922l22 -25q-4 -24 -10 -54.5t-14 -62.5l-16 -63q-9 -31 -17 -56h-41q-2 50 -6 83t-11.5 52.5t-20 27 t-32.5 7.5h-257l-144 -1054q-2 -13 29 -33t112 -39z" />
<glyph unicode="U" horiz-adv-x="1227" d="M1280 1217q-63 -14 -98 -31t-37 -31l-90 -643q-18 -131 -61 -232.5t-107 -170.5t-147.5 -104.5t-182.5 -35.5q-82 0 -150.5 25t-117.5 73t-76 118.5t-27 162.5q0 53 9 115l98 692q2 12 -29 30t-96 32l6 43h410l-6 -43q-63 -14 -101.5 -31t-40.5 -31l-88 -645 q-4 -29 -5 -58t-1 -55q0 -70 17 -127t50.5 -98t83.5 -63.5t115 -22.5t120 32t97 85t69.5 122t37.5 144l92 686q2 12 -26 30t-93 32l6 43h375z" />
<glyph unicode="V" horiz-adv-x="1214" d="M1298 1217q-63 -13 -100.5 -25.5t-50.5 -40.5l-500 -1092q-10 -22 -30 -38t-43 -26.5t-44.5 -16.5t-33.5 -9l-240 1182q-5 26 -31.5 42t-85.5 24l6 43h398l-6 -43q-72 -5 -102 -20t-23 -46l190 -956l440 956q14 29 -18 42.5t-104 23.5l6 43h379z" />
<glyph unicode="W" horiz-adv-x="1571" d="M1665 1217l-55 -13q-26 -6 -46 -13t-33.5 -15.5t-17.5 -20.5l-360 -1096q-8 -22 -25.5 -38t-38 -26.5t-41 -16.5t-32.5 -9l-165 977l-384 -887q-10 -23 -30 -38.5t-42 -26t-43 -16.5t-33 -9l-73 1178q-2 25 -27 41t-90 29l6 43h391l-6 -43q-44 -5 -71 -12.5t-41.5 -16.5 t-19 -19.5t-3.5 -21.5l59 -893l437 1006h55l180 -1006l293 901q4 12 -4.5 21t-26.5 16t-43.5 13t-56.5 12l6 43h385z" />
<glyph unicode="X" horiz-adv-x="1171" d="M1085 0h-411l6 43q40 4 66 10.5t38.5 16t13 23.5t-9.5 34l-208 421l-293 -421q-31 -44 -2 -61t112 -23l-6 -43h-411l6 43q60 5 105 23.5t73 60.5l364 527l-235 479q-12 22 -23 36t-26 23t-35.5 14.5t-50.5 10.5l6 43h411l-6 -43q-78 -8 -105 -24t-5 -60l180 -365l256 365 q16 23 16 37.5t-15 24t-43.5 14.5t-68.5 8l7 43h411l-6 -43q-33 -4 -59 -9.5t-47.5 -15t-39 -24t-32.5 -35.5l-329 -467l267 -539q10 -21 23 -35.5t29.5 -24t37 -15t46.5 -9.5z" />
<glyph unicode="Y" horiz-adv-x="1145" d="M733 0h-446l6 43q87 19 122.5 38.5t37.5 33.5l59 436q-18 73 -47 157.5t-63.5 167t-71 156t-70.5 123.5q-10 15 -21.5 24t-28 13.5t-40.5 4t-59 -4.5l-9 43q27 7 59.5 14t64.5 13t60.5 10t47.5 4q26 0 51 -39q22 -33 46 -78t48.5 -96.5t47 -105t42 -105t34 -96.5 t22.5 -78l309 473q17 28 -5.5 42t-90.5 24l6 43h360l-6 -43q-63 -13 -98.5 -26.5t-52.5 -39.5l-390 -609l-59 -427q-1 -6 5.5 -14.5t23 -18.5t44 -20t68.5 -19z" />
<glyph unicode="Z" horiz-adv-x="1022" d="M242 100h485q20 0 38 9.5t36.5 34t39 66.5t46.5 107l49 -14l-13 -73l-14 -82l-14 -80l-12 -68h-834l-18 45l790 1122h-422q-15 0 -34.5 -11t-41 -35t-42.5 -63t-39 -95l-52 12l72 311q24 -10 44 -15t40 -7.5t41 -3t47 -0.5h572l18 -46z" />
<glyph unicode="[" horiz-adv-x="586" d="M686 1573q-6 -25 -17.5 -49.5t-19.5 -36.5h-262l-240 -1708h256l29 -29q-6 -20 -16.5 -44.5t-20.5 -41.5h-393l272 1935h385z" />
<glyph unicode="\" horiz-adv-x="819" d="M647 -336l-27 10l-32 12q-17 7 -31.5 14.5t-21.5 14.5l-390 1862l37 22q28 -8 58 -20t55 -29l387 -1861z" />
<glyph unicode="]" horiz-adv-x="586" d="M328 -336h-385l-29 29q8 23 18.5 48t18.5 38h262l240 1708h-254l-29 26q6 22 17 45.5t20 40.5h391z" />
<glyph unicode="^" horiz-adv-x="938" d="M854 635q-28 -23 -52.5 -38.5t-58.5 -31.5l-30 27l-160 723l-330 -680q-11 -10 -26 -20.5t-30.5 -20t-29.5 -16.5l-24 -13l-19 27l422 870q13 12 31 24l37 25q19 12 37 22t32 17z" />
<glyph unicode="_" horiz-adv-x="893" d="M731 -156q-6 -21 -17.5 -46t-21.5 -44h-729l-16 27q6 20 17 44t24 44h725z" />
<glyph unicode="`" horiz-adv-x="606" d="M565 1047q-20 -12 -32 -16t-30 -5l-250 386l32 36q12 2 30.5 4t39 3.5t39.5 2.5t32 1z" />
<glyph unicode="a" horiz-adv-x="922" d="M603 431l15 93l18 94l14 82l11 60q-15 12 -33 24.5t-38.5 23t-43 17t-46.5 6.5q-46 0 -86.5 -22.5t-75 -59.5t-62 -84.5t-46.5 -98t-29.5 -99.5t-10.5 -88q0 -65 11 -117t30 -89t45 -57t56 -20q24 0 58.5 30.5t72 79t74.5 108t66 117.5zM901 68q-87 -57 -140.5 -83 t-82.5 -26q-18 0 -34.5 12.5t-29.5 47t-20.5 95.5t-7.5 158q-26 -46 -63.5 -100.5t-80.5 -102t-88.5 -79t-87.5 -31.5q-33 0 -70.5 19t-69 60.5t-52.5 107t-21 159.5q0 79 18.5 154.5t55.5 144.5t90.5 129.5t124.5 108.5q27 18 59.5 35t67 30t68.5 21t65 8q21 0 41 -5.5 t39 -14.5t36 -20l32 -20q23 17 49 32t53 28l20 -35q-17 -14 -28 -25t-19.5 -25.5t-14.5 -35.5t-13 -55q-15 -72 -28.5 -147.5t-23 -142.5t-15 -118t-5.5 -73q0 -57 3.5 -96t9.5 -62.5t15 -34t21 -10.5q20 0 47.5 5.5t67.5 22.5z" />
<glyph unicode="b" horiz-adv-x="956" d="M604 803q-19 0 -55 -24.5t-79.5 -69t-89 -105t-82.5 -132.5q-11 -72 -16.5 -128.5t-5.5 -87.5q0 -26 15.5 -56t41.5 -55.5t58.5 -42t67.5 -16.5q36 0 67 13t57.5 33.5t47.5 46t37 50.5q23 36 37 75t22 78t11 76.5t3 71.5q0 69 -12.5 120.5t-32 85.5t-44 50.5t-48.5 16.5z M885 610q-2 -106 -31.5 -213.5t-101.5 -208.5q-34 -45 -75.5 -86.5t-90.5 -73t-105 -50.5t-119 -19q-21 0 -46.5 10.5t-52 29.5t-52 44t-45 53.5t-31.5 59.5t-12 61q0 26 6.5 82t17 131l23.5 163l28 179l26 182q14 89 24.5 166t17 136t6.5 90q0 23 -5 36.5t-13 20t-17 8.5 t-18 2t-25 -5l-34 -9l-41 -13l-13 39q42 19 86 36t82.5 30t67.5 21t41 8q28 0 38.5 -18t10.5 -64q0 -31 -5 -81.5t-13.5 -115t-19.5 -139.5l-24 -156l-26 -162l-24 -157q51 86 105.5 145t105.5 95.5t95.5 52.5t75.5 16q39 0 73 -21.5t58.5 -62.5t38.5 -102t13 -140z" />
<glyph unicode="c" horiz-adv-x="795" d="M813 815l-45 -32q-23 -17 -45 -30.5t-41.5 -22.5t-32.5 -9q-11 0 -27 17l-38 38q-21 21 -48 38t-59 17q-46 0 -84 -22t-69 -59t-54.5 -85.5t-39 -101t-23.5 -105.5t-8 -100q0 -65 14.5 -117t40.5 -88.5t62 -56.5t79 -20q18 0 46 6t64.5 22.5t81.5 44.5t99 72 q8 -11 17 -22t14 -19q-78 -71 -140 -114.5t-112.5 -67t-91 -31.5t-76.5 -8q-34 0 -76 17t-79.5 59t-63 112t-25.5 175q0 67 14 138.5t45.5 140t82 130.5t124.5 111q28 18 62 35t70.5 30t72 21t66.5 8q44 0 78.5 -17t61.5 -38.5t47.5 -41t35.5 -24.5z" />
<glyph unicode="d" horiz-adv-x="969" d="M621 424l21 136l26 162l-36 38q-20 19 -42.5 35t-47.5 26t-53 10q-46 0 -85.5 -22.5t-73 -59.5t-59.5 -84.5t-44 -98t-27.5 -99.5t-9.5 -88q0 -65 13.5 -117t35.5 -89t50 -57t57 -20q27 0 60 25t68.5 69.5t73 104.5t73.5 129zM924 68q-85 -57 -139.5 -83t-88.5 -26 q-19 0 -35 15.5t-27.5 53t-18.5 99.5t-7 154q-34 -63 -73.5 -121t-82.5 -103t-88 -71.5t-88 -26.5q-34 0 -73 20.5t-72.5 64t-55.5 111t-22 160.5q0 79 17 153.5t51.5 142t87 126t123.5 105.5q28 18 60.5 34.5t66.5 30t68 21.5t65 8q25 0 51 -16t52 -37l23 143l18 130.5 t13 109.5t5 80q0 23 -3.5 36.5t-10 20t-14.5 8.5t-17 2t-27 -5l-35 -9l-45 -13l-12 39q42 19 84.5 36t79 30t64.5 21t40 8q28 0 41.5 -18t13.5 -64q0 -39 -7 -101t-18.5 -139l-25.5 -164l-30 -176l-30 -174l-26 -160q-12 -74 -19 -132.5t-7 -92.5q0 -116 11 -168.5t34 -52.5 q26 0 53.5 5.5t62.5 20.5z" />
<glyph unicode="e" horiz-adv-x="805" d="M391 782q-33 -30 -64.5 -73t-57 -93t-42.5 -104.5t-21 -107.5q131 51 207.5 92.5t115.5 78.5t50 71t11 69q0 31 -8 53.5t-21 36t-29.5 20t-33.5 6.5q-16 0 -47 -11.5t-60 -37.5zM750 760q0 -28 -6.5 -59t-27 -64t-57 -69t-97 -74.5t-147.5 -80t-208 -86.5 q6 -56 23.5 -102t41 -79t51 -51.5t54.5 -18.5q21 0 51 4.5t69.5 19.5t89 44t109.5 77q11 -6 19.5 -19.5t11.5 -21.5q-82 -71 -145 -114.5t-112.5 -67t-89 -31.5t-75.5 -8q-33 0 -75 18.5t-79 59t-62.5 106t-25.5 160.5q0 78 19 153.5t54.5 145t87.5 131.5t118 113 q23 18 52 34.5t60.5 29t64 19.5t63.5 7q43 0 74.5 -15.5t52.5 -40.5t31 -56.5t10 -63.5z" />
<glyph unicode="f" horiz-adv-x="559" d="M903 1403l-45 -33q-24 -17 -47 -31.5t-42.5 -24t-31.5 -9.5q-13 0 -26 17l-29 39q-16 21 -37 38.5t-49 17.5q-38 0 -67 -22.5t-51 -60t-38 -86t-27 -100.5t-18 -103t-12 -93l-6 -47h256l20 -28q-10 -14 -27 -30.5t-36 -31.5t-36.5 -27.5t-27.5 -17.5q-5 14 -15.5 22.5 t-28.5 13.5t-45 7t-64 2h-6l-72 -622q-13 -110 -44.5 -212.5t-79 -191t-109.5 -159t-136 -115.5l-26 63q50 28 90.5 88t71 138t50.5 165.5t29 169.5l78 676h-151l-15 31l101 59h75q10 80 23.5 154t38 140t65 123.5t103.5 104.5l52 36q25 17 51 30t53.5 20t58.5 7 q44 0 79.5 -16.5t63.5 -37t49.5 -39.5t36.5 -24z" />
<glyph unicode="g" horiz-adv-x="911" d="M338 96q21 0 57 33.5t77.5 89.5t84 130t75.5 155l8 80q5 41 13 88q3 21 8.5 40t12.5 36l-33 26q-18 14 -39.5 27t-46.5 21.5t-53 8.5q-46 0 -87 -22.5t-75.5 -59.5t-62 -84.5t-47 -98t-30 -99.5t-10.5 -88q0 -65 12 -117t32 -89t47 -57t57 -20zM879 901 q-34 -28 -53.5 -69t-28.5 -113q-14 -119 -20.5 -217t-11 -183.5t-11 -163t-20.5 -154.5q-18 -104 -63.5 -195t-108 -159t-138 -107.5t-153.5 -39.5q-42 0 -90.5 12.5t-89.5 30.5t-68.5 39t-27.5 39q0 17 13 38.5t30 40t33.5 31.5t23.5 13q8 0 17 -10l20 -24 q13 -15 30.5 -32.5t42.5 -32t60 -24.5t82 -10q97 0 154 87t86 254q9 56 14.5 105.5t9 96t5.5 90.5l4 92q-32 -63 -74.5 -129.5t-90 -121.5t-96.5 -90.5t-93 -35.5q-33 0 -70.5 19t-70 60.5t-53.5 107t-21 159.5q0 79 18 154.5t54.5 144t91.5 129t129 109.5q28 18 60 35 t66 30t67.5 21t64.5 8q22 0 43 -6.5t40.5 -16.5t36.5 -22l34 -22q23 22 48.5 38t51.5 29z" />
<glyph unicode="h" horiz-adv-x="1012" d="M969 72q-93 -54 -153.5 -83.5t-102.5 -29.5q-29 0 -51.5 31.5t-22.5 85.5q0 18 6.5 64.5t16.5 108.5l20 132l20 133q10 63 16.5 113t6.5 73q0 38 -3 63.5t-10.5 41.5t-21 22.5t-35.5 6.5q-13 0 -46 -15.5t-75.5 -47t-88 -78.5t-83.5 -111q-27 -48 -45 -119.5t-32 -161.5 q-9 -55 -14 -97t-7.5 -74.5t-3 -58t1.5 -46.5q-13 -7 -32 -15l-40 -18l-40 -18q-19 -8 -31 -15l-33 31l22 134l30 174l32 202l32 212l30 206q15 100 25.5 184.5t17 148t6.5 95.5q0 23 -3.5 36.5t-9 20t-13 8.5t-15.5 2q-10 0 -28 -5l-39 -9l-48 -13l-12 39q42 19 84.5 36 t79.5 30t65 21t41 8q28 0 43.5 -18t15.5 -64q0 -24 -6 -79.5t-15.5 -127.5t-21.5 -154l-23 -159l-22 -140l-16 -100q58 72 115 121.5t111 79.5t103.5 43.5t94.5 13.5q63 0 90 -39.5t27 -136.5q0 -35 -6.5 -87t-16.5 -112l-20 -124l-20 -121q-10 -58 -16.5 -105.5t-6.5 -75.5 q0 -34 12 -46.5t24 -12.5q28 0 58 8.5t67 24.5z" />
<glyph unicode="i" horiz-adv-x="504" d="M455 72l-85 -49q-37 -21 -68 -35.5t-56 -21.5t-47 -7q-34 0 -54 31.5t-20 85.5q0 30 7.5 85.5t18.5 122.5l24 142l24 140q11 66 18.5 118t7.5 76q0 23 -3 36.5t-8 20t-13 8.5t-17 2q-8 0 -24.5 -3.5t-33.5 -8.5q-19 -5 -42 -12l-14 37l84 36q41 18 77 31t63 21t40 8 q28 0 39.5 -19t11.5 -65q0 -29 -7.5 -85.5t-19.5 -126.5l-25 -146l-25 -147q-12 -70 -19.5 -126.5t-7.5 -85.5q0 -31 6.5 -45t23.5 -14q31 0 59.5 8t69.5 25zM482 1262q0 -28 -8.5 -55.5t-24.5 -50t-39 -36.5t-51 -14q-31 0 -48 18t-17 52q0 27 9 54.5t25 50.5t38.5 37.5 t50.5 14.5q31 0 48 -18.5t17 -52.5z" />
<glyph unicode="j" horiz-adv-x="502" d="M375 870q0 -11 -2.5 -38.5t-6.5 -64.5l-8 -79l-10 -84l-8 -74q-4 -35 -6 -57q-4 -35 -8 -79.5t-10 -96.5l-13 -111q-7 -58 -17 -120q-20 -117 -49.5 -196.5t-64.5 -134t-74.5 -91t-80.5 -68.5q-27 -21 -59 -35.5t-63 -23.5t-58 -13t-45 -4q-28 0 -59 8t-57 20t-43 25 t-17 23q0 13 13 34t31 40.5t36.5 34t28.5 14.5q8 0 20 -13t32 -28t50 -28t74 -13q85 0 140 103t87 291q13 74 22 141t15 124t10 101.5t7 73.5q1 16 4 42.5t6 56.5l6 64l7 61q3 29 4.5 51.5t1.5 33.5q0 23 -3 36.5t-8.5 20t-13 8.5t-16.5 2t-25.5 -3.5t-33.5 -8.5 q-19 -5 -41 -12l-15 37l84 36q42 18 78 31t63 21t39 8q28 0 42 -12t14 -54zM458 1262q0 -28 -9 -55.5t-25.5 -50t-39.5 -36.5t-51 -14q-64 0 -64 70q0 27 8.5 54.5t24.5 50.5t38.5 37.5t51.5 14.5q31 0 48.5 -18.5t17.5 -52.5z" />
<glyph unicode="k" horiz-adv-x="899" d="M440 1417q0 -39 -6 -97.5t-15.5 -131.5t-22.5 -156l-27 -172l-29 -178l-27 -175l215 163q69 52 113 89t56.5 59.5t-11 32t-90.5 7.5l-4 39q59 8 113.5 20.5t117.5 12.5q48 0 62 -14t14 -48q0 -15 -21.5 -42t-63 -63.5t-100.5 -79.5t-134 -89l-117 -71q26 -32 53 -77.5 t53 -95.5l51 -98q26 -49 50 -88t46 -63.5t42 -24.5q23 0 49.5 2.5t64.5 23.5l17 -34q-66 -56 -115.5 -81.5t-87.5 -25.5q-36 0 -70 34t-66.5 87t-63.5 117l-60 124q-30 60 -58 108.5t-55 69.5q-13 -85 -23.5 -162t-17 -139.5t-7.5 -107t5 -65.5q-14 -7 -34 -16l-42 -19 l-41 -18q-20 -8 -32 -15l-35 31q4 29 14 94l24 154l32 195l35 216l33 218q17 108 29.5 201t20 165t7.5 110q0 25 -3 39t-9 21t-15 8.5t-21 1.5q-8 0 -26 -4.5t-36 -9.5l-46 -13l-14 39q42 19 85 36t80 30t65 21t40 8q14 0 25 -3t18.5 -13.5t11.5 -31t4 -55.5z" />
<glyph unicode="l" horiz-adv-x="481" d="M436 72q-49 -31 -86.5 -52.5t-68 -35t-56.5 -19.5t-51 -6q-28 0 -50 30t-22 89q0 25 7.5 85t19.5 143l27 182l32 204l32 206l27 190t19.5 155.5t7.5 102.5q0 23 -4.5 36.5t-11.5 20t-16.5 8.5t-18.5 2q-8 0 -25.5 -4.5t-34.5 -9.5l-44 -13l-15 39q42 19 84.5 36t79 30 t64.5 21t41 8q28 0 44.5 -18t16.5 -64q0 -39 -7.5 -108t-19.5 -157.5t-28 -190.5l-32 -205l-32 -205q-16 -100 -28 -186t-19.5 -151.5t-7.5 -99.5t9.5 -46.5t25.5 -12.5q23 0 53.5 8t75.5 25z" />
<glyph unicode="m" horiz-adv-x="1477" d="M1413 72q-93 -54 -154 -83.5t-104 -29.5q-29 0 -49.5 31.5t-20.5 85.5q0 18 7 63l17 105q10 61 22.5 130t22.5 134.5t17 121.5t7 89q0 62 -12.5 88.5t-30.5 26.5q-19 0 -48 -13.5t-64 -42t-74.5 -73t-78.5 -105.5q-22 -35 -36.5 -69t-24 -70.5t-16.5 -76.5l-15 -89 q-14 -91 -17.5 -156t-0.5 -114q-14 -7 -34 -15l-41 -18l-41 -18q-19 -8 -32 -15l-32 31q22 102 42.5 212t36.5 208.5t25.5 175.5t9.5 114q0 76 -15.5 105t-43.5 29q-13 0 -40 -13t-62 -41.5t-74.5 -72.5t-77.5 -105q-21 -32 -35.5 -66t-25 -71.5t-19 -79.5t-16.5 -90 q-16 -91 -20.5 -156.5t-2.5 -113.5q-13 -7 -32 -15l-40 -18l-40 -18q-19 -8 -31 -15l-33 31l28 146l26 153l23 149q11 72 19 134t12.5 110.5t4.5 77.5q0 23 -3 36.5t-8.5 21t-12.5 9.5t-15 2q-10 0 -27.5 -4t-35.5 -9l-44 -13l-12 39l84 35q42 17 78 30t63 21t39 8 q15 0 24 -5t13.5 -17.5t6 -35t1.5 -57.5q0 -11 -1.5 -27.5t-3 -36t-4 -40.5t-3.5 -39q59 70 110.5 119.5t98 80t89 44.5t83.5 14q37 0 62 -15t39 -40t20 -56.5t6 -64.5q0 -19 -1 -34.5t-3 -37.5q58 67 107 114t91.5 77t81 43.5t76.5 13.5q29 0 53 -9.5t41 -30.5t26 -54.5 t9 -81.5q0 -38 -6.5 -91.5t-16.5 -113.5l-21 -123l-21 -120q-10 -56 -16.5 -102.5t-6.5 -74.5q0 -34 10 -45.5t27 -11.5q29 0 57.5 7.5t69.5 23.5z" />
<glyph unicode="n" horiz-adv-x="1012" d="M973 72q-91 -54 -154.5 -83.5t-101.5 -29.5q-35 0 -54.5 31.5t-19.5 85.5q0 18 6.5 64.5t16.5 108.5l22 132l22 133q10 63 16.5 113t6.5 73q0 76 -16 106t-60 30q-13 0 -45.5 -16t-73.5 -48t-85.5 -80t-81.5 -112q-28 -48 -45.5 -115t-34.5 -164q-16 -89 -20.5 -153 t-2.5 -123q-13 -7 -32 -15l-40 -18l-40 -18q-19 -8 -31 -15l-33 31q14 66 28 143l26 155l23 152.5t19 139t12.5 111.5t4.5 71t-2.5 36.5t-7 20t-11.5 8.5t-16 2t-26.5 -4t-35.5 -9l-45 -13l-14 39l85 35q42 17 79 30t64.5 21t39.5 8q14 0 22 -4.5t11.5 -16.5t4.5 -34t1 -58 q0 -11 -1 -30t-2.5 -40.5t-3.5 -42t-3 -32.5q54 68 109 117t108 80.5t102.5 46t94.5 14.5q31 0 55.5 -9t40.5 -29.5t24.5 -54t8.5 -81.5q0 -35 -6.5 -87t-16.5 -112.5t-22 -124.5l-22 -122q-10 -58 -16.5 -105.5t-6.5 -75.5q0 -34 9 -46.5t27 -12.5q23 0 53 8t72 25z" />
<glyph unicode="o" horiz-adv-x="864" d="M668 504q0 153 -56 234t-159 81q-72 0 -121 -41.5t-79 -104.5t-43 -136.5t-13 -137.5q0 -67 16.5 -126.5t46 -104t69 -70.5t85.5 -26t82.5 20.5t65 55t48.5 79t33 92.5t19 96t6 89zM811 559q0 -67 -15 -135.5t-44 -133t-71.5 -123t-98.5 -104.5q-26 -21 -55 -40 t-59 -33.5t-61 -22.5t-61 -8q-70 0 -124.5 29.5t-92 81t-57 122t-19.5 152.5q0 72 12 138.5t39 128.5t72 119t111 110q51 40 112 68t123 28q78 0 133 -28t89.5 -78t50.5 -119t16 -152z" />
<glyph unicode="p" horiz-adv-x="965" d="M610 805q-27 0 -68 -25t-86 -70.5t-89 -109t-76 -140.5l-25 -146q15 -30 42 -66.5t62 -68t75 -52.5t81 -21q54 0 95.5 29.5t64.5 83.5q18 39 29 81.5t16 84t6.5 79.5t1.5 68q0 70 -11 121.5t-29.5 85t-41.5 50t-47 16.5zM348 870q0 -30 -6.5 -84t-20.5 -142 q64 99 120 157t102.5 88t84.5 38.5t68 8.5q39 0 73 -20t60 -59.5t41 -97t15 -132.5q0 -100 -28 -212t-91 -227q-23 -40 -52.5 -80.5t-64.5 -73.5t-74.5 -54t-82.5 -21q-34 0 -66.5 20.5t-64 53.5t-60.5 75t-55 84l-31 -186q-34 -206 -42 -315.5t3 -137.5q-15 -4 -35 -11 l-41 -14q-22 -7 -41.5 -14.5t-32.5 -13.5l-32 29q4 29 14 90l26 143l31 179l35 197l34 198l28.5 181.5t20 147t7.5 95.5q0 23 -4 36.5t-11 20t-15 8.5t-17 2t-25.5 -3.5t-33.5 -8.5q-19 -5 -41 -12l-14 37q42 19 85 36.5t80.5 30.5t66 21t40.5 8q20 0 33.5 -13.5t13.5 -52.5 z" />
<glyph unicode="q" horiz-adv-x="918" d="M348 96q26 0 61 30t73 78t76.5 108.5t72.5 122.5l54 324q-16 12 -35 24.5t-40.5 23t-46 17.5t-51.5 7q-46 0 -88 -22.5t-78.5 -59.5t-66.5 -84.5t-51.5 -98t-33.5 -99.5t-12 -88q0 -65 15 -117t39 -89t53.5 -57t58.5 -20zM895 901q-17 -14 -28 -25t-19.5 -25.5 t-14.5 -35.5t-12 -55l-45 -268l-42 -262l-36 -240q-17 -113 -26 -203t-10 -151t10 -83q-14 -5 -34 -11l-42 -14q-21 -7 -41 -14.5t-32 -13.5l-35 29q5 38 16 111l26 170l34 212l39 238q-35 -58 -75.5 -112.5t-83.5 -96.5t-85.5 -67t-82.5 -25q-33 0 -72 19t-72.5 60.5 t-56 107t-22.5 159.5q0 79 20.5 155.5t59.5 146t94.5 129.5t126.5 106q28 18 60 35t65.5 30t67 21t65.5 8q22 0 43 -6t41 -15t38 -19l35 -21q23 17 49 32t54 29z" />
<glyph unicode="r" horiz-adv-x="727" d="M768 850q-12 -16 -26 -39l-30 -45q-14 -21 -27 -36t-23 -15q-19 0 -32.5 11t-25 23.5t-23 23.5t-26.5 11q-26 0 -60.5 -35.5t-69 -93t-66 -129t-52.5 -143.5q-11 -38 -19.5 -83.5t-15 -93.5t-9.5 -94.5t-1 -86.5q-13 -7 -32 -15l-40 -18l-40 -18q-19 -8 -31 -15l-33 31 q15 71 29 147t26.5 151.5t23 147.5t18 134t12 111t4.5 79q0 23 -3.5 36.5t-9 20t-13 8.5t-15.5 2q-10 0 -27 -3.5t-34 -8.5q-20 -5 -42 -12l-14 37l85 36q42 18 79 31t64.5 21t39.5 8q14 0 22 -5t11.5 -17.5t4.5 -35t1 -57.5q0 -11 -3 -37t-7 -56.5l-8 -60.5l-8 -49 q48 99 91 161t81.5 97t73.5 47.5t67 12.5q18 0 32.5 -10t29.5 -24l32 -28q17 -15 39 -24z" />
<glyph unicode="s" horiz-adv-x="711" d="M698 844q-20 -23 -39.5 -41.5t-36.5 -32.5t-30.5 -21.5t-20.5 -7.5q-13 0 -27 17l-34 38q-18 21 -42.5 38.5t-57.5 17.5q-28 0 -55 -10.5t-48.5 -29t-35 -45t-13.5 -58.5q0 -35 33.5 -74t114.5 -76q41 -19 82 -44t73.5 -57.5t53 -74t20.5 -94.5q0 -69 -35.5 -129.5 t-91 -105t-123.5 -70t-133 -25.5q-47 0 -93 13.5t-82 34.5t-58.5 45.5t-22.5 45.5q0 11 12 32t28.5 41.5t33.5 36t28 15.5q7 0 14 -13l20 -30q11 -19 27 -41t40 -40.5t56.5 -31t76.5 -12.5q35 0 66.5 13.5t55 36t37 53t13.5 65.5q0 39 -16 70.5t-42.5 57t-61.5 46.5t-73 39 q-53 25 -89 50t-58 51t-31.5 55t-9.5 61q0 63 31 115t80 89.5t109.5 58t119.5 20.5q51 0 86 -12t61.5 -28t46.5 -31t41 -21z" />
<glyph unicode="t" horiz-adv-x="629" d="M580 117q-49 -38 -98 -67.5t-93 -49.5t-79.5 -30.5t-57.5 -10.5q-25 0 -47.5 15t-40 41.5t-27.5 63.5t-10 81q0 19 1 38t2.5 39.5t4 43.5t6.5 51l77 483h-144l-15 31l101 59h72l6 35q6 41 12.5 68t15 45t18.5 29.5t23 21.5l101 72l28 -25q-7 -9 -15 -32q-7 -20 -16.5 -57 t-19.5 -99l-9 -58h249l20 -28q-10 -14 -27.5 -30.5t-36.5 -31.5t-36.5 -27.5t-26.5 -17.5q-6 14 -16.5 22.5t-28.5 13.5t-44.5 7t-63.5 2h-3l-71 -459q-3 -19 -5.5 -40.5t-4 -41t-2 -36.5t-0.5 -27q0 -62 22.5 -91.5t50.5 -29.5q35 0 85.5 15t125.5 49z" />
<glyph unicode="u" horiz-adv-x="1022" d="M975 68q-81 -54 -137.5 -81.5t-94.5 -27.5q-19 0 -37.5 17.5t-32 57.5t-19 104.5t1.5 158.5q-41 -74 -86.5 -136t-94.5 -107t-101 -70t-106 -25q-20 0 -45.5 15.5t-48 46.5t-38 77t-15.5 107q0 30 5.5 76t13.5 99t18 110t18 109t13.5 94.5t5.5 66.5q0 23 -3 36.5t-8.5 20 t-13 8.5t-16.5 2t-26 -3.5t-34 -8.5q-20 -5 -43 -12l-12 37l85 36q42 18 78 31t63.5 21t39.5 8q29 0 39 -19t10 -65q0 -29 -6 -76t-15 -103l-19 -116l-19 -116q-9 -56 -15 -103t-6 -76q0 -96 20.5 -139t57.5 -43q20 0 53 19.5t75 63t91.5 113.5t102.5 171l14 87l15 84 q7 40 11.5 76.5t4.5 65.5q0 23 -2.5 36.5t-7.5 20t-11.5 8.5t-15.5 2t-24.5 -3.5t-31.5 -8.5q-18 -5 -38 -12l-15 37l83 36q41 18 75.5 31t60.5 21t39 8q28 0 37 -19t9 -65q0 -29 -6 -75.5t-15 -102t-20 -116t-20 -117t-15 -105.5t-6 -82q0 -91 13 -134.5t38 -43.5 q26 0 52.5 6.5t62.5 21.5z" />
<glyph unicode="v" horiz-adv-x="913" d="M893 852q0 -32 -22 -95t-73 -165t-134.5 -247.5t-206.5 -342.5q-9 -5 -21 -10l-25 -12l-26 -11q-13 -6 -23 -10l-32 31q-7 56 -17 126l-21 142l-25 148l-25 139q-12 65 -23.5 117t-19.5 83q-8 27 -17 43t-18.5 25t-18.5 11.5t-18 2.5q-10 0 -26 -3.5t-32 -8.5 q-18 -5 -40 -12l-13 37l81 36q39 18 71 31t56 21t36 8q15 0 25.5 -6.5t19 -21.5t17 -39.5t18.5 -59.5q7 -26 18.5 -81t23.5 -124l26 -144l24 -139q10 -65 16.5 -111.5t6.5 -59.5q74 120 130 227t93.5 191.5t56.5 143.5t19 85q0 20 -17 30.5t-45 10.5q-17 0 -37.5 -3.5 t-42.5 -11.5l-18 35q28 15 60.5 29t63.5 25t57.5 17.5t43.5 6.5q35 0 54.5 -18t19.5 -66z" />
<glyph unicode="w" horiz-adv-x="1290" d="M1278 860q0 -27 -5 -62t-18.5 -84t-37.5 -114.5t-62.5 -152t-92.5 -196.5l-130 -249q-9 -5 -20.5 -10.5t-24.5 -11t-25 -11.5t-22 -10l-33 31l-15 122l-18 132l-20 134q-10 67 -20 126t-19.5 107t-18.5 79q-1 -21 -13 -63.5t-32 -99.5t-47 -123t-58 -135t-64.5 -135.5 t-67.5 -123.5l-22 -12l-26 -14l-28 -14q-13 -7 -23 -11l-32 31l-15 124l-14 142l-16 145q-8 73 -16 138t-16.5 118.5t-17.5 87.5q-6 27 -14.5 43t-18 25t-19.5 11.5t-19 2.5t-25 -3.5t-33 -8.5q-19 -5 -41 -12l-14 37l80 36q38 18 69 31t54.5 21t36.5 8q28 0 42 -32.5 t31 -104.5q6 -28 14 -78.5t16.5 -112.5t16.5 -130l15 -128q7 -61 11.5 -110t6.5 -74q40 78 82 170.5t77 186.5t58.5 182.5t28.5 158.5q15 13 32.5 26t35 23t33 16.5t26.5 6.5q4 0 10 -16.5t13 -43.5t14.5 -62.5t14.5 -72.5l14 -74q7 -37 12 -67l16 -104l20 -117l17.5 -120 t13.5 -112q75 138 122.5 243t74 183.5t36 133t9.5 92.5q0 21 -14.5 33t-40.5 12q-14 0 -34 -4t-42 -11l-18 37q34 20 65 33.5t55.5 21.5t41.5 11.5t24 3.5q17 0 32 -2.5t26.5 -10.5t18.5 -23t7 -40z" />
<glyph unicode="x" horiz-adv-x="901" d="M877 72l-76 -52q-33 -21 -59.5 -34.5t-48 -20t-40.5 -6.5q-30 0 -60.5 31.5t-60 84t-59 121t-57.5 142.5l-52 -70l-64 -82l-69 -94l-71 -102q-37 -5 -83 -12.5t-83 -18.5l-23 35q46 40 99 93l108 111l106 118l98 113l-57 148q-28 72 -55.5 127.5t-53.5 89t-50 33.5 q-9 0 -29.5 -4t-41.5 -9l-54 -13l-14 39l81 36l70 30q32 14 54.5 22t33.5 8q27 0 55 -34t57 -90.5t59 -129.5l60 -149l80 100q39 51 69 94.5t48.5 73.5t18.5 37q0 10 -3 18t-13 12t-29.5 4.5t-51.5 -2.5l-2 41q66 14 117 19.5t76 5.5q48 0 67 -16t19 -37q0 -20 -23.5 -54.5 t-69 -88t-113.5 -126.5l-156 -170l55 -138q28 -67 54 -118t51 -81.5t48 -30.5t53.5 7t67.5 26z" />
<glyph unicode="y" horiz-adv-x="926" d="M893 860q0 -34 -18.5 -87.5t-60 -143t-108.5 -222.5l-165 -325q-67 -131 -133.5 -238t-136.5 -183.5t-146 -118.5t-161 -42q-30 0 -56.5 5t-46 12.5t-31 16.5t-11.5 17q0 12 9.5 33.5t23.5 45t30.5 43t30.5 26.5q24 -16 42.5 -25t34.5 -13t32 -4.5t34 -0.5 q81 0 158.5 78.5t161.5 221.5q-10 58 -24.5 131t-31.5 150l-37 155q-19 77 -38 145t-36.5 122.5t-32.5 85.5q-23 51 -39 66.5t-33 15.5q-9 0 -25.5 -3.5t-32.5 -8.5q-19 -5 -40 -12l-12 37l80 36l68 31q31 13 54 21t35 8q14 0 24.5 -7t20.5 -22t19.5 -39.5t21.5 -58.5 q19 -54 41.5 -127.5t45.5 -158.5t45 -176.5t40 -181.5l65 129l62 129l56 123l44.5 107t30.5 84.5t11 53.5q0 50 -53 53q-32 3 -91 -23l-18 37q72 42 126.5 60t88.5 18q17 0 32 -2.5t26 -10.5t17.5 -23t6.5 -40z" />
<glyph unicode="z" horiz-adv-x="776" d="M776 885q-82 -89 -148 -177l-128 -178l-128 -184q-64 -95 -143 -196q3 2 27 9t55 7q20 0 53 -10l74 -21q40 -12 81.5 -21.5t78.5 -9.5q9 0 22 2.5t28 13.5t33 33t38 60l35 -20q-28 -62 -49 -103t-45.5 -65.5t-56.5 -34.5t-81 -10t-93 10.5t-83 23.5l-74 22q-36 11 -67 11 q-16 0 -33 -5t-38.5 -15t-49.5 -25l-66 -33l-22 33q50 60 104 132l107 150l107 152l99 146l87 124q40 55 69 89h-301q-24 0 -40.5 -4.5t-30 -18t-25.5 -39t-27 -67.5l-39 8q19 90 37.5 154.5t26.5 107.5q19 -5 41 -13t57 -8h488z" />
<glyph unicode="{" horiz-adv-x="641" d="M741 1552q-40 -24 -75.5 -55t-64 -68.5t-48 -81.5t-27.5 -96q-8 -58 -6.5 -95t4 -69.5t3 -69.5t-8.5 -95q-6 -42 -23 -82t-43 -75.5t-61.5 -64.5t-77.5 -47q45 -9 74 -31.5t44 -56.5t17 -79.5t-6 -100.5q-8 -60 -20 -102t-24 -79l-24 -74q-11 -37 -18 -87 q-8 -55 -6.5 -97.5t15 -77t40.5 -64t72 -58.5l-28 -61q-73 34 -124 71.5t-80.5 83.5t-38.5 103t1 129q8 59 19.5 97.5t23.5 74t24 76t21 102.5q11 81 -21.5 122.5t-101.5 41.5h-18q-6 0 -11 -0.5t-12 -2t-20 -3.5l-9 53q115 31 179 92.5t75 136.5q6 40 7 69t0.5 52.5t-3 44 t-3 43.5t0.5 52.5t7 70.5q20 136 114 236.5t244 168.5z" />
<glyph unicode="|" horiz-adv-x="410" d="M176 -285q-20 -14 -50 -28.5t-54 -22.5l-29 25l262 1861q28 17 51 29t52 20l30 -22z" />
<glyph unicode="}" horiz-adv-x="641" d="M557 651q-114 -31 -178.5 -91.5t-75.5 -137.5q-6 -41 -7 -69.5t0 -51.5t3 -43t3 -43.5t0 -52.5t-7 -70q-10 -68 -39.5 -127t-76 -110t-108 -93.5t-134.5 -76.5l-19 49q40 24 76 54.5t64 68t47 82t26 96.5q6 39 7.5 67.5t1 52t-2.5 44.5t-2.5 44.5t0.5 52.5t6 69 q6 41 23 81t43.5 75t61.5 63.5t77 46.5q-45 10 -74 32.5t-43.5 56.5t-17 79.5t5.5 101.5q9 59 20.5 101t23.5 79t22.5 74t17.5 86q9 56 8 99t-14.5 77.5t-41.5 63t-73 57.5l31 61q74 -33 124.5 -70.5t80 -83.5t38.5 -102.5t-1 -128.5q-9 -59 -20 -98t-23 -74.5t-23.5 -76 t-19.5 -101.5q-13 -81 19 -122.5t101 -41.5h18q6 0 11 0.5t11.5 2t21.5 4.5z" />
<glyph unicode="~" horiz-adv-x="983" d="M964 774q-27 -49 -64 -101.5t-79.5 -96t-88 -71.5t-89.5 -28q-40 0 -80.5 25t-81.5 55t-81.5 55t-80.5 25q-46 0 -90.5 -39t-93.5 -123l-45 27q26 49 63 101.5t80 96t88.5 71.5t89.5 28q43 0 84.5 -25t82 -55t79 -55t76.5 -25q45 0 90 39t96 121z" />
<glyph unicode="&#xa1;" horiz-adv-x="410" d="M111 748q0 30 10.5 62.5t30 59t46.5 43.5t60 17q40 0 63 -27t23 -72q0 -29 -11.5 -60.5t-31.5 -57.5t-47.5 -43t-58.5 -17q-39 0 -61.5 26.5t-22.5 68.5zM158 -442l-36 -24l-46 -28q-23 -14 -46.5 -25.5t-43.5 -17.5l-37 25l194 1022q20 14 35.5 22.5t38.5 16.5l25 -21z " />
<glyph unicode="&#xa2;" d="M250 510q0 -51 11 -95t30.5 -78.5t46.5 -59.5t58 -38l97 707q-58 -14 -103.5 -60.5t-76.5 -109t-47 -133t-16 -133.5zM586 1050q14 2 28 3.5t27 1.5q44 0 78.5 -16.5t61.5 -37.5t47.5 -40.5t35.5 -24.5q-21 -15 -42 -34l-38 -34q-19 -16 -35 -26.5t-28 -10.5 q-10 0 -20.5 15.5t-27 36t-41 39.5t-60.5 26l-99 -723q18 1 42.5 8t56.5 24t72.5 45t92.5 71q8 -13 17 -23.5t14 -19.5q-55 -50 -99.5 -85.5t-82 -60.5t-68.5 -39.5t-59 -22.5l-19 -140q-9 -8 -15.5 -12.5t-12.5 -7.5t-13.5 -5t-19.5 -6l-19 22l19 138h-12q-23 0 -51 7 t-57.5 23.5t-57 44t-49.5 67.5t-35 94t-13 124q0 67 14 135.5t45.5 133.5t82.5 124.5t125 108.5q28 18 62.5 33t71.5 26l21 154q13 9 19 13.5t10.5 7t10.5 4.5t20 6l20 -23z" />
<glyph unicode="&#xa3;" d="M523 537h-218q-7 -69 -22.5 -132t-37.5 -118.5t-48.5 -102.5t-54.5 -83q62 6 103 6t75 -2l70 -4q36 -2 86 0q42 1 72 6t55.5 22t48.5 50.5t50 92.5l37 -18q-9 -43 -19.5 -82.5t-20.5 -73t-19 -58.5l-13 -40q-44 -25 -99 -28t-116.5 4t-126 18.5t-127.5 16.5t-121.5 -2.5 t-107.5 -38.5l-13 49q31 25 55.5 47t43.5 47.5t33.5 59.5t25.5 83t19.5 117.5t16.5 163.5h-103l-15 25q5 15 12.5 32t15.5 33h97q14 142 49.5 255t93 191.5t137.5 120t183 41.5q24 0 45.5 -2t45.5 -9.5t53.5 -21t68.5 -37.5q-5 -26 -13.5 -63t-19 -75.5t-21 -73t-18.5 -53.5 h-43q4 124 -41.5 180t-136.5 56q-24 0 -48.5 -5.5t-48.5 -23t-46 -51t-39.5 -90t-30 -140t-17.5 -199.5h226l20 -23z" />
<glyph unicode="&#xa4;" d="M455 770q-35 0 -65.5 -13t-53.5 -36t-38 -54t-19 -66q-4 -32 3.5 -62t24.5 -53t42.5 -37.5t58.5 -14.5q35 0 64.5 13.5t52.5 36.5t37.5 53.5t19.5 64.5q4 31 -3 61t-23.5 54t-42 38.5t-58.5 14.5zM616 280l-79 104q-65 -45 -142 -45q-40 0 -72.5 12.5t-57.5 35.5 l-111 -106l-29 2l-11 30q-5 16 -9 32l111 106q-34 68 -23 149q5 48 21.5 86.5t39.5 68.5l-86 112l7 33q13 8 33 12.5t35 11.5l80 -106q37 25 75 36.5t70 11.5q38 0 70 -13.5t57 -36.5l109 105l31 1l18 -66l-110 -105q17 -34 23 -73t1 -78q-12 -86 -63 -152l87 -113l-3 -34z " />
<glyph unicode="&#xa5;" d="M972 1179q-55 -12 -86 -25t-45 -39l-339 -591l-1 -13h210l17 -23l-28 -66h-210l-38 -311q-2 -12 24.5 -31.5t97.5 -37.5l-5 -42h-387l6 42q75 18 105.5 36.5t32.5 32.5l38 311h-213l-14 25l25 64h213l3 23q-16 71 -41.5 153t-55 161.5t-61.5 150.5t-61 120 q-9 14 -18.5 23t-24 13.5t-35.5 4t-51 -4.5l-8 42l51 13q28 7 56 13t52.5 9.5t41.5 3.5q22 0 44 -37q19 -32 40 -76t42 -93.5t41 -101.5t36.5 -101.5t29 -93.5t19.5 -76l268 458q16 26 -4 40.5t-79 23.5l5 42h312z" />
<glyph unicode="&#xa6;" horiz-adv-x="410" d="M180 -285q-9 -7 -23.5 -14.5t-30.5 -14.5l-32 -12l-26 -10l-29 25l113 800q27 17 54 29.5t56 22.5l33 -25zM330 766q-10 -8 -24.5 -15.5t-30.5 -14l-32 -12.5l-28 -9l-31 22l115 813q29 17 56.5 29t56.5 20l30 -22z" />
<glyph unicode="&#xa7;" horiz-adv-x="865" d="M517 529l44 -27q22 -14 43 -29q32 20 52.5 51.5t25.5 69.5q6 46 -5 83.5t-40.5 73t-76.5 71t-111 77.5q-38 23 -69 53q-17 -6 -30.5 -21t-24 -34t-17.5 -39t-9 -36q-6 -46 4 -81.5t37 -68t71 -66.5t106 -77zM809 656q-13 -89 -53 -151.5t-86 -96.5q20 -28 28.5 -63 t2.5 -82q-10 -71 -35 -120t-58 -81.5t-71 -51t-73.5 -27.5t-66 -11t-47.5 -2q-43 0 -100.5 23t-112.5 60q-6 3 -4 32.5t8.5 68t16 77.5t18.5 62l38 -11q-4 -42 8.5 -80.5t38.5 -68.5t63.5 -47.5t84.5 -17.5q65 0 111 34t56 105q6 40 -9.5 69t-44 52.5t-66 44.5t-74.5 46 q-55 36 -97.5 72.5t-70 78t-38.5 91.5t-2 114q5 37 20.5 71.5t37 64.5t48 55t54.5 42q-26 40 -36.5 87.5t-2.5 104.5q9 62 38 107.5t70.5 75t91.5 43.5t101 14q28 0 60.5 -7t63.5 -19t57.5 -27.5t42.5 -33.5q5 -6 -2 -27t-19 -46t-25 -47t-20 -30l-34 8q-33 72 -74.5 105.5 t-86.5 33.5q-60 0 -97 -28.5t-45 -81.5q-5 -35 3.5 -63.5t30 -55.5t55 -54t78.5 -58q55 -38 100.5 -72.5t76 -74t44 -88.5t4.5 -118z" />
<glyph unicode="&#xa8;" horiz-adv-x="1042" d="M513 1262q0 -28 -9 -55.5t-25 -50t-39.5 -36.5t-51.5 -14q-32 0 -50 18t-18 52q0 27 9.5 54.5t26 50.5t40 37.5t51.5 14.5q31 0 48.5 -18.5t17.5 -52.5zM886 1262q0 -28 -9 -55.5t-25.5 -50t-40 -36.5t-52.5 -14q-31 0 -48.5 18t-17.5 52q0 27 9 54.5t25 50.5t39 37.5 t52 14.5q31 0 49.5 -18.5t18.5 -52.5z" />
<glyph unicode="&#xa9;" horiz-adv-x="1360" d="M1014 942l-72 -48q-34 -22 -57 -22q-10 0 -23.5 14t-32.5 31.5t-44.5 31.5t-59.5 14q-42 0 -78 -19t-65 -51t-52 -73.5t-38 -86.5t-23 -90t-8 -84q0 -54 17 -99t46 -77.5t67.5 -50t80.5 -17.5q16 0 37.5 6t51 21t68.5 39.5t89 62.5q8 -11 15.5 -19.5t12.5 -16.5 q-72 -60 -125.5 -96.5t-95.5 -56t-76.5 -26t-68.5 -6.5q-31 0 -73 14.5t-80 49t-64.5 93t-26.5 146.5q0 57 11 114.5t37 113t69 109t108 102.5q23 18 54 33t64.5 25t67 15.5t62.5 5.5q41 0 73 -14.5t56.5 -32.5t43 -34.5t32.5 -20.5zM1200 719q0 101 -30 189.5t-86 154 t-136 103.5t-180 38q-86 0 -163 -26.5t-143.5 -73t-120 -109.5t-91 -136.5t-58 -153.5t-20.5 -160q0 -102 30 -191t86.5 -155.5t136.5 -105t181 -38.5q86 0 163.5 26.5t143.5 73.5t119 110.5t90.5 137.5t57.5 154.5t20 161.5zM1280 752q0 -95 -22 -190t-64 -182t-102.5 -162 t-136.5 -130.5t-167 -87t-194 -31.5q-114 0 -206.5 43t-158 118t-100.5 177t-35 219q0 93 23 186t66 178t104 158t137 127t165.5 84.5t188.5 30.5q113 0 205.5 -41t158.5 -113t102 -170.5t36 -213.5z" />
<glyph unicode="&#xaa;" horiz-adv-x="586" d="M549 635q-5 -16 -11.5 -25.5t-11.5 -23.5h-450l-17 20q5 16 11 27t12 26h448zM401 962l9 52l8 53q4 25 8 45t6 31q-17 13 -38.5 25t-47.5 12q-37 0 -67.5 -26t-52.5 -63.5t-34 -79.5t-12 -73q0 -71 22 -112.5t54 -41.5q13 0 31 16t38.5 41.5t40 57.5t35.5 63zM563 768 q-46 -29 -75.5 -42t-45.5 -13q-10 0 -19 6.5t-15.5 24.5t-10.5 50.5t-4 84.5q-14 -25 -33.5 -54t-43 -54t-48 -41.5t-47.5 -16.5q-18 0 -38 10t-37 32t-28.5 57t-11.5 85q0 87 39.5 161.5t116.5 127.5q15 10 32.5 19t35.5 16t36.5 11.5t34.5 4.5q23 0 43.5 -11t37.5 -22 q23 18 55 33l10 -20q-9 -7 -15.5 -13t-11 -13.5t-7.5 -18.5t-7 -29q-9 -39 -15.5 -80t-11.5 -77t-7.5 -63.5t-2.5 -39.5q0 -62 6 -85.5t19 -23.5q11 0 25 2.5t36 11.5z" />
<glyph unicode="&#xab;" horiz-adv-x="882" d="M386 414q2 19 5 34q2 13 3.5 24t3.5 13l372 404l34 -29l-11 -18l-29 -46l-42 -66l-48 -76l-48 -75l-42 -66l-29 -46q-11 -17 -10 -17l148 -414l-42 -29zM58 414q2 19 5 34q2 13 3.5 24t3.5 13l372 404l34 -29l-11 -18l-29 -46l-42 -66l-48 -76l-48 -75l-42 -66l-29 -46 q-11 -17 -10 -17l148 -414l-42 -29z" />
<glyph unicode="&#xac;" d="M725 324q-20 -16 -47 -30t-51 -22l-21 25l31 209h-567l-19 24q8 20 19 44t22 44h647l23 -22z" />
<glyph unicode="&#xad;" horiz-adv-x="641" d="M580 541q-8 -22 -20 -45l-21 -41h-478l-18 24q8 22 19.5 44t23.5 42h475z" />
<glyph unicode="&#xae;" horiz-adv-x="704" d="M736 1084q-10 -72 -41 -135t-77.5 -110t-105 -74t-122.5 -27q-65 0 -115.5 27t-83.5 74t-46.5 110t-3.5 135t41 135t77.5 110t104.5 74t123 27q64 0 115 -27t84 -74t46.5 -110t3.5 -135zM683 1084q8 59 -3.5 112t-39 92.5t-70 63t-96.5 23.5q-53 0 -100.5 -23.5 t-84.5 -63t-62 -92.5t-33 -112q-8 -60 3 -112.5t39 -92.5t70 -63t95 -23q54 0 101.5 23t85 63t62.5 92.5t33 112.5zM276 887l2 18q40 9 42 19l45 326l-39 -6l2 29q27 7 56.5 12.5t66.5 5.5q34 0 58.5 -9t40 -23.5t22 -33.5t3.5 -39q-7 -47 -36 -73.5t-70 -36.5l72 -142 q5 -11 15 -12.5t30 6.5l3 -18l-3 -2q-17 -9 -38.5 -18t-31.5 -9q-8 0 -15.5 6t-9.5 12l-71 171h-2q-14 0 -27 3l-21 -149q-2 -10 35 -19l-2 -18h-127zM436 1256h-10q-5 0 -10 -1l-20 -146q6 -2 11 -2h13q45 0 69.5 16t29.5 54q2 15 -1 29t-12.5 25t-26.5 18t-43 7z" />
<glyph unicode="&#xaf;" horiz-adv-x="801" d="M834 1258q-3 -11 -9.5 -25t-14.5 -28l-14 -27q-7 -13 -12 -21h-549l-16 24q4 10 10 23l13 28q6 14 13 27.5t13 23.5h547z" />
<glyph unicode="&#xb0;" horiz-adv-x="628" d="M362 851q35 0 62.5 17t46 43.5t28.5 57.5t10 59q0 48 -21 81t-59 33q-27 0 -53 -14t-46.5 -38t-33 -56t-12.5 -68q0 -23 5 -44t15 -37t24.5 -25t33.5 -9zM614 1073q0 -47 -14.5 -88.5t-38 -76.5t-54 -62.5t-62.5 -47t-63 -29.5t-56 -10q-33 0 -60.5 12.5t-47 34t-30 50.5 t-10.5 62q0 66 28.5 123.5t72 100.5t93.5 68t94 25q32 0 59 -12.5t47 -34.5t31 -51.5t11 -63.5z" />
<glyph unicode="&#xb1;" horiz-adv-x="770" d="M735 726q-3 -10 -8 -23l-10 -25q-5 -12 -11 -24l-10 -19h-232l-38 -269q-9 -5 -21.5 -9.5t-25.5 -8.5t-26 -7.5t-23 -5.5l-20 22l39 278h-240l-19 24l19 45q11 26 22 46h234l39 271q17 6 46.5 15t49.5 14l21 -23l-40 -277h236zM665 221q-3 -10 -8 -23l-10 -25 q-5 -12 -11 -23l-10 -20h-587l-19 24l19 46q11 25 22 45h586z" />
<glyph unicode="&#xb2;" horiz-adv-x="576" d="M604 1212q0 -38 -19.5 -81.5t-69 -104.5t-133 -143t-212.5 -196h252q21 0 36 15.5t26 34.5q12 22 21 50l40 -7l-36 -172h-454l-10 54q127 109 211.5 191.5t135 145.5t71.5 110t21 85q0 44 -28 66.5t-79 22.5q-26 0 -46.5 -10t-35.5 -26t-24 -37t-12 -42 q-23 -11 -50 -18.5t-56 -10.5l-15 18q5 31 30.5 64.5t64.5 61.5t88.5 46.5t102.5 19.5q39 1 72 -7t57 -25t37.5 -43t13.5 -62z" />
<glyph unicode="&#xb3;" horiz-adv-x="576" d="M568 1209q0 -33 -11.5 -61t-32 -51t-49 -40.5t-62.5 -29.5q31 -4 56.5 -18.5t43.5 -36.5t28 -49.5t10 -57.5q0 -56 -21.5 -106.5t-61.5 -88t-97 -59.5t-127 -22q-50 0 -102 21t-105 69l27 51q27 -20 49.5 -33.5t43 -21.5t40 -11t40.5 -3q46 0 81.5 14.5t60 40t37 60 t12.5 73.5q0 34 -11 58.5t-29 40t-41.5 22.5t-48.5 7h-12q-4 0 -7 -0.5t-7.5 -1.5t-14.5 -2l-4 46q40 10 76 23.5t62 33.5t41.5 48t15.5 68q0 38 -23 64.5t-72 26.5q-42 0 -70.5 -25t-26.5 -66q-24 -11 -54.5 -16.5t-57.5 -7.5l-15 19q4 25 28 53.5t60 52.5t81.5 40t93.5 16 q46 0 79.5 -12t55 -31.5t31.5 -44.5t10 -52z" />
<glyph unicode="&#xb4;" horiz-adv-x="606" d="M572 1374l-355 -348q-16 4 -23.5 11t-21.5 24l272 398l26 -7l32 -10.5t32 -11.5t23 -11z" />
<glyph unicode="&#xb5;" horiz-adv-x="1051" d="M716 500l17 102q8 50 13.5 92t5.5 66q0 32 -3.5 65t-13.5 52l39 15l45 16l46 16q23 7 44 12q8 -11 13 -20.5t8 -18.5l-16 -79l-22 -110l-22 -127q-12 -66 -21.5 -128t-15.5 -114t-6 -85q0 -45 3 -72t8 -41t11.5 -18t14.5 -4q10 0 19.5 2.5t23 14.5t32.5 37.5t48 70.5 l35 -29q-42 -77 -75 -126.5t-62 -78.5t-57.5 -40t-59.5 -11q-85 0 -88 285q-35 -63 -70.5 -115.5t-73 -90t-76.5 -58.5t-79 -21q-33 0 -63 14.5t-55 41t-45 64t-34 83.5l-8 -58q-14 -103 -11 -192.5t13.5 -158.5t23 -114.5t17.5 -58.5l-40 -16l-52 -23l-51 -23l-36 -18 l-33 29q7 57 19 130l24 155l30 169l30 173l28 164l24 147q4 39 10.5 79.5t11.5 78.5t9 73t4 62q0 23 -3 36.5t-8.5 20t-12.5 8.5t-15 2q-10 0 -27 -3.5t-34 -8.5q-20 -5 -42 -12l-14 37l85 36q42 18 79 31t64.5 21t39.5 8q28 0 37.5 -19t9.5 -65q0 -29 -4.5 -69t-11.5 -85 l-15 -91l-15 -91q-7 -44 -11.5 -82t-4.5 -65q0 -55 9 -101t25 -79t38 -51.5t48 -18.5q37 0 78.5 26.5t86.5 82t94 141.5q15 26 30 55z" />
<glyph unicode="&#xb6;" horiz-adv-x="1020" d="M799 1160q-18 7 -37 12l-35 10l-184 -1327q-2 -11 9.5 -19.5t20.5 -11.5q11 3 25 11.5t16 19.5zM555 610l83 590q-56 6 -95 6q-56 0 -106 -21t-88.5 -57t-64 -85t-32.5 -105q-9 -54 0.5 -112t40 -106t84.5 -79t135 -31h43zM1034 1217q-65 -14 -103 -31t-40 -31 l-182 -1300q-2 -13 29.5 -30.5t97.5 -31.5l-7 -43h-530l6 43q65 14 102.5 31t41.5 31l95 677q-17 -3 -37 -4.5t-46 -1.5q-87 0 -160.5 23.5t-124 71t-74 118t-10.5 164.5q12 85 53.5 156t105 122.5t145.5 80t175 28.5q20 0 48.5 -1.5t60.5 -3.5t66.5 -4.5t67.5 -5.5l161 -15 h65z" />
<glyph unicode="&#xb7;" horiz-adv-x="410" d="M336 678q0 -30 -10.5 -62t-29.5 -58t-46 -43t-61 -17q-40 0 -62 26.5t-22 71.5q0 28 11.5 59.5t31.5 57t47 42.5t59 17q38 0 60 -26t22 -68z" />
<glyph unicode="&#xb8;" horiz-adv-x="324" d="M220 -221q0 -53 -31 -97t-80.5 -68.5t-111 -24t-121.5 35.5l-2 39q52 -24 93 -25.5t69 11t42.5 35.5t14.5 47q0 26 -23 40.5t-70 12.5q14 37 23.5 65.5t16.5 53.5t12 48l12 52l68 -2q-8 -41 -14 -65.5t-13 -49.5q51 -2 83 -30.5t32 -77.5z" />
<glyph unicode="&#xb9;" horiz-adv-x="576" d="M511 608h-422l7 42q50 6 82.5 12.5t51 13.5t26.5 14.5t9 13.5l73 458q4 24 4.5 37.5t-6.5 21.5q-3 4 -12 6t-27 1.5t-46.5 -4t-70.5 -12.5l-8 41q27 7 67 20l81 27l79.5 29.5t60.5 25.5l19 -21l-99 -630q-1 -6 3 -13t18.5 -14.5t42.5 -14t75 -12.5z" />
<glyph unicode="&#xba;" horiz-adv-x="508" d="M440 1006q0 81 -30 125.5t-84 44.5q-39 0 -66 -22.5t-43.5 -57t-23.5 -74.5t-7 -74q0 -35 9 -67t25 -56t37.5 -38.5t45.5 -14.5q37 0 63.5 24t42.5 60t23.5 76.5t7.5 73.5zM469 635q-5 -16 -11.5 -25.5t-11.5 -23.5h-370l-17 20q5 16 11 27t12 26h369zM518 1034 q0 -36 -8 -73t-23.5 -71.5t-38.5 -65.5t-53 -56q-29 -23 -62 -39t-65 -16q-38 0 -67 15.5t-49 43.5t-30.5 65.5t-10.5 82.5q0 76 27 143t98 123q27 21 60.5 36t65.5 15q43 0 73 -15t48.5 -42t26.5 -64t8 -82z" />
<glyph unicode="&#xbb;" horiz-adv-x="882" d="M60 36l261 414q1 -1 -10 30l-27 76l-36 98l-37 100l-28 75l-11 31l42 29l264 -404q0 -2 -1 -13t-3 -24l-4 -34l-376 -407zM388 36l261 414q1 -1 -10 30l-27 76l-36 98l-37 100l-28 75l-11 31l42 29l264 -404q0 -2 -1 -13t-3 -24l-4 -34l-376 -407z" />
<glyph unicode="&#xbc;" horiz-adv-x="1110" d="M881 491l-217 -265h181zM996 210l-24 -26q-10 -12 -23 -20h-27l-15 -106q0 -4 1.5 -7t7.5 -6.5t18 -7.5t32 -8l-3 -29h-247l3 29q33 5 53.5 9.5t31.5 8.5t15 8t4 8l14 101h-250l-15 16l304 383l46 18q24 9 41 17l15 -17l-48 -355h54zM133 637l5 34q40 4 66 9.5t41 11 t21 11.5t6 11l50 366q3 20 3 30.5t-6 16.5q-2 3 -9 5t-21.5 1.5t-37 -3.5t-56.5 -10l-7 33q22 6 53.5 16t64 21.5t62 23.5t47.5 21l16 -17l-69 -504q0 -5 3.5 -10.5t15.5 -11.5t34.5 -11.5t60.5 -9.5l-5 -34h-338zM244 3q-23 -11 -42.5 -18.5t-45.5 -14.5l-18 30l849 1203 l41 17q23 10 43 15l19 -28z" />
<glyph unicode="&#xbd;" horiz-adv-x="1110" d="M133 637l5 34q40 4 66 9.5t41 11t21 11.5t6 11l50 366q3 20 3 30.5t-6 16.5q-2 3 -9 5t-21.5 1.5t-37 -3.5t-56.5 -10l-7 33q22 6 53.5 16t64 21.5t62 23.5t47.5 21l16 -17l-69 -504q0 -5 3.5 -10.5t15.5 -11.5t34.5 -11.5t60.5 -9.5l-5 -34h-338zM244 3 q-23 -11 -42.5 -18.5t-45.5 -14.5l-18 30l849 1203l41 17q23 10 43 15l19 -28zM961 0h-365l-10 35l168 165q65 66 102.5 111t53 75t19.5 57q6 45 -11.5 71t-69.5 26q-19 0 -36 -8t-30 -21t-21.5 -29.5t-11.5 -33.5q-37 -19 -83 -23l-12 14q3 25 25 52.5t55 50t73.5 37 t82.5 14.5q66 0 104 -33t29 -103q-5 -32 -23 -65t-56 -76.5t-98 -103.5l-150 -146h196q17 0 29 12t20 26q9 17 14 39l31 -5z" />
<glyph unicode="&#xbe;" horiz-adv-x="1110" d="M244 3q-23 -11 -42.5 -18.5t-45.5 -14.5l-18 30l849 1203l41 17q23 10 43 15l19 -28zM996 210l-24 -26q-10 -12 -23 -20h-27l-15 -106q0 -4 1.5 -7t7.5 -6.5t18 -7.5t32 -8l-3 -29h-247l3 29q33 5 53.5 9.5t31.5 8.5t15 8t4 8l14 101h-250l-15 16l304 383l46 18 q24 9 41 17l15 -17l-48 -355h54zM539 825q-5 -41 -24.5 -76.5t-50.5 -62.5t-72.5 -42.5t-90.5 -15.5q-45 0 -89 18.5t-85 60.5l22 33q42 -33 75 -44.5t71 -11.5q59 0 99 32t48 93q5 36 -2.5 60.5t-23 39.5t-36 21.5t-41.5 6.5h-11q-3 0 -6 -0.5t-7 -1.5l-12 -1l-1 37 q46 12 75 27t45 31.5t22.5 32.5t8.5 31q2 16 -0.5 32t-11.5 29t-24 20.5t-38 7.5q-38 0 -60.5 -20.5t-20.5 -52.5q-17 -8 -40.5 -12.5t-46.5 -6.5l-12 15q3 20 22.5 43t49.5 42.5t67.5 32t76.5 12.5t66 -11.5t42.5 -30.5t21 -43t2.5 -48q-2 -18 -12 -36.5t-26 -35.5 t-37.5 -30.5t-47.5 -22.5q28 -3 51.5 -16.5t39 -33.5t22 -46.5t2.5 -55.5zM881 491l-217 -265h181z" />
<glyph unicode="&#xbf;" horiz-adv-x="813" d="M352 750q0 30 10.5 61.5t30 58t46.5 43.5t61 17q40 0 62 -27t22 -72q0 -28 -11.5 -59t-32 -57t-48 -43t-58.5 -17q-37 0 -59.5 25.5t-22.5 69.5zM631 -190q0 -64 -28 -125t-80 -109t-126 -77t-166 -29q-63 0 -109.5 19.5t-77 52.5t-45.5 77.5t-15 95.5q0 88 25.5 154.5 t64.5 120t85.5 99.5t89 94.5t75 103.5t43.5 127l14 96q19 15 33.5 25t40.5 18l20 -23l-2 -116q-2 -67 -27 -123t-62 -107t-79 -98.5t-78 -96.5t-60 -102.5t-24 -115.5q0 -99 44 -152t130 -53q42 0 74 19t51.5 51.5t26 75t-1.5 89.5q21 10 37.5 16.5t33 11t34 7t38.5 4.5z " />
<glyph unicode="&#xc0;" horiz-adv-x="1147" d="M371 444l-143 -333q-14 -31 15.5 -44.5t106.5 -23.5l-6 -43h-379l6 43q63 12 101 25.5t51 42.5l487 1118q13 12 31 24.5l37 24.5l36 22l31 17l216 -1206q2 -14 7.5 -24.5t17.5 -19t32.5 -14.5t52.5 -10l-4 -43h-385l4 43q71 5 102 20.5t25 47.5l-58 333h-384zM739 535 l-94 544l-235 -544h329zM847 1393q-14 -20 -22.5 -29t-24.5 -18l-401 244l12 47q9 7 25 17t34 20l35 19l29 15z" />
<glyph unicode="&#xc1;" horiz-adv-x="1147" d="M371 444l-143 -333q-14 -31 15.5 -44.5t106.5 -23.5l-6 -43h-379l6 43q63 12 101 25.5t51 42.5l487 1118q13 12 31 24.5l37 24.5l36 22l31 17l216 -1206q2 -14 7.5 -24.5t17.5 -19t32.5 -14.5t52.5 -10l-4 -43h-385l4 43q71 5 102 20.5t25 47.5l-58 333h-384zM739 535 l-94 544l-235 -544h329zM1033 1590l-455 -244q-14 9 -19 18t-14 29l391 315l23 -15l28 -19l27 -20t19 -17v-47z" />
<glyph unicode="&#xc2;" horiz-adv-x="1147" d="M371 444l-143 -333q-14 -31 15.5 -44.5t106.5 -23.5l-6 -43h-379l6 43q63 12 101 25.5t51 42.5l487 1118q13 12 31 24.5l37 24.5l36 22l31 17l216 -1206q2 -14 7.5 -24.5t17.5 -19t32.5 -14.5t52.5 -10l-4 -43h-385l4 43q71 5 102 20.5t25 47.5l-58 333h-384zM739 535 l-94 544l-235 -544h329zM984 1391q-14 -20 -21.5 -29t-23.5 -16l-215 205l-266 -205q-9 6 -16 15.5t-17 29.5l275 301h92z" />
<glyph unicode="&#xc3;" horiz-adv-x="1147" d="M371 444l-143 -333q-14 -31 15.5 -44.5t106.5 -23.5l-6 -43h-379l6 43q63 12 101 25.5t51 42.5l487 1118q13 12 31 24.5l37 24.5l36 22l31 17l216 -1206q2 -14 7.5 -24.5t17.5 -19t32.5 -14.5t52.5 -10l-4 -43h-385l4 43q71 5 102 20.5t25 47.5l-58 333h-384zM739 535 l-94 544l-235 -544h329zM1042 1613q-21 -40 -47.5 -80t-57.5 -71.5t-66.5 -51t-74.5 -19.5q-32 0 -57.5 17t-49 37.5t-47 37.5t-49.5 17q-35 0 -71 -31.5t-78 -87.5l-43 21q21 40 47.5 79.5t58 71t67.5 51t74 19.5q33 0 60.5 -17t51.5 -37l45 -38q21 -17 42 -17 q35 0 73.5 31.5t76.5 87.5z" />
<glyph unicode="&#xc4;" horiz-adv-x="1147" d="M371 444l-143 -333q-14 -31 15.5 -44.5t106.5 -23.5l-6 -43h-379l6 43q63 12 101 25.5t51 42.5l487 1118q13 12 31 24.5l37 24.5l36 22l31 17l216 -1206q2 -14 7.5 -24.5t17.5 -19t32.5 -14.5t52.5 -10l-4 -43h-385l4 43q71 5 102 20.5t25 47.5l-58 333h-384zM739 535 l-94 544l-235 -544h329zM631 1549q0 -28 -9 -55.5t-25 -50t-39.5 -36.5t-51.5 -14q-32 0 -50 18t-18 52q0 27 9.5 54.5t26 50.5t40 37.5t51.5 14.5q31 0 48.5 -18.5t17.5 -52.5zM1004 1549q0 -28 -9 -55.5t-25.5 -50t-40 -36.5t-52.5 -14q-31 0 -48.5 18t-17.5 52 q0 27 9 54.5t25 50.5t39 37.5t52 14.5q31 0 49.5 -18.5t18.5 -52.5z" />
<glyph unicode="&#xc5;" horiz-adv-x="1147" d="M371 444l-143 -333q-14 -31 15.5 -44.5t106.5 -23.5l-6 -43h-379l6 43q63 12 101 25.5t51 42.5l487 1118q13 12 31 24.5l37 24.5l36 22l31 17l216 -1206q2 -14 7.5 -24.5t17.5 -19t32.5 -14.5t52.5 -10l-4 -43h-385l4 43q71 5 102 20.5t25 47.5l-58 333h-384zM739 535 l-94 544l-235 -544h329zM812 1563q0 35 -15 62.5t-46 27.5q-28 0 -49 -13t-35.5 -33.5t-21.5 -45.5t-7 -49q0 -37 16.5 -64.5t47.5 -27.5q27 0 47.5 13.5t34.5 34t21 46t7 49.5zM896 1600q0 -41 -17.5 -85.5t-48 -82t-71 -62t-86.5 -24.5q-26 0 -48 10t-38 27t-24.5 39 t-8.5 47q0 45 17.5 91t48 83.5t71.5 61.5t88 24q53 0 85 -36.5t32 -92.5z" />
<glyph unicode="&#xc6;" horiz-adv-x="1464" d="M819 1147q1 11 -7 16.5t-20 4t-25 -10.5t-22 -27l-194 -395h213zM1380 244q-20 -87 -39.5 -151t-31.5 -93h-777l7 43q63 14 100 30.5t39 30.5l74 551h-242l-272 -544q-16 -29 9.5 -44t96.5 -24l-4 -43h-375l6 43q62 12 99 25.5t51 42.5l514 1022q8 17 0 28.5t-29.5 21 t-55.5 17.5t-77 17l6 43h953l22 -25q-5 -26 -12.5 -57t-16.5 -62t-18.5 -59t-17.5 -47h-41q4 46 2.5 76.5t-8 49t-18.5 26t-30 7.5h-327l-60 -434h365l20 -28q-10 -14 -22.5 -29.5t-25.5 -30t-26 -27t-24 -20.5q-12 15 -26 25t-33.5 17t-46.5 10t-64 3h-127l-70 -501 q-2 -15 3 -26.5t24 -20t54.5 -13t95.5 -4.5h114q42 0 72 5t55 22.5t48 51.5t50 93z" />
<glyph unicode="&#xc7;" horiz-adv-x="995" d="M588 -221q0 -53 -31 -97t-80.5 -68.5t-111 -24t-121.5 35.5l-2 39q52 -24 93 -25.5t69 11t42.5 35.5t14.5 47q0 26 -23 40.5t-70 12.5q14 37 23.5 65.5t16.5 53.5t12 49q3 10 5 22q-58 5 -112 30q-69 33 -121.5 95t-84 152.5t-31.5 206.5q0 94 18.5 191.5t57.5 190 t100 176t145 150.5q73 57 157.5 90t178.5 33q99 0 169 -29t114 -71q4 -5 -7 -22t-28.5 -38t-37 -41.5t-32.5 -31.5l-30 8q-41 45 -99.5 74.5t-140.5 29.5q-40 0 -90 -19t-90 -50q-63 -49 -107.5 -123t-72.5 -155.5t-41 -162t-13 -143.5q0 -109 29.5 -188.5t76 -131t102 -76 t108.5 -24.5q56 0 134.5 35.5t190.5 124.5q5 -2 9 -8l8 -14q4 -7 7 -13.5t5 -9.5q-68 -68 -127.5 -114t-113.5 -73.5t-103 -38.5q-30 -7 -59 -10q-4 -23 -8 -38q-6 -25 -13 -50q51 -2 83 -30.5t32 -77.5z" />
<glyph unicode="&#xc8;" horiz-adv-x="946" d="M856 244q-20 -87 -40.5 -151t-31.5 -93h-784l6 43q63 14 101 30.5t40 30.5l146 1051q2 12 -29 30t-96 32l6 43h737l25 -25q-5 -26 -12.5 -57t-17 -62t-19.5 -59t-19 -47h-43q5 46 4 76.5t-8 49t-19 26t-30 7.5h-335l-59 -434h374l20 -28q-10 -14 -22.5 -29t-26 -29.5 t-26.5 -26.5l-23 -22q-16 17 -34 27.5t-44.5 16.5t-65 8.5t-94.5 2.5h-69l-68 -501q-2 -15 3 -26.5t24 -20t55 -13t96 -4.5h121q42 0 71 5t52.5 22.5t45.5 51.5t50 93zM742 1393q-14 -20 -22.5 -29t-24.5 -18l-401 244l12 47q9 7 25 17t34 20l35 19l29 15z" />
<glyph unicode="&#xc9;" horiz-adv-x="946" d="M856 244q-20 -87 -40.5 -151t-31.5 -93h-784l6 43q63 14 101 30.5t40 30.5l146 1051q2 12 -29 30t-96 32l6 43h737l25 -25q-5 -26 -12.5 -57t-17 -62t-19.5 -59t-19 -47h-43q5 46 4 76.5t-8 49t-19 26t-30 7.5h-335l-59 -434h374l20 -28q-10 -14 -22.5 -29t-26 -29.5 t-26.5 -26.5l-23 -22q-16 17 -34 27.5t-44.5 16.5t-65 8.5t-94.5 2.5h-69l-68 -501q-2 -15 3 -26.5t24 -20t55 -13t96 -4.5h121q42 0 71 5t52.5 22.5t45.5 51.5t50 93zM928 1590l-455 -244q-14 9 -19 18t-14 29l391 315l23 -15l28 -19l27 -20t19 -17v-47z" />
<glyph unicode="&#xca;" horiz-adv-x="946" d="M856 244q-20 -87 -40.5 -151t-31.5 -93h-784l6 43q63 14 101 30.5t40 30.5l146 1051q2 12 -29 30t-96 32l6 43h737l25 -25q-5 -26 -12.5 -57t-17 -62t-19.5 -59t-19 -47h-43q5 46 4 76.5t-8 49t-19 26t-30 7.5h-335l-59 -434h374l20 -28q-10 -14 -22.5 -29t-26 -29.5 t-26.5 -26.5l-23 -22q-16 17 -34 27.5t-44.5 16.5t-65 8.5t-94.5 2.5h-69l-68 -501q-2 -15 3 -26.5t24 -20t55 -13t96 -4.5h121q42 0 71 5t52.5 22.5t45.5 51.5t50 93zM879 1391q-14 -20 -21.5 -29t-23.5 -16l-215 205l-266 -205q-9 6 -16 15.5t-17 29.5l275 301h92z" />
<glyph unicode="&#xcb;" horiz-adv-x="946" d="M856 244q-20 -87 -40.5 -151t-31.5 -93h-784l6 43q63 14 101 30.5t40 30.5l146 1051q2 12 -29 30t-96 32l6 43h737l25 -25q-5 -26 -12.5 -57t-17 -62t-19.5 -59t-19 -47h-43q5 46 4 76.5t-8 49t-19 26t-30 7.5h-335l-59 -434h374l20 -28q-10 -14 -22.5 -29t-26 -29.5 t-26.5 -26.5l-23 -22q-16 17 -34 27.5t-44.5 16.5t-65 8.5t-94.5 2.5h-69l-68 -501q-2 -15 3 -26.5t24 -20t55 -13t96 -4.5h121q42 0 71 5t52.5 22.5t45.5 51.5t50 93zM526 1549q0 -28 -9 -55.5t-25 -50t-39.5 -36.5t-51.5 -14q-32 0 -50 18t-18 52q0 27 9.5 54.5t26 50.5 t40 37.5t51.5 14.5q31 0 48.5 -18.5t17.5 -52.5zM899 1549q0 -28 -9 -55.5t-25.5 -50t-40 -36.5t-52.5 -14q-31 0 -48.5 18t-17.5 52q0 27 9 54.5t25 50.5t39 37.5t52 14.5q31 0 49.5 -18.5t18.5 -52.5z" />
<glyph unicode="&#xcc;" horiz-adv-x="573" d="M598 1217q-63 -14 -101 -31t-40 -31l-146 -1051q-2 -12 29 -29.5t96 -31.5l-6 -43h-410l7 43q63 14 100.5 30.5t40.5 30.5l143 1051q2 12 -29 30t-94 32l7 43h409zM557 1393q-14 -20 -22.5 -29t-24.5 -18l-401 244l12 47q9 7 25 17t34 20l35 19l29 15z" />
<glyph unicode="&#xcd;" horiz-adv-x="573" d="M598 1217q-63 -14 -101 -31t-40 -31l-146 -1051q-2 -12 29 -29.5t96 -31.5l-6 -43h-410l7 43q63 14 100.5 30.5t40.5 30.5l143 1051q2 12 -29 30t-94 32l7 43h409zM743 1590l-455 -244q-14 9 -19 18t-14 29l391 315l23 -15l28 -19l27 -20t19 -17v-47z" />
<glyph unicode="&#xce;" horiz-adv-x="573" d="M598 1217q-63 -14 -101 -31t-40 -31l-146 -1051q-2 -12 29 -29.5t96 -31.5l-6 -43h-410l7 43q63 14 100.5 30.5t40.5 30.5l143 1051q2 12 -29 30t-94 32l7 43h409zM694 1391q-14 -20 -21.5 -29t-23.5 -16l-215 205l-266 -205q-9 6 -16 15.5t-17 29.5l275 301h92z" />
<glyph unicode="&#xcf;" horiz-adv-x="573" d="M598 1217q-63 -14 -101 -31t-40 -31l-146 -1051q-2 -12 29 -29.5t96 -31.5l-6 -43h-410l7 43q63 14 100.5 30.5t40.5 30.5l143 1051q2 12 -29 30t-94 32l7 43h409zM341 1549q0 -28 -9 -55.5t-25 -50t-39.5 -36.5t-51.5 -14q-32 0 -50 18t-18 52q0 27 9.5 54.5t26 50.5 t40 37.5t51.5 14.5q31 0 48.5 -18.5t17.5 -52.5zM714 1549q0 -28 -9 -55.5t-25.5 -50t-40 -36.5t-52.5 -14q-31 0 -48.5 18t-17.5 52q0 27 9 54.5t25 50.5t39 37.5t52 14.5q31 0 49.5 -18.5t18.5 -52.5z" />
<glyph unicode="&#xd0;" horiz-adv-x="1118" d="M1077 745q0 -88 -17 -177.5t-51 -172t-84 -155t-116.5 -126t-148.5 -84t-179 -30.5h-481l6 43q63 14 101 30.5t40 30.5l70 510h-129l-16 25l13 32q7 18 15 34h129l67 488l-153 -17v63q115 28 227.5 39.5t215.5 11.5q117 0 208 -39t154 -110t96 -171.5t33 -224.5z M504 1206h-30q-15 0 -30 -1l-68 -500h232l19 -23l-29 -68h-235l-64 -475q-2 -15 4 -25t23 -17t48.5 -10t80.5 -3q74 0 136.5 28t113.5 76t90.5 112t66 135.5t40 146.5t13.5 145q0 107 -27 195t-79 151t-128.5 98t-176.5 35z" />
<glyph unicode="&#xd1;" horiz-adv-x="1239" d="M1288 1217q-66 -10 -99.5 -27.5t-35.5 -34.5l-164 -1186q-21 3 -38 7t-31 12t-26 21.5t-24 35.5l-497 959l-123 -900q-3 -12 25 -31t96 -30l-6 -43h-365l6 43q68 9 101.5 28t35.5 33l146 1050q-26 30 -57 42.5t-74 20.5l6 43h178q22 0 34.5 -1t22 -8.5t17.5 -23.5l24 -45 l484 -924l123 897q1 6 -5 14.5t-20.5 17t-38.5 16.5t-59 14l6 43h364zM1083 1613q-21 -40 -47.5 -80t-57.5 -71.5t-66.5 -51t-74.5 -19.5q-32 0 -57.5 17t-49 37.5t-47 37.5t-49.5 17q-35 0 -71 -31.5t-78 -87.5l-43 21q21 40 47.5 79.5t58 71t67.5 51t74 19.5 q33 0 60.5 -17t51.5 -37l45 -38q21 -17 42 -17q35 0 73.5 31.5t76.5 87.5z" />
<glyph unicode="&#xd2;" horiz-adv-x="1116" d="M936 756q0 84 -18 158.5t-53 130t-86 88t-117 32.5q-76 0 -136.5 -29.5t-107.5 -78.5t-80 -114t-54.5 -135t-31.5 -141.5t-10 -134.5q0 -93 19.5 -172.5t55.5 -137t86.5 -90t112.5 -32.5q77 0 138.5 31t108 82.5t79.5 119t54 140.5t30.5 146.5t9.5 136.5zM1085 774 q0 -71 -11.5 -144t-35 -144t-58 -137.5t-79.5 -123.5q-42 -54 -89.5 -100.5t-101 -81t-113 -54.5t-126.5 -20q-96 0 -167.5 41t-119 111.5t-71 164.5t-23.5 199q0 63 11.5 133.5t33 141t52.5 137t71 121.5q42 56 90.5 105.5t104 86.5t118.5 58.5t134 21.5q98 0 170 -41 t118.5 -111.5t69 -164.5t22.5 -199zM851 1393q-14 -20 -22.5 -29t-24.5 -18l-401 244l12 47q9 7 25 17t34 20l35 19l29 15z" />
<glyph unicode="&#xd3;" horiz-adv-x="1116" d="M936 756q0 84 -18 158.5t-53 130t-86 88t-117 32.5q-76 0 -136.5 -29.5t-107.5 -78.5t-80 -114t-54.5 -135t-31.5 -141.5t-10 -134.5q0 -93 19.5 -172.5t55.5 -137t86.5 -90t112.5 -32.5q77 0 138.5 31t108 82.5t79.5 119t54 140.5t30.5 146.5t9.5 136.5zM1085 774 q0 -71 -11.5 -144t-35 -144t-58 -137.5t-79.5 -123.5q-42 -54 -89.5 -100.5t-101 -81t-113 -54.5t-126.5 -20q-96 0 -167.5 41t-119 111.5t-71 164.5t-23.5 199q0 63 11.5 133.5t33 141t52.5 137t71 121.5q42 56 90.5 105.5t104 86.5t118.5 58.5t134 21.5q98 0 170 -41 t118.5 -111.5t69 -164.5t22.5 -199zM1037 1590l-455 -244q-14 9 -19 18t-14 29l391 315l23 -15l28 -19l27 -20t19 -17v-47z" />
<glyph unicode="&#xd4;" horiz-adv-x="1116" d="M936 756q0 84 -18 158.5t-53 130t-86 88t-117 32.5q-76 0 -136.5 -29.5t-107.5 -78.5t-80 -114t-54.5 -135t-31.5 -141.5t-10 -134.5q0 -93 19.5 -172.5t55.5 -137t86.5 -90t112.5 -32.5q77 0 138.5 31t108 82.5t79.5 119t54 140.5t30.5 146.5t9.5 136.5zM1085 774 q0 -71 -11.5 -144t-35 -144t-58 -137.5t-79.5 -123.5q-42 -54 -89.5 -100.5t-101 -81t-113 -54.5t-126.5 -20q-96 0 -167.5 41t-119 111.5t-71 164.5t-23.5 199q0 63 11.5 133.5t33 141t52.5 137t71 121.5q42 56 90.5 105.5t104 86.5t118.5 58.5t134 21.5q98 0 170 -41 t118.5 -111.5t69 -164.5t22.5 -199zM988 1391q-14 -20 -21.5 -29t-23.5 -16l-215 205l-266 -205q-9 6 -16 15.5t-17 29.5l275 301h92z" />
<glyph unicode="&#xd5;" horiz-adv-x="1116" d="M936 756q0 84 -18 158.5t-53 130t-86 88t-117 32.5q-76 0 -136.5 -29.5t-107.5 -78.5t-80 -114t-54.5 -135t-31.5 -141.5t-10 -134.5q0 -93 19.5 -172.5t55.5 -137t86.5 -90t112.5 -32.5q77 0 138.5 31t108 82.5t79.5 119t54 140.5t30.5 146.5t9.5 136.5zM1085 774 q0 -71 -11.5 -144t-35 -144t-58 -137.5t-79.5 -123.5q-42 -54 -89.5 -100.5t-101 -81t-113 -54.5t-126.5 -20q-96 0 -167.5 41t-119 111.5t-71 164.5t-23.5 199q0 63 11.5 133.5t33 141t52.5 137t71 121.5q42 56 90.5 105.5t104 86.5t118.5 58.5t134 21.5q98 0 170 -41 t118.5 -111.5t69 -164.5t22.5 -199zM1046 1613q-21 -40 -47.5 -80t-57.5 -71.5t-66.5 -51t-74.5 -19.5q-32 0 -57.5 17t-49 37.5t-47 37.5t-49.5 17q-35 0 -71 -31.5t-78 -87.5l-43 21q21 40 47.5 79.5t58 71t67.5 51t74 19.5q33 0 60.5 -17t51.5 -37l45 -38q21 -17 42 -17 q35 0 73.5 31.5t76.5 87.5z" />
<glyph unicode="&#xd6;" horiz-adv-x="1116" d="M936 756q0 84 -18 158.5t-53 130t-86 88t-117 32.5q-76 0 -136.5 -29.5t-107.5 -78.5t-80 -114t-54.5 -135t-31.5 -141.5t-10 -134.5q0 -93 19.5 -172.5t55.5 -137t86.5 -90t112.5 -32.5q77 0 138.5 31t108 82.5t79.5 119t54 140.5t30.5 146.5t9.5 136.5zM1085 774 q0 -71 -11.5 -144t-35 -144t-58 -137.5t-79.5 -123.5q-42 -54 -89.5 -100.5t-101 -81t-113 -54.5t-126.5 -20q-96 0 -167.5 41t-119 111.5t-71 164.5t-23.5 199q0 63 11.5 133.5t33 141t52.5 137t71 121.5q42 56 90.5 105.5t104 86.5t118.5 58.5t134 21.5q98 0 170 -41 t118.5 -111.5t69 -164.5t22.5 -199zM635 1549q0 -28 -9 -55.5t-25 -50t-39.5 -36.5t-51.5 -14q-32 0 -50 18t-18 52q0 27 9.5 54.5t26 50.5t40 37.5t51.5 14.5q31 0 48.5 -18.5t17.5 -52.5zM1008 1549q0 -28 -9 -55.5t-25.5 -50t-40 -36.5t-52.5 -14q-31 0 -48.5 18 t-17.5 52q0 27 9 54.5t25 50.5t39 37.5t52 14.5q31 0 49.5 -18.5t18.5 -52.5z" />
<glyph unicode="&#xd7;" horiz-adv-x="770" d="M65 314l257 248l-187 246l5 34q18 9 42.5 17.5t44.5 13.5l177 -233l242 233q19 -5 40.5 -13.5t38.5 -17.5l-5 -34l-256 -247l188 -247l-5 -34q-19 -8 -44 -17t-42 -14l-179 234l-243 -234q-16 5 -39 14t-40 17z" />
<glyph unicode="&#xd8;" horiz-adv-x="1116" d="M1085 774q0 -71 -11.5 -144t-35 -144t-58 -137.5t-79.5 -123.5q-42 -54 -89.5 -100.5t-101 -81t-113 -54.5t-126.5 -20q-78 0 -138.5 26.5t-106.5 74.5l-56 -72q-10 -8 -26 -15.5t-34 -14t-35 -11.5l-28 -10l-20 33l136 177q-37 68 -55 151.5t-18 176.5q0 63 11.5 133.5 t33 141t52.5 137t71 121.5q42 56 90.5 105.5t104 86.5t118.5 58.5t134 21.5q79 0 140.5 -26.5t106.5 -74.5l58 75q28 17 60.5 29t59.5 20l23 -33l-138 -180q35 -68 52.5 -150.5t17.5 -175.5zM242 532q0 -128 35 -225l577 754q-35 48 -83 76t-109 28q-76 0 -136.5 -29.5 t-107.5 -78.5t-80 -114t-54.5 -135t-31.5 -141.5t-10 -134.5zM936 756q0 55 -8 105.5t-23 95.5l-576 -752q35 -50 82.5 -77.5t104.5 -27.5q77 0 138.5 31t108 82.5t79.5 119t54 140.5t30.5 146.5t9.5 136.5z" />
<glyph unicode="&#xd9;" horiz-adv-x="1227" d="M1280 1217q-63 -14 -98 -31t-37 -31l-90 -643q-18 -131 -61 -232.5t-107 -170.5t-147.5 -104.5t-182.5 -35.5q-82 0 -150.5 25t-117.5 73t-76 118.5t-27 162.5q0 53 9 115l98 692q2 12 -29 30t-96 32l6 43h410l-6 -43q-63 -14 -101.5 -31t-40.5 -31l-88 -645 q-4 -29 -5 -58t-1 -55q0 -70 17 -127t50.5 -98t83.5 -63.5t115 -22.5t120 32t97 85t69.5 122t37.5 144l92 686q2 12 -26 30t-93 32l6 43h375zM908 1393q-14 -20 -22.5 -29t-24.5 -18l-401 244l12 47q9 7 25 17t34 20l35 19l29 15z" />
<glyph unicode="&#xda;" horiz-adv-x="1227" d="M1280 1217q-63 -14 -98 -31t-37 -31l-90 -643q-18 -131 -61 -232.5t-107 -170.5t-147.5 -104.5t-182.5 -35.5q-82 0 -150.5 25t-117.5 73t-76 118.5t-27 162.5q0 53 9 115l98 692q2 12 -29 30t-96 32l6 43h410l-6 -43q-63 -14 -101.5 -31t-40.5 -31l-88 -645 q-4 -29 -5 -58t-1 -55q0 -70 17 -127t50.5 -98t83.5 -63.5t115 -22.5t120 32t97 85t69.5 122t37.5 144l92 686q2 12 -26 30t-93 32l6 43h375zM1094 1590l-455 -244q-14 9 -19 18t-14 29l391 315l23 -15l28 -19l27 -20t19 -17v-47z" />
<glyph unicode="&#xdb;" horiz-adv-x="1227" d="M1280 1217q-63 -14 -98 -31t-37 -31l-90 -643q-18 -131 -61 -232.5t-107 -170.5t-147.5 -104.5t-182.5 -35.5q-82 0 -150.5 25t-117.5 73t-76 118.5t-27 162.5q0 53 9 115l98 692q2 12 -29 30t-96 32l6 43h410l-6 -43q-63 -14 -101.5 -31t-40.5 -31l-88 -645 q-4 -29 -5 -58t-1 -55q0 -70 17 -127t50.5 -98t83.5 -63.5t115 -22.5t120 32t97 85t69.5 122t37.5 144l92 686q2 12 -26 30t-93 32l6 43h375zM1045 1391q-14 -20 -21.5 -29t-23.5 -16l-215 205l-266 -205q-9 6 -16 15.5t-17 29.5l275 301h92z" />
<glyph unicode="&#xdc;" horiz-adv-x="1227" d="M1280 1217q-63 -14 -98 -31t-37 -31l-90 -643q-18 -131 -61 -232.5t-107 -170.5t-147.5 -104.5t-182.5 -35.5q-82 0 -150.5 25t-117.5 73t-76 118.5t-27 162.5q0 53 9 115l98 692q2 12 -29 30t-96 32l6 43h410l-6 -43q-63 -14 -101.5 -31t-40.5 -31l-88 -645 q-4 -29 -5 -58t-1 -55q0 -70 17 -127t50.5 -98t83.5 -63.5t115 -22.5t120 32t97 85t69.5 122t37.5 144l92 686q2 12 -26 30t-93 32l6 43h375zM692 1549q0 -28 -9 -55.5t-25 -50t-39.5 -36.5t-51.5 -14q-32 0 -50 18t-18 52q0 27 9.5 54.5t26 50.5t40 37.5t51.5 14.5 q31 0 48.5 -18.5t17.5 -52.5zM1065 1549q0 -28 -9 -55.5t-25.5 -50t-40 -36.5t-52.5 -14q-31 0 -48.5 18t-17.5 52q0 27 9 54.5t25 50.5t39 37.5t52 14.5q31 0 49.5 -18.5t18.5 -52.5z" />
<glyph unicode="&#xdd;" horiz-adv-x="1145" d="M733 0h-446l6 43q87 19 122.5 38.5t37.5 33.5l59 436q-18 73 -47 157.5t-63.5 167t-71 156t-70.5 123.5q-10 15 -21.5 24t-28 13.5t-40.5 4t-59 -4.5l-9 43q27 7 59.5 14t64.5 13t60.5 10t47.5 4q26 0 51 -39q22 -33 46 -78t48.5 -96.5t47 -105t42 -105t34 -96.5 t22.5 -78l309 473q17 28 -5.5 42t-90.5 24l6 43h360l-6 -43q-63 -13 -98.5 -26.5t-52.5 -39.5l-390 -609l-59 -427q-1 -6 5.5 -14.5t23 -18.5t44 -20t68.5 -19zM1024 1590l-455 -244q-14 9 -19 18t-14 29l391 315l23 -15l28 -19l27 -20t19 -17v-47z" />
<glyph unicode="&#xde;" horiz-adv-x="965" d="M604 1217q-47 -9 -78.5 -17t-50.5 -15.5t-27.5 -15t-9.5 -14.5l-20 -146q64 11 139 11q89 0 160 -23.5t120 -66.5t75 -104t26 -136q0 -87 -33 -164.5t-90.5 -135.5t-135.5 -92t-167 -34q-42 0 -77.5 8t-63.5 25l-11 74q36 -19 70 -24t66 -5q68 0 123.5 24t95 65.5t61 98 t21.5 121.5q0 69 -23 122.5t-63.5 90t-95.5 55.5t-119 19q-23 0 -45 -2.5t-44 -7.5l-112 -824q-2 -6 4 -13t23 -15t46 -16t74 -17l-6 -43h-432l6 43q63 14 100.5 30.5t39.5 30.5l145 1051q2 12 -29 30t-94 32l6 43h432z" />
<glyph unicode="&#xdf;" horiz-adv-x="999" d="M940 1225q0 -89 -26 -147.5t-65.5 -98t-85.5 -66t-85.5 -52t-65.5 -55t-26 -75.5q0 -36 25 -64t62.5 -54t81.5 -53.5t81.5 -62t62.5 -79.5t25 -107t-23.5 -124.5t-68 -113t-110 -82.5t-149.5 -32q-42 0 -83.5 14.5t-74 36t-53 47t-20.5 47.5q0 10 11.5 30t27.5 39.5 t33 34.5t28 15q6 0 12 -13l16 -30q9 -18 21.5 -40t30 -40t42 -30.5t57.5 -12.5q80 0 123.5 45.5t43.5 130.5q0 61 -24.5 102t-61.5 71.5t-80.5 55.5t-80.5 53t-61.5 64t-24.5 89q0 59 15 100t39 70.5t55 50.5t63 39l63 38q31 19 55 44t39 59t15 84q0 45 -11 88.5t-34.5 78 t-60.5 56t-89 21.5q-56 0 -101.5 -38.5t-80 -101t-57 -142.5t-31.5 -163l-88 -759q-13 -111 -44.5 -213.5t-79 -191t-109.5 -158.5t-136 -115l-27 63q50 28 91 88t71.5 138t50.5 165.5t29 169.5l88 760q10 82 30 157t53 141.5t79.5 123.5t110.5 104q27 22 55.5 39t57 29 t55 18.5t49.5 6.5q64 0 114.5 -26t85 -68t52.5 -94.5t18 -104.5z" />
<glyph unicode="&#xe0;" horiz-adv-x="922" d="M603 431l15 93l18 94l14 82l11 60q-15 12 -33 24.5t-38.5 23t-43 17t-46.5 6.5q-46 0 -86.5 -22.5t-75 -59.5t-62 -84.5t-46.5 -98t-29.5 -99.5t-10.5 -88q0 -65 11 -117t30 -89t45 -57t56 -20q24 0 58.5 30.5t72 79t74.5 108t66 117.5zM901 68q-87 -57 -140.5 -83 t-82.5 -26q-18 0 -34.5 12.5t-29.5 47t-20.5 95.5t-7.5 158q-26 -46 -63.5 -100.5t-80.5 -102t-88.5 -79t-87.5 -31.5q-33 0 -70.5 19t-69 60.5t-52.5 107t-21 159.5q0 79 18.5 154.5t55.5 144.5t90.5 129.5t124.5 108.5q27 18 59.5 35t67 30t68.5 21t65 8q21 0 41 -5.5 t39 -14.5t36 -20l32 -20q23 17 49 32t53 28l20 -35q-17 -14 -28 -25t-19.5 -25.5t-14.5 -35.5t-13 -55q-15 -72 -28.5 -147.5t-23 -142.5t-15 -118t-5.5 -73q0 -57 3.5 -96t9.5 -62.5t15 -34t21 -10.5q20 0 47.5 5.5t67.5 22.5zM620 1047q-20 -12 -32 -16t-30 -5l-250 386 l32 36q12 2 30.5 4t39 3.5t39.5 2.5t32 1z" />
<glyph unicode="&#xe1;" horiz-adv-x="922" d="M603 431l15 93l18 94l14 82l11 60q-15 12 -33 24.5t-38.5 23t-43 17t-46.5 6.5q-46 0 -86.5 -22.5t-75 -59.5t-62 -84.5t-46.5 -98t-29.5 -99.5t-10.5 -88q0 -65 11 -117t30 -89t45 -57t56 -20q24 0 58.5 30.5t72 79t74.5 108t66 117.5zM901 68q-87 -57 -140.5 -83 t-82.5 -26q-18 0 -34.5 12.5t-29.5 47t-20.5 95.5t-7.5 158q-26 -46 -63.5 -100.5t-80.5 -102t-88.5 -79t-87.5 -31.5q-33 0 -70.5 19t-69 60.5t-52.5 107t-21 159.5q0 79 18.5 154.5t55.5 144.5t90.5 129.5t124.5 108.5q27 18 59.5 35t67 30t68.5 21t65 8q21 0 41 -5.5 t39 -14.5t36 -20l32 -20q23 17 49 32t53 28l20 -35q-17 -14 -28 -25t-19.5 -25.5t-14.5 -35.5t-13 -55q-15 -72 -28.5 -147.5t-23 -142.5t-15 -118t-5.5 -73q0 -57 3.5 -96t9.5 -62.5t15 -34t21 -10.5q20 0 47.5 5.5t67.5 22.5zM895 1374l-355 -348q-16 4 -23.5 11t-21.5 24 l272 398l26 -7l32 -10.5t32 -11.5t23 -11z" />
<glyph unicode="&#xe2;" horiz-adv-x="922" d="M603 431l15 93l18 94l14 82l11 60q-15 12 -33 24.5t-38.5 23t-43 17t-46.5 6.5q-46 0 -86.5 -22.5t-75 -59.5t-62 -84.5t-46.5 -98t-29.5 -99.5t-10.5 -88q0 -65 11 -117t30 -89t45 -57t56 -20q24 0 58.5 30.5t72 79t74.5 108t66 117.5zM901 68q-87 -57 -140.5 -83 t-82.5 -26q-18 0 -34.5 12.5t-29.5 47t-20.5 95.5t-7.5 158q-26 -46 -63.5 -100.5t-80.5 -102t-88.5 -79t-87.5 -31.5q-33 0 -70.5 19t-69 60.5t-52.5 107t-21 159.5q0 79 18.5 154.5t55.5 144.5t90.5 129.5t124.5 108.5q27 18 59.5 35t67 30t68.5 21t65 8q21 0 41 -5.5 t39 -14.5t36 -20l32 -20q23 17 49 32t53 28l20 -35q-17 -14 -28 -25t-19.5 -25.5t-14.5 -35.5t-13 -55q-15 -72 -28.5 -147.5t-23 -142.5t-15 -118t-5.5 -73q0 -57 3.5 -96t9.5 -62.5t15 -34t21 -10.5q20 0 47.5 5.5t67.5 22.5zM841 1071q-14 -20 -21.5 -29t-23.5 -16 l-208 265l-273 -265q-9 6 -16 15.5t-17 29.5l284 371h92z" />
<glyph unicode="&#xe3;" horiz-adv-x="922" d="M603 431l15 93l18 94l14 82l11 60q-15 12 -33 24.5t-38.5 23t-43 17t-46.5 6.5q-46 0 -86.5 -22.5t-75 -59.5t-62 -84.5t-46.5 -98t-29.5 -99.5t-10.5 -88q0 -65 11 -117t30 -89t45 -57t56 -20q24 0 58.5 30.5t72 79t74.5 108t66 117.5zM901 68q-87 -57 -140.5 -83 t-82.5 -26q-18 0 -34.5 12.5t-29.5 47t-20.5 95.5t-7.5 158q-26 -46 -63.5 -100.5t-80.5 -102t-88.5 -79t-87.5 -31.5q-33 0 -70.5 19t-69 60.5t-52.5 107t-21 159.5q0 79 18.5 154.5t55.5 144.5t90.5 129.5t124.5 108.5q27 18 59.5 35t67 30t68.5 21t65 8q21 0 41 -5.5 t39 -14.5t36 -20l32 -20q23 17 49 32t53 28l20 -35q-17 -14 -28 -25t-19.5 -25.5t-14.5 -35.5t-13 -55q-15 -72 -28.5 -147.5t-23 -142.5t-15 -118t-5.5 -73q0 -57 3.5 -96t9.5 -62.5t15 -34t21 -10.5q20 0 47.5 5.5t67.5 22.5zM901 1326q-21 -40 -47.5 -80t-57.5 -71.5 t-66.5 -51t-74.5 -19.5q-32 0 -57.5 17t-49 37.5t-47 37.5t-49.5 17q-35 0 -71 -31.5t-78 -87.5l-43 21q21 40 47.5 79.5t58 71t67.5 51t74 19.5q33 0 60.5 -17t51.5 -37l45 -38q21 -17 42 -17q35 0 73.5 31.5t76.5 87.5z" />
<glyph unicode="&#xe4;" horiz-adv-x="922" d="M603 431l15 93l18 94l14 82l11 60q-15 12 -33 24.5t-38.5 23t-43 17t-46.5 6.5q-46 0 -86.5 -22.5t-75 -59.5t-62 -84.5t-46.5 -98t-29.5 -99.5t-10.5 -88q0 -65 11 -117t30 -89t45 -57t56 -20q24 0 58.5 30.5t72 79t74.5 108t66 117.5zM901 68q-87 -57 -140.5 -83 t-82.5 -26q-18 0 -34.5 12.5t-29.5 47t-20.5 95.5t-7.5 158q-26 -46 -63.5 -100.5t-80.5 -102t-88.5 -79t-87.5 -31.5q-33 0 -70.5 19t-69 60.5t-52.5 107t-21 159.5q0 79 18.5 154.5t55.5 144.5t90.5 129.5t124.5 108.5q27 18 59.5 35t67 30t68.5 21t65 8q21 0 41 -5.5 t39 -14.5t36 -20l32 -20q23 17 49 32t53 28l20 -35q-17 -14 -28 -25t-19.5 -25.5t-14.5 -35.5t-13 -55q-15 -72 -28.5 -147.5t-23 -142.5t-15 -118t-5.5 -73q0 -57 3.5 -96t9.5 -62.5t15 -34t21 -10.5q20 0 47.5 5.5t67.5 22.5zM490 1262q0 -28 -9 -55.5t-25 -50 t-39.5 -36.5t-51.5 -14q-32 0 -50 18t-18 52q0 27 9.5 54.5t26 50.5t40 37.5t51.5 14.5q31 0 48.5 -18.5t17.5 -52.5zM863 1262q0 -28 -9 -55.5t-25.5 -50t-40 -36.5t-52.5 -14q-31 0 -48.5 18t-17.5 52q0 27 9 54.5t25 50.5t39 37.5t52 14.5q31 0 49.5 -18.5t18.5 -52.5z " />
<glyph unicode="&#xe5;" horiz-adv-x="922" d="M603 431l15 93l18 94l14 82l11 60q-15 12 -33 24.5t-38.5 23t-43 17t-46.5 6.5q-46 0 -86.5 -22.5t-75 -59.5t-62 -84.5t-46.5 -98t-29.5 -99.5t-10.5 -88q0 -65 11 -117t30 -89t45 -57t56 -20q24 0 58.5 30.5t72 79t74.5 108t66 117.5zM901 68q-87 -57 -140.5 -83 t-82.5 -26q-18 0 -34.5 12.5t-29.5 47t-20.5 95.5t-7.5 158q-26 -46 -63.5 -100.5t-80.5 -102t-88.5 -79t-87.5 -31.5q-33 0 -70.5 19t-69 60.5t-52.5 107t-21 159.5q0 79 18.5 154.5t55.5 144.5t90.5 129.5t124.5 108.5q27 18 59.5 35t67 30t68.5 21t65 8q21 0 41 -5.5 t39 -14.5t36 -20l32 -20q23 17 49 32t53 28l20 -35q-17 -14 -28 -25t-19.5 -25.5t-14.5 -35.5t-13 -55q-15 -72 -28.5 -147.5t-23 -142.5t-15 -118t-5.5 -73q0 -57 3.5 -96t9.5 -62.5t15 -34t21 -10.5q20 0 47.5 5.5t67.5 22.5zM666 1243q0 35 -15 62.5t-46 27.5 q-28 0 -49 -13t-35.5 -33.5t-21.5 -45.5t-7 -49q0 -37 16.5 -64.5t47.5 -27.5q27 0 47.5 13.5t34.5 34t21 46t7 49.5zM750 1280q0 -41 -17.5 -85.5t-48 -82t-71 -62t-86.5 -24.5q-26 0 -48 10t-38 27t-24.5 39t-8.5 47q0 45 17.5 91t48 83.5t71.5 61.5t88 24q53 0 85 -36.5 t32 -92.5z" />
<glyph unicode="&#xe6;" horiz-adv-x="1325" d="M911 782q-33 -30 -64.5 -73t-57 -93t-42.5 -104.5t-21 -107.5q131 51 207.5 92.5t115.5 78.5t50 71t11 69q0 31 -8 53.5t-21 36t-29.5 20t-33.5 6.5q-16 0 -47 -11.5t-60 -37.5zM599 443l15 94l14 93l12 78l9 52v2q-15 12 -33 24t-38 22t-42.5 16.5t-46.5 6.5 q-46 0 -85.5 -22.5t-73 -59.5t-59.5 -84.5t-44 -98t-27.5 -99.5t-9.5 -88q0 -65 10.5 -117t28.5 -89t43 -57t54 -20q24 0 59 32t73 82.5t75 112t66 120.5zM862 901q-15 -12 -25.5 -22.5t-18 -22.5t-14 -28t-12.5 -41q32 31 68 59q24 18 53.5 34.5t61 29t64 19.5t63.5 7 q43 0 74.5 -15.5t52.5 -40.5t31 -56.5t10 -63.5q0 -28 -6.5 -59t-27 -64t-57 -69t-97 -74.5t-147.5 -80t-208 -86.5q6 -56 23.5 -102t41 -79t51 -51.5t54.5 -18.5q21 0 51 4.5t69.5 19.5t89 44t110.5 77q11 -6 18 -19.5t12 -21.5q-83 -71 -145.5 -114.5t-112 -67t-89 -31.5 t-75.5 -8q-32 0 -71.5 16.5t-75.5 53.5t-62 96.5t-31 144.5q-26 -46 -64.5 -100t-82.5 -101t-90 -78.5t-86 -31.5q-34 0 -71 19t-67.5 60.5t-50.5 107t-20 159.5q0 79 17.5 154.5t53 144.5t89 129.5t125.5 108.5q27 18 58.5 35t64.5 30t66.5 21t64.5 8q21 0 41 -5.5 t39 -14.5t37 -20l34 -21q23 17 48 32.5t51 28.5z" />
<glyph unicode="&#xe7;" horiz-adv-x="795" d="M476 -221q0 -53 -31 -97t-80.5 -68.5t-111 -24t-121.5 35.5l-2 39q52 -24 93 -25.5t69 11t42.5 35.5t14.5 47q0 26 -23 40.5t-70 12.5q14 37 23.5 65.5t16.5 53.5t12 49l2 6h-13q-34 0 -76 17t-79.5 59t-63 112t-25.5 175q0 67 14 138.5t45.5 140t82 130.5t124.5 111 q28 18 62 35t70.5 30t72 21t66.5 8q44 0 78.5 -17t61.5 -38.5t47.5 -41t35.5 -24.5l-45 -32q-23 -17 -45 -30.5t-41.5 -22.5t-32.5 -9q-11 0 -27 17l-38 38q-21 21 -48 38t-59 17q-46 0 -84 -22t-69 -59t-54.5 -85.5t-39 -101t-23.5 -105.5t-8 -100q0 -65 14.5 -117 t40.5 -88.5t62 -56.5t79 -20q18 0 46 6t64.5 22.5t81.5 44.5t99 72q8 -11 17 -22t14 -19q-78 -71 -140 -114.5t-113 -66.5q-45 -22 -83 -30q-4 -19 -7 -32q-6 -25 -13 -50q51 -2 83 -30.5t32 -77.5z" />
<glyph unicode="&#xe8;" horiz-adv-x="805" d="M391 782q-33 -30 -64.5 -73t-57 -93t-42.5 -104.5t-21 -107.5q131 51 207.5 92.5t115.5 78.5t50 71t11 69q0 31 -8 53.5t-21 36t-29.5 20t-33.5 6.5q-16 0 -47 -11.5t-60 -37.5zM750 760q0 -28 -6.5 -59t-27 -64t-57 -69t-97 -74.5t-147.5 -80t-208 -86.5 q6 -56 23.5 -102t41 -79t51 -51.5t54.5 -18.5q21 0 51 4.5t69.5 19.5t89 44t109.5 77q11 -6 19.5 -19.5t11.5 -21.5q-82 -71 -145 -114.5t-112.5 -67t-89 -31.5t-75.5 -8q-33 0 -75 18.5t-79 59t-62.5 106t-25.5 160.5q0 78 19 153.5t54.5 145t87.5 131.5t118 113 q23 18 52 34.5t60.5 29t64 19.5t63.5 7q43 0 74.5 -15.5t52.5 -40.5t31 -56.5t10 -63.5zM580 1047q-20 -12 -32 -16t-30 -5l-250 386l32 36q12 2 30.5 4t39 3.5t39.5 2.5t32 1z" />
<glyph unicode="&#xe9;" horiz-adv-x="805" d="M391 782q-33 -30 -64.5 -73t-57 -93t-42.5 -104.5t-21 -107.5q131 51 207.5 92.5t115.5 78.5t50 71t11 69q0 31 -8 53.5t-21 36t-29.5 20t-33.5 6.5q-16 0 -47 -11.5t-60 -37.5zM750 760q0 -28 -6.5 -59t-27 -64t-57 -69t-97 -74.5t-147.5 -80t-208 -86.5 q6 -56 23.5 -102t41 -79t51 -51.5t54.5 -18.5q21 0 51 4.5t69.5 19.5t89 44t109.5 77q11 -6 19.5 -19.5t11.5 -21.5q-82 -71 -145 -114.5t-112.5 -67t-89 -31.5t-75.5 -8q-33 0 -75 18.5t-79 59t-62.5 106t-25.5 160.5q0 78 19 153.5t54.5 145t87.5 131.5t118 113 q23 18 52 34.5t60.5 29t64 19.5t63.5 7q43 0 74.5 -15.5t52.5 -40.5t31 -56.5t10 -63.5zM855 1374l-355 -348q-16 4 -23.5 11t-21.5 24l272 398l26 -7l32 -10.5t32 -11.5t23 -11z" />
<glyph unicode="&#xea;" horiz-adv-x="805" d="M391 782q-33 -30 -64.5 -73t-57 -93t-42.5 -104.5t-21 -107.5q131 51 207.5 92.5t115.5 78.5t50 71t11 69q0 31 -8 53.5t-21 36t-29.5 20t-33.5 6.5q-16 0 -47 -11.5t-60 -37.5zM750 760q0 -28 -6.5 -59t-27 -64t-57 -69t-97 -74.5t-147.5 -80t-208 -86.5 q6 -56 23.5 -102t41 -79t51 -51.5t54.5 -18.5q21 0 51 4.5t69.5 19.5t89 44t109.5 77q11 -6 19.5 -19.5t11.5 -21.5q-82 -71 -145 -114.5t-112.5 -67t-89 -31.5t-75.5 -8q-33 0 -75 18.5t-79 59t-62.5 106t-25.5 160.5q0 78 19 153.5t54.5 145t87.5 131.5t118 113 q23 18 52 34.5t60.5 29t64 19.5t63.5 7q43 0 74.5 -15.5t52.5 -40.5t31 -56.5t10 -63.5zM801 1071q-14 -20 -21.5 -29t-23.5 -16l-208 265l-273 -265q-9 6 -16 15.5t-17 29.5l284 371h92z" />
<glyph unicode="&#xeb;" horiz-adv-x="805" d="M391 782q-33 -30 -64.5 -73t-57 -93t-42.5 -104.5t-21 -107.5q131 51 207.5 92.5t115.5 78.5t50 71t11 69q0 31 -8 53.5t-21 36t-29.5 20t-33.5 6.5q-16 0 -47 -11.5t-60 -37.5zM750 760q0 -28 -6.5 -59t-27 -64t-57 -69t-97 -74.5t-147.5 -80t-208 -86.5 q6 -56 23.5 -102t41 -79t51 -51.5t54.5 -18.5q21 0 51 4.5t69.5 19.5t89 44t109.5 77q11 -6 19.5 -19.5t11.5 -21.5q-82 -71 -145 -114.5t-112.5 -67t-89 -31.5t-75.5 -8q-33 0 -75 18.5t-79 59t-62.5 106t-25.5 160.5q0 78 19 153.5t54.5 145t87.5 131.5t118 113 q23 18 52 34.5t60.5 29t64 19.5t63.5 7q43 0 74.5 -15.5t52.5 -40.5t31 -56.5t10 -63.5zM450 1262q0 -28 -9 -55.5t-25 -50t-39.5 -36.5t-51.5 -14q-32 0 -50 18t-18 52q0 27 9.5 54.5t26 50.5t40 37.5t51.5 14.5q31 0 48.5 -18.5t17.5 -52.5zM823 1262q0 -28 -9 -55.5 t-25.5 -50t-40 -36.5t-52.5 -14q-31 0 -48.5 18t-17.5 52q0 27 9 54.5t25 50.5t39 37.5t52 14.5q31 0 49.5 -18.5t18.5 -52.5z" />
<glyph unicode="&#xec;" horiz-adv-x="504" d="M455 72l-85 -49q-37 -21 -68 -35.5t-56 -21.5t-47 -7q-34 0 -54 31.5t-20 85.5q0 30 7.5 85.5t18.5 122.5l24 142l24 140q11 66 18.5 118t7.5 76q0 23 -3 36.5t-8 20t-13 8.5t-17 2q-8 0 -24.5 -3.5t-33.5 -8.5q-19 -5 -42 -12l-14 37l84 36q41 18 77 31t63 21t40 8 q28 0 39.5 -19t11.5 -65q0 -29 -7.5 -85.5t-19.5 -126.5l-25 -146l-25 -147q-12 -70 -19.5 -126.5t-7.5 -85.5q0 -31 6.5 -45t23.5 -14q31 0 59.5 8t69.5 25zM427 1047q-20 -12 -32 -16t-30 -5l-250 386l32 36q12 2 30.5 4t39 3.5t39.5 2.5t32 1z" />
<glyph unicode="&#xed;" horiz-adv-x="504" d="M455 72l-85 -49q-37 -21 -68 -35.5t-56 -21.5t-47 -7q-34 0 -54 31.5t-20 85.5q0 30 7.5 85.5t18.5 122.5l24 142l24 140q11 66 18.5 118t7.5 76q0 23 -3 36.5t-8 20t-13 8.5t-17 2q-8 0 -24.5 -3.5t-33.5 -8.5q-19 -5 -42 -12l-14 37l84 36q41 18 77 31t63 21t40 8 q28 0 39.5 -19t11.5 -65q0 -29 -7.5 -85.5t-19.5 -126.5l-25 -146l-25 -147q-12 -70 -19.5 -126.5t-7.5 -85.5q0 -31 6.5 -45t23.5 -14q31 0 59.5 8t69.5 25zM702 1374l-355 -348q-16 4 -23.5 11t-21.5 24l272 398l26 -7l32 -10.5t32 -11.5t23 -11z" />
<glyph unicode="&#xee;" horiz-adv-x="504" d="M455 72l-85 -49q-37 -21 -68 -35.5t-56 -21.5t-47 -7q-34 0 -54 31.5t-20 85.5q0 30 7.5 85.5t18.5 122.5l24 142l24 140q11 66 18.5 118t7.5 76q0 23 -3 36.5t-8 20t-13 8.5t-17 2q-8 0 -24.5 -3.5t-33.5 -8.5q-19 -5 -42 -12l-14 37l84 36q41 18 77 31t63 21t40 8 q28 0 39.5 -19t11.5 -65q0 -29 -7.5 -85.5t-19.5 -126.5l-25 -146l-25 -147q-12 -70 -19.5 -126.5t-7.5 -85.5q0 -31 6.5 -45t23.5 -14q31 0 59.5 8t69.5 25zM648 1071q-14 -20 -21.5 -29t-23.5 -16l-208 265l-273 -265q-9 6 -16 15.5t-17 29.5l284 371h92z" />
<glyph unicode="&#xef;" horiz-adv-x="504" d="M455 72l-85 -49q-37 -21 -68 -35.5t-56 -21.5t-47 -7q-34 0 -54 31.5t-20 85.5q0 30 7.5 85.5t18.5 122.5l24 142l24 140q11 66 18.5 118t7.5 76q0 23 -3 36.5t-8 20t-13 8.5t-17 2q-8 0 -24.5 -3.5t-33.5 -8.5q-19 -5 -42 -12l-14 37l84 36q41 18 77 31t63 21t40 8 q28 0 39.5 -19t11.5 -65q0 -29 -7.5 -85.5t-19.5 -126.5l-25 -146l-25 -147q-12 -70 -19.5 -126.5t-7.5 -85.5q0 -31 6.5 -45t23.5 -14q31 0 59.5 8t69.5 25zM297 1262q0 -28 -9 -55.5t-25 -50t-39.5 -36.5t-51.5 -14q-32 0 -50 18t-18 52q0 27 9.5 54.5t26 50.5t40 37.5 t51.5 14.5q31 0 48.5 -18.5t17.5 -52.5zM670 1262q0 -28 -9 -55.5t-25.5 -50t-40 -36.5t-52.5 -14q-31 0 -48.5 18t-17.5 52q0 27 9 54.5t25 50.5t39 37.5t52 14.5q31 0 49.5 -18.5t18.5 -52.5z" />
<glyph unicode="&#xf0;" horiz-adv-x="885" d="M395 68q72 0 125.5 45t91 116.5t59.5 161t32 178.5q-10 56 -34.5 103t-57.5 81t-71.5 53t-76.5 19q-45 0 -82 -20t-67 -53t-52.5 -76.5t-38 -91t-23 -96t-7.5 -91.5q0 -68 16.5 -128t44 -104.5t64 -70.5t77.5 -26zM844 707q0 -106 -19 -202t-53 -179.5t-80 -151 t-99.5 -115.5t-112.5 -74t-118 -26q-74 0 -131.5 27.5t-97 76t-60 115.5t-20.5 146q0 78 16.5 153.5t46.5 143.5t71.5 125.5t92 100t107.5 66t117 23.5q27 0 55 -10.5t54 -28.5t50 -42t43 -51q-11 100 -45.5 180.5t-88.5 151.5l-214 -96q-16 3 -25 4.5t-16 3.5t-15 5l-21 8 l-5 35l241 109q-21 23 -44.5 42.5t-51 32t-59 17.5t-69.5 -1v41l188 72q45 -37 83.5 -74.5t71.5 -75.5l198 89q20 -4 30.5 -6.5t17.5 -4.5t12.5 -5t16.5 -7l2 -35l-223 -101q81 -114 117.5 -234t36.5 -248z" />
<glyph unicode="&#xf1;" horiz-adv-x="1012" d="M973 72q-91 -54 -154.5 -83.5t-101.5 -29.5q-35 0 -54.5 31.5t-19.5 85.5q0 18 6.5 64.5t16.5 108.5l22 132l22 133q10 63 16.5 113t6.5 73q0 76 -16 106t-60 30q-13 0 -45.5 -16t-73.5 -48t-85.5 -80t-81.5 -112q-28 -48 -45.5 -115t-34.5 -164q-16 -89 -20.5 -153 t-2.5 -123q-13 -7 -32 -15l-40 -18l-40 -18q-19 -8 -31 -15l-33 31q14 66 28 143l26 155l23 152.5t19 139t12.5 111.5t4.5 71t-2.5 36.5t-7 20t-11.5 8.5t-16 2t-26.5 -4t-35.5 -9l-45 -13l-14 39l85 35q42 17 79 30t64.5 21t39.5 8q14 0 22 -4.5t11.5 -16.5t4.5 -34t1 -58 q0 -11 -1 -30t-2.5 -40.5t-3.5 -42t-3 -32.5q54 68 109 117t108 80.5t102.5 46t94.5 14.5q31 0 55.5 -9t40.5 -29.5t24.5 -54t8.5 -81.5q0 -35 -6.5 -87t-16.5 -112.5t-22 -124.5l-22 -122q-10 -58 -16.5 -105.5t-6.5 -75.5q0 -34 9 -46.5t27 -12.5q23 0 53 8t72 25z M935 1326q-21 -40 -47.5 -80t-57.5 -71.5t-66.5 -51t-74.5 -19.5q-32 0 -57.5 17t-49 37.5t-47 37.5t-49.5 17q-35 0 -71 -31.5t-78 -87.5l-43 21q21 40 47.5 79.5t58 71t67.5 51t74 19.5q33 0 60.5 -17t51.5 -37l45 -38q21 -17 42 -17q35 0 73.5 31.5t76.5 87.5z" />
<glyph unicode="&#xf2;" horiz-adv-x="864" d="M668 504q0 153 -56 234t-159 81q-72 0 -121 -41.5t-79 -104.5t-43 -136.5t-13 -137.5q0 -67 16.5 -126.5t46 -104t69 -70.5t85.5 -26t82.5 20.5t65 55t48.5 79t33 92.5t19 96t6 89zM811 559q0 -67 -15 -135.5t-44 -133t-71.5 -123t-98.5 -104.5q-26 -21 -55 -40 t-59 -33.5t-61 -22.5t-61 -8q-70 0 -124.5 29.5t-92 81t-57 122t-19.5 152.5q0 72 12 138.5t39 128.5t72 119t111 110q51 40 112 68t123 28q78 0 133 -28t89.5 -78t50.5 -119t16 -152zM575 1047q-20 -12 -32 -16t-30 -5l-250 386l32 36q12 2 30.5 4t39 3.5t39.5 2.5t32 1z " />
<glyph unicode="&#xf3;" horiz-adv-x="864" d="M668 504q0 153 -56 234t-159 81q-72 0 -121 -41.5t-79 -104.5t-43 -136.5t-13 -137.5q0 -67 16.5 -126.5t46 -104t69 -70.5t85.5 -26t82.5 20.5t65 55t48.5 79t33 92.5t19 96t6 89zM811 559q0 -67 -15 -135.5t-44 -133t-71.5 -123t-98.5 -104.5q-26 -21 -55 -40 t-59 -33.5t-61 -22.5t-61 -8q-70 0 -124.5 29.5t-92 81t-57 122t-19.5 152.5q0 72 12 138.5t39 128.5t72 119t111 110q51 40 112 68t123 28q78 0 133 -28t89.5 -78t50.5 -119t16 -152zM850 1374l-355 -348q-16 4 -23.5 11t-21.5 24l272 398l26 -7l32 -10.5t32 -11.5t23 -11z " />
<glyph unicode="&#xf4;" horiz-adv-x="864" d="M668 504q0 153 -56 234t-159 81q-72 0 -121 -41.5t-79 -104.5t-43 -136.5t-13 -137.5q0 -67 16.5 -126.5t46 -104t69 -70.5t85.5 -26t82.5 20.5t65 55t48.5 79t33 92.5t19 96t6 89zM811 559q0 -67 -15 -135.5t-44 -133t-71.5 -123t-98.5 -104.5q-26 -21 -55 -40 t-59 -33.5t-61 -22.5t-61 -8q-70 0 -124.5 29.5t-92 81t-57 122t-19.5 152.5q0 72 12 138.5t39 128.5t72 119t111 110q51 40 112 68t123 28q78 0 133 -28t89.5 -78t50.5 -119t16 -152zM796 1071q-14 -20 -21.5 -29t-23.5 -16l-208 265l-273 -265q-9 6 -16 15.5t-17 29.5 l284 371h92z" />
<glyph unicode="&#xf5;" horiz-adv-x="864" d="M668 504q0 153 -56 234t-159 81q-72 0 -121 -41.5t-79 -104.5t-43 -136.5t-13 -137.5q0 -67 16.5 -126.5t46 -104t69 -70.5t85.5 -26t82.5 20.5t65 55t48.5 79t33 92.5t19 96t6 89zM811 559q0 -67 -15 -135.5t-44 -133t-71.5 -123t-98.5 -104.5q-26 -21 -55 -40 t-59 -33.5t-61 -22.5t-61 -8q-70 0 -124.5 29.5t-92 81t-57 122t-19.5 152.5q0 72 12 138.5t39 128.5t72 119t111 110q51 40 112 68t123 28q78 0 133 -28t89.5 -78t50.5 -119t16 -152zM856 1326q-21 -40 -47.5 -80t-57.5 -71.5t-66.5 -51t-74.5 -19.5q-32 0 -57.5 17 t-49 37.5t-47 37.5t-49.5 17q-35 0 -71 -31.5t-78 -87.5l-43 21q21 40 47.5 79.5t58 71t67.5 51t74 19.5q33 0 60.5 -17t51.5 -37l45 -38q21 -17 42 -17q35 0 73.5 31.5t76.5 87.5z" />
<glyph unicode="&#xf6;" horiz-adv-x="864" d="M668 504q0 153 -56 234t-159 81q-72 0 -121 -41.5t-79 -104.5t-43 -136.5t-13 -137.5q0 -67 16.5 -126.5t46 -104t69 -70.5t85.5 -26t82.5 20.5t65 55t48.5 79t33 92.5t19 96t6 89zM811 559q0 -67 -15 -135.5t-44 -133t-71.5 -123t-98.5 -104.5q-26 -21 -55 -40 t-59 -33.5t-61 -22.5t-61 -8q-70 0 -124.5 29.5t-92 81t-57 122t-19.5 152.5q0 72 12 138.5t39 128.5t72 119t111 110q51 40 112 68t123 28q78 0 133 -28t89.5 -78t50.5 -119t16 -152zM445 1262q0 -28 -9 -55.5t-25 -50t-39.5 -36.5t-51.5 -14q-32 0 -50 18t-18 52 q0 27 9.5 54.5t26 50.5t40 37.5t51.5 14.5q31 0 48.5 -18.5t17.5 -52.5zM818 1262q0 -28 -9 -55.5t-25.5 -50t-40 -36.5t-52.5 -14q-31 0 -48.5 18t-17.5 52q0 27 9 54.5t25 50.5t39 37.5t52 14.5q31 0 49.5 -18.5t18.5 -52.5z" />
<glyph unicode="&#xf7;" horiz-adv-x="770" d="M715 596q-3 -10 -8 -23l-10 -25q-5 -12 -11 -24l-10 -19h-587l-19 24l19 45q11 26 22 46h586zM433 339q-3 -22 -12 -42t-22.5 -35t-29.5 -23.5t-34 -8.5q-32 0 -43.5 20t-6.5 57q3 22 12.5 42t22.5 34.5t29.5 23t33.5 8.5q61 0 50 -76zM500 819q-3 -22 -12.5 -42t-23 -35 t-29.5 -23.5t-34 -8.5q-32 0 -43 20t-6 57q3 22 12.5 42t22.5 34.5t29.5 23t33.5 8.5q61 0 50 -76z" />
<glyph unicode="&#xf8;" horiz-adv-x="864" d="M197 399q0 -39 5.5 -75.5t16.5 -68.5l393 482q-56 82 -159 82q-72 0 -121 -41.5t-79 -104.5t-43 -136.5t-13 -137.5zM668 504q0 80 -17 145l-392 -480q29 -45 68.5 -71t86.5 -26q46 0 82.5 20.5t65 55t48.5 79t33 92.5t19 96t6 89zM811 559q0 -67 -15 -135.5t-44 -133 t-71.5 -123t-98.5 -104.5q-26 -21 -55 -40t-59 -33.5t-61 -22.5t-61 -8q-60 0 -108 22t-84 60l-27 -33q-9 -8 -25 -18.5t-33.5 -20.5t-34 -18.5t-28.5 -11.5l-20 30l117 144q-25 48 -37.5 106.5t-12.5 124.5q0 72 12 138.5t39 128.5t72 119t111 110q51 40 112 68t123 28 q63 0 111 -18.5t82 -52.5l20 24q28 17 59.5 39t59.5 30l23 -32l-110 -135q23 -47 33.5 -105.5t10.5 -126.5z" />
<glyph unicode="&#xf9;" horiz-adv-x="1022" d="M975 68q-81 -54 -137.5 -81.5t-94.5 -27.5q-19 0 -37.5 17.5t-32 57.5t-19 104.5t1.5 158.5q-41 -74 -86.5 -136t-94.5 -107t-101 -70t-106 -25q-20 0 -45.5 15.5t-48 46.5t-38 77t-15.5 107q0 30 5.5 76t13.5 99t18 110t18 109t13.5 94.5t5.5 66.5q0 23 -3 36.5t-8.5 20 t-13 8.5t-16.5 2t-26 -3.5t-34 -8.5q-20 -5 -43 -12l-12 37l85 36q42 18 78 31t63.5 21t39.5 8q29 0 39 -19t10 -65q0 -29 -6 -76t-15 -103l-19 -116l-19 -116q-9 -56 -15 -103t-6 -76q0 -96 20.5 -139t57.5 -43q20 0 53 19.5t75 63t91.5 113.5t102.5 171l14 87l15 84 q7 40 11.5 76.5t4.5 65.5q0 23 -2.5 36.5t-7.5 20t-11.5 8.5t-15.5 2t-24.5 -3.5t-31.5 -8.5q-18 -5 -38 -12l-15 37l83 36q41 18 75.5 31t60.5 21t39 8q28 0 37 -19t9 -65q0 -29 -6 -75.5t-15 -102t-20 -116t-20 -117t-15 -105.5t-6 -82q0 -91 13 -134.5t38 -43.5 q26 0 52.5 6.5t62.5 21.5zM651 1047q-20 -12 -32 -16t-30 -5l-250 386l32 36q12 2 30.5 4t39 3.5t39.5 2.5t32 1z" />
<glyph unicode="&#xfa;" horiz-adv-x="1022" d="M975 68q-81 -54 -137.5 -81.5t-94.5 -27.5q-19 0 -37.5 17.5t-32 57.5t-19 104.5t1.5 158.5q-41 -74 -86.5 -136t-94.5 -107t-101 -70t-106 -25q-20 0 -45.5 15.5t-48 46.5t-38 77t-15.5 107q0 30 5.5 76t13.5 99t18 110t18 109t13.5 94.5t5.5 66.5q0 23 -3 36.5t-8.5 20 t-13 8.5t-16.5 2t-26 -3.5t-34 -8.5q-20 -5 -43 -12l-12 37l85 36q42 18 78 31t63.5 21t39.5 8q29 0 39 -19t10 -65q0 -29 -6 -76t-15 -103l-19 -116l-19 -116q-9 -56 -15 -103t-6 -76q0 -96 20.5 -139t57.5 -43q20 0 53 19.5t75 63t91.5 113.5t102.5 171l14 87l15 84 q7 40 11.5 76.5t4.5 65.5q0 23 -2.5 36.5t-7.5 20t-11.5 8.5t-15.5 2t-24.5 -3.5t-31.5 -8.5q-18 -5 -38 -12l-15 37l83 36q41 18 75.5 31t60.5 21t39 8q28 0 37 -19t9 -65q0 -29 -6 -75.5t-15 -102t-20 -116t-20 -117t-15 -105.5t-6 -82q0 -91 13 -134.5t38 -43.5 q26 0 52.5 6.5t62.5 21.5zM926 1374l-355 -348q-16 4 -23.5 11t-21.5 24l272 398l26 -7l32 -10.5t32 -11.5t23 -11z" />
<glyph unicode="&#xfb;" horiz-adv-x="1022" d="M975 68q-81 -54 -137.5 -81.5t-94.5 -27.5q-19 0 -37.5 17.5t-32 57.5t-19 104.5t1.5 158.5q-41 -74 -86.5 -136t-94.5 -107t-101 -70t-106 -25q-20 0 -45.5 15.5t-48 46.5t-38 77t-15.5 107q0 30 5.5 76t13.5 99t18 110t18 109t13.5 94.5t5.5 66.5q0 23 -3 36.5t-8.5 20 t-13 8.5t-16.5 2t-26 -3.5t-34 -8.5q-20 -5 -43 -12l-12 37l85 36q42 18 78 31t63.5 21t39.5 8q29 0 39 -19t10 -65q0 -29 -6 -76t-15 -103l-19 -116l-19 -116q-9 -56 -15 -103t-6 -76q0 -96 20.5 -139t57.5 -43q20 0 53 19.5t75 63t91.5 113.5t102.5 171l14 87l15 84 q7 40 11.5 76.5t4.5 65.5q0 23 -2.5 36.5t-7.5 20t-11.5 8.5t-15.5 2t-24.5 -3.5t-31.5 -8.5q-18 -5 -38 -12l-15 37l83 36q41 18 75.5 31t60.5 21t39 8q28 0 37 -19t9 -65q0 -29 -6 -75.5t-15 -102t-20 -116t-20 -117t-15 -105.5t-6 -82q0 -91 13 -134.5t38 -43.5 q26 0 52.5 6.5t62.5 21.5zM872 1071q-14 -20 -21.5 -29t-23.5 -16l-208 265l-273 -265q-9 6 -16 15.5t-17 29.5l284 371h92z" />
<glyph unicode="&#xfc;" horiz-adv-x="1022" d="M975 68q-81 -54 -137.5 -81.5t-94.5 -27.5q-19 0 -37.5 17.5t-32 57.5t-19 104.5t1.5 158.5q-41 -74 -86.5 -136t-94.5 -107t-101 -70t-106 -25q-20 0 -45.5 15.5t-48 46.5t-38 77t-15.5 107q0 30 5.5 76t13.5 99t18 110t18 109t13.5 94.5t5.5 66.5q0 23 -3 36.5t-8.5 20 t-13 8.5t-16.5 2t-26 -3.5t-34 -8.5q-20 -5 -43 -12l-12 37l85 36q42 18 78 31t63.5 21t39.5 8q29 0 39 -19t10 -65q0 -29 -6 -76t-15 -103l-19 -116l-19 -116q-9 -56 -15 -103t-6 -76q0 -96 20.5 -139t57.5 -43q20 0 53 19.5t75 63t91.5 113.5t102.5 171l14 87l15 84 q7 40 11.5 76.5t4.5 65.5q0 23 -2.5 36.5t-7.5 20t-11.5 8.5t-15.5 2t-24.5 -3.5t-31.5 -8.5q-18 -5 -38 -12l-15 37l83 36q41 18 75.5 31t60.5 21t39 8q28 0 37 -19t9 -65q0 -29 -6 -75.5t-15 -102t-20 -116t-20 -117t-15 -105.5t-6 -82q0 -91 13 -134.5t38 -43.5 q26 0 52.5 6.5t62.5 21.5zM521 1262q0 -28 -9 -55.5t-25 -50t-39.5 -36.5t-51.5 -14q-32 0 -50 18t-18 52q0 27 9.5 54.5t26 50.5t40 37.5t51.5 14.5q31 0 48.5 -18.5t17.5 -52.5zM894 1262q0 -28 -9 -55.5t-25.5 -50t-40 -36.5t-52.5 -14q-31 0 -48.5 18t-17.5 52 q0 27 9 54.5t25 50.5t39 37.5t52 14.5q31 0 49.5 -18.5t18.5 -52.5z" />
<glyph unicode="&#xfd;" horiz-adv-x="926" d="M893 860q0 -34 -18.5 -87.5t-60 -143t-108.5 -222.5l-165 -325q-67 -131 -133.5 -238t-136.5 -183.5t-146 -118.5t-161 -42q-30 0 -56.5 5t-46 12.5t-31 16.5t-11.5 17q0 12 9.5 33.5t23.5 45t30.5 43t30.5 26.5q24 -16 42.5 -25t34.5 -13t32 -4.5t34 -0.5 q81 0 158.5 78.5t161.5 221.5q-10 58 -24.5 131t-31.5 150l-37 155q-19 77 -38 145t-36.5 122.5t-32.5 85.5q-23 51 -39 66.5t-33 15.5q-9 0 -25.5 -3.5t-32.5 -8.5q-19 -5 -40 -12l-12 37l80 36l68 31q31 13 54 21t35 8q14 0 24.5 -7t20.5 -22t19.5 -39.5t21.5 -58.5 q19 -54 41.5 -127.5t45.5 -158.5t45 -176.5t40 -181.5l65 129l62 129l56 123l44.5 107t30.5 84.5t11 53.5q0 50 -53 53q-32 3 -91 -23l-18 37q72 42 126.5 60t88.5 18q17 0 32 -2.5t26 -10.5t17.5 -23t6.5 -40zM910 1374l-355 -348q-16 4 -23.5 11t-21.5 24l272 398l26 -7 l32 -10.5t32 -11.5t23 -11z" />
<glyph unicode="&#xfe;" horiz-adv-x="965" d="M610 805q-26 0 -65.5 -23.5t-83.5 -67t-87 -104t-76 -134.5l-28 -169q15 -31 42.5 -69.5t62.5 -72t74.5 -56.5t78.5 -23q28 0 52 10.5t43.5 29t35 42.5t27.5 51q18 39 29 81.5t16 84t6.5 79.5t1.5 68q0 70 -11 121.5t-29.5 85t-41.5 50t-47 16.5zM432 1427q0 -21 -7 -84 t-21 -162l-32 -233l-46 -295q64 96 118.5 152t101 85t84 37.5t66.5 8.5q39 0 73 -20t60 -59.5t41 -97t15 -132.5q0 -100 -28 -212t-91 -227q-23 -40 -54.5 -80.5t-69 -73.5t-81 -54t-90.5 -21q-32 0 -62 18t-58 48t-54 68t-50 79q-8 -41 -14.5 -82t-14.5 -84 q-35 -206 -42.5 -315.5t3.5 -137.5q-15 -4 -35 -11l-42 -14q-21 -7 -40.5 -14.5t-32.5 -13.5l-32 29l35 207l42 252l46 276l45 282l41 268q20 130 34.5 236.5t23 183.5t8.5 112q0 23 -4 36.5t-11.5 20t-17 8.5t-20.5 2q-9 0 -25 -5l-34 -9l-41 -13l-13 39q42 19 86 36t82 30 t67 21t42 8q32 0 40.5 -21.5t8.5 -71.5z" />
<glyph unicode="&#xff;" horiz-adv-x="926" d="M893 860q0 -34 -18.5 -87.5t-60 -143t-108.5 -222.5l-165 -325q-67 -131 -133.5 -238t-136.5 -183.5t-146 -118.5t-161 -42q-30 0 -56.5 5t-46 12.5t-31 16.5t-11.5 17q0 12 9.5 33.5t23.5 45t30.5 43t30.5 26.5q24 -16 42.5 -25t34.5 -13t32 -4.5t34 -0.5 q81 0 158.5 78.5t161.5 221.5q-10 58 -24.5 131t-31.5 150l-37 155q-19 77 -38 145t-36.5 122.5t-32.5 85.5q-23 51 -39 66.5t-33 15.5q-9 0 -25.5 -3.5t-32.5 -8.5q-19 -5 -40 -12l-12 37l80 36l68 31q31 13 54 21t35 8q14 0 24.5 -7t20.5 -22t19.5 -39.5t21.5 -58.5 q19 -54 41.5 -127.5t45.5 -158.5t45 -176.5t40 -181.5l65 129l62 129l56 123l44.5 107t30.5 84.5t11 53.5q0 50 -53 53q-32 3 -91 -23l-18 37q72 42 126.5 60t88.5 18q17 0 32 -2.5t26 -10.5t17.5 -23t6.5 -40zM505 1262q0 -28 -9 -55.5t-25 -50t-39.5 -36.5t-51.5 -14 q-32 0 -50 18t-18 52q0 27 9.5 54.5t26 50.5t40 37.5t51.5 14.5q31 0 48.5 -18.5t17.5 -52.5zM878 1262q0 -28 -9 -55.5t-25.5 -50t-40 -36.5t-52.5 -14q-31 0 -48.5 18t-17.5 52q0 27 9 54.5t25 50.5t39 37.5t52 14.5q31 0 49.5 -18.5t18.5 -52.5z" />
<glyph unicode="&#x152;" horiz-adv-x="1489" d="M510 100q73 0 128.5 13.5t106.5 49.5l126 918q-86 84 -214 84q-76 0 -137 -30t-107.5 -80t-80 -116t-55 -137t-31.5 -143t-10 -135q0 -95 20 -173t56 -133.5t86.5 -86.5t111.5 -31zM1403 244q-19 -86 -39 -150.5t-31 -93.5h-588q-48 -1 -82.5 -6t-65 -10.5t-61 -10 t-69.5 -4.5q-92 0 -162.5 39t-118 106.5t-72 158t-24.5 192.5q0 103 22 204t61.5 193t95 170t123 135.5t145.5 90t161 32.5q37 0 63 -4.5t50 -10t50 -10t61 -5.5h532l25 -25q-5 -26 -12.5 -57t-16.5 -62t-18.5 -59t-18.5 -47h-43q4 46 3.5 76.5t-7 49t-18 26t-29.5 7.5h-292 l-60 -434h327l21 -28q-10 -14 -22.5 -29.5t-26 -30t-26.5 -27t-23 -20.5q-12 15 -25.5 25t-33 17t-46.5 10t-65 3h-91l-69 -501q-2 -15 -2.5 -26.5t11.5 -20t42 -13t90 -4.5h115q41 0 70.5 5t54.5 22.5t47.5 51.5t50.5 93z" />
<glyph unicode="&#x153;" horiz-adv-x="1374" d="M961 782q-34 -30 -66 -73t-57.5 -93.5t-42 -105t-20.5 -107.5q88 34 150.5 64t105 56.5t68 51t39 48t17.5 46.5t4 46q0 31 -8 53.5t-20.5 36t-29 20t-34.5 6.5q-14 0 -45.5 -11.5t-60.5 -37.5zM647 504q0 153 -54 234t-151 81q-42 0 -76.5 -19.5t-61.5 -52t-47.5 -75 t-33.5 -89t-19.5 -94.5t-6.5 -90q0 -67 16 -126.5t44 -104t65.5 -70.5t80.5 -26q41 0 75 20.5t61 55t47.5 79t34 92.5t20 96t6.5 89zM1321 760q0 -28 -6.5 -59t-27 -64t-57.5 -69t-97.5 -74.5t-148 -80t-208.5 -86.5q6 -56 23.5 -102t41 -79t51 -51.5t54.5 -18.5 q22 0 52 4.5t69.5 19.5t89 44t111.5 77q9 -6 17 -19.5t11 -21.5q-82 -71 -144.5 -114.5t-111.5 -67t-88 -31.5t-75 -8q-27 0 -59 11t-63 35.5t-57 63.5t-42 94q-40 -56 -89 -100q-25 -22 -53.5 -41t-58.5 -33t-59.5 -22t-57.5 -8q-65 0 -118 29.5t-90 81t-57 122t-20 152.5 q0 72 12.5 138.5t40 128t71.5 119t106 110.5q49 41 110.5 68.5t118.5 27.5q106 0 171.5 -60.5t89.5 -169.5q29 38 63 73t75 67q23 18 52 34.5t60.5 29t64 19.5t63.5 7q43 0 75 -15.5t53 -40.5t31.5 -56.5t10.5 -63.5z" />
<glyph unicode="&#x178;" horiz-adv-x="1145" d="M733 0h-446l6 43q87 19 122.5 38.5t37.5 33.5l59 436q-18 73 -47 157.5t-63.5 167t-71 156t-70.5 123.5q-10 15 -21.5 24t-28 13.5t-40.5 4t-59 -4.5l-9 43q27 7 59.5 14t64.5 13t60.5 10t47.5 4q26 0 51 -39q22 -33 46 -78t48.5 -96.5t47 -105t42 -105t34 -96.5 t22.5 -78l309 473q17 28 -5.5 42t-90.5 24l6 43h360l-6 -43q-63 -13 -98.5 -26.5t-52.5 -39.5l-390 -609l-59 -427q-1 -6 5.5 -14.5t23 -18.5t44 -20t68.5 -19zM622 1549q0 -28 -9 -55.5t-25 -50t-39.5 -36.5t-51.5 -14q-32 0 -50 18t-18 52q0 27 9.5 54.5t26 50.5t40 37.5 t51.5 14.5q31 0 48.5 -18.5t17.5 -52.5zM995 1549q0 -28 -9 -55.5t-25.5 -50t-40 -36.5t-52.5 -14q-31 0 -48.5 18t-17.5 52q0 27 9 54.5t25 50.5t39 37.5t52 14.5q31 0 49.5 -18.5t18.5 -52.5z" />
<glyph unicode="&#x2c6;" horiz-adv-x="557" d="M661 1071q-14 -20 -21.5 -29t-23.5 -16l-208 265l-273 -265q-9 6 -16 15.5t-17 29.5l284 371h92z" />
<glyph unicode="&#x2d7;" horiz-adv-x="641" d="M580 541q-8 -22 -20 -45l-21 -41h-478l-18 24q8 22 19.5 44t23.5 42h475z" />
<glyph unicode="&#x2dc;" horiz-adv-x="688" d="M764 1326q-21 -40 -47.5 -80t-57.5 -71.5t-66.5 -51t-74.5 -19.5q-32 0 -57.5 17t-49 37.5t-47 37.5t-49.5 17q-35 0 -71 -31.5t-78 -87.5l-43 21q21 40 47.5 79.5t58 71t67.5 51t74 19.5q33 0 60.5 -17t51.5 -37l45 -38q21 -17 42 -17q35 0 73.5 31.5t76.5 87.5z" />
<glyph unicode="&#x300;" horiz-adv-x="0" d="M-205 1047q-20 -12 -32 -16t-30 -5l-250 386l32 36q12 2 30.5 4t39 3.5t39.5 2.5t32 1z" />
<glyph unicode="&#x301;" horiz-adv-x="0" d="M-8 1374l-355 -348q-16 4 -23.5 11t-21.5 24l272 398l26 -7l32 -10.5t32 -11.5t23 -11z" />
<glyph unicode="&#x302;" horiz-adv-x="0" d="M-61 1071q-14 -20 -21.5 -29t-23.5 -16l-208 265l-273 -265q-9 6 -16 15.5t-17 29.5l284 371h92z" />
<glyph unicode="&#x303;" horiz-adv-x="0" d="M-4 1326q-21 -40 -47.5 -80t-57.5 -71.5t-66.5 -51t-74.5 -19.5q-32 0 -57.5 17t-49 37.5t-47 37.5t-49.5 17q-35 0 -71 -31.5t-78 -87.5l-43 21q21 40 47.5 79.5t58 71t67.5 51t74 19.5q33 0 60.5 -17t51.5 -37l45 -38q21 -17 42 -17q35 0 73.5 31.5t76.5 87.5z" />
<glyph unicode="&#x308;" horiz-adv-x="0" d="M-415 1262q0 -28 -9 -55.5t-25 -50t-39.5 -36.5t-51.5 -14q-32 0 -50 18t-18 52q0 27 9.5 54.5t26 50.5t40 37.5t51.5 14.5q31 0 48.5 -18.5t17.5 -52.5zM-42 1262q0 -28 -9 -55.5t-25.5 -50t-40 -36.5t-52.5 -14q-31 0 -48.5 18t-17.5 52q0 27 9 54.5t25 50.5t39 37.5 t52 14.5q31 0 49.5 -18.5t18.5 -52.5z" />
<glyph unicode="&#x30a;" horiz-adv-x="0" d="M-238 1243q0 35 -15 62.5t-46 27.5q-28 0 -49 -13t-35.5 -33.5t-21.5 -45.5t-7 -49q0 -37 16.5 -64.5t47.5 -27.5q27 0 47.5 13.5t34.5 34t21 46t7 49.5zM-154 1280q0 -41 -17.5 -85.5t-48 -82t-71 -62t-86.5 -24.5q-26 0 -48 10t-38 27t-24.5 39t-8.5 47q0 45 17.5 91 t48 83.5t71.5 61.5t88 24q53 0 85 -36.5t32 -92.5z" />
<glyph unicode="&#x2000;" horiz-adv-x="900" />
<glyph unicode="&#x2001;" horiz-adv-x="1800" />
<glyph unicode="&#x2002;" horiz-adv-x="900" />
<glyph unicode="&#x2003;" horiz-adv-x="1800" />
<glyph unicode="&#x2004;" horiz-adv-x="600" />
<glyph unicode="&#x2005;" horiz-adv-x="450" />
<glyph unicode="&#x2006;" horiz-adv-x="300" />
<glyph unicode="&#x2007;" horiz-adv-x="300" />
<glyph unicode="&#x2008;" horiz-adv-x="225" />
<glyph unicode="&#x2009;" horiz-adv-x="360" />
<glyph unicode="&#x200a;" horiz-adv-x="100" />
<glyph unicode="&#x2010;" horiz-adv-x="641" d="M580 541q-8 -22 -20 -45l-21 -41h-478l-18 24q8 22 19.5 44t23.5 42h475z" />
<glyph unicode="&#x2011;" horiz-adv-x="641" d="M580 541q-8 -22 -20 -45l-21 -41h-478l-18 24q8 22 19.5 44t23.5 42h475z" />
<glyph unicode="&#x2013;" d="M761 541q-8 -22 -19 -45l-21 -41h-660l-18 24q8 22 19.5 44t23.5 42h655z" />
<glyph unicode="&#x2014;" horiz-adv-x="1510" d="M1448 541q-6 -22 -18 -45.5t-23 -40.5h-1346l-18 24q8 22 19.5 44t23.5 42h1344z" />
<glyph unicode="&#x2018;" horiz-adv-x="410" d="M418 1415q-18 -17 -39 -43t-39 -55.5t-29.5 -60.5t-11.5 -58q0 -37 26.5 -60.5t77.5 -21.5l9 -47q-11 -11 -39 -26.5t-60.5 -30t-63.5 -24t-48 -7.5q-26 17 -41 43t-15 61q0 52 22.5 105t57.5 101t77 89t81 70z" />
<glyph unicode="&#x2019;" horiz-adv-x="410" d="M455 1323q0 -52 -22.5 -104.5t-57 -100.5t-77 -89t-81.5 -71l-35 35q18 18 38.5 44t38.5 56t30 60.5t12 56.5q0 39 -26.5 62.5t-77.5 21.5l-9 45q11 12 39 28t60.5 30.5t63 24t46.5 8.5q28 -19 43 -44.5t15 -62.5z" />
<glyph unicode="&#x201a;" horiz-adv-x="465" d="M285 113q0 -53 -22.5 -105.5t-57 -100.5t-77 -89t-81.5 -70l-35 35q18 18 38.5 44t38.5 55.5t30 60t12 57.5q0 37 -26.5 60.5t-77.5 23.5l-9 45q11 12 39 27.5t60.5 30t63 24t46.5 8.5q26 -18 42 -43.5t16 -62.5z" />
<glyph unicode="&#x201c;" horiz-adv-x="834" d="M418 1415q-18 -17 -39 -43t-39 -55.5t-29.5 -60.5t-11.5 -58q0 -37 26.5 -60.5t77.5 -21.5l9 -47q-11 -11 -39 -26.5t-60.5 -30t-63.5 -24t-48 -7.5q-26 17 -41 43t-15 61q0 52 22.5 105t57.5 101t77 89t81 70zM811 1415q-18 -17 -39 -43t-39 -55.5t-29.5 -60.5 t-11.5 -58q0 -37 26.5 -60.5t76.5 -21.5l8 -47q-11 -11 -39 -26.5t-60.5 -30t-63 -24t-46.5 -7.5q-26 17 -40.5 43t-14.5 61q0 52 22.5 105t57 101t76 89t79.5 70z" />
<glyph unicode="&#x201d;" horiz-adv-x="834" d="M455 1323q0 -52 -22.5 -104.5t-57 -100.5t-77 -89t-81.5 -71l-35 35q18 18 38.5 44t38.5 56t30 60.5t12 56.5q0 39 -26.5 62.5t-77.5 21.5l-9 45q11 12 39 28t60.5 30.5t63 24t46.5 8.5q28 -19 43 -44.5t15 -62.5zM846 1323q0 -52 -22.5 -104.5t-57 -100.5t-76 -89 t-80.5 -71l-35 35q18 18 38.5 44t38 56t29 60.5t11.5 56.5q0 39 -26.5 62.5t-75.5 21.5l-8 45q10 12 38 28t60.5 30.5t63.5 24t47 8.5q26 -19 40.5 -44.5t14.5 -62.5z" />
<glyph unicode="&#x201e;" horiz-adv-x="834" d="M285 113q0 -53 -22.5 -105.5t-57 -100.5t-77 -89t-81.5 -70l-35 35q18 18 38.5 44t38.5 55.5t30 60t12 57.5q0 37 -26.5 60.5t-77.5 23.5l-9 45q11 12 39 27.5t60.5 30t63 24t46.5 8.5q26 -18 42 -43.5t16 -62.5zM676 113q0 -53 -22.5 -105.5t-57 -100.5t-76 -89 t-80.5 -70l-37 35q19 18 40 44t38.5 55.5t29 60t11.5 57.5q0 37 -26.5 60.5t-75.5 23.5l-8 45q10 12 38 27.5t60.5 30t63.5 24t47 8.5q26 -18 40.5 -43.5t14.5 -62.5z" />
<glyph unicode="&#x2022;" horiz-adv-x="528" d="M479 713q0 -56 -17.5 -114t-51 -104.5t-82.5 -76t-113 -29.5q-38 0 -66 13t-46.5 36t-27.5 54t-9 67q0 56 18 114t52.5 105t84 77t111.5 30q38 0 66 -13.5t46 -37t26.5 -55t8.5 -66.5z" />
<glyph unicode="&#x2026;" horiz-adv-x="1230" d="M283 152q0 -31 -10.5 -63.5t-30 -59t-46.5 -43.5t-61 -17q-40 0 -62 27t-22 72q0 29 11.5 60.5t32 57.5t47.5 43t59 17q37 0 59.5 -26t22.5 -68zM693 152q0 -31 -10.5 -63.5t-30 -59t-46.5 -43.5t-61 -17q-40 0 -62 27t-22 72q0 29 11.5 60.5t32 57.5t47.5 43t59 17 q37 0 59.5 -26t22.5 -68zM1103 152q0 -31 -10.5 -63.5t-30 -59t-46.5 -43.5t-61 -17q-40 0 -62 27t-22 72q0 29 11.5 60.5t32 57.5t47.5 43t59 17q37 0 59.5 -26t22.5 -68z" />
<glyph unicode="&#x202f;" horiz-adv-x="360" />
<glyph unicode="&#x2039;" horiz-adv-x="554" d="M58 414q2 19 5 34q2 13 3.5 24t3.5 13l372 404l34 -29l-11 -18l-29 -46l-42 -66l-48 -76l-48 -75l-42 -66l-29 -46q-11 -17 -10 -17l148 -414l-42 -29z" />
<glyph unicode="&#x203a;" horiz-adv-x="554" d="M60 36l261 414q1 -1 -10 30l-27 76l-36 98l-37 100l-28 75l-11 31l42 29l264 -404q0 -2 -1 -13t-3 -24l-4 -34l-376 -407z" />
<glyph unicode="&#x205f;" horiz-adv-x="450" />
<glyph unicode="&#x20ac;" d="M521 466h-294q-3 -104 13 -175.5t46.5 -116t72.5 -64.5t89 -20q28 0 55.5 8.5t60.5 28t73 51.5t92 78q4 -2 8 -8.5t7 -13.5l7 -14q3 -6 5 -9q-63 -68 -113.5 -114.5t-95 -74.5t-88 -40t-93.5 -12q-67 0 -123 29.5t-94 90.5t-56 154.5t-9 221.5h-84l-16 25l13 32 q7 18 15 34h81v1q1 1 1 3l10 63q5 32 12 62h-59l-16 25l13 32q7 18 15 34h71q34 113 84.5 198.5t113.5 143.5t137.5 87t157.5 29q45 0 79 -8t61 -21.5t49 -31.5t43 -39q4 -5 -6 -20t-26.5 -34l-34.5 -38l-31 -31l-30 6l-37 42q-18 20 -39.5 34.5t-49.5 22.5t-69 8 q-30 0 -66.5 -15t-73 -54t-70.5 -106.5t-60 -172.5h318l20 -23l-32 -68h-325q-4 -21 -7.5 -43t-6.5 -45q-2 -11 -3 -21l-2 -20h299l20 -23z" />
<glyph unicode="&#x2122;" horiz-adv-x="1159" d="M559 1251q-2 -9 -4.5 -22t-5.5 -27t-6 -26.5t-6 -20.5h-17q-2 31 -5.5 47.5t-18.5 16.5h-96l-48 -363q-2 -3 7.5 -10t41.5 -15l-4 -24h-170l4 24q32 8 44 14t12 11l50 363h-99q-6 0 -10.5 -2.5t-10 -9t-13 -19t-18.5 -33.5l-14 6q1 8 4.5 21.5t7 28.5t8 28.5t7.5 20.5 h352zM1100 1235q-19 0 -43 -8l-49 -373q0 -5 9 -11.5t34 -11.5l-4 -24h-156l2 24q25 5 39 11.5t14 11.5l39 310l-192 -357h-27l-99 351l-44 -304q-2 -5 8 -11.5t35 -11.5l-4 -24h-142l4 24q25 5 37 11.5t12 11.5l56 372q-11 6 -22.5 7.5t-22.5 1.5l4 25h102q8 0 11 -5.5 t8 -23.5l92 -316l172 316q10 22 14 25.5t10 3.5h107z" />
<glyph unicode="&#x2219;" horiz-adv-x="410" d="M336 678q0 -30 -10.5 -62t-29.5 -58t-46 -43t-61 -17q-40 0 -62 26.5t-22 71.5q0 28 11.5 59.5t31.5 57t47 42.5t59 17q38 0 60 -26t22 -68z" />
<glyph horiz-adv-x="504" d="M455 72l-85 -49q-37 -21 -68 -35.5t-56 -21.5t-47 -7q-34 0 -54 31.5t-20 85.5q0 30 7.5 85.5t18.5 122.5l24 142l24 140q11 66 18.5 118t7.5 76q0 23 -3 36.5t-8 20t-13 8.5t-17 2q-8 0 -24.5 -3.5t-33.5 -8.5q-19 -5 -42 -12l-14 37l84 36q41 18 77 31t63 21t40 8 q28 0 39.5 -19t11.5 -65q0 -29 -7.5 -85.5t-19.5 -126.5l-25 -146l-25 -147q-12 -70 -19.5 -126.5t-7.5 -85.5q0 -31 6.5 -45t23.5 -14q31 0 59.5 8t69.5 25z" />
<glyph horiz-adv-x="0" d="M-16 1270l-455 -244q-14 9 -19 18t-14 29l391 315l23 -15l28 -19l27 -20t19 -17v-47z" />
<glyph horiz-adv-x="0" d="M-124 1073q-14 -20 -22.5 -29t-24.5 -18l-401 244l12 47q9 7 25 17t34 20l35 19l29 15z" />
<glyph horiz-adv-x="0" d="M-64 1071q-14 -20 -21.5 -29t-23.5 -16l-215 205l-266 -205q-9 6 -16 15.5t-17 29.5l275 301h92z" />
<glyph horiz-adv-x="0" d="M-9 1293q-21 -40 -47.5 -80t-57.5 -71.5t-66.5 -51t-74.5 -19.5q-32 0 -57.5 17t-49 37.5t-47 37.5t-49.5 17q-35 0 -71 -31.5t-78 -87.5l-43 21q21 40 47.5 79.5t58 71t67.5 51t74 19.5q33 0 60.5 -17t51.5 -37l45 -38q21 -17 42 -17q35 0 73.5 31.5t76.5 87.5z" />
<glyph horiz-adv-x="0" d="M-420 1229q0 -28 -9 -55.5t-25 -50t-39.5 -36.5t-51.5 -14q-32 0 -50 18t-18 52q0 27 9.5 54.5t26 50.5t40 37.5t51.5 14.5q31 0 48.5 -18.5t17.5 -52.5zM-47 1229q0 -28 -9 -55.5t-25.5 -50t-40 -36.5t-52.5 -14q-31 0 -48.5 18t-17.5 52q0 27 9 54.5t25 50.5t39 37.5 t52 14.5q31 0 49.5 -18.5t18.5 -52.5z" />
</font>
</defs>
</svg>
