<?xml version="1.0" standalone="no"?>
<!DOCTYPE svg PUBLIC "-//W3C//DTD SVG 1.1//EN" "http://www.w3.org/Graphics/SVG/1.1/DTD/svg11.dtd" >
<svg xmlns="http://www.w3.org/2000/svg">
<metadata>
This is a custom SVG webfont generated by Font Squirrel.
</metadata>
<defs>
<font id="webfontioQHL6nW" horiz-adv-x="1479" >
<font-face units-per-em="2048" ascent="1638" descent="-410" />
<missing-glyph horiz-adv-x="553" />
<glyph unicode=" "  horiz-adv-x="553" />
<glyph unicode="&#x09;" horiz-adv-x="553" />
<glyph unicode="&#xa0;" horiz-adv-x="553" />
<glyph unicode="!" horiz-adv-x="623" d="M362 385l-225 -20l62 438l110 629l258 20l-114 -649zM180 -16q-59 0 -98 36q-39 37 -39 93q0 67 59 123q60 55 134 55q59 0 100 -37q39 -37 39 -92q0 -66 -60 -121q-61 -57 -135 -57z" />
<glyph unicode="&#x22;" horiz-adv-x="666" d="M324 1401q-5 -12 -19 -41l-121 -232l-121 2l-4 250v4q0 68 50 105q43 35 106 35q59 0 94 -33q23 -21 23 -51q0 -19 -8 -39zM631 1401q-4 -12 -19 -41l-120 -232l-121 2l-4 250v4q0 68 49 105q43 35 106 35q60 0 94 -33q23 -21 23 -51q0 -19 -8 -39z" />
<glyph unicode="#" horiz-adv-x="1253" d="M879 268l-45 -252l-230 -20l49 272h-161l-50 -272l-221 20l45 252h-172l37 211h172l33 191h-172l37 211h172l47 264l229 20l-51 -284h162l51 284l221 -20l-47 -264h172l-37 -211h-172l-33 -191h172l-36 -211h-172zM723 670h-162l-33 -191h162z" />
<glyph unicode="$" horiz-adv-x="1055" d="M369 236l39 213q-134 6 -205 73q-74 68 -74 166q0 117 96 217q107 113 289 152l21 119h223l-19 -119q162 -29 226 -99l-123 -174q-37 17 -142 52l-30 -177q268 -20 268 -227q0 -45 -14 -96q-62 -213 -363 -289l-12 -78h-227l10 54q-96 4 -193 38q-98 35 -129 70l131 178 q37 -20 74 -35q86 -34 154 -38zM471 823q-88 -41 -96 -67q-4 -17 -4 -29q0 -49 75 -61zM633 449l-29 -162q29 18 62 41q30 20 34 39q2 8 2 14q0 55 -69 68z" />
<glyph unicode="%" horiz-adv-x="1520" d="M1038 -16h-4q-108 0 -176 73q-72 76 -72 179q0 63 29 122q103 203 318 203q122 0 194 -78q62 -67 62 -161q0 -17 -3 -33q-14 -121 -116 -211q-103 -92 -232 -94zM395 575h-4q-106 0 -178 72q-74 74 -74 174q0 62 31 117q100 186 315 186q119 0 195 -71q63 -64 63 -154 q0 -14 -2 -31q-12 -116 -116 -202q-105 -88 -230 -91zM309 -39l-143 135l999 1028l172 -102zM1098 381q-41 -2 -66.5 -41t-25.5 -84q0 -80 61 -80h4q43 2 70 41q26 37 26 82q0 82 -63 82h-6zM449 944q-39 -2 -64 -35q-25 -32 -25 -71q0 -72 64 -72h4q37 2 66 35q28 30 28 69 q0 33 -20 56q-21 18 -49 18h-4z" />
<glyph unicode="&#x26;" horiz-adv-x="1505" d="M1104 -57l-205 250q-235 -199 -448 -199h-21q-178 8 -287 110q-108 101 -108 244q0 29 4 60q22 118 131 219q59 53 219 151q-110 148 -110 269q0 36 12 69q59 146 174 223q104 72 225 72q137 0 225 -86q82 -80 82 -205q0 -18 -2 -39q-10 -133 -243 -307l200 -248l224 185 l147 -160l-240 -189l236 -245zM651 1198q-49 -2 -94 -43t-45 -94q0 -49 88 -127q156 80 160 135v16q0 41 -27 76q-31 37 -78 37h-4zM543 621q-244 -127 -248 -207v-13q0 -82 47 -135q49 -57 147 -59h5q98 0 258 153z" />
<glyph unicode="'" horiz-adv-x="358" d="M324 1401q-5 -12 -19 -41l-121 -232l-121 2l-4 250v4q0 68 50 105q43 35 106 35q59 0 94 -33q23 -21 23 -51q0 -19 -8 -39z" />
<glyph unicode="(" horiz-adv-x="745" d="M344 500q-29 -158 -29 -283q0 -317 226 -649l-238 -111q-248 365 -248 725q0 142 33 318q55 319 186 553q129 231 398 489l215 -98q-256 -244 -375 -451q-119 -209 -168 -493z" />
<glyph unicode=")" horiz-adv-x="745" d="M76 -543l-203 111q250 242 365 446q114 205 165 486q27 155 27 276q0 324 -237 668l245 98q250 -366 250 -729q0 -139 -29 -313q-55 -316 -184 -549q-131 -234 -399 -494z" />
<glyph unicode="*" horiz-adv-x="877" d="M639 1239l139 -74l-137 -174l-127 88l-18 -153h-217l34 153l-161 -90l-76 176l170 74l-146 74l140 176l131 -90l16 141h217l-33 -139l158 88l74 -176z" />
<glyph unicode="+" horiz-adv-x="1024" d="M621 334l-31 -191h-256l33 189h-236l35 196h235l35 189h252l-33 -189h238l-35 -196z" />
<glyph unicode="," horiz-adv-x="522" d="M387 -6l-237 -262l-101 41l121 336q49 137 168 137q57 0 94 -39q27 -31 27 -76q0 -12 -2 -27q-8 -43 -70 -110z" />
<glyph unicode="-" horiz-adv-x="834" d="M129 424l39 225h537l-39 -225h-537z" />
<glyph unicode="." horiz-adv-x="500" d="M221 -16q-61 0 -98 39q-39 36 -39 94q0 71 59 131q60 59 133 59q60 0 101 -37q39 -39 39 -96q0 -72 -62 -131q-61 -59 -133 -59z" />
<glyph unicode="/" horiz-adv-x="1018" d="M61 -336l-215 94l1108 1786l220 -86z" />
<glyph unicode="0" horiz-adv-x="1432" d="M612 -14q-233 0 -383.5 139t-150.5 350q0 49 10 98q43 246 256 418q213 170 475 170q234 0 384.5 -139t150.5 -350q0 -49 -8 -99q-46 -245 -259 -415q-213 -172 -475 -172zM780 938q-172 0 -307 -133q-137 -133 -137 -293q0 -129 88 -215q88 -88 227 -88q172 0 310 133 q135 133 135 293q0 129 -88 217q-88 86 -228 86z" />
<glyph unicode="1" horiz-adv-x="702" d="M199 0l155 881l-118 -70l-74 186l272 150h221l-202 -1147h-254z" />
<glyph unicode="2" horiz-adv-x="1141" d="M25 0l32 190l365 252q211 148 287 228q73 78 77 151v4q0 66 -55 109q-49 37 -108 37q-11 0 -23 -2q-156 -17 -338 -95l-47 203q244 97 426 97q209 0 301 -72q86 -68 94 -219v-21q0 -303 -559 -651h469l-37 -211h-884z" />
<glyph unicode="3" horiz-adv-x="1100" d="M485 -14q-18 -2 -39 -2q-153 0 -405 98l109 209q176 -105 301 -105q16 0 30 2q172 19 205 134q6 22 6 43q0 53 -39 90q-41 37 -108 37h-297l37 213q143 -5 215 -5q53 0 65 2q86 17 125 48q49 38 49 114v13q-4 90 -137 90q-100 0 -332 -90l-45 202q291 95 426 95 q146 0 242 -80t96 -213q0 -174 -131 -279q80 -65 80 -190q0 -47 -12 -99q-35 -139 -164 -229q-121 -84 -277 -98z" />
<glyph unicode="4" horiz-adv-x="1108" d="M850 272l-49 -272l-254 2l49 270h-602l33 187l745 688h232l-117 -664h160l-37 -211h-160zM690 809l-356 -326h299z" />
<glyph unicode="5" horiz-adv-x="1118" d="M494 -16q-29 -7 -64 -7q-160 0 -385 113l109 203q194 -107 305 -107q12 0 24 2q105 13 170 74q64 62 64 135q0 95 -107 146q-6 2 -20 2q-76 0 -299 -49l-127 112l143 539h692l-14 -211h-491l-58 -209q109 18 182 18q29 0 54 -2q151 -18 225 -112q64 -82 64 -199 q0 -18 -3 -39q-14 -157 -157 -270q-127 -103 -307 -139z" />
<glyph unicode="6" horiz-adv-x="1145" d="M463 -14h-12q-164 0 -287 104q-127 107 -127 256q0 41 10 80q74 272 326 504q157 143 260 217q151 106 342 186l106 -176q-381 -170 -565 -352q35 6 92 6q183 0 301 -102q109 -93 109 -240q0 -14 -2 -31q-15 -184 -182 -315q-170 -133 -371 -137zM565 610h-8 q-96 0 -178 -55q-86 -59 -96 -143q-2 -15 -2 -29q0 -74 53 -125q59 -59 151 -59h13q123 6 198 82q72 69 72 159q0 70 -49 117q-55 51 -154 53z" />
<glyph unicode="7" horiz-adv-x="1047" d="M180 -166l-192 92q297 512 743 1010h-538l57 211h805l-13 -184q-186 -187 -444 -525q-258 -340 -418 -604z" />
<glyph unicode="8" horiz-adv-x="1108" d="M467 -20h-8q-166 0 -285 69q-137 80 -137 219q0 27 6 58q39 196 227 290q-96 70 -96 195q0 20 4 45q19 148 178 240q136 78 295 78h8q144 -3 242 -66q111 -72 111 -195q0 -186 -170 -297q139 -77 139 -237q0 -27 -4 -57q-27 -156 -191 -254q-143 -84 -319 -88zM612 989 q-92 -2 -145 -45q-55 -43 -55 -100q0 -45 38.5 -78t112.5 -35h8q86 0 146 49q57 45 57 103q0 106 -158 106h-4zM537 502q-99 0 -181 -60q-82 -59 -84 -135v-4q0 -65 60 -100q53 -35 137 -35q100 0 186 55q84 53 84 131q0 64 -57 107q-59 41 -145 41z" />
<glyph unicode="9" horiz-adv-x="1145" d="M766 217q-150 -137 -256 -209q-141 -96 -330 -170l-108 178q372 148 557 338q-45 -8 -94 -8q-185 0 -299 100q-111 97 -111 244q0 15 2 31q14 184 186 319q166 131 367 136h12q164 0 287 -105q127 -108 127 -258q0 -41 -10 -80q-78 -284 -330 -516zM643 963 q-106 -5 -188 -68q-84 -64 -95 -152q-2 -14 -2 -26q0 -66 54 -113q61 -55 163 -57h9q102 0 190 57q90 60 100 144q3 14 3 28q0 78 -58 129q-65 58 -164 58h-12z" />
<glyph unicode=":" horiz-adv-x="459" d="M248 496q-51 0 -84 33.5t-33 82.5q0 64 51 115t117 51q51 0 86 -33q35 -32 35 -83q0 -62 -53 -113q-54 -53 -119 -53zM158 -16q-52 0 -84 34q-35 33 -35 82q0 64 53 115q51 51 117 51q51 0 86 -33q35 -32 35 -83q0 -62 -54 -113q-53 -53 -118 -53z" />
<glyph unicode=";" horiz-adv-x="522" d="M334 496q-51 0 -84 34q-35 33 -35 82q0 62 53 115q51 51 117 51q51 0 86 -33q33 -32 33 -83q0 -62 -51 -113q-54 -53 -119 -53zM338 -6l-238 -262l-98 41l121 336q49 137 168 137q57 0 94 -39q27 -31 27 -76q0 -12 -2 -27q-9 -41 -72 -110z" />
<glyph unicode="&#x3c;" horiz-adv-x="1049" d="M745 131l-610 295l29 168l713 283l55 -175l-488 -194l420 -205z" />
<glyph unicode="=" horiz-adv-x="958" d="M156 436l32 185h662l-33 -185h-661zM109 166l32 186h662l-33 -186h-661z" />
<glyph unicode="&#x3e;" horiz-adv-x="1049" d="M172 131l-55 174l487 195l-420 205l117 174l612 -297l-28 -168z" />
<glyph unicode="?" horiz-adv-x="1077" d="M791 739l-123 -75q-90 -60 -103 -91q-12 -30 -30 -102l-15 -78l-258 -28l19 110q26 154 147 262q10 11 221 156q121 84 146 176q4 14 4 31q0 55 -49.5 96t-122.5 49q-17 2 -35 2q-150 0 -367 -123l-30 207q294 133 452 133q17 0 31 -2q160 -14 266 -98q115 -90 115 -223 q0 -25 -4 -51q-35 -197 -264 -351zM324 -16q-62 0 -99 36q-39 37 -39 93q0 67 60 123q57 55 131 55q59 0 100 -37q39 -37 39 -90q0 -68 -59 -123q-62 -57 -133 -57z" />
<glyph unicode="@" horiz-adv-x="1333" d="M645 274q-43 -10 -74 -10q-14 0 -26 2q-70 10 -125 70q-55 57 -55 131t73 162q70 78 152 116q51 25 168 25q125 0 229 -20q-43 -164 -90 -306q84 5 152 86q61 76 61 154q0 86 -100 147q-103 60 -234 60q-164 0 -311 -92q-164 -103 -215 -279q-10 -33 -10 -67 q0 -183 227 -279q45 -18 115 -18q174 0 460 112l-71 -155q-258 -99 -461 -99q-84 0 -139 23q-138 53 -213 162q-78 106 -78 241q0 82 29 166q67 193 266 312q182 106 397 114h47q170 0 285 -53q166 -76 170 -242v-12q0 -193 -191 -350q-129 -107 -327 -107q-49 0 -111 6z M586 514q-11 -22 -11 -39q0 -47 78 -47q19 0 39 2l56 184h-19q-98 0 -143 -100z" />
<glyph unicode="A" d="M1044 -18l-88 407h-548l-232 -407l-252 38l807 1414h270l310 -1414zM807 1094l-277 -488h381z" />
<glyph unicode="B" horiz-adv-x="1327" d="M432 -20q-199 0 -409 22l251 1428q189 24 373 24q211 0 363 -51q223 -76 223 -246q0 -113 -72 -219q-69 -98 -174 -158q90 -49 148 -133q55 -86 55 -186q0 -252 -268 -381q-207 -100 -490 -100zM494 1239l-66 -371q51 -8 102 -8q125 0 267 58q178 71 178 178 q0 90 -162 125q-96 20 -207 20h-20zM389 645l-78 -442q88 -13 172 -13q172 0 293 56q162 71 162 223q0 184 -406 184q-77 0 -143 -8z" />
<glyph unicode="C" horiz-adv-x="1370" d="M649 -14q-260 24 -416.5 192t-156.5 412q0 67 12 137q59 305 285 508q241 215 573 215q166 0 416 -86l-82 -229q-201 102 -350 102q-37 0 -68 -6q-211 -45 -348 -182q-139 -138 -172 -332q-8 -49 -8 -96q0 -162 96 -269.5t275 -140.5q24 -4 55 -4q164 0 420 115l-6 -222 q-314 -116 -486 -116q-20 0 -39 2z" />
<glyph unicode="D" horiz-adv-x="1458" d="M518 -14h-57q-156 0 -438 16l251 1428q209 24 379 24q351 0 547 -156q191 -151 191 -411q0 -68 -15 -137q-63 -316 -280 -525q-240 -231 -578 -239zM496 1243l-185 -1038q74 -10 146 -10q207 0 377 92q227 123 286 463q8 45 8 88q0 217 -204 325q-158 82 -367 82 q-33 0 -61 -2z" />
<glyph unicode="E" horiz-adv-x="1225" d="M989 0h-966l251 1434h926l-14 -213h-694l-66 -371h616l-36 -213h-617l-76 -424h736z" />
<glyph unicode="F" horiz-adv-x="1184" d="M492 1221l-66 -371h616l-36 -213h-617l-113 -637h-253l251 1434h926l-14 -213h-694z" />
<glyph unicode="G" d="M637 -14q-254 0 -412 180q-149 170 -149 420q0 102 28 205q76 272 295 456q228 191 508 201h23q162 0 432 -78l-80 -227q-221 94 -377 94q-18 0 -37 -2q-219 -16 -379 -205q-159 -190 -159 -414q0 -176 98 -297q96 -120 252 -120q143 0 270 100q125 98 160 229h-369 l39 213h613q-33 -335 -244 -544q-211 -211 -512 -211z" />
<glyph unicode="H" horiz-adv-x="1454" d="M1180 2l-258 -20l116 655h-649l-113 -637h-253l251 1432l258 20l-106 -602h649l103 584h254z" />
<glyph unicode="I" horiz-adv-x="551" d="M20 0l252 1432l258 20l-256 -1452h-254z" />
<glyph unicode="J" horiz-adv-x="1245" d="M983 287q-170 -277 -541 -295h-24q-246 0 -451 229l166 170q184 -186 318 -186h20q115 10 172 43q49 26 105 102q32 45 55 144l168 958l252 -20l-166 -934q-8 -41 -19 -76q-26 -86 -55 -135z" />
<glyph unicode="K" horiz-adv-x="1333" d="M877 -16l-500 589l-101 -573h-253l251 1432l258 20l-96 -547l666 545l295 -41l-822 -668l611 -716z" />
<glyph unicode="L" horiz-adv-x="1225" d="M987 0h-967l252 1432l258 20l-219 -1239h736z" />
<glyph unicode="M" horiz-adv-x="1767" d="M1288 -20l86 948l-481 -928h-268l-168 928l-238 -948l-254 38l381 1414l264 18l209 -1098l582 1098l258 -18l-100 -1414z" />
<glyph unicode="N" horiz-adv-x="1491" d="M936 -16l-477 1056l-187 -1058l-249 20l251 1430l304 18l456 -1036l180 1020h254l-251 -1432z" />
<glyph unicode="O" horiz-adv-x="1579" d="M657 -14q-262 0 -426 180q-155 172 -155 424q0 100 28 201q78 278 304 464q233 193 516 193h4q262 -2 424 -178q151 -168 151 -420q0 -320 -250 -588q-260 -276 -596 -276zM883 1235h-4q-217 0 -381 -191q-168 -194 -168 -421q0 -177 106 -299q105 -125 264 -125 q211 2 381 202q164 195 164 420q0 176 -94 291q-100 121 -268 123z" />
<glyph unicode="P" horiz-adv-x="1282" d="M649 592q-104 -4 -272 -8l-103 -584h-254l252 1432q220 20 387 20q596 0 596 -342q0 -43 -8 -92q-39 -197 -209 -311q-161 -111 -389 -115zM492 1235l-76 -434q168 -6 176 -6q340 0 403 227q6 25 6 47q0 109 -165 148q-93 22 -224 22q-57 0 -120 -4z" />
<glyph unicode="Q" horiz-adv-x="1620" d="M1223 231l135 -161l-228 -136l-110 138q-146 -88 -338 -88q-260 0 -434 182q-166 178 -166 432q0 96 27 193q79 280 317 471q233 186 518 186h8q267 -2 432 -170q166 -170 166 -420q0 -57 -8 -115q-59 -358 -319 -512zM907 1235q-223 0 -397 -191q-176 -190 -176 -417 q0 -178 115 -303q112 -127 276 -127q82 2 162 39l-221 278l233 123l188 -236q154 105 195 322q10 51 10 100q0 174 -104 293q-107 117 -281 119z" />
<glyph unicode="R" horiz-adv-x="1374" d="M881 -18l-240 610l-262 -8l-103 -584h-253l251 1432q207 20 388 20q595 0 595 -342q0 -162 -100 -291q-94 -121 -250 -178l258 -618zM618 1239q-57 0 -124 -4l-76 -434q164 -6 176 -6q162 0 270 55q140 72 140 219q0 170 -386 170z" />
<glyph unicode="S" horiz-adv-x="1268" d="M465 -14q-21 -2 -41 -2q-117 0 -256 49q-141 51 -184 98l161 201q31 -33 148 -78q125 -49 213 -53h29q145 0 247 80q101 81 101 186q0 80 -70 129q-70 47 -188 47q-19 0 -37 -2h-35q-162 0 -266 86q-115 96 -115 250q0 43 8 86q39 174 244 285q170 94 344 98h25 q112 0 237 -31q137 -35 174 -78l-135 -190q-199 86 -321 86h-17q-123 -6 -215 -82q-94 -76 -94 -158q0 -141 262 -141h29h20q187 0 295 -100q107 -99 107 -256q0 -70 -21 -140q-98 -325 -649 -370z" />
<glyph unicode="T" horiz-adv-x="1325" d="M879 1221l-215 -1221h-254l215 1221h-449l60 213h1105l-14 -213h-448z" />
<glyph unicode="U" horiz-adv-x="1499" d="M610 -14q-499 20 -499 438q0 78 16 168l147 840l258 20l-151 -854q0 -27 -6 -82t-6 -84q0 -41 8 -76q20 -75 92 -116q72 -43 170 -43q158 0 281 96q141 108 153 289l150 852h254l-150 -852q-49 -281 -246 -443q-186 -153 -438 -153h-33z" />
<glyph unicode="V" d="M745 0h-270l-307 1413l264 39l240 -1112l628 1112l252 -39z" />
<glyph unicode="W" horiz-adv-x="2003" d="M1411 0h-248l-108 1032l-471 -1032h-246l-188 1413l268 39l108 -1067l471 1030h252l107 -1030l485 1067l256 -39z" />
<glyph unicode="X" horiz-adv-x="1331" d="M870 -18l-235 550l-434 -550l-277 41l604 720l-323 668l291 41l213 -496l389 496l274 -41l-559 -668l350 -720z" />
<glyph unicode="Y" horiz-adv-x="1272" d="M741 604l-106 -604h-254l106 604l-360 809l293 39l237 -612l453 612l276 -41z" />
<glyph unicode="Z" horiz-adv-x="1352" d="M1116 0h-1134l12 186l991 1035h-782l53 213h1081l-6 -177l-1001 -1044h846z" />
<glyph unicode="[" horiz-adv-x="614" d="M-33 -530l363 2064h440l-37 -217h-186l-289 -1634h186l-36 -213h-441z" />
<glyph unicode="\" horiz-adv-x="1018" d="M627 -336l-482 1794l248 86l481 -1786z" />
<glyph unicode="]" horiz-adv-x="614" d="M-156 -530l37 213h187l288 1634h-186l37 217h440l-362 -2064h-441z" />
<glyph unicode="^" horiz-adv-x="930" d="M686 1167l-221 158l-277 -158l-110 107l332 209h172l252 -209z" />
<glyph unicode="_" horiz-adv-x="1667" d="M74 -143l26 143h1493l-26 -143h-1493z" />
<glyph unicode="`" horiz-adv-x="674" d="M74 1335l225 131l295 -266l-182 -88z" />
<glyph unicode="a" horiz-adv-x="1126" d="M1006 -14h-9q-166 0 -235 69q-182 -69 -297 -69q-193 0 -299 104q-109 105 -109 285q0 254 160 446q172 209 440 211h7q190 0 432 -125l-133 -684q0 -41 63 -45h135zM600 817q-117 0 -209 -145q-88 -137 -88 -283q0 -194 180 -194q101 0 226 41l108 550q-94 31 -217 31z " />
<glyph unicode="b" horiz-adv-x="1210" d="M545 -14q-219 0 -471 133l250 1351l258 21l-95 -510q138 51 234 51q197 0 307 -110q111 -111 111 -297q0 -269 -146 -445q-162 -194 -448 -194zM707 805q-117 0 -263 -53l-94 -504q137 -49 242 -49q145 0 227 127q72 110 72 274q0 205 -184 205z" />
<glyph unicode="c" horiz-adv-x="1081" d="M956 737q-129 86 -290 86q-134 0 -240 -125q-109 -127 -109 -260q0 -100 64 -172q61 -71 162 -71q131 0 323 75l66 -190q-260 -96 -410 -96q-192 0 -319 133q-129 133 -129 309q0 240 194 424q195 182 453 182q117 0 379 -98z" />
<glyph unicode="d" horiz-adv-x="1196" d="M981 113q-291 -129 -506 -129q-190 0 -305 104q-115 105 -115 285q0 268 150 452q166 207 452 207q101 0 230 -57l94 514l254 -19zM616 805q-149 0 -239 -135q-78 -121 -78 -287q0 -84 49 -133q47 -51 131 -51q113 0 271 45l96 512q-123 49 -230 49z" />
<glyph unicode="e" horiz-adv-x="1137" d="M354 389q6 -84 54 -139q49 -62 127 -62q200 0 315 88l70 -188q-68 -53 -207 -80q-107 -22 -199 -22q-195 0 -311 131q-107 121 -107 299q0 227 170 415q180 201 426 201q185 0 297 -133q101 -119 101 -283v-8q0 -90 -136 -149q-112 -49 -256 -56zM662 829q-89 0 -168 -75 q-70 -68 -109 -166q328 2 430 33q8 2 12 14q-2 82 -43 139q-41 55 -122 55z" />
<glyph unicode="f" horiz-adv-x="870" d="M942 1180q-119 53 -209 53q-78 0 -129 -70q-45 -59 -57 -153h375l-37 -203h-371l-145 -795q-47 -256 -105 -331q-84 -113 -342 -154l-86 221q78 -6 107 -6q77 0 112 35q33 33 54 139q6 27 20 111l141 780h-182l39 203h178q25 194 141 311q125 127 334 127q129 0 330 -84z " />
<glyph unicode="g" horiz-adv-x="1178" d="M983 8q-39 -211 -160 -338q-139 -143 -358 -143q-189 0 -428 102l135 189q160 -74 274 -74q132 0 199 82q53 61 84 199q-125 -39 -223 -39q-199 0 -311 94q-121 100 -121 280q0 265 151 457q170 215 449 215q178 0 471 -153zM618 805q-137 0 -223 -146q-76 -127 -76 -284 q0 -176 205 -176q113 0 248 45l94 512q-139 49 -248 49z" />
<glyph unicode="h" horiz-adv-x="1206" d="M1073 -14q-121 0 -203 39q-102 49 -102 147q0 23 4 45q29 117 55 234q31 133 31 237q0 129 -168 129q-96 0 -258 -76l-139 -741h-254l272 1470l260 21l-96 -524q162 65 268 65q123 0 236 -74q127 -81 127 -206q0 -166 -80 -527q-2 -4 -2 -8q0 -31 49 -37h-2q0 2 158 2z " />
<glyph unicode="i" horiz-adv-x="614" d="M442 1262h-4q-55 0 -90 34q-37 35 -37 86q0 60 51 109q50 47 113 47h4q64 -2 101 -43q28 -33 28 -76q0 -12 -2 -24q-10 -56 -57 -92q-47 -39 -107 -41zM412 -14h-4q-297 0 -297 227l147 799l260 20l-149 -803q0 -43 63 -47h135z" />
<glyph unicode="j" horiz-adv-x="618" d="M475 1257h-4q-55 0 -90 35q-37 35 -37 86q0 62 51 113q49 47 113 47h4q63 -2 100 -43q29 -33 29 -78q0 -12 -2 -24q-10 -56 -57 -95q-50 -38 -107 -41zM377 74q-6 -37 -45 -162q-70 -193 -182 -285q-125 -98 -320 -98h-16q-82 2 -265 65l101 187q45 -19 160 -49 q30 -4 57 -4q92 0 143 59q31 37 76 147q20 52 39 152l166 926l260 20z" />
<glyph unicode="k" horiz-adv-x="1042" d="M510 561l481 -534l-260 -62l-373 432l-73 -399h-254l272 1472l260 21l-139 -746l428 310l256 -70z" />
<glyph unicode="l" horiz-adv-x="565" d="M350 229q0 -43 64 -47h135l-156 -196h-4q-297 0 -297 227l215 1257l260 21z" />
<glyph unicode="m" horiz-adv-x="1864" d="M1722 -14q-135 0 -217 47q-88 49 -88 145q0 15 2 31q8 59 56 252q36 155 36 252q0 112 -155 112q-90 0 -262 -100q-7 -154 -50 -365l-77 -362h-250l80 354q49 219 49 353q0 120 -162 120q-92 0 -244 -82l-141 -745h-254l191 1006l258 18l-11 -61q150 71 240 71 q174 0 287 -123q211 123 383 123q127 0 237 -69q127 -82 127 -205q0 -111 -31 -271l-53 -266v-4q0 -35 66 -39h139z" />
<glyph unicode="n" horiz-adv-x="1182" d="M1077 -14q-121 0 -203 37q-102 49 -102 145q0 20 4 43l58 242q32 143 32 245q0 125 -168 125q-92 0 -258 -75l-143 -750h-254l193 1006l258 18l-11 -53q160 63 269 63q122 0 235 -71q127 -82 127 -203q0 -168 -84 -539q-2 -4 -2 -8q0 -31 49 -35h-4q0 2 160 2z" />
<glyph unicode="o" horiz-adv-x="1194" d="M504 -14q-193 0 -316 133q-114 127 -114 303q0 233 186 421.5t438 188.5q193 0 312 -131q110 -121 110 -299q0 -231 -178 -420q-188 -196 -438 -196zM666 823q-131 0 -238 -125q-109 -125 -109 -256q0 -98 60 -172q59 -73 153 -73q130 0 240 129q105 125 105 254 q0 96 -60 170q-59 73 -151 73z" />
<glyph unicode="p" horiz-adv-x="1239" d="M600 -14q-100 0 -221 45l-88 -484l-260 -20l207 1112l-119 -82l-31 162q96 76 188 129l43 242l261 18l-25 -127q141 55 242 55q186 0 299 -90q123 -98 123 -276q0 -269 -158 -465q-174 -219 -461 -219zM797 809q-121 0 -283 -51l-96 -518q112 -39 217 -39q156 0 250 141 q86 127 86 297q0 72 -49.5 121t-124.5 49z" />
<glyph unicode="q" horiz-adv-x="1180" d="M1057 223l-80 -446v-4q0 -41 63 -45h138l-160 -197h-4q-295 0 -295 223q0 84 43 273q-131 -41 -221 -41q-203 0 -314.5 109.5t-111.5 293.5q0 266 143 445q162 200 442 200q183 0 478 -155zM649 805q-143 0 -221 -131q-68 -111 -68 -275q0 -196 199 -196q107 0 246 45 l96 508q-137 49 -252 49z" />
<glyph unicode="r" horiz-adv-x="854" d="M829 762q-139 63 -215 63q-77 0 -168 -49l-147 -776h-254l191 1004l258 18l-7 -31q97 41 181 41q102 0 290 -88z" />
<glyph unicode="s" horiz-adv-x="1014" d="M840 754q-162 69 -256 69q-78 0 -146 -47q-67 -47 -67 -106q0 -39 100 -45h-6q0 2 139 2q303 0 303 -221q0 -205 -178 -320q-154 -100 -371 -100q-178 0 -372 102l137 180q127 -71 235 -71q306 0 306 182q0 43 -113 43q-29 0 -74 -2q-45 -4 -51 -4q-129 0 -209 57 q-90 64 -90 189q0 161 166 272q149 98 321 98q74 0 168 -22q127 -33 179 -88z" />
<glyph unicode="t" horiz-adv-x="801" d="M791 811h-269l-61 -289q-31 -160 -31 -276v-17q0 -18 4 -22t25 -4q61 0 159 61l74 -198q-155 -80 -227 -80q-92 0 -168 39q-96 51 -98 147v16q0 131 32 306l66 317h-193l35 199h193l41 239l231 43l-49 -282h268z" />
<glyph unicode="u" horiz-adv-x="1167" d="M1044 -14h-8q-168 0 -239 75q-228 -75 -322 -75q-131 0 -244 65q-133 78 -133 205q0 156 47 375l84 370l254 21l-82 -350q-49 -219 -49 -353q0 -141 160 -141q90 0 240 68l145 764h256l-149 -787q0 -41 61 -45h135z" />
<glyph unicode="v" horiz-adv-x="1139" d="M612 0h-276l-213 985l266 39l141 -702l410 700l260 -39z" />
<glyph unicode="w" horiz-adv-x="1532" d="M1085 0h-239l-58 618l-294 -618h-238l-135 985l266 39l47 -682l305 668h242l49 -668l309 680l254 -39z" />
<glyph unicode="x" horiz-adv-x="1036" d="M668 508l262 -488l-268 -38l-173 344l-303 -344l-268 43l455 493l-250 465l266 39l162 -324l283 324l266 -43z" />
<glyph unicode="y" horiz-adv-x="1161" d="M969 6q-39 -211 -160 -336q-139 -143 -360 -143q-187 0 -429 102l138 189q159 -74 274 -74q129 0 199 84q55 66 86 205q-150 -47 -238 -47q-137 0 -246 55q-135 70 -135 199q0 159 47 383l84 378l256 21l-82 -358q-49 -224 -49 -361q0 -119 162 -119q88 0 240 70l141 756 h256z" />
<glyph unicode="z" horiz-adv-x="1049" d="M354 209h561l-61 -209h-831l-5 186l650 615h-502l41 209h790l7 -179z" />
<glyph unicode="{" horiz-adv-x="909" d="M344 -479q-129 71 -129 231q0 78 41 254q37 154 37 230v14q-4 74 -166 135l41 229q182 62 213 138q31 73 51 258q21 184 57 270q60 137 201 203q113 51 375 51l-96 -231q-60 12 -103 12q-51 0 -71 -19q-80 -73 -107 -209l-39 -251q-35 -152 -129 -252q-31 -31 -94 -88 q113 -131 113 -263q0 -71 -31 -204q-33 -135 -33 -193q0 -78 39 -129q14 -18 66 -18q41 0 108 12l14 -231q-264 0 -358 51z" />
<glyph unicode="|" horiz-adv-x="522" d="M12 0l273 1534h225l-272 -1534h-226z" />
<glyph unicode="}" horiz-adv-x="909" d="M418 -276q-58 -138 -199 -203q-110 -51 -375 -51l99 231q59 -12 100 -12q51 0 72 18q80 74 106 211l39 248q33 151 131 250q33 33 90 80q-106 135 -106 264q0 74 35 221q26 121 26 180q0 80 -41 135q-14 19 -65 19q-39 0 -107 -12l-16 231q266 0 358 -51 q129 -72 129 -234q0 -78 -41 -256q-37 -153 -37 -229v-14q5 -74 164 -136l-41 -229q-180 -61 -211 -135q-30 -76 -51 -258q-22 -185 -59 -268z" />
<glyph unicode="~" horiz-adv-x="874" d="M74 723q24 41 94 76q68 35 129 35q72 0 164 -66q90 -66 157 -66q72 0 228 132l-39 -213q-143 -123 -223 -123q-74 0 -164 65q-92 64 -160 64h-4q-57 0 -121 -37q-69 -39 -100 -92z" />
<glyph unicode="&#xa1;" horiz-adv-x="582" d="M367 721q-60 0 -99 37t-39 92q0 68 59.5 123t133.5 55q59 0 98 -37t39 -90q0 -67 -59.5 -123.5t-132.5 -56.5zM35 -444l115 653l90 418l225 20l-62 -438l-110 -633z" />
<glyph unicode="&#xa2;" horiz-adv-x="1092" d="M637 100l-19 -100h-225l19 106q-164 37 -252 144q-82 98 -82 231q0 174 127 322q139 160 366 211l25 133h225l-22 -127q104 -19 237 -80l-71 -192q-52 30 -199 81l-96 -536q110 20 272 115l-2 -195q-49 -27 -98 -47q-117 -51 -205 -66zM537 809q-111 -47 -172.5 -125 t-61.5 -160q0 -135 148 -205z" />
<glyph unicode="&#xa3;" horiz-adv-x="1059" d="M442 211h465l-37 -211h-884l39 213q36 -2 61 -2t39 2q55 10 84 57l29 172h-175l37 209h174l23 119q25 143 139 248q115 102 271 123q14 2 30 2q117 0 301 -103l-110 -188q-119 84 -189 84q-10 0 -18 -2q-148 -29 -172 -168l-21 -115h359l-37 -209h-358l-31 -176 q-2 -16 -19 -55z" />
<glyph unicode="&#xa5;" horiz-adv-x="1264" d="M807 582h199l-37 -209h-234l-12 -64h233l-36 -209h-234l-18 -100h-275l19 100h-236l37 209h236l12 64h-236l37 209h201l-281 526l279 31l198 -398l345 398l268 -31z" />
<glyph unicode="&#xa7;" horiz-adv-x="905" d="M291 -31q-103 2 -289 125l145 193q56 -49 86 -72q58 -41 101 -41h18q90 0 129 19q43 18 51 71q3 10 3 19q0 24 -17 30q-10 2 -41 2q-10 1 -23 1q-24 0 -57 -3h-32q-115 0 -177 52q-71 59 -71 161q0 29 6 62q14 71 90 137q-39 49 -39 127q0 31 6 68q23 108 158 186 q119 68 240 72h8q96 0 288 -86l-122 -183q-125 72 -201 72h-8q-51 -2 -90 -23q-41 -22 -45 -47q-5 -14 -5 -20q0 -45 125 -45h23h22q256 0 256 -180q0 -140 -84 -217q31 -37 31 -97q0 -45 -18 -112q-41 -142 -191 -213q-114 -58 -256 -58h-20zM461 649q-45 -2 -80 -31 q-37 -28 -37 -61q0 -45 102 -45q23 0 52 2q82 6 92 82q2 10 2 18q0 25 -17 31q-14 6 -61 6q-22 0 -53 -2z" />
<glyph unicode="&#xa8;" horiz-adv-x="836" d="M633 1374q53 -2 84 -39q22 -28 22 -65q0 -13 -2 -27q-8 -55 -51 -92q-45 -37 -100 -39h-4q-47 0 -76 31q-33 31 -33 76q0 59 49 108q47 47 107 47h4zM252 1374q53 0 86 -39q22 -28 22 -65q0 -13 -2 -27q-8 -55 -53 -92q-45 -39 -100 -39q-47 0 -78 31q-33 31 -33 76 q0 57 49 106q47 49 109 49z" />
<glyph unicode="&#xa9;" horiz-adv-x="1126" d="M479 227q-174 0 -286.5 113t-112.5 283q0 41 8 82q33 196 199 337q164 140 362 140q174 0 287 -113q111 -113 111 -281q0 -40 -7 -83q-36 -197 -200 -336q-164 -142 -361 -142zM625 1047q-146 0 -277 -125t-131 -269q0 -118 84 -204.5t203 -86.5q145 0 276 127 q129 125 129 267q0 118 -82 205q-84 86 -202 86zM502 446q-86 9 -137 68q-54 59 -54 145q0 109 82 201q82 90 197 105q8 2 18 2q62 0 158 -43l-39 -146q-80 49 -131 49q-55 0 -88 -45q-33 -47 -33 -104q0 -94 86 -94q55 0 162 65l-14 -145q-127 -58 -195 -58h-12z" />
<glyph unicode="&#xaa;" horiz-adv-x="664" d="M520 879h-168l4 26q-4 -2 -57 -22q-33 -13 -51 -13h-4q-174 25 -174 170v13q4 135 159 200q56 25 119 25q31 0 64 -6q2 16 2 37q-8 20 -43 20q-47 0 -181 -53l-51 129q168 63 240 63h8q123 -6 172 -61q37 -41 37 -102q0 -27 -6 -66l-10 -57q-17 -95 -60 -303zM389 1120 q-74 17 -86 17q-55 0 -63 -54q-2 -8 -2 -14q0 -53 71 -53q29 0 66 8z" />
<glyph unicode="&#xab;" horiz-adv-x="946" d="M383 106l-307 328l26 154l420 311l13 -190l-267 -201l197 -211zM741 106l-307 328l27 154l420 311l12 -190l-266 -201l196 -211z" />
<glyph unicode="&#xac;" horiz-adv-x="1198" d="M782 227l35 197h-688l33 184h942l-68 -381h-254z" />
<glyph unicode="&#xad;" horiz-adv-x="834" d="M129 424l39 225h537l-39 -225h-537z" />
<glyph unicode="&#xae;" horiz-adv-x="1126" d="M479 227q-174 0 -286.5 113t-112.5 283q0 41 8 82q33 196 199 337q164 140 362 140q174 0 287 -113q111 -113 111 -281q0 -40 -7 -83q-36 -197 -200 -336q-164 -142 -361 -142zM625 1047q-146 0 -277 -125t-131 -269q0 -118 84 -204.5t203 -86.5q145 0 276 127 q129 125 129 267q0 118 -82 205q-84 86 -202 86zM604 442l-65 189h-21l-31 -178h-137l88 499q92 9 144 11q18 0 32 -2q164 -13 164 -132q0 -102 -94 -161l72 -197zM600 823q-25 4 -47 4l-12 -65h18q68 0 78 39v4q0 12 -37 18z" />
<glyph unicode="&#xaf;" horiz-adv-x="731" d="M115 1124l26 144h475l-26 -144h-475z" />
<glyph unicode="&#xb0;" horiz-adv-x="739" d="M328 952q-107 0 -174 60q-70 57 -70 143q0 107 100 195q101 86 228 86q106 0 176 -60q67 -59 67 -147q0 -107 -100 -191q-100 -86 -227 -86zM383 1268q-29 0 -53 -21q-27 -22 -33 -55v-12q0 -23 14 -39q17 -21 45 -21q72 2 84 72q2 8 2 16q0 21 -12 37q-18 23 -47 23z " />
<glyph unicode="&#xb1;" horiz-adv-x="983" d="M625 463l-35 -195h-254l35 195h-236l35 203h236l34 194h254l-35 -194h238l-35 -205zM51 -14l35 202h727l-35 -202h-727z" />
<glyph unicode="&#xb2;" horiz-adv-x="1141" d="M25 0l32 190l365 252q211 148 287 228q73 78 77 151v4q0 66 -55 109q-49 37 -108 37q-11 0 -23 -2q-156 -17 -338 -95l-47 203q244 97 426 97q209 0 301 -72q86 -68 94 -219v-21q0 -303 -559 -651h469l-37 -211h-884z" />
<glyph unicode="&#xb3;" horiz-adv-x="1100" d="M485 -14q-18 -2 -39 -2q-153 0 -405 98l109 209q176 -105 301 -105q16 0 30 2q172 19 205 134q6 22 6 43q0 53 -39 90q-41 37 -108 37h-297l37 213q143 -5 215 -5q53 0 65 2q86 17 125 48q49 38 49 114v13q-4 90 -137 90q-100 0 -332 -90l-45 202q291 95 426 95 q146 0 242 -80t96 -213q0 -174 -131 -279q80 -65 80 -190q0 -47 -12 -99q-35 -139 -164 -229q-121 -84 -277 -98z" />
<glyph unicode="&#xb4;" horiz-adv-x="696" d="M59 1221l392 266l178 -131l-420 -223z" />
<glyph unicode="&#xb5;" horiz-adv-x="1294" d="M879 66q-150 -97 -320 -97h-12q-88 2 -225 51l-56 -307h-254l228 1288l258 21l-142 -803q129 -53 211 -53h13q96 4 157 63q62 60 76 150l109 625h256q-48 -246 -123 -693q-2 -14 -2 -26q0 -117 180 -119l-33 -193h-24q-189 0 -297 93z" />
<glyph unicode="&#xb6;" horiz-adv-x="1184" d="M934 23l-227 -21l174 995l-66 4l-176 -999l-223 21l80 448q-170 12 -269 84q-104 78 -104 209q0 29 4 59q33 189 184 277q150 86 443 86q161 0 383 -21z" />
<glyph unicode="&#xb8;" horiz-adv-x="696" d="M133 -403l-12 178q108 -17 151 -17q17 0 37 19q17 16 17 26v4q-2 13 -43 15l-86 4l79 217h195l-45 -123q143 -24 143 -90q0 -43 -67 -135q-78 -107 -271 -107q-53 0 -98 9z" />
<glyph unicode="&#xb9;" horiz-adv-x="702" d="M199 0l155 881l-118 -70l-74 186l272 150h221l-202 -1147h-254z" />
<glyph unicode="&#xba;" horiz-adv-x="774" d="M336 877q-115 0 -182 69q-70 68 -70 166q0 41 12 82q41 115 140 180q92 60 200 60q115 0 189 -68q65 -61 65 -160q0 -18 -2 -37q-12 -114 -113 -200q-106 -92 -239 -92zM406 1270q-37 0 -72 -31q-37 -33 -45 -84q-2 -12 -2 -22q0 -35 18 -58q23 -28 60 -28q43 0 79 40 q37 39 37 95q0 86 -75 88z" />
<glyph unicode="&#xbb;" horiz-adv-x="946" d="M66 109l-13 192l266 199l-196 211l82 190l307 -328l-27 -153zM424 109l-12 192l266 199l-197 211l82 190l307 -328l-26 -153z" />
<glyph unicode="&#xbc;" horiz-adv-x="2193" d="M1935 272l-49 -272l-254 2l49 270h-602l33 187l745 688h232l-117 -664h160l-37 -211h-160zM1775 809l-356 -326h299zM446 -336l-215 94l1108 1786l219 -86zM199 0l155 881l-118 -70l-74 186l272 150h221l-202 -1147h-254z" />
<glyph unicode="&#xbd;" horiz-adv-x="2226" d="M1110 0l32 190l365 252q211 148 287 228q73 78 77 151v4q0 66 -55 109q-49 37 -108 37q-11 0 -23 -2q-156 -17 -338 -95l-47 203q244 97 426 97q209 0 301 -72q86 -68 94 -219v-21q0 -303 -559 -651h469l-37 -211h-884zM446 -336l-215 94l1108 1786l219 -86zM199 0 l155 881l-118 -70l-74 186l272 150h221l-202 -1147h-254z" />
<glyph unicode="&#xbe;" horiz-adv-x="2591" d="M2333 272l-49 -272l-254 2l49 270h-602l33 187l745 688h232l-117 -664h160l-37 -211h-160zM2173 809l-356 -326h299zM844 -336l-215 94l1108 1786l219 -86zM485 -14q-18 -2 -39 -2q-153 0 -405 98l109 209q176 -105 301 -105q16 0 30 2q172 19 205 134q6 22 6 43 q0 53 -39 90q-41 37 -108 37h-297l37 213q143 -5 215 -5q53 0 65 2q86 17 125 48q49 38 49 114v13q-4 90 -137 90q-100 0 -332 -90l-45 202q291 95 426 95q146 0 242 -80t96 -213q0 -174 -131 -279q80 -65 80 -190q0 -47 -12 -99q-35 -139 -164 -229q-121 -84 -277 -98z" />
<glyph unicode="&#xbf;" horiz-adv-x="1077" d="M698 723q-59 0 -98 37q-41 37 -41 92q0 68 62 123q59 55 131 55q59 0 98 -37t39 -90q0 -67 -58.5 -123.5t-132.5 -56.5zM401 -428q-159 14 -266 98q-115 92 -115 226q0 24 5 51q26 153 141 256q49 45 250 168q82 51 100 75q12 19 27 99l12 76l260 28l-20 -112 q-29 -156 -148 -258q-12 -13 -217 -144q-121 -78 -145 -168q-4 -16 -4 -30q0 -56 49 -97q49 -43 121 -51q16 -2 34 -2q150 0 367 125l33 -209q-297 -133 -453 -133q-16 0 -31 2z" />
<glyph unicode="&#xc0;" d="M1044 -18l-88 407h-548l-232 -407l-252 38l807 1414h270l310 -1414zM807 1094l-277 -488h381zM617 1728l225 131l295 -266l-182 -88z" />
<glyph unicode="&#xc1;" d="M1044 -18l-88 407h-548l-232 -407l-252 38l807 1414h270l310 -1414zM807 1094l-277 -488h381zM571 1590l392 266l178 -131l-420 -223z" />
<glyph unicode="&#xc2;" d="M1044 -18l-88 407h-548l-232 -407l-252 38l807 1414h270l310 -1414zM807 1094l-277 -488h381zM1075 1526l-187 110l-223 -110l-100 127l356 172l299 -172z" />
<glyph unicode="&#xc3;" d="M1044 -18l-88 407h-548l-232 -407l-252 38l807 1414h270l310 -1414zM807 1094l-277 -488h381zM512 1738q24 41 94 76q68 35 129 35q72 0 164 -66q90 -65 157 -65q72 0 228 131l-39 -213q-143 -123 -223 -123q-74 0 -164 66q-92 63 -160 63h-4q-57 0 -121 -37 q-69 -39 -100 -92z" />
<glyph unicode="&#xc4;" d="M1044 -18l-88 407h-548l-232 -407l-252 38l807 1414h270l310 -1414zM807 1094l-277 -488h381zM1100 1792q53 -2 84 -39q22 -28 22 -65q0 -13 -2 -27q-8 -55 -51 -92q-45 -37 -100 -39h-4q-47 0 -76 31q-33 31 -33 76q0 59 49 108q47 47 107 47h4zM719 1792q53 0 86 -39 q22 -28 22 -65q0 -13 -2 -27q-8 -55 -53 -92q-45 -39 -100 -39q-47 0 -78 31q-33 31 -33 76q0 57 49 106q47 49 109 49z" />
<glyph unicode="&#xc5;" d="M1044 -18l-88 407h-548l-232 -407l-252 38l807 1414h270l310 -1414zM807 1094l-277 -488h381zM850 1378q-101 0 -166 65q-68 64 -68 160q0 121 102.5 220.5t227.5 99.5q100 0 168 -64q65 -65 65 -162q0 -120 -102 -219.5t-227 -99.5zM915 1747q-37 0 -65 -27 q-31 -29 -39 -70q-2 -8 -2 -16q0 -29 16 -51q21 -29 55 -29q35 0 66 28.5t37 67.5q2 13 2 23q0 26 -14 47q-21 27 -56 27z" />
<glyph unicode="&#xc6;" horiz-adv-x="2185" d="M1954 0h-977l67 393h-497l-377 -411l-244 43l1274 1409h1000l-13 -213h-735l-59 -330h616l-37 -213h-616l-82 -465h737zM1167 1090l-424 -484h340z" />
<glyph unicode="&#xc7;" horiz-adv-x="1370" d="M649 -14q-260 24 -416.5 192t-156.5 412q0 67 12 137q59 305 285 508q241 215 573 215q166 0 416 -86l-82 -229q-201 102 -350 102q-37 0 -68 -6q-211 -45 -348 -182q-139 -138 -172 -332q-8 -49 -8 -96q0 -162 96 -269.5t275 -140.5q24 -4 55 -4q164 0 420 115l-6 -222 q-314 -116 -486 -116q-20 0 -39 2zM461 -403l-12 178q108 -17 151 -17q17 0 37 19q17 16 17 26v4q-2 13 -43 15l-86 4l79 217h195l-45 -123q143 -24 143 -90q0 -43 -67 -135q-78 -107 -271 -107q-53 0 -98 9z" />
<glyph unicode="&#xc8;" horiz-adv-x="1225" d="M989 0h-966l251 1434h926l-14 -213h-694l-66 -371h616l-36 -213h-617l-76 -424h736zM514 1728l225 131l295 -266l-182 -88z" />
<glyph unicode="&#xc9;" horiz-adv-x="1225" d="M989 0h-966l251 1434h926l-14 -213h-694l-66 -371h616l-36 -213h-617l-76 -424h736zM530 1590l392 266l178 -131l-420 -223z" />
<glyph unicode="&#xca;" horiz-adv-x="1225" d="M989 0h-966l251 1434h926l-14 -213h-694l-66 -371h616l-36 -213h-617l-76 -424h736zM953 1526l-187 110l-223 -110l-100 127l356 172l299 -172z" />
<glyph unicode="&#xcb;" horiz-adv-x="1225" d="M989 0h-966l251 1434h926l-14 -213h-694l-66 -371h616l-36 -213h-617l-76 -424h736zM1018 1792q53 -2 84 -39q22 -28 22 -65q0 -13 -2 -27q-8 -55 -51 -92q-45 -37 -100 -39h-4q-47 0 -76 31q-33 31 -33 76q0 59 49 108q47 47 107 47h4zM637 1792q53 0 86 -39 q22 -28 22 -65q0 -13 -2 -27q-8 -55 -53 -92q-45 -39 -100 -39q-47 0 -78 31q-33 31 -33 76q0 57 49 106q47 49 109 49z" />
<glyph unicode="&#xcc;" horiz-adv-x="551" d="M20 0l252 1432l258 20l-256 -1452h-254zM166 1728l225 131l295 -266l-182 -88z" />
<glyph unicode="&#xcd;" horiz-adv-x="551" d="M20 0l252 1432l258 20l-256 -1452h-254zM120 1590l392 266l178 -131l-420 -223z" />
<glyph unicode="&#xce;" horiz-adv-x="551" d="M20 0l252 1432l258 20l-256 -1452h-254zM625 1526l-187 110l-223 -110l-100 127l356 172l299 -172z" />
<glyph unicode="&#xcf;" horiz-adv-x="551" d="M20 0l252 1432l258 20l-256 -1452h-254zM649 1792q53 -2 84 -39q22 -28 22 -65q0 -13 -2 -27q-8 -55 -51 -92q-45 -37 -100 -39h-4q-47 0 -76 31q-33 31 -33 76q0 59 49 108q47 47 107 47h4zM268 1792q53 0 86 -39q22 -28 22 -65q0 -13 -2 -27q-8 -55 -53 -92 q-45 -39 -100 -39q-47 0 -78 31q-33 31 -33 76q0 57 49 106q47 49 109 49z" />
<glyph unicode="&#xd1;" horiz-adv-x="1491" d="M936 -16l-477 1056l-187 -1058l-249 20l251 1430l304 18l456 -1036l180 1020h254l-251 -1432zM512 1738q24 41 94 76q68 35 129 35q72 0 164 -66q90 -65 157 -65q72 0 228 131l-39 -213q-143 -123 -223 -123q-74 0 -164 66q-92 63 -160 63h-4q-57 0 -121 -37 q-69 -39 -100 -92z" />
<glyph unicode="&#xd2;" horiz-adv-x="1579" d="M657 -14q-262 0 -426 180q-155 172 -155 424q0 100 28 201q78 278 304 464q233 193 516 193h4q262 -2 424 -178q151 -168 151 -420q0 -320 -250 -588q-260 -276 -596 -276zM883 1235h-4q-217 0 -381 -191q-168 -194 -168 -421q0 -177 106 -299q105 -125 264 -125 q211 2 381 202q164 195 164 420q0 176 -94 291q-100 121 -268 123zM678 1728l225 131l295 -266l-182 -88z" />
<glyph unicode="&#xd3;" horiz-adv-x="1579" d="M657 -14q-262 0 -426 180q-155 172 -155 424q0 100 28 201q78 278 304 464q233 193 516 193h4q262 -2 424 -178q151 -168 151 -420q0 -320 -250 -588q-260 -276 -596 -276zM883 1235h-4q-217 0 -381 -191q-168 -194 -168 -421q0 -177 106 -299q105 -125 264 -125 q211 2 381 202q164 195 164 420q0 176 -94 291q-100 121 -268 123zM673 1590l392 266l178 -131l-420 -223z" />
<glyph unicode="&#xd4;" horiz-adv-x="1579" d="M657 -14q-262 0 -426 180q-155 172 -155 424q0 100 28 201q78 278 304 464q233 193 516 193h4q262 -2 424 -178q151 -168 151 -420q0 -320 -250 -588q-260 -276 -596 -276zM883 1235h-4q-217 0 -381 -191q-168 -194 -168 -421q0 -177 106 -299q105 -125 264 -125 q211 2 381 202q164 195 164 420q0 176 -94 291q-100 121 -268 123zM1137 1526l-187 110l-223 -110l-100 127l356 172l299 -172z" />
<glyph unicode="&#xd5;" horiz-adv-x="1579" d="M657 -14q-262 0 -426 180q-155 172 -155 424q0 100 28 201q78 278 304 464q233 193 516 193h4q262 -2 424 -178q151 -168 151 -420q0 -320 -250 -588q-260 -276 -596 -276zM883 1235h-4q-217 0 -381 -191q-168 -194 -168 -421q0 -177 106 -299q105 -125 264 -125 q211 2 381 202q164 195 164 420q0 176 -94 291q-100 121 -268 123zM594 1738q24 41 94 76q68 35 129 35q72 0 164 -66q90 -65 157 -65q72 0 228 131l-39 -213q-143 -123 -223 -123q-74 0 -164 66q-92 63 -160 63h-4q-57 0 -121 -37q-69 -39 -100 -92z" />
<glyph unicode="&#xd6;" horiz-adv-x="1579" d="M657 -14q-262 0 -426 180q-155 172 -155 424q0 100 28 201q78 278 304 464q233 193 516 193h4q262 -2 424 -178q151 -168 151 -420q0 -320 -250 -588q-260 -276 -596 -276zM883 1235h-4q-217 0 -381 -191q-168 -194 -168 -421q0 -177 106 -299q105 -125 264 -125 q211 2 381 202q164 195 164 420q0 176 -94 291q-100 121 -268 123zM1172 1792q53 -2 84 -39q22 -28 22 -65q0 -13 -2 -27q-8 -55 -51 -92q-45 -37 -100 -39h-4q-47 0 -76 31q-33 31 -33 76q0 59 49 108q47 47 107 47h4zM791 1792q53 0 86 -39q22 -28 22 -65q0 -13 -2 -27 q-8 -55 -53 -92q-45 -39 -100 -39q-47 0 -78 31q-33 31 -33 76q0 57 49 106q47 49 109 49z" />
<glyph unicode="&#xd8;" horiz-adv-x="1579" d="M657 -16q-159 0 -282 77l-99 -112l-223 82l164 184q-139 197 -139 399q0 86 26 177q66 241 261 423q194 183 426 226q63 12 122 12q172 0 314 -100l116 133l224 -82l-185 -211q119 -195 119 -367q0 -39 -4 -80q-39 -299 -285 -526q-251 -235 -555 -235zM1192 979 l-655 -735q69 -45 153 -45h8q191 0 351 159q157 158 186 363q4 24 4 51q0 92 -47 207zM883 1235h-4q-203 0 -373 -184q-172 -187 -172 -396q0 -100 67 -233l670 752q-78 61 -188 61z" />
<glyph unicode="&#xd9;" horiz-adv-x="1499" d="M610 -14q-499 20 -499 438q0 78 16 168l147 840l258 20l-151 -854q0 -27 -6 -82t-6 -84q0 -41 8 -76q20 -75 92 -116q72 -43 170 -43q158 0 281 96q141 108 153 289l150 852h254l-150 -852q-49 -281 -246 -443q-186 -153 -438 -153h-33zM617 1728l225 131l295 -266 l-182 -88z" />
<glyph unicode="&#xda;" horiz-adv-x="1499" d="M610 -14q-499 20 -499 438q0 78 16 168l147 840l258 20l-151 -854q0 -27 -6 -82t-6 -84q0 -41 8 -76q20 -75 92 -116q72 -43 170 -43q158 0 281 96q141 108 153 289l150 852h254l-150 -852q-49 -281 -246 -443q-186 -153 -438 -153h-33zM632 1590l392 266l178 -131 l-420 -223z" />
<glyph unicode="&#xdb;" horiz-adv-x="1499" d="M610 -14q-499 20 -499 438q0 78 16 168l147 840l258 20l-151 -854q0 -27 -6 -82t-6 -84q0 -41 8 -76q20 -75 92 -116q72 -43 170 -43q158 0 281 96q141 108 153 289l150 852h254l-150 -852q-49 -281 -246 -443q-186 -153 -438 -153h-33zM1096 1526l-187 110l-223 -110 l-100 127l356 172l299 -172z" />
<glyph unicode="&#xdc;" horiz-adv-x="1499" d="M610 -14q-499 20 -499 438q0 78 16 168l147 840l258 20l-151 -854q0 -27 -6 -82t-6 -84q0 -41 8 -76q20 -75 92 -116q72 -43 170 -43q158 0 281 96q141 108 153 289l150 852h254l-150 -852q-49 -281 -246 -443q-186 -153 -438 -153h-33zM1131 1792q53 -2 84 -39 q22 -28 22 -65q0 -13 -2 -27q-8 -55 -51 -92q-45 -37 -100 -39h-4q-47 0 -76 31q-33 31 -33 76q0 59 49 108q47 47 107 47h4zM750 1792q53 0 86 -39q22 -28 22 -65q0 -13 -2 -27q-8 -55 -53 -92q-45 -39 -100 -39q-47 0 -78 31q-33 31 -33 76q0 57 49 106q47 49 109 49z" />
<glyph unicode="&#xdd;" horiz-adv-x="1272" d="M637 1662l392 266l178 -131l-420 -223zM741 604l-106 -604h-254l106 604l-360 809l293 39l237 -612l453 612l276 -41z" />
<glyph unicode="&#xdf;" horiz-adv-x="1255" d="M545 -14h-15q-75 0 -200 18l73 215q103 -26 183 -26q254 0 276 229v12q0 94 -164 164q-96 41 -211 61l41 240q107 14 201 47q162 58 174 141q2 13 2 23q0 125 -256 125q-67 0 -157 -10l-216 -1227l-253 10l251 1424q236 16 398 16q57 0 98 -2q162 -10 272 -80 q125 -80 125 -213v-25q-8 -106 -102 -206q-78 -88 -188 -142q239 -121 239 -327q0 -29 -4 -56q-72 -393 -567 -411z" />
<glyph unicode="&#xe0;" horiz-adv-x="1126" d="M1006 -14h-9q-166 0 -235 69q-182 -69 -297 -69q-193 0 -299 104q-109 105 -109 285q0 254 160 446q172 209 440 211h7q190 0 432 -125l-133 -684q0 -41 63 -45h135zM600 817q-117 0 -209 -145q-88 -137 -88 -283q0 -194 180 -194q101 0 226 41l108 550q-94 31 -217 31z M463 1335l225 131l295 -266l-182 -88z" />
<glyph unicode="&#xe1;" horiz-adv-x="1126" d="M1006 -14h-9q-166 0 -235 69q-182 -69 -297 -69q-193 0 -299 104q-109 105 -109 285q0 254 160 446q172 209 440 211h7q190 0 432 -125l-133 -684q0 -41 63 -45h135zM600 817q-117 0 -209 -145q-88 -137 -88 -283q0 -194 180 -194q101 0 226 41l108 550q-94 31 -217 31z M489 1221l392 266l178 -131l-420 -223z" />
<glyph unicode="&#xe2;" horiz-adv-x="1126" d="M1006 -14h-9q-166 0 -235 69q-182 -69 -297 -69q-193 0 -299 104q-109 105 -109 285q0 254 160 446q172 209 440 211h7q190 0 432 -125l-133 -684q0 -41 63 -45h135zM600 817q-117 0 -209 -145q-88 -137 -88 -283q0 -194 180 -194q101 0 226 41l108 550q-94 31 -217 31z M912 1137l-187 110l-223 -110l-100 127l356 172l299 -172z" />
<glyph unicode="&#xe3;" horiz-adv-x="1126" d="M1006 -14h-9q-166 0 -235 69q-182 -69 -297 -69q-193 0 -299 104q-109 105 -109 285q0 254 160 446q172 209 440 211h7q190 0 432 -125l-133 -684q0 -41 63 -45h135zM600 817q-117 0 -209 -145q-88 -137 -88 -283q0 -194 180 -194q101 0 226 41l108 550q-94 31 -217 31z M320 1337q24 41 94 76q68 35 129 35q72 0 164 -66q90 -65 157 -65q72 0 228 131l-39 -213q-143 -123 -223 -123q-74 0 -164 66q-92 63 -160 63h-4q-57 0 -121 -37q-69 -39 -100 -92z" />
<glyph unicode="&#xe4;" horiz-adv-x="1126" d="M1006 -14h-9q-166 0 -235 69q-182 -69 -297 -69q-193 0 -299 104q-109 105 -109 285q0 254 160 446q172 209 440 211h7q190 0 432 -125l-133 -684q0 -41 63 -45h135zM600 817q-117 0 -209 -145q-88 -137 -88 -283q0 -194 180 -194q101 0 226 41l108 550q-94 31 -217 31z M920 1374q53 -2 84 -39q22 -28 22 -65q0 -13 -2 -27q-8 -55 -51 -92q-45 -37 -100 -39h-4q-47 0 -76 31q-33 31 -33 76q0 59 49 108q47 47 107 47h4zM539 1374q53 0 86 -39q22 -28 22 -65q0 -13 -2 -27q-8 -55 -53 -92q-45 -39 -100 -39q-47 0 -78 31q-33 31 -33 76 q0 57 49 106q47 49 109 49z" />
<glyph unicode="&#xe5;" horiz-adv-x="1126" d="M1006 -14h-9q-166 0 -235 69q-182 -69 -297 -69q-193 0 -299 104q-109 105 -109 285q0 254 160 446q172 209 440 211h7q190 0 432 -125l-133 -684q0 -41 63 -45h135zM600 817q-117 0 -209 -145q-88 -137 -88 -283q0 -194 180 -194q101 0 226 41l108 550q-94 31 -217 31z M680 993q-107 0 -174 60q-70 57 -70 143q0 107 100 195q101 86 228 86q106 0 176 -60q67 -59 67 -147q0 -107 -100 -191q-100 -86 -227 -86zM735 1309q-29 0 -53 -21q-27 -22 -33 -55v-12q0 -23 14 -39q17 -21 45 -21q72 2 84 72q2 8 2 16q0 21 -12 37q-18 23 -47 23z" />
<glyph unicode="&#xe6;" horiz-adv-x="1763" d="M1694 608q-2 -123 -305 -180q-185 -35 -428 -41q6 -84 53 -137t112 -55h25q195 0 305 88l70 -195q-53 -41 -162 -70q-119 -32 -244 -32h-16q-162 2 -273 100l-139 -49q-157 -55 -266 -55q-33 0 -59 4q-138 30 -224 104q-98 86 -100 211v4q0 109 70 184q57 64 184 125 q109 52 256 52q94 0 190 -21q17 53 17 86q0 74 -74 86q-43 6 -86 6q-143 0 -330 -73l-67 188q254 94 395 94h27q133 -10 182 -22q96 -25 151 -97q156 119 340 119q183 0 295 -133q101 -119 101 -283v-8zM1434 641q-4 182 -166 182q-90 0 -164 -65q-76 -68 -113 -164 q324 2 430 33q9 2 13 14zM698 436q-80 15 -151 15q-228 0 -252 -138q-4 -12 -4 -24q0 -94 155 -94q93 0 213 30z" />
<glyph unicode="&#xe7;" horiz-adv-x="1081" d="M956 737q-129 86 -290 86q-134 0 -240 -125q-109 -127 -109 -260q0 -100 64 -172q61 -71 162 -71q131 0 323 75l66 -190q-260 -96 -410 -96q-192 0 -319 133q-129 133 -129 309q0 240 194 424q195 182 453 182q117 0 379 -98zM317 -403l-12 178q108 -17 151 -17 q17 0 37 19q17 16 17 26v4q-2 13 -43 15l-86 4l79 217h195l-45 -123q143 -24 143 -90q0 -43 -67 -135q-78 -107 -271 -107q-53 0 -98 9z" />
<glyph unicode="&#xe8;" horiz-adv-x="1137" d="M354 389q6 -84 54 -139q49 -62 127 -62q200 0 315 88l70 -188q-68 -53 -207 -80q-107 -22 -199 -22q-195 0 -311 131q-107 121 -107 299q0 227 170 415q180 201 426 201q185 0 297 -133q101 -119 101 -283v-8q0 -90 -136 -149q-112 -49 -256 -56zM662 829q-89 0 -168 -75 q-70 -68 -109 -166q328 2 430 33q8 2 12 14q-2 82 -43 139q-41 55 -122 55zM422 1335l225 131l295 -266l-182 -88z" />
<glyph unicode="&#xe9;" horiz-adv-x="1137" d="M354 389q6 -84 54 -139q49 -62 127 -62q200 0 315 88l70 -188q-68 -53 -207 -80q-107 -22 -199 -22q-195 0 -311 131q-107 121 -107 299q0 227 170 415q180 201 426 201q185 0 297 -133q101 -119 101 -283v-8q0 -90 -136 -149q-112 -49 -256 -56zM662 829q-89 0 -168 -75 q-70 -68 -109 -166q328 2 430 33q8 2 12 14q-2 82 -43 139q-41 55 -122 55zM407 1221l392 266l178 -131l-420 -223z" />
<glyph unicode="&#xea;" horiz-adv-x="1137" d="M354 389q6 -84 54 -139q49 -62 127 -62q200 0 315 88l70 -188q-68 -53 -207 -80q-107 -22 -199 -22q-195 0 -311 131q-107 121 -107 299q0 227 170 415q180 201 426 201q185 0 297 -133q101 -119 101 -283v-8q0 -90 -136 -149q-112 -49 -256 -56zM662 829q-89 0 -168 -75 q-70 -68 -109 -166q328 2 430 33q8 2 12 14q-2 82 -43 139q-41 55 -122 55zM871 1137l-187 110l-223 -110l-100 127l356 172l299 -172z" />
<glyph unicode="&#xeb;" horiz-adv-x="1137" d="M354 389q6 -84 54 -139q49 -62 127 -62q200 0 315 88l70 -188q-68 -53 -207 -80q-107 -22 -199 -22q-195 0 -311 131q-107 121 -107 299q0 227 170 415q180 201 426 201q185 0 297 -133q101 -119 101 -283v-8q0 -90 -136 -149q-112 -49 -256 -56zM662 829q-89 0 -168 -75 q-70 -68 -109 -166q328 2 430 33q8 2 12 14q-2 82 -43 139q-41 55 -122 55zM940 1374q53 -2 84 -39q22 -28 22 -65q0 -13 -2 -27q-8 -55 -51 -92q-45 -37 -100 -39h-4q-47 0 -76 31q-33 31 -33 76q0 59 49 108q47 47 107 47h4zM559 1374q53 0 86 -39q22 -28 22 -65 q0 -13 -2 -27q-8 -55 -53 -92q-45 -39 -100 -39q-47 0 -78 31q-33 31 -33 76q0 57 49 106q47 49 109 49z" />
<glyph unicode="&#xec;" horiz-adv-x="614" d="M166 1335l225 131l295 -266l-182 -88zM412 -14h-4q-297 0 -297 227l147 788l260 21l-149 -793q0 -43 63 -47h135z" />
<glyph unicode="&#xed;" horiz-adv-x="614" d="M141 1221l392 266l178 -131l-420 -223zM412 -14h-4q-297 0 -297 227l147 788l260 21l-149 -793q0 -43 63 -47h135z" />
<glyph unicode="&#xee;" horiz-adv-x="614" d="M615 1137l-187 110l-223 -110l-100 127l356 172l299 -172zM412 -14h-4q-297 0 -297 227l147 788l260 21l-149 -793q0 -43 63 -47h135z" />
<glyph unicode="&#xef;" horiz-adv-x="614" d="M623 1374q53 -2 84 -39q22 -28 22 -65q0 -13 -2 -27q-8 -55 -51 -92q-45 -37 -100 -39h-4q-47 0 -76 31q-33 31 -33 76q0 59 49 108q47 47 107 47h4zM242 1374q53 0 86 -39q22 -28 22 -65q0 -13 -2 -27q-8 -55 -53 -92q-45 -39 -100 -39q-47 0 -78 31q-33 31 -33 76 q0 57 49 106q47 49 109 49zM412 -14h-4q-297 0 -297 227l147 788l260 21l-149 -793q0 -43 63 -47h135z" />
<glyph unicode="&#xf1;" horiz-adv-x="1182" d="M1077 -14q-121 0 -203 37q-102 49 -102 145q0 20 4 43l58 242q32 143 32 245q0 125 -168 125q-92 0 -258 -75l-143 -750h-254l193 1006l258 18l-11 -53q160 63 269 63q122 0 235 -71q127 -82 127 -203q0 -168 -84 -539q-2 -4 -2 -8q0 -31 49 -35h-4q0 2 160 2zM314 1337 q24 41 94 76q68 35 129 35q72 0 164 -66q90 -65 157 -65q72 0 228 131l-39 -213q-143 -123 -223 -123q-74 0 -164 66q-92 63 -160 63h-4q-57 0 -121 -37q-69 -39 -100 -92z" />
<glyph unicode="&#xf2;" horiz-adv-x="1194" d="M504 -14q-193 0 -316 133q-114 127 -114 303q0 233 186 421.5t438 188.5q193 0 312 -131q110 -121 110 -299q0 -231 -178 -420q-188 -196 -438 -196zM666 823q-131 0 -238 -125q-109 -125 -109 -256q0 -98 60 -172q59 -73 153 -73q130 0 240 129q105 125 105 254 q0 96 -60 170q-59 73 -151 73zM484 1335l225 131l295 -266l-182 -88z" />
<glyph unicode="&#xf3;" horiz-adv-x="1194" d="M504 -14q-193 0 -316 133q-114 127 -114 303q0 233 186 421.5t438 188.5q193 0 312 -131q110 -121 110 -299q0 -231 -178 -420q-188 -196 -438 -196zM666 823q-131 0 -238 -125q-109 -125 -109 -256q0 -98 60 -172q59 -73 153 -73q130 0 240 129q105 125 105 254 q0 96 -60 170q-59 73 -151 73zM489 1221l392 266l178 -131l-420 -223z" />
<glyph unicode="&#xf4;" horiz-adv-x="1194" d="M504 -14q-193 0 -316 133q-114 127 -114 303q0 233 186 421.5t438 188.5q193 0 312 -131q110 -121 110 -299q0 -231 -178 -420q-188 -196 -438 -196zM666 823q-131 0 -238 -125q-109 -125 -109 -256q0 -98 60 -172q59 -73 153 -73q130 0 240 129q105 125 105 254 q0 96 -60 170q-59 73 -151 73zM912 1137l-187 110l-223 -110l-100 127l356 172l299 -172z" />
<glyph unicode="&#xf5;" horiz-adv-x="1194" d="M504 -14q-193 0 -316 133q-114 127 -114 303q0 233 186 421.5t438 188.5q193 0 312 -131q110 -121 110 -299q0 -231 -178 -420q-188 -196 -438 -196zM666 823q-131 0 -238 -125q-109 -125 -109 -256q0 -98 60 -172q59 -73 153 -73q130 0 240 129q105 125 105 254 q0 96 -60 170q-59 73 -151 73zM355 1337q24 41 94 76q68 35 129 35q72 0 164 -66q90 -65 157 -65q72 0 228 131l-39 -213q-143 -123 -223 -123q-74 0 -164 66q-92 63 -160 63h-4q-57 0 -121 -37q-69 -39 -100 -92z" />
<glyph unicode="&#xf6;" horiz-adv-x="1194" d="M504 -14q-193 0 -316 133q-114 127 -114 303q0 233 186 421.5t438 188.5q193 0 312 -131q110 -121 110 -299q0 -231 -178 -420q-188 -196 -438 -196zM666 823q-131 0 -238 -125q-109 -125 -109 -256q0 -98 60 -172q59 -73 153 -73q130 0 240 129q105 125 105 254 q0 96 -60 170q-59 73 -151 73zM940 1374q53 -2 84 -39q22 -28 22 -65q0 -13 -2 -27q-8 -55 -51 -92q-45 -37 -100 -39h-4q-47 0 -76 31q-33 31 -33 76q0 59 49 108q47 47 107 47h4zM559 1374q53 0 86 -39q22 -28 22 -65q0 -13 -2 -27q-8 -55 -53 -92q-45 -39 -100 -39 q-47 0 -78 31q-33 31 -33 76q0 57 49 106q47 49 109 49z" />
<glyph unicode="&#xf7;" horiz-adv-x="983" d="M514 586q-51 0 -82 37q-24 26 -24 67q0 10 2 21q10 51 55 90q43 37 94 37q53 0 84 -37q21 -29 21 -64q0 -12 -2 -26q-9 -52 -52 -88.5t-96 -36.5zM106 317l41 226h727l-40 -226h-728zM418 33q-51 0 -82 37q-25 26 -25 63q0 12 2 25q9 51 54 90q43 37 96 37q51 0 82 -37 q22 -31 22 -68q0 -10 -2 -22q-10 -52 -53 -88.5t-94 -36.5z" />
<glyph unicode="&#xf8;" horiz-adv-x="1247" d="M530 -16q-106 0 -196 43l-70 -78l-223 82l133 139q-92 131 -92 268q0 68 22 137q62 195 242 322q174 125 369 125q112 0 207 -47l75 80l222 -80l-136 -148q82 -122 82 -249q0 -218 -196 -406q-199 -188 -439 -188zM899 594q-2 14 -8 27l-389 -414q35 -12 73 -12 q140 0 248 137q84 104 84 203q0 30 -8 59zM680 811q-133 0 -236.5 -109.5t-103.5 -230.5q0 -45 22 -96l394 420q-35 16 -76 16z" />
<glyph unicode="&#xf9;" horiz-adv-x="1167" d="M1044 -14h-8q-168 0 -239 75q-228 -75 -322 -75q-131 0 -244 65q-133 78 -133 205q0 156 47 375l84 370l254 21l-82 -350q-49 -219 -49 -353q0 -141 160 -141q90 0 240 68l145 764h256l-149 -787q0 -41 61 -45h135zM463 1335l225 131l295 -266l-182 -88z" />
<glyph unicode="&#xfa;" horiz-adv-x="1167" d="M1044 -14h-8q-168 0 -239 75q-228 -75 -322 -75q-131 0 -244 65q-133 78 -133 205q0 156 47 375l84 370l254 21l-82 -350q-49 -219 -49 -353q0 -141 160 -141q90 0 240 68l145 764h256l-149 -787q0 -41 61 -45h135zM448 1221l392 266l178 -131l-420 -223z" />
<glyph unicode="&#xfb;" horiz-adv-x="1167" d="M1044 -14h-8q-168 0 -239 75q-228 -75 -322 -75q-131 0 -244 65q-133 78 -133 205q0 156 47 375l84 370l254 21l-82 -350q-49 -219 -49 -353q0 -141 160 -141q90 0 240 68l145 764h256l-149 -787q0 -41 61 -45h135zM891 1137l-187 110l-223 -110l-100 127l356 172 l299 -172z" />
<glyph unicode="&#xfc;" horiz-adv-x="1167" d="M1044 -14h-8q-168 0 -239 75q-228 -75 -322 -75q-131 0 -244 65q-133 78 -133 205q0 156 47 375l84 370l254 21l-82 -350q-49 -219 -49 -353q0 -141 160 -141q90 0 240 68l145 764h256l-149 -787q0 -41 61 -45h135zM909 1374q53 -2 84 -39q22 -28 22 -65q0 -13 -2 -27 q-8 -55 -51 -92q-45 -37 -100 -39h-4q-47 0 -76 31q-33 31 -33 76q0 59 49 108q47 47 107 47h4zM528 1374q53 0 86 -39q22 -28 22 -65q0 -13 -2 -27q-8 -55 -53 -92q-45 -39 -100 -39q-47 0 -78 31q-33 31 -33 76q0 57 49 106q47 49 109 49z" />
<glyph unicode="&#xfd;" horiz-adv-x="1161" d="M358 1242l392 266l178 -131l-420 -223zM969 6q-39 -211 -160 -336q-139 -143 -360 -143q-187 0 -429 102l138 189q159 -74 274 -74q129 0 199 84q55 66 86 205q-150 -47 -238 -47q-137 0 -246 55q-135 70 -135 199q0 159 47 383l84 378l256 21l-82 -358 q-49 -224 -49 -361q0 -119 162 -119q88 0 240 70l141 756h256z" />
<glyph unicode="&#xff;" horiz-adv-x="1161" d="M969 6q-39 -211 -160 -336q-139 -143 -360 -143q-187 0 -429 102l138 189q159 -74 274 -74q129 0 199 84q55 66 86 205q-150 -47 -238 -47q-137 0 -246 55q-135 70 -135 199q0 159 47 383l84 378l256 21l-82 -358q-49 -224 -49 -361q0 -119 162 -119q88 0 240 70l141 756 h256zM940 1374q53 -2 84 -39q22 -28 22 -65q0 -13 -2 -27q-8 -55 -51 -92q-45 -37 -100 -39h-4q-47 0 -76 31q-33 31 -33 76q0 59 49 108q47 47 107 47h4zM559 1374q53 0 86 -39q22 -28 22 -65q0 -13 -2 -27q-8 -55 -53 -92q-45 -39 -100 -39q-47 0 -78 31q-33 31 -33 76 q0 57 49 106q47 49 109 49z" />
<glyph unicode="&#x131;" horiz-adv-x="614" d="M412 -14h-4q-297 0 -297 227l147 788l260 21l-149 -793q0 -43 63 -47h135z" />
<glyph unicode="&#x152;" horiz-adv-x="2136" d="M1901 0h-1239q-261 0 -426 178q-160 170 -160 420q0 96 28 193q76 270 310 456q233 187 510 187h1228l-14 -213h-735l-60 -330h617l-37 -213h-616l-82 -465h735zM1149 1221h-268q-213 0 -381 -187q-170 -188 -170 -407q0 -172 106 -293q107 -121 266 -121h269z" />
<glyph unicode="&#x153;" horiz-adv-x="1909" d="M1108 385q27 -190 176 -190q199 0 315 86l70 -193q-137 -102 -403 -102q-230 0 -348 174q-185 -174 -416 -174q-191 0 -314 135q-114 125 -114 301q0 233 186 422q184 188 436 188q224 0 346 -170q175 170 400 170q186 0 297 -135q100 -121 100 -289q0 -119 -289 -178 q-202 -43 -442 -45zM1411 823q-90 0 -164 -65q-76 -68 -112 -164q323 2 430 33q8 2 12 14q-4 182 -166 182zM666 823q-129 0 -236 -129q-102 -121 -102 -254q0 -100 57 -172q55 -71 147 -71q123 0 227.5 127t104.5 254q0 100 -53 174q-55 71 -145 71z" />
<glyph unicode="&#x178;" horiz-adv-x="1272" d="M741 604l-106 -604h-254l106 604l-360 809l293 39l237 -612l453 612l276 -41zM1018 1792q53 -2 84 -39q22 -28 22 -65q0 -13 -2 -27q-8 -55 -51 -92q-45 -37 -100 -39h-4q-47 0 -76 31q-33 31 -33 76q0 59 49 108q47 47 107 47h4zM637 1792q53 0 86 -39q22 -28 22 -65 q0 -13 -2 -27q-8 -55 -53 -92q-45 -39 -100 -39q-47 0 -78 31q-33 31 -33 76q0 57 49 106q47 49 109 49z" />
<glyph unicode="&#x2c6;" horiz-adv-x="727" d="M543 1137l-187 110l-223 -110l-100 127l356 172l299 -172z" />
<glyph unicode="&#x2da;" horiz-adv-x="666" d="M285 1020q-101 0 -166 65q-68 64 -68 160q0 121 102.5 220.5t227.5 99.5q100 0 168 -64q65 -65 65 -162q0 -120 -102 -219.5t-227 -99.5zM350 1389q-37 0 -65 -27q-31 -29 -39 -70q-2 -8 -2 -16q0 -29 16 -51q21 -29 55 -29q35 0 66 28.5t37 67.5q2 13 2 23q0 26 -14 47 q-21 27 -56 27z" />
<glyph unicode="&#x2dc;" horiz-adv-x="874" d="M74 1337q24 41 94 76q68 35 129 35q72 0 164 -66q90 -65 157 -65q72 0 228 131l-39 -213q-143 -123 -223 -123q-74 0 -164 66q-92 63 -160 63h-4q-57 0 -121 -37q-69 -39 -100 -92z" />
<glyph unicode="&#x2000;" horiz-adv-x="964" />
<glyph unicode="&#x2001;" horiz-adv-x="1928" />
<glyph unicode="&#x2002;" horiz-adv-x="964" />
<glyph unicode="&#x2003;" horiz-adv-x="1928" />
<glyph unicode="&#x2004;" horiz-adv-x="642" />
<glyph unicode="&#x2005;" horiz-adv-x="482" />
<glyph unicode="&#x2006;" horiz-adv-x="321" />
<glyph unicode="&#x2007;" horiz-adv-x="321" />
<glyph unicode="&#x2008;" horiz-adv-x="241" />
<glyph unicode="&#x2009;" horiz-adv-x="385" />
<glyph unicode="&#x200a;" horiz-adv-x="107" />
<glyph unicode="&#x2010;" horiz-adv-x="834" d="M129 424l39 225h537l-39 -225h-537z" />
<glyph unicode="&#x2011;" horiz-adv-x="834" d="M129 424l39 225h537l-39 -225h-537z" />
<glyph unicode="&#x2013;" horiz-adv-x="1161" d="M109 424l38 225h906l-39 -225h-905z" />
<glyph unicode="&#x2014;" horiz-adv-x="1735" d="M109 424l38 225h1479l-39 -225h-1478z" />
<glyph unicode="&#x2018;" horiz-adv-x="432" d="M307 1190q-49 -133 -164 -133q-49 0 -84 30q-34 31 -34 82q0 54 69 134l219 245l109 -47z" />
<glyph unicode="&#x2019;" horiz-adv-x="432" d="M338 1294l-219 -245l-109 47l115 311q49 133 164 133q51 0 86 -33q33 -32 33 -82q0 -51 -70 -131z" />
<glyph unicode="&#x201a;" horiz-adv-x="432" d="M338 -16l-219 -246l-109 47l115 311q49 133 164 133q55 0 92 -39q27 -30 27 -73q0 -13 -2 -27q-9 -37 -68 -106z" />
<glyph unicode="&#x201c;" horiz-adv-x="786" d="M307 1190q-49 -133 -164 -133q-49 0 -84 30q-34 31 -34 82q0 54 69 134l219 245l109 -47zM662 1190q-50 -133 -164 -133q-49 0 -84 30q-35 31 -35 82q0 54 70 134l219 245l108 -47z" />
<glyph unicode="&#x201d;" horiz-adv-x="786" d="M692 1294l-219 -245l-108 47l114 311q49 133 164 133q51 0 86 -33q33 -32 33 -82q0 -51 -70 -131zM338 1294l-219 -245l-109 47l115 311q49 133 164 133q55 0 92 -39q27 -31 27 -74q0 -12 -2 -26q-9 -37 -68 -107z" />
<glyph unicode="&#x201e;" horiz-adv-x="786" d="M338 -16l-219 -246l-109 47l115 311q49 133 164 133q55 0 92 -39q27 -30 27 -73q0 -13 -2 -27q-9 -37 -68 -106zM692 -16l-219 -246l-108 47l114 311q49 133 164 133q51 0 86 -32q33 -33 33 -82q0 -52 -70 -131z" />
<glyph unicode="&#x2022;" horiz-adv-x="674" d="M295 342q-92 0 -152 57q-59 58 -59 146q0 106 92 194q90 88 203 88q92 0 151 -57q60 -57 60 -143q0 -107 -90 -195q-92 -90 -205 -90z" />
<glyph unicode="&#x2026;" horiz-adv-x="1401" d="M221 -16q-61 0 -98 39q-39 36 -39 94q0 71 59 131q60 59 133 59q60 0 101 -37q39 -39 39 -96q0 -72 -62 -131q-61 -59 -133 -59zM1122 -16q-61 0 -98 39q-39 36 -39 94q0 71 59 131q60 59 134 59q59 0 100 -37q39 -39 39 -96q0 -72 -62 -131q-61 -59 -133 -59zM672 -16 q-62 0 -99 39q-38 36 -38 94q0 71 59 130.5t133 59.5q59 0 100 -37q39 -39 39 -96q0 -72 -61.5 -131t-132.5 -59z" />
<glyph unicode="&#x202f;" horiz-adv-x="385" />
<glyph unicode="&#x2039;" horiz-adv-x="588" d="M383 106l-307 328l26 154l420 311l13 -190l-267 -201l197 -211z" />
<glyph unicode="&#x203a;" horiz-adv-x="588" d="M66 109l-13 192l266 199l-196 211l82 190l307 -328l-27 -153z" />
<glyph unicode="&#x2044;" horiz-adv-x="383" d="M-256 -336l-215 94l1108 1786l219 -86z" />
<glyph unicode="&#x205f;" horiz-adv-x="482" />
<glyph unicode="&#x20ac;" horiz-adv-x="1407" d="M557 555h514l-106 -141h-402q47 -203 258 -203q133 0 342 82l72 -203q-307 -108 -455 -108q-16 0 -30 2q-195 16 -324 139q-127 117 -145 291h-220l107 141h113q8 39 12 57h-197l107 142h147q88 170 252 274q164 105 363 113h16q145 0 422 -105l-154 -217q-47 27 -96 47 q-117 47 -231 47h-4q-158 0 -275 -159h557l-106 -142h-525q-6 -26 -12 -57z" />
<glyph unicode="&#x2122;" horiz-adv-x="1382" d="M1055 872l18 218l-119 -205h-123l-47 205l-57 -218l-145 25l151 537h129l72 -318l182 318h131l-39 -537zM469 1311l-76 -426h-145l76 426h-168l22 123h481l-22 -123h-168z" />
</font>
</defs>
</svg>
