<?xml version="1.0" standalone="no"?>
<!DOCTYPE svg PUBLIC "-//W3C//DTD SVG 1.1//EN" "http://www.w3.org/Graphics/SVG/1.1/DTD/svg11.dtd" >
<svg xmlns="http://www.w3.org/2000/svg">
<metadata>
This is a custom SVG webfont generated by Font Squirrel.
</metadata>
<defs>
<font id="webfontwk6ewfGp" horiz-adv-x="1169" >
<font-face units-per-em="2048" ascent="1638" descent="-410" />
<missing-glyph horiz-adv-x="512" />
<glyph unicode=" "  horiz-adv-x="512" />
<glyph unicode="&#x09;" horiz-adv-x="512" />
<glyph unicode="&#xa0;" horiz-adv-x="512" />
<glyph unicode="!" horiz-adv-x="571" d="M408 104q0 -49 -35 -84q-37 -36 -88 -36q-49 0 -84 36q-37 35 -37 84q0 50 37 86q35 35 84 35q51 0 88 -35q35 -34 35 -86zM371 809l-15 -426l-143 -14l-14 440v625l172 14v-639z" />
<glyph unicode="&#x22;" horiz-adv-x="612" d="M236 1378l-72 -250l-55 2l-46 269q-2 14 -2 26q0 41 27 72q27 29 66 29q67 0 90 -62q4 -8 4 -22q0 -25 -12 -64zM543 1378l-72 -250l-55 2l-45 269q-2 12 -2 26q0 41 28 72q27 29 64 29q67 0 90 -62q4 -8 4 -22q0 -25 -12 -64z" />
<glyph unicode="#" horiz-adv-x="1202" d="M1038 287h-172v-273l-143 -14v287h-244v-287l-143 14v273h-172v143h172v287h-172v143h172v287l143 14v-301h244v301l143 -14v-287h172v-143h-172v-287h172v-143zM723 430v287h-244v-287h244z" />
<glyph unicode="$" horiz-adv-x="973" d="M868 326q-22 -224 -290 -283v-74h-144v58h-33q-88 4 -192 36q-90 29 -107 46l68 127q35 -19 72 -31q88 -33 164 -33h28v309h-20q-148 0 -226 82q-75 78 -75 207v8q2 96 100 176t221 101v121h144l2 -123q79 -11 153 -37q62 -23 78 -39l-61 -125q-43 18 -172 55v-280 q292 -6 292 -250q0 -25 -2 -51zM434 627v274q-141 -41 -147 -129v-22q0 -58 26 -84q33 -33 121 -39zM702 354q-2 72 -24 101q-23 26 -100 30v-286q124 49 124 151v4z" />
<glyph unicode="%" horiz-adv-x="1346" d="M616 887v-21q0 -94 -67 -166q-78 -79 -187 -82h-4q-100 0 -176 82q-80 82 -80 185q0 35 11 67q59 172 243 172q105 0 181 -67q73 -68 79 -170zM1085 1042l-788 -1062l-104 90l774 1040zM1241 268v-20q0 -101 -67 -176q-76 -86 -189 -88h-4q-102 0 -176 84q-78 86 -78 192 q0 37 10 72q58 186 244 188h4q105 0 176 -71q74 -74 80 -181zM479 862v17q0 49 -33.5 92t-87.5 43h-8q-51 -4 -82 -45q-30 -41 -30 -90v-9q4 -55 41 -92q32 -37 81 -37h5q102 7 114 121zM1104 244v16q0 55 -31 100q-37 48 -90 48h-8q-53 -5 -84 -52q-29 -45 -29 -98v-8 q4 -60 39 -103q33 -41 84 -41h4q105 7 115 138z" />
<glyph unicode="&#x26;" horiz-adv-x="1436" d="M1333 84l-125 -125l-250 266q-202 -229 -415 -229h-17q-182 8 -303 125t-121 270q0 103 68 189q47 59 160 143q26 18 76 57q-181 178 -181 318q0 16 4 32q29 138 115 211q80 68 186 70h5q122 0 217 -82q94 -84 106 -227v-12q0 -80 -82 -183q-57 -71 -127 -125l303 -323 l195 196l115 -112l-207 -199zM707 1094q-5 69 -54 123q-49 51 -114 51h-4q-62 -2 -105 -49q-43 -50 -53 -113v-12q0 -80 147 -197q183 107 183 193v4zM838 344l-303 326q-115 -72 -156 -107q-105 -86 -105 -157v-13q13 -108 80 -176q74 -76 191 -78h4q125 0 289 205z" />
<glyph unicode="'" horiz-adv-x="305" d="M236 1378l-72 -250l-55 2l-46 269q-2 14 -2 26q0 41 27 72q27 29 66 29q67 0 90 -62q4 -8 4 -22q0 -25 -12 -64z" />
<glyph unicode="(" horiz-adv-x="668" d="M627 1466q-193 -229 -271 -446q-80 -219 -80 -520q0 -299 76 -514t264 -443l-145 -75q-203 247 -285 479q-84 231 -84 553q0 321 84 554.5t289 479.5z" />
<glyph unicode=")" horiz-adv-x="668" d="M565 500q0 -322 -82 -553q-84 -232 -286 -479l-146 75q189 230 264 445q76 215 76 512q0 301 -78 518q-80 217 -272 448l152 68q204 -248 288 -481.5t84 -552.5z" />
<glyph unicode="*" horiz-adv-x="797" d="M629 1020l-172 121l10 -215h-131l10 215l-178 -125l-66 125l191 100l-191 100l66 121l178 -121l-10 199h131l-10 -201l172 123l65 -121l-182 -100l182 -100z" />
<glyph unicode="+" horiz-adv-x="973" d="M809 358l-238 2v-217h-172v215h-235v144h235v215h172v-215h238v-144z" />
<glyph unicode="," horiz-adv-x="510" d="M285 225q51 0 88 -35q35 -34 35 -86q0 -43 -48 -98l-180 -250l-78 29l60 319q20 121 123 121z" />
<glyph unicode="-" horiz-adv-x="782" d="M618 465h-454v143h454v-143z" />
<glyph unicode="." horiz-adv-x="449" d="M346 104q0 -49 -35 -84q-37 -36 -88 -36q-49 0 -84 36q-37 35 -37 84q0 50 37 86q35 35 84 35q51 0 88 -35q35 -34 35 -86z" />
<glyph unicode="/" horiz-adv-x="920" d="M920 1473l-764 -1797l-156 68l762 1790z" />
<glyph unicode="0" horiz-adv-x="1339" d="M1257 573q0 -245 -170 -415q-172 -172 -417 -172q-246 0 -416 172q-172 170 -172 415q0 246 172 418q170 170 416 170q245 0 417 -170q170 -172 170 -418zM1085 573q0 177 -120.5 304t-294.5 127t-295 -127t-121 -304q0 -176 121 -303t295 -127t294.5 127t120.5 303z" />
<glyph unicode="1" horiz-adv-x="608" d="M444 0h-172v981l-133 -94l-67 127l202 133h170v-1147z" />
<glyph unicode="2" horiz-adv-x="1049" d="M905 0h-803v143q418 353 500 439q119 125 119 235q0 12 -2 25q-10 90 -90 147q-70 49 -144 49q-12 0 -24 -2q-160 -18 -295 -84l-51 138q182 84 356 84q197 0 289 -70q84 -62 117 -209q8 -35 8 -74q0 -313 -537 -678h557v-143z" />
<glyph unicode="3" horiz-adv-x="997" d="M854 297q-8 -131 -104 -213q-99 -84 -240 -98q-18 -2 -39 -2q-145 0 -369 88l45 139q172 -92 297 -92q17 0 33 2q201 22 219 178q2 12 2 25q0 77 -53 135q-61 67 -162 67h-256v144q109 -2 170 -2q21 -1 37 -1q32 0 43 3q180 39 180 176q0 26 -6 59q-12 58 -63 94 q-53 35 -129 35q-103 0 -293 -82l-53 138q227 84 356 84q125 0 217 -62q92 -61 125 -176q14 -51 14 -102q0 -162 -120 -236q151 -63 151 -264q0 -19 -2 -37z" />
<glyph unicode="4" horiz-adv-x="1057" d="M995 293h-159v-293l-172 2v291h-603v143l603 711h172v-711h159v-143zM664 436v479l-410 -479h410z" />
<glyph unicode="5" horiz-adv-x="1059" d="M913 379q2 -14 2 -29q0 -129 -100 -229q-100 -98 -264 -137q-29 -7 -62 -7q-143 0 -346 101l47 137q189 -96 299 -96q17 0 31 2q94 12 162 76q72 63 72 155v8q-6 148 -158 220q-10 4 -35 4q-84 0 -285 -47l-112 92l43 518h616l15 -143h-484l-28 -318q127 31 223 31 q164 0 262 -96q90 -91 102 -242z" />
<glyph unicode="6" horiz-adv-x="1092" d="M807 1313l86 -123q-188 -86 -297 -178q-121 -101 -219 -267q72 39 178 39q174 0 301 -110q131 -117 133 -285v-4q0 -168 -127 -281q-129 -114 -307 -118h-12q-170 0 -303 112q-138 117 -138 285q0 272 228 553q209 258 477 377zM274 397q0 -125 80 -196.5t203 -71.5 q115 0 187.5 80t72.5 197q0 108 -80 178q-82 69 -188 69q-115 0 -195 -69.5t-80 -186.5z" />
<glyph unicode="7" horiz-adv-x="1004" d="M922 1004q-148 -191 -347 -551q-194 -351 -296 -605l-136 64q86 227 254 537q172 321 338 555h-571l12 143h731z" />
<glyph unicode="8" horiz-adv-x="1057" d="M954 303v-4q0 -141 -127 -231q-116 -84 -280 -88h-17q-165 0 -288 81q-140 91 -140 238v8q7 234 230 309q-180 70 -189 263v12q0 125 119 207q107 76 248 76h16q144 -5 244 -72q113 -78 119 -203v-20q0 -185 -170 -267q108 -32 172 -112q61 -82 63 -197zM735 897 q-6 76 -71.5 119t-151.5 43q-84 0 -147.5 -45t-69.5 -121v-12q0 -72 59 -121q66 -55 154 -58h8q86 0 156 56q63 49 63 123v16zM795 305v8q0 97 -78 158q-84 66 -193 66q-112 0 -196 -72q-76 -68 -76 -152q0 -14 2 -28q12 -92 98 -144q72 -43 166 -43h17q104 4 176 58 q80 57 84 149z" />
<glyph unicode="9" horiz-adv-x="1092" d="M285 -152l-86 123q188 86 297 179q120 100 219 266q-74 -39 -178 -39q-177 0 -306 115q-129 112 -129 280q0 170 131 287q125 112 304 117h12q170 0 303 -113q137 -117 137 -285q0 -272 -227 -553q-209 -258 -477 -377zM817 764q0 125 -80 196.5t-202 71.5 q-115 0 -187 -80q-74 -80 -74 -196q0 -109 82 -178q80 -70 187 -70q114 0 194 69.5t80 186.5z" />
<glyph unicode=":" horiz-adv-x="449" d="M346 104q0 -49 -35 -84q-37 -36 -88 -36q-49 0 -84 36q-37 35 -37 84q0 50 37 86q35 35 84 35q51 0 88 -35q35 -34 35 -86zM346 637q0 -49 -35 -84q-37 -37 -88 -37q-49 0 -84 37q-37 35 -37 84t37 86q35 35 84 35q51 0 88 -35q35 -35 35 -86z" />
<glyph unicode=";" horiz-adv-x="510" d="M285 225q51 0 88 -35q35 -34 35 -86q0 -43 -48 -98l-180 -250l-78 29l60 319q20 121 123 121zM408 637q0 -49 -35 -84q-37 -37 -88 -37q-49 0 -84 37q-37 35 -37 84t37 86q35 35 84 35q51 0 88 -35q35 -35 35 -86z" />
<glyph unicode="&#x3c;" horiz-adv-x="985" d="M821 260l-53 -117l-604 299v138l600 284l51 -119l-491 -237z" />
<glyph unicode="=" horiz-adv-x="907" d="M743 436h-579v144h579v-144zM743 207h-579v143h579v-143z" />
<glyph unicode="&#x3e;" horiz-adv-x="985" d="M821 428l-600 -285l-53 121l491 236l-495 248l53 116l604 -299v-137z" />
<glyph unicode="?" horiz-adv-x="1018" d="M543 104q0 -49 -35 -84q-37 -36 -88 -36q-49 0 -84 36q-37 35 -37 84q0 50 37 86q35 35 84 35q51 0 88 -35q35 -34 35 -86zM915 1110q0 -139 -96 -252q-47 -53 -184 -156q-107 -79 -117 -131q-10 -51 -14 -114v-68l-172 -20v94v12q0 29 6 82q12 100 113 191l182 147 q100 90 108 190v17q0 90 -79 149q-91 66 -199 66q-160 0 -320 -105l-41 134q230 118 377 118q17 0 31 -2q166 -14 287 -112q118 -99 118 -240z" />
<glyph unicode="@" horiz-adv-x="1245" d="M1133 731q10 -49 10 -92q0 -139 -109 -242q-76 -71 -221 -94q-25 -4 -59 -4q-37 0 -84 4l2 14q-74 -22 -113 -22q-10 0 -18 2q-70 10 -131 72q-62 59 -62 129q0 57 51 125q50 65 111 96q41 20 154 20q114 0 196 -14l-6 -63q-8 -101 -35 -256q103 53 146 102q53 61 55 149 v9q0 122 -135 186q-99 47 -223 47q-27 0 -56 -2q-164 -12 -272.5 -131t-108.5 -281q0 -215 260 -319q56 -23 129 -23q160 0 375 93l-24 -101q-222 -90 -414 -90q-80 0 -137 21q-150 55 -232 174q-80 112 -80 262q0 49 9 98q32 182 180 291q139 104 338 110h37q168 0 282 -51 q154 -67 185 -219zM711 641q-25 6 -49 6q-123 0 -156 -125q-4 -20 -4 -37q0 -86 119 -86q30 0 61 7z" />
<glyph unicode="A" horiz-adv-x="1397" d="M1159 -14l-158 426h-606l-157 -426l-179 28l533 1420h213l532 -1420zM698 1229l-247 -668h495z" />
<glyph unicode="B" horiz-adv-x="1276" d="M1174 379q0 -219 -228 -322q-168 -77 -416 -77q-182 0 -366 20v1434q151 22 315 22q232 0 389 -59q228 -86 228 -279q0 -106 -76 -211q-76 -104 -180 -131q147 -49 237 -151q97 -111 97 -246zM926 1108q0 203 -459 203q-78 0 -131 -4v-461q33 -12 104 -12q166 0 303 57 q183 74 183 217zM999 426q0 147 -196 215q-133 47 -320 47q-92 0 -147 -12v-537q115 -18 215 -18q448 0 448 305z" />
<glyph unicode="C" horiz-adv-x="1274" d="M1212 92q-254 -108 -415 -108q-21 0 -41 2q-287 28 -471 239q-183 207 -183 490v12q4 305 191 510q196 215 508 215q151 0 375 -78l-25 -153q-193 88 -340 88q-41 0 -76 -9q-217 -49 -338 -206q-121 -156 -121 -369v-8q3 -223 132 -379q127 -156 352 -197q28 -6 63 -6 q158 0 369 103z" />
<glyph unicode="D" horiz-adv-x="1407" d="M1305 752q-9 -320 -181 -529q-186 -229 -503 -237h-62q-149 0 -395 14v1434q170 22 323 22q82 0 148 -8q309 -35 493 -225q177 -185 177 -455v-16zM1130 752q0 303 -256 454q-190 111 -440 111q-57 0 -98 -8v-1168q98 -18 188 -18q219 0 383 104q223 144 223 525z" />
<glyph unicode="E" d="M1067 143l-14 -143h-889v1434h848l14 -144h-690v-471h616v-143h-616v-533h731z" />
<glyph unicode="F" horiz-adv-x="1128" d="M1026 1290h-690v-471h616v-143h-616v-676h-172v1434h848z" />
<glyph unicode="G" horiz-adv-x="1430" d="M1325 702q2 -36 2 -73q0 -285 -162 -463q-164 -180 -424 -180q-270 0 -458 225q-181 215 -181 504q0 291 187 508q184 215 465 225h24q154 0 398 -70l-27 -153q-209 82 -358 82q-23 0 -43 -2q-211 -17 -347 -193q-129 -168 -129 -397q0 -230 134 -404q141 -182 339 -182 q173 0 297 133q117 125 117 281v16h-368v143h534z" />
<glyph unicode="H" horiz-adv-x="1403" d="M1239 0l-172 -14v690h-731v-676h-172v1434l172 14v-629h731v615h172v-1434z" />
<glyph unicode="I" horiz-adv-x="500" d="M336 0h-172v1434l172 14v-1448z" />
<glyph unicode="J" horiz-adv-x="1182" d="M1018 485q-2 -39 -6 -75q-8 -84 -29 -131q-111 -269 -453 -287h-20q-119 0 -254 69q-106 58 -184 136l88 116q207 -178 348 -178h20q123 12 183 51q51 33 98 123q29 56 37 170v969l172 -14v-949z" />
<glyph unicode="K" horiz-adv-x="1237" d="M1196 14l-199 -28l-661 680v-666h-172v1434l172 14v-631l625 631l202 -29l-676 -676z" />
<glyph unicode="L" d="M1067 143l-14 -143h-889v1434l172 14v-1305h731z" />
<glyph unicode="M" horiz-adv-x="1710" d="M1604 14l-174 -28l-84 1177l-394 -1163h-198l-394 1163l-84 -1177l-174 28l127 1420l191 14l434 -1264l432 1264l191 -14z" />
<glyph unicode="N" horiz-adv-x="1419" d="M1063 -14l-729 1251v-1251l-168 14v1434l211 14l708 -1231v1217h168v-1434z" />
<glyph unicode="O" horiz-adv-x="1528" d="M1425 745v-36q0 -279 -178 -492q-196 -231 -485 -231q-279 0 -471 223q-189 217 -189 506q0 297 189 512q192 221 477 221h4q275 -2 461 -213q182 -201 192 -490zM1251 723q-2 233 -133 399q-139 181 -352 183h-4q-215 0 -354 -181q-136 -174 -136 -409q0 -230 148 -408 q145 -178 346 -178q209 2 352 184q133 174 133 402v8z" />
<glyph unicode="P" horiz-adv-x="1231" d="M1128 1034q-4 -188 -135 -297q-133 -108 -346 -112q-115 -2 -311 -9v-616h-172v1434q182 18 336 18q628 0 628 -405v-13zM958 1034q3 15 3 27q0 248 -472 248q-57 0 -153 -6v-539q22 0 92 -4q78 -4 123 -4q381 0 407 278z" />
<glyph unicode="Q" horiz-adv-x="1569" d="M1466 745v-12q0 -166 -53 -289q-57 -127 -188 -241l155 -162l-135 -94l-135 145q-147 -106 -328 -106q-276 0 -477 223q-203 221 -203 510q0 299 201 516q197 213 485 213h5q282 -2 477 -207q192 -207 196 -496zM1292 723v12q0 223 -141 393q-145 175 -365 177h-4 q-219 0 -366 -181q-144 -172 -144 -409q0 -230 156 -408t358 -178q119 0 220 74l-271 293l142 86l241 -263q170 168 174 404z" />
<glyph unicode="R" horiz-adv-x="1300" d="M1198 14l-188 -28l-346 641q-123 -6 -328 -11v-616h-172v1434q182 18 336 18q628 0 628 -405v-13q-6 -284 -292 -377zM958 1034q3 15 3 27q0 248 -472 248q-57 0 -153 -6v-539q22 0 92 -4q78 -4 123 -4q381 0 407 278z" />
<glyph unicode="S" horiz-adv-x="1206" d="M1100 342q-37 -313 -547 -356q-18 -2 -39 -2q-106 0 -246 47q-137 45 -166 73l84 140q17 -17 144 -60q143 -49 229 -53h25q108 0 207 53q127 68 139 187q2 20 2 41q0 114 -80 188q-88 80 -246 80q-20 0 -43 -2q-18 -2 -35 -2q-172 0 -284 110q-119 111 -119 275v20 q6 162 174 269q143 92 307 96h25q100 0 229 -31q127 -29 150 -51l-74 -141q-199 80 -320 80h-16q-90 -5 -182 -60q-111 -69 -119 -168v-24q0 -117 84 -174q86 -58 242 -58h30h21q190 0 311 -121q117 -118 117 -299q0 -28 -4 -57z" />
<glyph unicode="T" horiz-adv-x="1266" d="M1163 1290h-444v-1290h-172v1290h-445l15 144h1032z" />
<glyph unicode="U" horiz-adv-x="1448" d="M1284 573q-4 -282 -158 -440q-145 -147 -378 -147h-31q-254 10 -383 129q-158 143 -170 471v848l172 14v-858q8 -84 14 -168q21 -125 88 -197q90 -94 273 -98h14q266 0 354 221q33 84 33 201v26v859h172v-861z" />
<glyph unicode="V" horiz-adv-x="1397" d="M784 0h-168l-557 1419l179 29l462 -1272l463 1272l178 -29z" />
<glyph unicode="W" horiz-adv-x="1925" d="M1468 0h-182l-323 1212l-324 -1212h-182l-416 1419l178 29l328 -1247l321 1212h189l321 -1212l328 1247l178 -29z" />
<glyph unicode="X" horiz-adv-x="1227" d="M1165 14l-194 -28l-359 618l-356 -618l-195 28l457 731l-422 674l195 29l321 -561l324 561l192 -29l-419 -674z" />
<glyph unicode="Y" d="M1149 1419l-477 -811v-608h-172v608l-480 811l199 29l367 -688l368 688z" />
<glyph unicode="Z" horiz-adv-x="1294" d="M1192 143l-14 -143h-1061l-15 143l848 1147h-819l10 144h1008l16 -136l-856 -1155h883z" />
<glyph unicode="[" horiz-adv-x="563" d="M522 -530h-358v2064h358v-143h-186v-1780h186v-141z" />
<glyph unicode="\" horiz-adv-x="920" d="M920 -256l-156 -68l-764 1797l158 61z" />
<glyph unicode="]" horiz-adv-x="563" d="M399 -530h-358v141h186v1780h-186v143h358v-2064z" />
<glyph unicode="^" horiz-adv-x="844" d="M741 1257l-73 -79l-246 198l-246 -198l-74 79l252 226h142z" />
<glyph unicode="_" horiz-adv-x="1616" d="M1513 -143h-1411v143h1411v-143z" />
<glyph unicode="`" horiz-adv-x="551" d="M489 1204l-106 -57l-322 190l142 90z" />
<glyph unicode="a" horiz-adv-x="1053" d="M885 0h-172v45q-142 -61 -252 -61q-146 0 -258 86q-121 94 -121 233q0 160 127 252q113 82 280 82q121 0 224 -31q6 33 6 76q0 131 -68 174q-51 33 -188 33q-111 0 -264 -66l-64 125q197 84 332 84q422 0 422 -348zM713 172v291q-99 24 -205 24q-260 0 -260 -182 q0 -176 219 -176q121 0 246 43z" />
<glyph unicode="b" horiz-adv-x="1190" d="M1087 516v-20q0 -467 -448 -510q-12 -2 -27 -2q-106 0 -276 73v-57h-172v1473l172 14v-535q172 80 278 80h11q209 -10 329 -137q129 -135 133 -379zM915 514q-4 215 -159 326q-49 34 -133 34q-125 0 -287 -67v-623q172 -55 295 -55q88 0 129 33q86 67 123 149 q32 76 32 191v12z" />
<glyph unicode="c" horiz-adv-x="1040" d="M938 70q-201 -86 -332 -86q-207 0 -354 159q-150 160 -150 367q0 223 146 373q143 149 364 149q105 0 326 -84l-68 -135q-118 76 -292 76q-136 0 -224 -127q-80 -115 -80 -256q0 -137 82 -252q88 -125 222 -125q149 0 296 68z" />
<glyph unicode="d" horiz-adv-x="1190" d="M1026 0h-172v57q-172 -73 -279 -73q-14 0 -26 2q-447 43 -447 510v20q4 244 131 379q121 129 330 137h10q107 0 281 -80v535l172 -14v-1473zM854 184v623q-162 67 -287 67q-84 0 -133 -34q-155 -111 -160 -326v-12q0 -115 33 -191q35 -82 121 -149q41 -33 131 -33 q123 0 295 55z" />
<glyph unicode="e" horiz-adv-x="1137" d="M1038 530q0 -43 -10 -88l-741 -24q18 -127 119 -211q98 -86 227 -86q55 0 131 20q86 23 119 54l63 -125q-37 -35 -153 -64q-105 -24 -168 -24q-211 0 -367 159q-156 160 -156 371q0 209 131 360q138 160 345 160q198 0 331 -153q129 -146 129 -349zM854 580 q-10 127 -82 213q-80 96 -201 96q-116 0 -204 -109q-82 -98 -91 -221z" />
<glyph unicode="f" horiz-adv-x="829" d="M870 1389l-77 -132q-121 50 -213 50q-72 0 -111 -35q-57 -51 -57 -195q0 -37 4 -69l358 2v-129l-358 2v-883h-172v883l-183 -2v129l183 -2q-4 32 -4 73q0 166 57 238q76 96 254 127q20 4 47 4q113 0 272 -61z" />
<glyph unicode="g" horiz-adv-x="1210" d="M1047 0q-3 -74 -13 -137q-28 -152 -96 -221q-113 -115 -287 -115q-63 0 -155 14q-84 13 -267 70l66 129q43 -16 82 -29q94 -30 153 -33q23 -2 43 -2q140 0 209 48q45 30 66 83q4 15 22 105q7 25 7 53q0 15 -3 29v55q-163 -63 -266 -63h-22q-215 16 -340 133 q-140 131 -144 368v17q0 239 134 381q124 127 335 147h23q108 0 280 -86v72l173 -14v-1004zM874 184v623q-194 67 -323 67q-82 0 -121 -30q-156 -121 -156 -355v-12q5 -201 160 -311q53 -37 152 -37q127 0 288 55z" />
<glyph unicode="h" horiz-adv-x="1155" d="M1051 0h-177l3 637q0 237 -250 252h-13q-102 0 -278 -94v-795h-172v1473l172 14v-551q55 27 104 47q117 47 187 49h12q129 0 256 -76q131 -79 145 -178q15 -88 15 -405q0 -158 -4 -373z" />
<glyph unicode="i" horiz-adv-x="539" d="M356 0h-172v1004l172 14v-1018zM270 1329q-43 0 -73 31q-33 31 -33 74t33 73q30 31 73 31t74 -31q31 -30 31 -73t-31 -74t-74 -31z" />
<glyph unicode="j" horiz-adv-x="567" d="M385 61q-4 -100 -18 -180q-37 -196 -127 -266q-109 -86 -283 -86q-80 0 -217 49l41 119q117 -43 209 -43q69 0 110 29q50 36 72 94q10 22 31 119q10 51 10 137v28v943l172 14v-957zM299 1329q-43 0 -74.5 31t-31.5 74t32 73q31 31 74 31t74 -31q30 -30 30 -73t-30.5 -74 t-73.5 -31z" />
<glyph unicode="k" horiz-adv-x="1001" d="M1001 12l-163 -43l-502 506v-475h-172v1473l172 14v-836l428 377l166 -47l-484 -412z" />
<glyph unicode="l" horiz-adv-x="500" d="M336 0h-172v1473l172 14v-1487z" />
<glyph unicode="m" horiz-adv-x="1849" d="M1714 0h-176v637q0 129 -55 188q-58 60 -180 66h-9q-104 0 -280 -127q16 -100 16 -500q0 -119 -2 -264h-176v637v4q0 238 -240 250h-12q-100 0 -264 -105v-786h-172v1004l172 14v-100q51 32 96 57q111 55 180 57h9q86 0 174 -41q86 -41 141 -104q201 145 358 145h9 q137 -4 262 -80q123 -78 137 -174q14 -94 14 -450q0 -144 -2 -328z" />
<glyph unicode="n" horiz-adv-x="1147" d="M1042 0h-176l2 637q0 240 -235 252h-8q-103 0 -289 -103v-786h-172v1004l172 14v-100q57 32 106 57q121 55 191 57h12q127 0 248 -76q125 -79 139 -178q15 -88 15 -405q0 -158 -5 -373z" />
<glyph unicode="o" horiz-adv-x="1153" d="M1071 510q0 -209 -141 -365q-148 -159 -355 -159q-204 0 -348 159q-145 160 -145 367q0 217 144.5 368.5t359.5 151.5q207 0 346 -155q139 -158 139 -367zM899 516q0 143 -86 254q-94 119 -233 119q-146 0 -240 -121q-86 -111 -86 -260q0 -148 88 -258q94 -119 238 -119 q145 0 235 123q84 113 84 262z" />
<glyph unicode="p" horiz-adv-x="1190" d="M1087 530q-4 -245 -126 -387q-125 -141 -336 -157h-23q-102 0 -266 63v-504l-172 -14v1473l172 14v-72q172 86 280 86h23q448 -43 448 -481v-21zM915 522v13q0 110 -30 174q-35 67 -125 137q-39 31 -119 31q-123 0 -305 -66v-625q151 -55 272 -55q94 0 148 37 q75 53 118 158q39 94 41 196z" />
<glyph unicode="q" horiz-adv-x="1194" d="M1204 -344l-74 -125q-38 2 -69 6q-78 12 -115 41q-92 72 -92 184v287q-166 -63 -268 -63h-23q-211 16 -334 157q-123 142 -127 387v15q0 237 134 366q118 113 313 121h8q113 0 297 -86v72l172 -14v-1213q2 -88 49 -115q35 -20 129 -20zM854 188v623q-186 63 -311 63 q-76 0 -115 -26q-90 -64 -123 -131q-31 -66 -31 -178v-15q2 -102 41 -196q43 -105 119 -158q53 -37 148 -37q120 0 272 55z" />
<glyph unicode="r" horiz-adv-x="883" d="M821 963l-61 -129q-68 49 -215 57h-13q-98 0 -196 -111v-780h-172v1004l172 14v-107q31 35 63 60q76 59 146 61h20q168 0 256 -69z" />
<glyph unicode="s" horiz-adv-x="1014" d="M909 285q-16 -148 -168 -228q-127 -65 -319 -71h-8q-82 0 -193 32q-100 31 -119 50l68 127q147 -64 240 -64h16q125 10 213 51q104 51 104 127v4q-2 78 -38 111q-37 31 -148 31q-35 0 -84 -4q-22 -2 -43 -2q-143 0 -227 75q-90 80 -90 221q0 144 147 224q125 65 303 65 q158 0 289 -84l-61 -125q-17 17 -84 41q-82 27 -150 27q-27 0 -49 -4q-105 -23 -148 -43q-69 -37 -73 -107v-16q0 -74 55 -102q53 -27 180 -27h35h25q329 0 329 -266q0 -21 -2 -43z" />
<glyph unicode="t" horiz-adv-x="760" d="M674 49q-113 -63 -182 -63q-97 2 -168 45q-78 47 -84 125q-4 61 -7 61v-4v670l-192 -2v129l192 -2v245l168 29v-274l238 2v-129l-238 2v-639v-21q0 -69 39 -82q21 -6 43 -6q62 0 125 43z" />
<glyph unicode="u" horiz-adv-x="1147" d="M983 14l-172 -28v71q-51 -20 -96 -34q-111 -35 -180 -37h-13q-127 0 -246 75q-126 78 -141 177q-14 94 -14 444q0 139 2 322l178 14l-2 -639q0 -115 39 -174q55 -84 197 -92h12q102 0 264 86v811h172v-996z" />
<glyph unicode="v" horiz-adv-x="1098" d="M633 0h-168l-402 989l179 29l307 -842l307 842l178 -29z" />
<glyph unicode="w" horiz-adv-x="1655" d="M1253 0h-178l-248 791l-249 -791h-177l-340 989l179 29l249 -842l250 834h179l247 -834l252 842l176 -29z" />
<glyph unicode="x" horiz-adv-x="995" d="M934 14l-178 -28l-258 403l-258 -403l-179 28l338 500l-321 475l176 29l244 -381l241 381l176 -29l-319 -475z" />
<glyph unicode="y" horiz-adv-x="1094" d="M1032 989l-463 -1239q-10 -37 -20 -67q-29 -76 -66 -105q-53 -43 -184 -47l-74 125q86 0 115 20q37 23 72 115q4 10 75 209l-426 989l183 29l321 -834l303 834z" />
<glyph unicode="z" horiz-adv-x="1008" d="M905 143l-14 -143h-760l-29 143l582 723h-553v144h717l29 -136l-588 -731h616z" />
<glyph unicode="{" horiz-adv-x="848" d="M807 -532q-201 0 -297 51q-115 61 -143 198q-13 54 -13 150q0 53 4 121q4 71 4 127q0 88 -10 135q-20 90 -188 158v182q49 20 86 43q88 55 102 117q10 47 10 137q0 55 -4 127q-4 73 -4 133q0 88 11 139q30 139 145 199q96 51 297 51l-35 -154q-33 7 -65 7q-78 0 -109 -35 q-82 -92 -82 -260q0 -33 4 -101q2 -67 2 -102q0 -172 -76 -279q-32 -45 -102 -118q33 -31 102 -107q82 -100 82 -270q0 -37 -4 -111t-4 -108q0 -160 78 -248q31 -35 109 -35q32 0 65 6z" />
<glyph unicode="|" horiz-adv-x="471" d="M307 0h-143v1534h143v-1534z" />
<glyph unicode="}" horiz-adv-x="848" d="M684 408q-49 -21 -86 -43q-86 -54 -100 -115q-13 -53 -13 -131q0 53 2 53t9 -281v-20q0 -121 -25 -195q-37 -106 -133 -157t-297 -51l35 153q33 -6 65 -6q78 0 109 35q78 88 78 248l-6 168v47q-1 15 -1 29q0 50 9 89q18 88 71 156q33 41 103 107q-33 34 -103 118 q-75 107 -75 281v-8q2 0 6 172v24q0 80 -13 133q-16 80 -69 140q-31 35 -109 35q-32 0 -65 -7l-35 154q199 0 297 -51q115 -62 145 -201q13 -53 13 -149q0 -54 -4 -121q-5 -72 -5 -127q0 -90 11 -137q20 -91 186 -160v-182z" />
<glyph unicode="~" horiz-adv-x="874" d="M63 662q17 40 80 75q64 35 123 35q72 0 175.5 -65.5t170.5 -65.5q72 0 203 131v-151q-123 -123 -203 -123q-71 0 -174.5 64.5t-171.5 64.5h-4q-55 0 -115 -37q-61 -39 -84 -92v164z" />
<glyph unicode="&#xa1;" horiz-adv-x="530" d="M180 203l15 426l143 14l14 -440v-629l-172 -14v643zM143 907q0 51 37 86q35 35 86 35q49 0 86 -35q35 -35 35 -86q0 -49 -35 -84q-37 -37 -86 -37q-51 0 -86 37q-37 35 -37 84z" />
<glyph unicode="&#xa2;" horiz-adv-x="1038" d="M936 207q-43 -27 -88 -47q-105 -47 -193 -58v-102h-143v106q-176 29 -291 154q-117 123 -119 295v4q0 172 115 295q117 125 295 158v135h143v-131q115 -15 248 -72l-22 -121q-35 19 -70 33q-84 33 -156 41v-672q121 8 263 101zM512 242v645q-117 -39 -193 -129 q-75 -92 -75 -197v-16q6 -107 82 -187q75 -82 186 -116z" />
<glyph unicode="&#xa3;" horiz-adv-x="1008" d="M905 0h-803v143h15q57 0 86 15q53 28 73 84v231h-174v143h174v168q0 138 86 238q87 98 224 119q14 2 30 2q105 0 263 -86l-48 -123q-108 67 -186 67q-188 0 -196 -221v-164h358v-143h-358v-227q0 -17 -9 -53q-8 -21 -30 -50h495v-143z" />
<glyph unicode="&#xa5;" horiz-adv-x="1153" d="M1051 1114l-379 -571h235v-144h-233v-106h233v-143h-233v-150h-195v150h-233v143h233v106h-233v144h235l-379 571l183 23l290 -459l293 459z" />
<glyph unicode="&#xa7;" horiz-adv-x="844" d="M737 221q-12 -129 -131 -196q-96 -56 -227 -56h-19q-96 2 -258 105l70 129q115 -94 193 -97h16q100 0 147 25q62 31 62 111v4q-2 55 -19 71q-22 21 -96 21q-31 0 -74 -2q-16 -2 -32 -2q-115 0 -181 67q-65 66 -65 179v8q2 78 84 147q-84 62 -84 199v8q2 94 104 166 q97 66 205 70h8q90 0 250 -72l-55 -117q-107 60 -189 60h-16q-57 -5 -106 -31q-56 -33 -58 -82v-4q0 -62 43 -86q37 -23 127 -23h29h20q254 0 254 -207q0 -18 -2 -41q-10 -96 -73 -137q77 -43 77 -157q0 -27 -4 -60zM590 600q-2 64 -31 80q-27 16 -104 16q-23 0 -49 -2 q-50 -2 -93 -35q-43 -32 -47 -79v-13q0 -98 152 -98q24 0 55 2q117 10 117 121v8z" />
<glyph unicode="&#xa8;" horiz-adv-x="784" d="M303 1243q0 -41 -29 -69q-30 -31 -71 -31t-70 31q-31 28 -31 69t31 72q29 28 70 28t71 -28q29 -31 29 -72zM682 1243q0 -41 -29 -69q-30 -31 -71 -31t-70 31q-31 28 -31 69t31 72q29 28 70 28t71 -28q29 -31 29 -72z" />
<glyph unicode="&#xa9;" horiz-adv-x="1116" d="M1014 705q0 -189 -133 -322q-133 -135 -322 -135q-188 0 -321 135q-136 133 -136 322q0 188 136 323q133 133 321 133q189 0 322 -133q133 -135 133 -323zM899 705q0 141 -98 241q-101 101 -242 101t-242 -101q-100 -100 -100 -241q0 -142 100 -242q101 -101 242 -101 t242 101q98 100 98 242zM717 514q-99 -49 -160 -49h-12q-94 8 -156 78q-59 67 -59 159v7q2 92 61 157q58 66 150 78q10 2 20 2q55 0 141 -37l-10 -98q-71 39 -123 39q-55 0 -86 -43q-30 -43 -30 -102q0 -60 32 -101q33 -41 90 -41q56 0 134 51z" />
<glyph unicode="&#xaa;" horiz-adv-x="653" d="M551 1182q0 -95 -4 -283h-129v12q-64 -22 -107 -22q-10 0 -18 2q-170 24 -189 164q-2 16 -2 30q0 107 101 164q49 29 121 29q43 0 88 -10q-2 37 -11 51q-14 24 -59 24q-70 0 -168 -40l-53 92q129 53 201 53h8q114 -6 168 -55q41 -39 51 -99q2 -18 2 -112zM418 1008 l-6 151q-37 8 -72 8q-111 0 -111 -82v-4q2 -84 107 -84q37 0 82 11z" />
<glyph unicode="&#xab;" horiz-adv-x="891" d="M430 260l-27 -117l-301 299v138l299 284l27 -119l-246 -237zM788 260l-26 -117l-301 299v138l299 284l26 -119l-245 -237z" />
<glyph unicode="&#xac;" horiz-adv-x="1147" d="M1004 227h-173v238h-688v143h861v-381z" />
<glyph unicode="&#xad;" horiz-adv-x="782" d="M618 465h-454v143h454v-143z" />
<glyph unicode="&#xae;" horiz-adv-x="1116" d="M1014 705q0 -189 -133 -322q-133 -135 -322 -135q-188 0 -321 135q-136 133 -136 322q0 188 136 323q133 133 321 133q189 0 322 -133q133 -135 133 -323zM899 705q0 141 -98 241q-101 101 -242 101t-242 -101q-100 -100 -100 -241q0 -142 100 -242q101 -101 242 -101 t242 101q98 100 98 242zM762 483l-107 -18l-96 186q-18 0 -53 -2v-176h-96v461q71 8 118 8q19 0 33 -2q172 -14 172 -141v-4q-2 -80 -76 -121zM635 799v4q0 31 -60 41q-26 4 -53 4h-16v-105h20q103 0 109 56z" />
<glyph unicode="&#xaf;" horiz-adv-x="680" d="M537 1124h-394v144h394v-144z" />
<glyph unicode="&#xb0;" horiz-adv-x="688" d="M586 1192q0 -100 -70 -170q-72 -70 -172 -70t-170 70q-72 70 -72 170t72 172q70 72 170 72t172 -72q70 -72 70 -172zM457 1192q0 51 -31 90q-33 39 -82 39t-80 -39q-33 -39 -33 -90t33 -88q31 -37 80 -37t82 37q31 37 31 88z" />
<glyph unicode="&#xb1;" horiz-adv-x="932" d="M788 399l-237 2v-217h-172v215h-236v144h236v215h172v-215h237v-144zM788 -14h-645v143h645v-143z" />
<glyph unicode="&#xb2;" horiz-adv-x="1049" d="M905 0h-803v143q418 353 500 439q119 125 119 235q0 12 -2 25q-10 90 -90 147q-70 49 -144 49q-12 0 -24 -2q-160 -18 -295 -84l-51 138q182 84 356 84q197 0 289 -70q84 -62 117 -209q8 -35 8 -74q0 -313 -537 -678h557v-143z" />
<glyph unicode="&#xb3;" horiz-adv-x="997" d="M854 297q-8 -131 -104 -213q-99 -84 -240 -98q-18 -2 -39 -2q-145 0 -369 88l45 139q172 -92 297 -92q17 0 33 2q201 22 219 178q2 12 2 25q0 77 -53 135q-61 67 -162 67h-256v144q109 -2 170 -2q21 -1 37 -1q32 0 43 3q180 39 180 176q0 26 -6 59q-12 58 -63 94 q-53 35 -129 35q-103 0 -293 -82l-53 138q227 84 356 84q125 0 217 -62q92 -61 125 -176q14 -51 14 -102q0 -162 -120 -236q151 -63 151 -264q0 -19 -2 -37z" />
<glyph unicode="&#xb4;" horiz-adv-x="571" d="M500 1337l-320 -190l-108 57l288 223z" />
<glyph unicode="&#xb5;" horiz-adv-x="1243" d="M1202 -12h-12q-164 0 -283 112q-55 -51 -143 -84q-82 -30 -164 -30h-8q-103 2 -277 71v-344h-172v1291l172 14v-834q160 -71 260 -71h17q115 6 178 86q57 71 57 180l-2 625h172q-2 -250 -2 -424t2 -273q2 -82 60 -137q55 -57 145 -57v-125z" />
<glyph unicode="&#xb6;" horiz-adv-x="1133" d="M969 20l-144 -14v1057l-149 10v-1067l-144 14v482q-194 4 -309 90q-121 92 -121 248q0 346 529 346q149 0 338 -19v-1147z" />
<glyph unicode="&#xb8;" horiz-adv-x="606" d="M449 -244q-50 -90 -199 -90q-43 0 -84 8l-23 90q45 -4 86 -4q103 0 103 27q0 6 -6 14q-27 39 -121 41l28 160h109l-18 -86q139 -33 139 -111q0 -22 -14 -49z" />
<glyph unicode="&#xb9;" horiz-adv-x="608" d="M444 0h-172v981l-133 -94l-67 127l202 133h170v-1147z" />
<glyph unicode="&#xba;" horiz-adv-x="725" d="M621 1169v-16q0 -104 -70 -186q-76 -90 -191 -90q-108 0 -182 84q-76 83 -76 194q0 113 76 199q74 82 184 82h5q106 -2 177.5 -80t76.5 -187zM496 1159q0 68 -37 117t-97 51h-4q-55 0 -94 -49q-41 -53 -41 -125q2 -68 43 -117q37 -47 92 -47h4q60 2 97 51q37 50 37 119z " />
<glyph unicode="&#xbb;" horiz-adv-x="891" d="M430 428l-299 -285l-27 121l246 236l-248 248l27 116l301 -299v-137zM788 428l-299 -285l-26 121l246 236l-248 248l26 116l301 -299v-137z" />
<glyph unicode="&#xbc;" horiz-adv-x="1970" d="M1908 293h-159v-293l-172 2v291h-603v143l603 711h172v-711h159v-143zM1577 436v479l-410 -479h410zM1220 1473l-764 -1797l-155 68l762 1790zM444 0h-172v981l-133 -94l-67 127l202 133h170v-1147z" />
<glyph unicode="&#xbd;" horiz-adv-x="1962" d="M1818 0h-803v143q418 353 500 439q119 125 119 235q0 12 -2 25q-10 90 -90 147q-70 49 -144 49q-12 0 -24 -2q-160 -18 -295 -84l-51 138q182 84 356 84q197 0 289 -70q84 -62 117 -209q8 -35 8 -74q0 -313 -537 -678h557v-143zM1220 1473l-764 -1797l-155 68l762 1790z M444 0h-172v981l-133 -94l-67 127l202 133h170v-1147z" />
<glyph unicode="&#xbe;" horiz-adv-x="2359" d="M2297 293h-159v-293l-172 2v291h-603v143l603 711h172v-711h159v-143zM1966 436v479l-410 -479h410zM1609 1473l-764 -1797l-155 68l762 1790zM854 297q-8 -131 -104 -213q-99 -84 -240 -98q-18 -2 -39 -2q-145 0 -369 88l45 139q172 -92 297 -92q17 0 33 2 q201 22 219 178q2 12 2 25q0 77 -53 135q-61 67 -162 67h-256v144q109 -2 170 -2q21 -1 37 -1q32 0 43 3q180 39 180 176q0 26 -6 59q-12 58 -63 94q-53 35 -129 35q-103 0 -293 -82l-53 138q227 84 356 84q125 0 217 -62q92 -61 125 -176q14 -51 14 -102q0 -162 -120 -236 q151 -63 151 -264q0 -19 -2 -37z" />
<glyph unicode="&#xbf;" horiz-adv-x="1018" d="M102 -74q0 142 84 244q47 57 172 143q111 76 142 127q10 17 14 115v70l172 20v-96v-12q0 -29 -6 -80q-12 -101 -113 -187l-182 -135q-100 -84 -109 -184v-17q0 -90 84 -153q86 -64 195 -64q160 0 319 107l41 -133q-229 -121 -376 -121q-17 0 -31 2q-166 14 -283 111 q-123 102 -123 243zM475 909q0 52 37 86q35 35 86 35q49 0 86 -35q35 -37 35 -86t-35 -84q-37 -37 -86 -37q-51 0 -86 37q-37 35 -37 84z" />
<glyph unicode="&#xc0;" horiz-adv-x="1397" d="M1159 -14l-158 426h-606l-157 -426l-179 28l533 1420h213l532 -1420zM698 1229l-247 -668h495zM884 1573l-106 -57l-322 190l142 90z" />
<glyph unicode="&#xc1;" horiz-adv-x="1397" d="M1159 -14l-158 426h-606l-157 -426l-179 28l533 1420h213l532 -1420zM698 1229l-247 -668h495zM869 1726l-320 -190l-108 57l288 223z" />
<glyph unicode="&#xc2;" horiz-adv-x="1397" d="M1159 -14l-158 426h-606l-157 -426l-179 28l533 1420h213l532 -1420zM698 1229l-247 -668h495zM955 1614l-74 -98l-195 110l-194 -110l-74 98l268 164z" />
<glyph unicode="&#xc3;" horiz-adv-x="1397" d="M1159 -14l-158 426h-606l-157 -426l-179 28l533 1420h213l532 -1420zM698 1229l-247 -668h495zM401 1692q23 69 160 69q55 0 137 -45q80 -45 133 -45q89 0 160 90v-149q-65 -82 -160 -82q-57 0 -137 45q-82 45 -133 45q-131 0 -160 -90v162z" />
<glyph unicode="&#xc4;" horiz-adv-x="1397" d="M1159 -14l-158 426h-606l-157 -426l-179 28l533 1420h213l532 -1420zM698 1229l-247 -668h495zM600 1644q0 -41 -29 -69q-30 -31 -71 -31t-70 31q-31 28 -31 69t31 72q29 28 70 28t71 -28q29 -31 29 -72zM979 1644q0 -41 -29 -69q-30 -31 -71 -31t-70 31q-31 28 -31 69 t31 72q29 28 70 28t71 -28q29 -31 29 -72z" />
<glyph unicode="&#xc5;" horiz-adv-x="1397" d="M1159 -14l-158 426h-606l-157 -426l-179 28l533 1420h213l532 -1420zM698 1229l-247 -668h495zM940 1648q0 -100 -71 -170q-74 -71 -175 -71q-100 0 -172.5 70.5t-72.5 170.5q0 101 72.5 171.5t172.5 70.5q101 0 175 -70q71 -71 71 -172zM811 1648q0 51 -33 90 q-34 37 -84 37q-49 0 -81 -37q-35 -39 -35 -90t35 -88q32 -39 81 -39q50 0 84 39q33 37 33 88z" />
<glyph unicode="&#xc6;" horiz-adv-x="2101" d="M1999 143l-14 -143h-898v416h-561l-301 -430l-164 28l977 1420h942l17 -144h-731v-430h616v-143h-616v-574h733zM1087 559v686l-458 -686h458z" />
<glyph unicode="&#xc7;" horiz-adv-x="1274" d="M1212 92q-254 -108 -415 -108q-21 0 -41 2q-287 28 -471 239q-183 207 -183 490v12q4 305 191 510q196 215 508 215q151 0 375 -78l-25 -153q-193 88 -340 88q-41 0 -76 -9q-217 -49 -338 -206q-121 -156 -121 -369v-8q3 -223 132 -379q127 -156 352 -197q28 -6 63 -6 q158 0 369 103zM961 -244q-50 -90 -199 -90q-43 0 -84 8l-23 90q45 -4 86 -4q103 0 103 27q0 6 -6 14q-27 39 -121 41l28 160h109l-18 -86q139 -33 139 -111q0 -22 -14 -49z" />
<glyph unicode="&#xc8;" d="M1067 143l-14 -143h-889v1434h848l14 -144h-690v-471h616v-143h-616v-533h731zM802 1573l-106 -57l-322 190l142 90z" />
<glyph unicode="&#xc9;" d="M1067 143l-14 -143h-889v1434h848l14 -144h-690v-471h616v-143h-616v-533h731zM807 1726l-320 -190l-108 57l288 223z" />
<glyph unicode="&#xca;" d="M1067 143l-14 -143h-889v1434h848l14 -144h-690v-471h616v-143h-616v-533h731zM852 1614l-74 -98l-195 110l-194 -110l-74 98l268 164z" />
<glyph unicode="&#xcb;" d="M1067 143l-14 -143h-889v1434h848l14 -144h-690v-471h616v-143h-616v-533h731zM498 1644q0 -41 -29 -69q-30 -31 -71 -31t-70 31q-31 28 -31 69t31 72q29 28 70 28t71 -28q29 -31 29 -72zM877 1644q0 -41 -29 -69q-30 -31 -71 -31t-70 31q-31 28 -31 69t31 72 q29 28 70 28t71 -28q29 -31 29 -72z" />
<glyph unicode="&#xcc;" horiz-adv-x="500" d="M336 0h-172v1434l172 14v-1448zM469 1573l-106 -57l-322 190l142 90z" />
<glyph unicode="&#xcd;" horiz-adv-x="500" d="M336 0h-172v1434l172 14v-1448zM471 1726l-320 -190l-108 57l288 223z" />
<glyph unicode="&#xce;" horiz-adv-x="500" d="M336 0h-172v1434l172 14v-1448zM518 1614l-74 -98l-195 110l-194 -110l-74 98l268 164z" />
<glyph unicode="&#xcf;" horiz-adv-x="500" d="M336 0h-172v1434l172 14v-1448zM170 1644q0 -41 -29 -69q-30 -31 -71 -31t-70 31q-31 28 -31 69t31 72q29 28 70 28t71 -28q29 -31 29 -72zM549 1644q0 -41 -29 -69q-30 -31 -71 -31t-70 31q-31 28 -31 69t31 72q29 28 70 28t71 -28q29 -31 29 -72z" />
<glyph unicode="&#xd1;" horiz-adv-x="1419" d="M1063 -14l-729 1251v-1251l-168 14v1434l211 14l708 -1231v1217h168v-1434zM422 1692q22 69 160 69q55 0 137 -45q80 -45 133 -45q88 0 160 90v-149q-66 -82 -160 -82q-57 0 -137 45q-82 45 -133 45q-131 0 -160 -90v162z" />
<glyph unicode="&#xd2;" horiz-adv-x="1528" d="M1425 745v-36q0 -279 -178 -492q-196 -231 -485 -231q-279 0 -471 223q-189 217 -189 506q0 297 189 512q192 221 477 221h4q275 -2 461 -213q182 -201 192 -490zM1251 723q-2 233 -133 399q-139 181 -352 183h-4q-215 0 -354 -181q-136 -174 -136 -409q0 -230 148 -408 q145 -178 346 -178q209 2 352 184q133 174 133 402v8zM966 1573l-106 -57l-322 190l142 90z" />
<glyph unicode="&#xd3;" horiz-adv-x="1528" d="M1425 745v-36q0 -279 -178 -492q-196 -231 -485 -231q-279 0 -471 223q-189 217 -189 506q0 297 189 512q192 221 477 221h4q275 -2 461 -213q182 -201 192 -490zM1251 723q-2 233 -133 399q-139 181 -352 183h-4q-215 0 -354 -181q-136 -174 -136 -409q0 -230 148 -408 q145 -178 346 -178q209 2 352 184q133 174 133 402v8zM971 1726l-320 -190l-108 57l288 223z" />
<glyph unicode="&#xd4;" horiz-adv-x="1528" d="M1425 745v-36q0 -279 -178 -492q-196 -231 -485 -231q-279 0 -471 223q-189 217 -189 506q0 297 189 512q192 221 477 221h4q275 -2 461 -213q182 -201 192 -490zM1251 723q-2 233 -133 399q-139 181 -352 183h-4q-215 0 -354 -181q-136 -174 -136 -409q0 -230 148 -408 q145 -178 346 -178q209 2 352 184q133 174 133 402v8zM1037 1614l-74 -98l-195 110l-194 -110l-74 98l268 164z" />
<glyph unicode="&#xd5;" horiz-adv-x="1528" d="M1425 745v-36q0 -279 -178 -490q-196 -233 -485 -233q-279 0 -471 223q-189 217 -189 506q0 297 189 512q192 221 477 221h4q275 -2 461 -213q182 -201 192 -490zM1251 723q-2 233 -133 401q-139 179 -352 181h-4q-215 0 -354 -183q-136 -172 -136 -407q0 -230 148 -408 q145 -178 346 -178q209 2 352 184q133 174 133 402v8zM463 1692q22 69 160 69q55 0 137 -45q80 -45 133 -45q88 0 160 90v-149q-66 -82 -160 -82q-57 0 -137 45q-82 45 -133 45q-131 0 -160 -90v162z" />
<glyph unicode="&#xd6;" horiz-adv-x="1528" d="M1425 745v-36q0 -279 -178 -492q-196 -231 -485 -231q-279 0 -471 223q-189 217 -189 506q0 297 189 512q192 221 477 221h4q275 -2 461 -213q182 -201 192 -490zM1251 723q-2 233 -133 399q-139 181 -352 183h-4q-215 0 -354 -181q-136 -174 -136 -409q0 -230 148 -408 q145 -178 346 -178q209 2 352 184q133 174 133 402v8zM682 1644q0 -41 -29 -69q-30 -31 -71 -31t-70 31q-31 28 -31 69t31 72q29 28 70 28t71 -28q29 -31 29 -72zM1061 1644q0 -41 -29 -69q-30 -31 -71 -31t-70 31q-31 28 -31 69t31 72q29 28 70 28t71 -28q29 -31 29 -72z " />
<glyph unicode="&#xd8;" horiz-adv-x="1528" d="M1425 745v-36q0 -277 -182 -490q-199 -233 -481 -233q-168 0 -309 96l-82 -125l-158 57l119 176q-230 265 -230 535q0 285 193 502q199 221 473 221h4q170 0 328 -119l100 148l158 -58l-135 -202q192 -252 202 -472zM1020 1206q-109 97 -254 99h-4q-211 0 -354 -183 q-136 -168 -136 -387v-20q2 -107 52 -211q26 -55 104 -172zM1251 723q-4 94 -45 190q-14 33 -82 158l-585 -864q102 -78 227 -78q209 2 352 186q133 168 133 387v21z" />
<glyph unicode="&#xd9;" horiz-adv-x="1448" d="M1284 573q-4 -282 -158 -440q-145 -147 -378 -147h-31q-254 10 -383 129q-158 143 -170 471v848l172 14v-858q8 -84 14 -168q21 -125 88 -197q90 -94 273 -98h14q266 0 354 221q33 84 33 201v26v859h172v-861zM925 1573l-106 -57l-322 190l142 90z" />
<glyph unicode="&#xda;" horiz-adv-x="1448" d="M1284 573q-4 -282 -158 -440q-145 -147 -378 -147h-31q-254 10 -383 129q-158 143 -170 471v848l172 14v-858q8 -84 14 -168q21 -125 88 -197q90 -94 273 -98h14q266 0 354 221q33 84 33 201v26v859h172v-861zM930 1726l-320 -190l-108 57l288 223z" />
<glyph unicode="&#xdb;" horiz-adv-x="1448" d="M1284 573q-4 -282 -158 -440q-145 -147 -378 -147h-31q-254 10 -383 129q-158 143 -170 471v848l172 14v-858q8 -84 14 -168q21 -125 88 -197q90 -94 273 -98h14q266 0 354 221q33 84 33 201v26v859h172v-861zM996 1614l-74 -98l-195 110l-194 -110l-74 98l268 164z" />
<glyph unicode="&#xdc;" horiz-adv-x="1448" d="M1284 573q-4 -282 -158 -440q-145 -147 -378 -147h-31q-254 10 -383 129q-158 143 -170 471v848l172 14v-858q8 -84 14 -168q21 -125 88 -197q90 -94 273 -98h14q266 0 354 221q33 84 33 201v26v859h172v-861zM661 1644q0 -41 -29 -69q-30 -31 -71 -31t-70 31 q-31 28 -31 69t31 72q29 28 70 28t71 -28q29 -31 29 -72zM1040 1644q0 -41 -29 -69q-30 -31 -71 -31t-70 31q-31 28 -31 69t31 72q29 28 70 28t71 -28q29 -31 29 -72z" />
<glyph unicode="&#xdd;" d="M906 1760l-320 -190l-108 57l288 223zM1149 1419l-477 -811v-608h-172v608l-480 811l199 29l367 -688l368 688z" />
<glyph unicode="&#xdf;" horiz-adv-x="1204" d="M1102 379q-2 -375 -457 -393h-16q-72 0 -193 14l21 139q84 -18 168 -18q307 0 307 252q0 16 -2 35q-15 192 -418 282v184q342 64 342 234q-2 197 -328 197q-75 0 -190 -15v-1290l-172 6v1428q194 14 346 14q59 0 104 -2q154 -10 267 -80q135 -82 147 -219v-21 q0 -116 -100 -223q-99 -102 -201 -121q131 -32 242 -135q133 -123 133 -268z" />
<glyph unicode="&#xe0;" horiz-adv-x="1053" d="M885 0h-172v45q-142 -61 -252 -61q-146 0 -258 86q-121 94 -121 233q0 160 127 252q113 82 280 82q121 0 224 -31q6 33 6 76q0 131 -68 174q-51 33 -188 33q-111 0 -264 -66l-64 125q197 84 332 84q422 0 422 -348zM713 172v291q-99 24 -205 24q-260 0 -260 -182 q0 -176 219 -176q121 0 246 43zM714 1204l-106 -57l-322 190l142 90z" />
<glyph unicode="&#xe1;" horiz-adv-x="1053" d="M885 0h-172v45q-142 -61 -252 -61q-146 0 -258 86q-121 94 -121 233q0 160 127 252q113 82 280 82q121 0 224 -31q6 33 6 76q0 131 -68 174q-51 33 -188 33q-111 0 -264 -66l-64 125q197 84 332 84q422 0 422 -348zM713 172v291q-99 24 -205 24q-260 0 -260 -182 q0 -176 219 -176q121 0 246 43zM725 1337l-320 -190l-108 57l288 223z" />
<glyph unicode="&#xe2;" horiz-adv-x="1053" d="M885 0h-172v45q-142 -61 -252 -61q-146 0 -258 86q-121 94 -121 233q0 160 127 252q113 82 280 82q121 0 224 -31q6 33 6 76q0 131 -68 174q-51 33 -188 33q-111 0 -264 -66l-64 125q197 84 332 84q422 0 422 -348zM713 172v291q-99 24 -205 24q-260 0 -260 -182 q0 -176 219 -176q121 0 246 43zM772 1245l-74 -98l-195 110l-194 -110l-74 98l268 164z" />
<glyph unicode="&#xe3;" horiz-adv-x="1053" d="M885 0h-172v45q-142 -61 -252 -61q-146 0 -258 86q-121 94 -121 233q0 160 127 252q113 82 280 82q121 0 224 -31q6 33 6 76q0 131 -68 174q-51 33 -188 33q-111 0 -264 -66l-64 125q197 84 332 84q422 0 422 -348zM713 172v291q-99 24 -205 24q-260 0 -260 -182 q0 -176 219 -176q121 0 246 43zM246 1296q18 74 133 74q49 0 116.5 -47t115.5 -47q73 0 135 94v-156q-56 -86 -135 -86q-50 0 -117 48q-70 47 -113 47q-110 0 -135 -93v166z" />
<glyph unicode="&#xe4;" horiz-adv-x="1053" d="M885 0h-172v45q-142 -61 -252 -61q-146 0 -258 86q-121 94 -121 233q0 160 127 252q113 82 280 82q121 0 224 -31q6 33 6 76q0 131 -68 174q-51 33 -188 33q-111 0 -264 -66l-64 125q197 84 332 84q422 0 422 -348zM713 172v291q-99 24 -205 24q-260 0 -260 -182 q0 -176 219 -176q121 0 246 43zM426 1243q0 -41 -29 -69q-30 -31 -71 -31t-70 31q-31 28 -31 69t31 72q29 28 70 28t71 -28q29 -31 29 -72zM805 1243q0 -41 -29 -69q-30 -31 -71 -31t-70 31q-31 28 -31 69t31 72q29 28 70 28t71 -28q29 -31 29 -72z" />
<glyph unicode="&#xe5;" horiz-adv-x="1053" d="M885 0h-172v45q-142 -61 -252 -61q-146 0 -258 86q-121 94 -121 233q0 160 127 252q113 82 280 82q121 0 224 -31q6 33 6 76q0 131 -68 174q-51 33 -188 33q-111 0 -264 -66l-64 125q197 84 332 84q422 0 422 -348zM713 172v291q-99 24 -205 24q-260 0 -260 -182 q0 -176 219 -176q121 0 246 43zM731 1231q0 -90 -65.5 -152.5t-155.5 -62.5q-88 0 -154 63q-65 62 -65 152q0 88 65 151q66 64 154 64q90 0 156 -64q65 -63 65 -151zM614 1231q0 45 -28 80q-31 32 -76 32q-43 0 -72 -32q-30 -35 -30 -80v-4q0 -43 28 -74q31 -35 74 -35 q45 0 76 33q28 31 28 76v4z" />
<glyph unicode="&#xe6;" horiz-adv-x="1763" d="M1661 588q2 -29 2 -56q0 -47 -8 -90l-742 -24q35 -228 279 -289q31 -8 70 -8q73 0 157 29q72 24 92 45l64 -125q-23 -23 -123 -52q-115 -34 -213 -34q-221 0 -346 118l-154 -63q-145 -57 -250 -57q-161 0 -270 81q-108 82 -117 222v16q0 182 179 285q92 51 229 51 q113 0 223 -31q6 37 6 76q0 113 -45 156q-35 34 -86 40.5t-104 10.5h-21q-102 0 -264 -66l-63 125q206 84 336 84h16q121 -6 172 -18q82 -23 143 -84q21 -21 39 -49q129 151 342 151q185 0 312 -127q126 -129 145 -317zM1481 580q-11 133 -86 221q-76 86 -197 88h-4 q-117 0 -205 -113q-78 -102 -86 -217zM733 172v291q-104 24 -203 24q-262 0 -262 -178v-4q2 -176 219 -176q113 0 246 43z" />
<glyph unicode="&#xe7;" horiz-adv-x="1040" d="M938 70q-201 -86 -332 -86q-207 0 -354 159q-150 160 -150 367q0 223 146 373q143 149 364 149q105 0 326 -84l-68 -135q-118 76 -292 76q-136 0 -224 -127q-80 -115 -80 -256q0 -137 82 -252q88 -125 222 -125q149 0 296 68zM756 -244q-50 -90 -199 -90q-43 0 -84 8 l-23 90q45 -4 86 -4q103 0 103 27q0 6 -6 14q-27 39 -121 41l28 160h109l-18 -86q139 -33 139 -111q0 -22 -14 -49z" />
<glyph unicode="&#xe8;" horiz-adv-x="1137" d="M1038 530q0 -43 -10 -88l-741 -24q18 -127 119 -211q98 -86 227 -86q55 0 131 20q86 23 119 54l63 -125q-37 -35 -153 -64q-105 -24 -168 -24q-211 0 -367 159q-156 160 -156 371q0 209 131 360q138 160 345 160q198 0 331 -153q129 -146 129 -349zM854 580 q-10 127 -82 213q-80 96 -201 96q-116 0 -204 -109q-82 -98 -91 -221zM755 1204l-106 -57l-322 190l142 90z" />
<glyph unicode="&#xe9;" horiz-adv-x="1137" d="M1038 530q0 -43 -10 -88l-741 -24q18 -127 119 -211q98 -86 227 -86q55 0 131 20q86 23 119 54l63 -125q-37 -35 -153 -64q-105 -24 -168 -24q-211 0 -367 159q-156 160 -156 371q0 209 131 360q138 160 345 160q198 0 331 -153q129 -146 129 -349zM854 580 q-10 127 -82 213q-80 96 -201 96q-116 0 -204 -109q-82 -98 -91 -221zM787 1337l-320 -190l-108 57l288 223z" />
<glyph unicode="&#xea;" horiz-adv-x="1137" d="M1038 530q0 -43 -10 -88l-741 -24q18 -127 119 -211q98 -86 227 -86q55 0 131 20q86 23 119 54l63 -125q-37 -35 -153 -64q-105 -24 -168 -24q-211 0 -367 159q-156 160 -156 371q0 209 131 360q138 160 345 160q198 0 331 -153q129 -146 129 -349zM854 580 q-10 127 -82 213q-80 96 -201 96q-116 0 -204 -109q-82 -98 -91 -221zM834 1245l-74 -98l-195 110l-194 -110l-74 98l268 164z" />
<glyph unicode="&#xeb;" horiz-adv-x="1137" d="M1038 530q0 -43 -10 -88l-741 -24q18 -127 119 -211q98 -86 227 -86q55 0 131 20q86 23 119 54l63 -125q-37 -35 -153 -64q-105 -24 -168 -24q-211 0 -367 159q-156 160 -156 371q0 209 131 360q138 160 345 160q198 0 331 -153q129 -146 129 -349zM854 580 q-10 127 -82 213q-80 96 -201 96q-116 0 -204 -109q-82 -98 -91 -221zM487 1243q0 -41 -29 -69q-30 -31 -71 -31t-70 31q-31 28 -31 69t31 72q29 28 70 28t71 -28q29 -31 29 -72zM866 1243q0 -41 -29 -69q-30 -31 -71 -31t-70 31q-31 28 -31 69t31 72q29 28 70 28t71 -28 q29 -31 29 -72z" />
<glyph unicode="&#xec;" horiz-adv-x="539" d="M336 0h-172v1004l172 14v-1018zM469 1204l-106 -57l-322 190l142 90z" />
<glyph unicode="&#xed;" horiz-adv-x="539" d="M336 0h-172v1004l172 14v-1018zM465 1337l-320 -190l-108 57l288 223z" />
<glyph unicode="&#xee;" horiz-adv-x="539" d="M336 0h-172v1004l172 14v-1018zM527 1245l-74 -98l-195 110l-194 -110l-74 98l268 164z" />
<glyph unicode="&#xef;" horiz-adv-x="539" d="M336 0h-172v1004l172 14v-1018zM180 1249q0 -41 -29 -69q-30 -31 -71 -31t-70 31q-31 28 -31 69t31 72q29 28 70 28t71 -28q29 -31 29 -72zM559 1249q0 -41 -29 -69q-30 -31 -71 -31t-70 31q-31 28 -31 69t31 72q29 28 70 28t71 -28q29 -31 29 -72z" />
<glyph unicode="&#xf1;" horiz-adv-x="1147" d="M1042 0h-176l2 637q0 240 -235 252h-8q-103 0 -289 -103v-786h-172v1004l172 14v-100q57 32 106 57q121 55 191 57h12q127 0 248 -76q125 -79 139 -178q15 -88 15 -405q0 -158 -5 -373zM348 1296q18 74 133 74q49 0 116.5 -47t115.5 -47q73 0 135 94v-156 q-56 -86 -135 -86q-50 0 -117 48q-70 47 -113 47q-110 0 -135 -93v166z" />
<glyph unicode="&#xf2;" horiz-adv-x="1153" d="M1071 510q0 -209 -141 -365q-148 -159 -355 -159q-204 0 -348 159q-145 160 -145 367q0 217 144.5 368.5t359.5 151.5q207 0 346 -155q139 -158 139 -367zM899 516q0 143 -86 254q-94 119 -233 119q-146 0 -240 -121q-86 -111 -86 -260q0 -148 88 -258q94 -119 238 -119 q145 0 235 123q84 113 84 262zM776 1204l-106 -57l-322 190l142 90z" />
<glyph unicode="&#xf3;" horiz-adv-x="1153" d="M1071 510q0 -209 -141 -365q-148 -159 -355 -159q-204 0 -348 159q-145 160 -145 367q0 217 144.5 368.5t359.5 151.5q207 0 346 -155q139 -158 139 -367zM899 516q0 143 -86 254q-94 119 -233 119q-146 0 -240 -121q-86 -111 -86 -260q0 -148 88 -258q94 -119 238 -119 q145 0 235 123q84 113 84 262zM787 1337l-320 -190l-108 57l288 223z" />
<glyph unicode="&#xf4;" horiz-adv-x="1153" d="M1071 510q0 -209 -141 -365q-148 -159 -355 -159q-204 0 -348 159q-145 160 -145 367q0 217 144.5 368.5t359.5 151.5q207 0 346 -155q139 -158 139 -367zM899 516q0 143 -86 254q-94 119 -233 119q-146 0 -240 -121q-86 -111 -86 -260q0 -148 88 -258q94 -119 238 -119 q145 0 235 123q84 113 84 262zM854 1245l-74 -98l-195 110l-194 -110l-74 98l268 164z" />
<glyph unicode="&#xf5;" horiz-adv-x="1153" d="M1071 510q0 -209 -141 -365q-148 -159 -355 -159q-204 0 -348 159q-145 160 -145 367q0 217 144.5 368.5t359.5 151.5q207 0 346 -155q139 -158 139 -367zM899 516q0 143 -86 254q-94 119 -233 119q-146 0 -240 -121q-86 -111 -86 -260q0 -148 88 -258q94 -119 238 -119 q145 0 235 123q84 113 84 262zM328 1296q18 74 133 74q49 0 116.5 -47t115.5 -47q73 0 135 94v-156q-56 -86 -135 -86q-50 0 -117 48q-70 47 -113 47q-110 0 -135 -93v166z" />
<glyph unicode="&#xf6;" horiz-adv-x="1153" d="M1071 510q0 -209 -141 -365q-148 -159 -355 -159q-204 0 -348 159q-145 160 -145 367q0 217 144.5 368.5t359.5 151.5q207 0 346 -155q139 -158 139 -367zM899 516q0 143 -86 254q-94 119 -233 119q-146 0 -240 -121q-86 -111 -86 -260q0 -148 88 -258q94 -119 238 -119 q145 0 235 123q84 113 84 262zM487 1243q0 -41 -29 -69q-30 -31 -71 -31t-70 31q-31 28 -31 69t31 72q29 28 70 28t71 -28q29 -31 29 -72zM866 1243q0 -41 -29 -69q-30 -31 -71 -31t-70 31q-31 28 -31 69t31 72q29 28 70 28t71 -28q29 -31 29 -72z" />
<glyph unicode="&#xf7;" horiz-adv-x="932" d="M547 649q0 -35 -25 -59q-24 -25 -59 -25t-60.5 24.5t-25.5 59.5t26 62q25 24 60 24t59 -24q25 -27 25 -62zM788 358h-645v144h645v-144zM547 219q0 -35 -25 -59q-24 -25 -59 -25t-60.5 24.5t-25.5 59.5t26 62q25 24 60 24t59 -24q25 -27 25 -62z" />
<glyph unicode="&#xf8;" horiz-adv-x="1196" d="M1092 530q2 -18 2 -36q0 -193 -138 -342q-149 -166 -360 -166q-115 0 -217 59l-60 -88l-155 57l94 133q-156 181 -156 367q0 201 150 354q147 150 350 150h4q121 -2 219 -60l64 89l158 -58l-97 -139q129 -158 142 -320zM920 508q-5 78 -70 201l-383 -541q61 -37 133 -37 q131 2 229 117q91 108 91 244v16zM737 831q-65 43 -137 43q-135 0 -233 -114q-93 -109 -93 -244v-16q5 -76 82 -211z" />
<glyph unicode="&#xf9;" horiz-adv-x="1147" d="M983 14l-172 -28v71q-51 -20 -96 -34q-111 -35 -180 -37h-13q-127 0 -246 75q-126 78 -141 177q-14 94 -14 444q0 139 2 322l178 14l-2 -639q0 -115 39 -174q55 -84 197 -92h12q102 0 264 86v811h172v-996zM776 1204l-106 -57l-322 190l142 90z" />
<glyph unicode="&#xfa;" horiz-adv-x="1147" d="M983 14l-172 -28v71q-51 -20 -96 -34q-111 -35 -180 -37h-13q-127 0 -246 75q-126 78 -141 177q-14 94 -14 444q0 139 2 322l178 14l-2 -639q0 -115 39 -174q55 -84 197 -92h12q102 0 264 86v811h172v-996zM787 1337l-320 -190l-108 57l288 223z" />
<glyph unicode="&#xfb;" horiz-adv-x="1147" d="M983 14l-172 -28v71q-51 -20 -96 -34q-111 -35 -180 -37h-13q-127 0 -246 75q-126 78 -141 177q-14 94 -14 444q0 139 2 322l178 14l-2 -639q0 -115 39 -174q55 -84 197 -92h12q102 0 264 86v811h172v-996zM813 1245l-74 -98l-195 110l-194 -110l-74 98l268 164z" />
<glyph unicode="&#xfc;" horiz-adv-x="1147" d="M983 14l-172 -28v71q-51 -20 -96 -34q-111 -35 -180 -37h-13q-127 0 -246 75q-126 78 -141 177q-14 94 -14 444q0 139 2 322l178 14l-2 -639q0 -115 39 -174q55 -84 197 -92h12q102 0 264 86v811h172v-996zM467 1243q0 -41 -29 -69q-30 -31 -71 -31t-70 31q-31 28 -31 69 t31 72q29 28 70 28t71 -28q29 -31 29 -72zM846 1243q0 -41 -29 -69q-30 -31 -71 -31t-70 31q-31 28 -31 69t31 72q29 28 70 28t71 -28q29 -31 29 -72z" />
<glyph unicode="&#xfd;" horiz-adv-x="1094" d="M876 1344l-320 -190l-108 57l288 223zM1032 989l-463 -1239q-10 -37 -20 -67q-29 -76 -66 -105q-53 -43 -184 -47l-74 125q86 0 115 20q37 23 72 115q4 10 75 209l-426 989l183 29l321 -834l303 834z" />
<glyph unicode="&#xff;" horiz-adv-x="1094" d="M1032 989l-463 -1239q-10 -37 -20 -67q-29 -76 -66 -105q-53 -43 -184 -47l-74 125q86 0 115 20q37 23 72 115q4 10 75 209l-426 989l183 29l321 -834l303 834zM467 1243q0 -41 -29 -69q-30 -31 -71 -31t-70 31q-31 28 -31 69t31 72q29 28 70 28t71 -28q29 -31 29 -72z M846 1243q0 -41 -29 -69q-30 -31 -71 -31t-70 31q-31 28 -31 69t31 72q29 28 70 28t71 -28q29 -31 29 -72z" />
<glyph unicode="&#x131;" horiz-adv-x="539" d="M336 0h-172v1004l172 14v-1018z" />
<glyph unicode="&#x152;" horiz-adv-x="2081" d="M1978 143l-14 -143h-1202q-275 0 -469 219q-191 213 -191 498q0 289 197 504q197 213 473 213h1192l14 -144h-731v-430h617v-143h-617v-574h731zM1075 143v1147h-309q-213 0 -352 -172q-142 -174 -142 -403q0 -226 146 -398q145 -174 348 -174h309z" />
<glyph unicode="&#x153;" horiz-adv-x="1950" d="M1847 588q2 -29 2 -56q0 -47 -8 -90l-741 -24q20 -131 114 -213q93 -84 232 -84q74 0 158 29q71 24 92 45l63 -125q-22 -23 -119 -54q-112 -32 -208 -32q-295 0 -433 219q-141 -215 -405 -217h-4q-201 0 -342 157q-146 160 -146 369q0 213 146 369q143 151 352 151h4 q262 -4 397 -213q129 213 385 213h5q184 0 311 -127q127 -129 145 -317zM1667 580q-10 133 -86 221q-76 86 -197 88h-4q-116 0 -204 -113q-78 -102 -86 -217zM918 514q0 150 -91 262q-90 111 -229 113h-4q-139 0 -229 -113q-93 -117 -93 -270q2 -152 93 -260 q92 -115 229 -115h4q141 2 231 117q89 112 89 258v8z" />
<glyph unicode="&#x178;" d="M1149 1419l-477 -811v-608h-172v608l-480 811l199 29l367 -688l368 688zM498 1644q0 -41 -29 -69q-30 -31 -71 -31t-70 31q-31 28 -31 69t31 72q29 28 70 28t71 -28q29 -31 29 -72zM877 1644q0 -41 -29 -69q-30 -31 -71 -31t-70 31q-31 28 -31 69t31 72q29 28 70 28 t71 -28q29 -31 29 -72z" />
<glyph unicode="&#x2c6;" horiz-adv-x="639" d="M588 1245l-74 -98l-195 110l-194 -110l-74 98l268 164z" />
<glyph unicode="&#x2da;" horiz-adv-x="635" d="M563 1292q0 -100 -71 -170q-74 -71 -175 -71q-100 0 -172.5 70.5t-72.5 170.5q0 101 72.5 171.5t172.5 70.5q101 0 175 -70q71 -71 71 -172zM434 1292q0 51 -33 90q-34 37 -84 37q-49 0 -81 -37q-35 -39 -35 -90t35 -88q32 -39 81 -39q50 0 84 39q33 37 33 88z" />
<glyph unicode="&#x2dc;" horiz-adv-x="584" d="M43 1296q18 74 133 74q49 0 116.5 -47t115.5 -47q73 0 135 94v-156q-56 -86 -135 -86q-50 0 -117 48q-70 47 -113 47q-110 0 -135 -93v166z" />
<glyph unicode="&#x2000;" horiz-adv-x="945" />
<glyph unicode="&#x2001;" horiz-adv-x="1890" />
<glyph unicode="&#x2002;" horiz-adv-x="945" />
<glyph unicode="&#x2003;" horiz-adv-x="1890" />
<glyph unicode="&#x2004;" horiz-adv-x="630" />
<glyph unicode="&#x2005;" horiz-adv-x="472" />
<glyph unicode="&#x2006;" horiz-adv-x="315" />
<glyph unicode="&#x2007;" horiz-adv-x="315" />
<glyph unicode="&#x2008;" horiz-adv-x="236" />
<glyph unicode="&#x2009;" horiz-adv-x="378" />
<glyph unicode="&#x200a;" horiz-adv-x="105" />
<glyph unicode="&#x2010;" horiz-adv-x="782" d="M618 465h-454v143h454v-143z" />
<glyph unicode="&#x2011;" horiz-adv-x="782" d="M618 465h-454v143h454v-143z" />
<glyph unicode="&#x2013;" horiz-adv-x="1110" d="M967 465h-824v143h824v-143z" />
<glyph unicode="&#x2014;" horiz-adv-x="1683" d="M1540 465h-1397v143h1397v-143z" />
<glyph unicode="&#x2018;" horiz-adv-x="375" d="M260 1196q-18 -96 -98 -98q-41 0 -70 28q-31 29 -31 70q0 35 41 82l158 219l53 -20z" />
<glyph unicode="&#x2019;" horiz-adv-x="375" d="M274 1319l-157 -219l-56 20l54 281q18 98 98 98q41 0 72 -29q28 -28 28 -69q0 -37 -39 -82z" />
<glyph unicode="&#x201a;" horiz-adv-x="375" d="M274 8l-157 -219l-56 21l54 280q18 98 98 98q41 0 72 -28q28 -29 28 -70q0 -37 -39 -82z" />
<glyph unicode="&#x201c;" horiz-adv-x="688" d="M260 1196q-18 -96 -98 -98q-41 0 -70 28q-31 29 -31 70q0 35 41 82l158 219l53 -20zM573 1196q-18 -98 -98 -100q-41 0 -69 30q-31 29 -31 70q0 35 41 82l157 219l54 -20z" />
<glyph unicode="&#x201d;" horiz-adv-x="688" d="M274 1319l-157 -219l-56 20l54 281q18 98 98 98q41 0 72 -29q28 -28 28 -69q0 -37 -39 -82zM588 1319l-158 -219l-55 20l53 281q18 98 98 98q41 0 72 -29q29 -28 29 -69q0 -37 -39 -82z" />
<glyph unicode="&#x201e;" horiz-adv-x="688" d="M274 8l-157 -219l-56 21l54 280q18 98 98 98q41 0 72 -28q28 -29 28 -70q0 -37 -39 -82zM588 8l-158 -219l-55 21l53 280q18 98 98 98q41 0 72 -28q29 -29 29 -70q0 -37 -39 -82z" />
<glyph unicode="&#x2022;" horiz-adv-x="623" d="M520 586q0 -84 -61 -144q-62 -59 -148 -59t-147 59q-62 60 -62 144t62 143q61 57 147 57t148 -57q61 -59 61 -143z" />
<glyph unicode="&#x2026;" horiz-adv-x="1268" d="M346 104q0 -49 -35 -84q-37 -36 -88 -36q-49 0 -84 36q-37 35 -37 84q0 50 37 86q35 35 84 35q51 0 88 -35q35 -34 35 -86zM756 104q0 -49 -35 -84q-37 -36 -88 -36q-49 0 -84 36q-37 35 -37 84q0 50 37 86q35 35 84 35q51 0 88 -35q35 -34 35 -86zM1165 104 q0 -49 -35.5 -84.5t-87.5 -35.5q-49 0 -84.5 35.5t-35.5 84.5q0 50 35.5 85.5t84.5 35.5q52 0 88 -35q35 -34 35 -86z" />
<glyph unicode="&#x202f;" horiz-adv-x="378" />
<glyph unicode="&#x2039;" horiz-adv-x="532" d="M430 260l-27 -117l-301 299v138l299 284l27 -119l-246 -237z" />
<glyph unicode="&#x203a;" horiz-adv-x="532" d="M430 428l-299 -285l-27 121l246 236l-248 248l27 116l301 -299v-137z" />
<glyph unicode="&#x2044;" horiz-adv-x="305" d="M612 1473l-764 -1797l-155 68l762 1790z" />
<glyph unicode="&#x205f;" horiz-adv-x="472" />
<glyph unicode="&#x20ac;" horiz-adv-x="1315" d="M1212 78q-233 -96 -372 -96q-19 0 -35 2q-193 18 -334 147q-143 129 -182 313h-187l43 91h129v24q0 37 5 76h-177l43 92h152q49 180 186 293q138 113 332 121h16q132 0 381 -94l-75 -152q-43 25 -90 41q-115 43 -238 43q-107 0 -188 -70q-84 -71 -123 -182h555l-43 -92 h-535q-8 -51 -8 -76q2 -8 4 -24h487l-43 -91h-432q31 -127 117 -208q90 -89 209 -93h14q140 0 320 76z" />
<glyph unicode="&#x2122;" horiz-adv-x="1309" d="M1165 895l-108 -18l-27 301l-108 -293h-95l-110 293l-25 -301l-108 18l51 539h96l143 -379l140 379h98zM584 1343h-168v-458h-105v458h-168v91h441v-91z" />
</font>
</defs>
</svg>
