<?xml version="1.0" standalone="no"?>
<!DOCTYPE svg PUBLIC "-//W3C//DTD SVG 1.1//EN" "http://www.w3.org/Graphics/SVG/1.1/DTD/svg11.dtd" >
<svg xmlns="http://www.w3.org/2000/svg">
<metadata>
This is a custom SVG webfont generated by Font Squirrel.
</metadata>
<defs>
<font id="webfontHpKqYYvX" horiz-adv-x="1479" >
<font-face units-per-em="2048" ascent="1638" descent="-410" />
<missing-glyph horiz-adv-x="553" />
<glyph unicode=" "  horiz-adv-x="553" />
<glyph unicode="&#x09;" horiz-adv-x="553" />
<glyph unicode="&#xa0;" horiz-adv-x="553" />
<glyph unicode="!" horiz-adv-x="623" d="M422 385l-221 -20l-17 438v629l254 20v-649zM311 -16q-67 0 -114 45t-47 108q0 64 47 109t114 45q66 0 115 -45t49 -109q0 -63 -49 -108t-115 -45z" />
<glyph unicode="&#x22;" horiz-adv-x="666" d="M311 1401q-2 -12 -12 -41l-80 -232l-121 2l-49 250q-2 17 -2 31q0 55 39 84t94 29q60 0 101 -33q32 -27 32 -68q0 -10 -2 -22zM618 1401q-2 -12 -12 -41l-80 -232l-120 2l-50 250q-2 17 -2 31q0 55 39 84t94 29q60 0 101 -33q33 -27 33 -68q0 -10 -3 -22z" />
<glyph unicode="#" horiz-adv-x="1253" d="M934 268v-252l-225 -20v272h-162v-272l-225 20v252h-172v211h172v191h-172v211h172v264l225 20v-284h162v284l225 -20v-264h172v-211h-172v-191h172v-211h-172zM709 670h-162v-191h162v191z" />
<glyph unicode="$" horiz-adv-x="1055" d="M430 236v213q-151 6 -242 92q-82 80 -82 192q0 107 78 193q88 96 246 131v119h223l2 -119q166 -29 242 -99l-92 -174q-39 17 -150 52v-177q314 -24 314 -280q0 -119 -97 -213q-88 -84 -217 -119v-78h-227l2 54q-98 4 -201 38q-104 35 -141 70l100 178q39 -20 78 -35 q94 -34 164 -38zM428 823q-82 -41 -84 -67v-13q0 -65 86 -77zM655 449v-162q25 18 54 41q28 20 28 39q-2 67 -82 82z" />
<glyph unicode="%" horiz-adv-x="1520" d="M1137 -16h-4q-121 0 -207 90q-90 92 -90 209q0 39 12 75q31 93 105.5 148t176.5 55q121 0 207 -78q86 -80 95 -194v-21q0 -108 -78 -190q-88 -92 -217 -94zM389 575h-4q-119 0 -207 89q-92 88 -92 198q0 39 14 76q66 186 283 186q119 0 207 -71q86 -74 94 -185v-20 q0 -105 -80 -182q-90 -88 -215 -91zM412 -39l-166 135l817 1028l190 -102zM1126 381q-73 -4 -73 -98q0 -45 22 -74q21 -33 58 -33h4q75 4 75 98q0 43 -22 76q-23 31 -60 31h-4zM379 944q-74 -4 -74 -88q0 -37 23 -63q20 -27 57 -27h4q68 4 76 80v12q0 33 -23 60 q-26 26 -59 26h-4z" />
<glyph unicode="&#x26;" horiz-adv-x="1505" d="M1235 -57l-250 250q-201 -199 -414 -199h-20q-199 8 -330 131q-133 121 -133 283q0 118 90 219q51 53 195 151q-162 174 -162 303q0 19 4 35q33 146 133 223q92 72 213 72q137 0 240 -86q110 -92 125 -244v-12q0 -129 -191 -295l244 -248l192 185l175 -160l-205 -189 l278 -245zM561 1198q-45 -2 -78 -37q-32 -35 -39 -84v-8q0 -51 111 -135q137 78 137 135q-4 51 -43 92q-39 37 -84 37h-4zM553 621q-211 -121 -211 -199v-8q10 -90 72 -148q59 -57 159 -59h5q96 0 231 153z" />
<glyph unicode="'" horiz-adv-x="358" d="M311 1401q-2 -12 -12 -41l-80 -232l-121 2l-49 250q-2 17 -2 31q0 55 39 84t94 29q60 0 101 -33q32 -27 32 -68q0 -10 -2 -22z" />
<glyph unicode="(" horiz-adv-x="745" d="M344 500q0 -283 76 -484q80 -209 287 -448l-220 -111q-223 260 -313 496q-86 229 -86 547q0 319 88 553q88 231 313 489l232 -98q-215 -244 -295 -451q-82 -209 -82 -493z" />
<glyph unicode=")" horiz-adv-x="745" d="M260 -543l-221 111q205 242 285 446q79 205 79 486q0 284 -81 491q-84 207 -295 453l229 98q223 -260 313 -493.5t90 -548.5q0 -318 -88 -547q-90 -236 -311 -496z" />
<glyph unicode="*" horiz-adv-x="877" d="M639 1239l152 -74l-107 -174l-141 88l8 -153h-217l8 153l-147 -90l-107 176l158 74l-158 74l107 176l147 -90l-8 141h217l-8 -139l141 88l107 -176z" />
<glyph unicode="+" horiz-adv-x="1024" d="M639 334l2 -191h-256v189h-235v196h235l2 189h252v-189h238v-196z" />
<glyph unicode="," horiz-adv-x="522" d="M387 -6l-190 -262l-109 41l62 336q24 137 143 137q57 0 100 -39t43 -103q0 -43 -49 -110z" />
<glyph unicode="-" horiz-adv-x="834" d="M150 424v225h536v-225h-536z" />
<glyph unicode="." horiz-adv-x="500" d="M250 -16q-68 0 -115 47t-47 114q0 68 47 115t115 47q65 0 114.5 -47t49.5 -115q0 -67 -49.5 -114t-114.5 -47z" />
<glyph unicode="/" horiz-adv-x="1018" d="M227 -336l-233 94l797 1786l233 -86z" />
<glyph unicode="0" horiz-adv-x="1432" d="M717 -14q-262 0 -445 172q-184 170 -184 415q0 246 184 418q183 170 445 170q260 0 444 -170q185 -172 185 -418q0 -245 -185 -415q-184 -172 -444 -172zM717 938q-158 0 -266.5 -107.5t-108.5 -257.5v-4q0 -147 109 -252q108 -108 266 -108q155 0 266 108 q109 107 109 256q-2 150 -111 258q-111 107 -264 107z" />
<glyph unicode="1" horiz-adv-x="702" d="M301 0v881l-106 -70l-107 186l246 150h221v-1147h-254z" />
<glyph unicode="2" horiz-adv-x="1141" d="M129 0v190l320 252q182 148 243 228q53 69 53 135v16q-10 68 -75 113q-56 37 -115 37q-10 0 -20 -2q-154 -17 -322 -95l-84 203q225 97 410 97q209 0 313 -72q96 -68 133 -219q8 -37 8 -76q0 -283 -448 -596h469v-211h-885z" />
<glyph unicode="3" horiz-adv-x="1100" d="M592 -14q-19 -2 -39 -2q-154 0 -424 98l72 209q194 -105 319 -105q17 0 31 2q168 19 182 134v16q0 59 -41 104q-49 50 -131 50h-297v213q144 -5 215 -5q53 0 66 2q147 31 147 127q0 23 -4 48q-20 90 -153 90q-103 0 -316 -90l-82 202q275 95 410 95q137 0 240.5 -66 t140.5 -186q14 -54 14 -105q0 -133 -88 -215q121 -86 121 -256q0 -16 -2 -33q-10 -139 -125 -229q-105 -84 -256 -98z" />
<glyph unicode="4" horiz-adv-x="1108" d="M903 272v-272l-254 2v270h-602v187l625 688h231v-664h160v-211h-160zM649 809l-299 -326h299v326z" />
<glyph unicode="5" horiz-adv-x="1118" d="M596 -16q-29 -7 -64 -7q-159 0 -403 113l74 203q213 -107 323 -107q13 0 25 2q90 13 143 66q54 51 54 117q0 112 -134 172q-6 2 -20 2q-78 0 -291 -49l-145 112l47 539h692l23 -211h-492l-20 -209q104 18 180 18q28 0 53 -2q154 -18 248 -116q88 -92 100 -234 q2 -14 2 -28q0 -140 -112 -242q-109 -103 -283 -139z" />
<glyph unicode="6" horiz-adv-x="1145" d="M582 -14h-13q-188 0 -340 133q-143 125 -143 274q0 17 2 33q27 272 238 504q131 143 221 217q131 106 309 186l137 -176q-350 -170 -504 -352q35 6 93 6q182 0 319 -102.5t154 -270.5q2 -20 2 -41q0 -157 -133 -278q-142 -129 -342 -133zM573 610h-8q-96 0 -168 -55 q-71 -57 -71 -135v-8q6 -93 82 -154q69 -59 159 -59h13q108 4 172 69q57 58 57 138q0 81 -61 143q-62 59 -175 61z" />
<glyph unicode="7" horiz-adv-x="1047" d="M297 -166l-209 92q88 224 246 505.5t319 504.5h-538l20 211h805l21 -184q-154 -187 -353 -525q-198 -340 -311 -604z" />
<glyph unicode="8" horiz-adv-x="1108" d="M573 -20h-16q-178 0 -313 81q-156 95 -156 252v13q4 196 176 290q-129 82 -135 240v16q0 136 135 224q121 78 283 78h8q154 -3 266 -74q127 -82 135 -219v-21q0 -155 -120 -244q182 -92 186 -294v-5q0 -153 -145 -249q-129 -84 -304 -88zM541 989q-86 -2 -131 -39 q-48 -37 -48 -88t48 -90q45 -39 127 -41h8q78 0 129 41q47 39 47 94q0 52 -47 88q-45 35 -125 35h-8zM551 502q-100 0 -170 -60q-62 -51 -62 -114q0 -11 3 -21q8 -67 75 -104q60 -35 144 -35q94 0 159 39q74 45 80 119v8q0 67 -63 117q-70 51 -166 51z" />
<glyph unicode="9" horiz-adv-x="1145" d="M817 217q-125 -137 -219 -209q-123 -96 -301 -170l-139 178q348 148 497 338q-43 -8 -94 -8q-182 0 -315 100q-140 107 -158 275q-2 20 -2 41q0 158 133 278q143 131 342 136h12q191 0 342 -134q142 -127 142 -276q0 -16 -2 -33q-27 -284 -238 -516zM561 963 q-104 -5 -176 -68q-68 -59 -68 -143v-9q5 -84 76 -139q72 -55 174 -57h8q105 0 183 57q73 55 73 131v13q-4 96 -81 157q-76 58 -177 58h-12z" />
<glyph unicode=":" horiz-adv-x="459" d="M229 496q-59 0 -100 43q-41 41 -41 98q0 59 41 100t100 41q58 0 101 -41t43 -100t-43 -100t-101 -41zM229 -16q-59 0 -100 43q-41 41 -41 98q0 59 41 100t100 41q58 0 101 -41t43 -100t-43 -100t-101 -41z" />
<glyph unicode=";" horiz-adv-x="522" d="M293 496q-60 0 -100 43q-41 41 -41 98q0 59 40.5 100t100.5 41q57 0 100 -41t43 -100t-43 -100t-100 -41zM385 -6l-190 -262l-107 41l62 336q24 137 143 137q57 0 100 -39t43 -103q0 -41 -51 -110z" />
<glyph unicode="&#x3c;" horiz-adv-x="1049" d="M813 131l-663 295v168l661 283l86 -175l-453 -194l457 -205z" />
<glyph unicode="=" horiz-adv-x="958" d="M150 436v185h661v-185h-661zM150 166v186h661v-186h-661z" />
<glyph unicode="&#x3e;" horiz-adv-x="1049" d="M240 131l-86 174l452 195l-456 205l86 174l665 -297v-168z" />
<glyph unicode="?" horiz-adv-x="1077" d="M788 739l-108 -75q-80 -60 -86 -91q-14 -65 -14 -102v-78l-254 -28v110q0 154 100 262q8 11 192 156q107 84 117 176v8q0 62 -53 109q-59 51 -145 59q-19 2 -37 2q-150 0 -344 -123l-68 207q272 133 430 133q17 0 31 -2q178 -14 303 -112q139 -109 139 -260 q0 -197 -203 -351zM455 -16q-68 0 -115 45t-47 108q0 64 47 109t115 45q65 0 114 -45t49 -109q0 -63 -49 -108t-114 -45z" />
<glyph unicode="@" horiz-adv-x="1333" d="M688 274q-41 -10 -72 -10q-14 0 -26 2q-80 10 -150 80q-69 70 -69 152q0 69 59 143q53 70 121 104q47 25 164 25q125 0 233 -20q-14 -164 -37 -306q74 5 125 76q45 62 47 137v9q0 88 -112 155q-117 70 -260 70q-164 0 -293 -92q-148 -103 -168 -279q-2 -14 -2 -28 q0 -91 71 -177q78 -90 209 -141q50 -18 117 -18q174 0 442 112l-45 -155q-239 -99 -442 -99q-84 0 -143 23q-168 61 -269.5 192t-101.5 293q0 41 8 84q33 193 213 312q162 106 375 114h45q170 0 297 -53q178 -76 213 -242q8 -41 8 -80q0 -153 -135 -282q-111 -107 -309 -107 q-49 0 -113 6zM588 514q-4 -14 -4 -27q0 -59 86 -59q18 0 39 2l22 184h-18q-99 0 -125 -100z" />
<glyph unicode="A" d="M1174 -18l-160 407h-549l-160 -407l-258 38l557 1414h270l558 -1414zM739 1094l-190 -488h381z" />
<glyph unicode="B" horiz-adv-x="1327" d="M717 -14q-66 -6 -154 -6q-184 0 -413 22v1428q196 24 366 24q96 0 168 -8q451 -57 477 -318q2 -14 2 -26q0 -86 -47 -170q-53 -98 -139 -152q110 -55 184 -151q80 -109 80 -232q-2 -182 -172 -297q-143 -96 -352 -114zM403 1239v-371q50 -8 101 -8q213 0 340 107 q69 59 69 112q0 41 -41 78q-94 84 -370 84q-47 0 -99 -2zM403 645v-442q91 -13 172 -13q410 0 410 252q0 115 -151 170q-113 41 -289 41q-80 0 -142 -8z" />
<glyph unicode="C" horiz-adv-x="1370" d="M778 -14q-303 28 -497 241q-193 207 -193 488v12q2 283 193 485q188 201 485 236q22 2 51 2q166 0 432 -86l-41 -229q-221 102 -370 102q-37 0 -66 -6q-203 -45 -315 -182q-113 -136 -113 -324v-8q0 -197 119 -332q119 -137 332 -174q24 -4 55 -4q164 0 401 115l33 -222 q-293 -116 -465 -116q-20 0 -41 2z" />
<glyph unicode="D" horiz-adv-x="1458" d="M649 -14h-57q-160 0 -442 16v1428q204 24 372 24q400 0 629 -194q221 -189 221 -490v-20q-10 -316 -188 -525q-199 -231 -535 -239zM403 1243v-1038q74 -10 146 -10q207 0 362 92q205 123 205 463q0 264 -239 397q-179 98 -412 98q-35 0 -62 -2z" />
<glyph unicode="E" horiz-adv-x="1225" d="M1116 0h-966v1434h925l23 -213h-695v-371h617v-213h-617v-424h736z" />
<glyph unicode="F" horiz-adv-x="1184" d="M403 1221v-371h617v-213h-617v-637h-253v1434h925l23 -213h-695z" />
<glyph unicode="G" d="M766 -14q-289 0 -490 225q-188 217 -188 504q0 291 197 508q194 215 493 225h23q162 0 446 -78l-41 -227q-235 94 -393 94q-18 0 -37 -2q-192 -14 -315 -164.5t-123 -355.5t129 -361q127 -155 303 -155q145 0 254 100q106 98 119 229h-369v213h615q4 -41 4 -82 q0 -303 -172 -487q-174 -186 -455 -186z" />
<glyph unicode="H" horiz-adv-x="1454" d="M1307 2l-254 -20v655h-650v-637h-253v1432l253 20v-602h650v584h254v-1432z" />
<glyph unicode="I" horiz-adv-x="551" d="M150 0v1432l253 20v-1452h-253z" />
<glyph unicode="J" horiz-adv-x="1245" d="M1061 287q-121 -277 -490 -295h-24q-246 0 -490 229l136 170q215 -186 350 -186h20q113 10 164 43q43 26 86 102q25 45 31 144v958l254 -20v-934q-2 -41 -6 -76q-11 -86 -31 -135z" />
<glyph unicode="K" horiz-adv-x="1333" d="M1008 -16l-605 589v-573h-253v1432l253 20v-547l570 545l303 -41l-705 -668l738 -716z" />
<glyph unicode="L" horiz-adv-x="1225" d="M1116 0h-966v1432l253 20v-1239h736z" />
<glyph unicode="M" horiz-adv-x="1767" d="M1417 -20l-82 948l-315 -928h-268l-332 928l-72 -948l-260 38l133 1414l260 18l402 -1098l389 1098l260 -18l149 -1414z" />
<glyph unicode="N" horiz-adv-x="1491" d="M1065 -16l-662 1056v-1058l-253 20v1430l299 18l641 -1036v1020h253v-1432z" />
<glyph unicode="O" horiz-adv-x="1579" d="M786 -14q-297 0 -501 225q-199 215 -199 504q0 297 199 512q204 221 510 221h4q291 -2 491 -215q191 -201 201 -488v-32q0 -281 -188 -494q-207 -233 -517 -233zM791 1235h-5q-192 0 -321 -158q-127 -151 -127 -362q0 -203 137 -359q135 -157 316 -157q188 2 319 161 q125 150 125 351v12q-2 207 -123 354q-129 156 -321 158z" />
<glyph unicode="P" horiz-adv-x="1282" d="M674 592q-105 -4 -271 -8v-584h-253v1432q215 20 382 20q664 0 664 -422v-12q-6 -197 -152 -309q-145 -113 -370 -117zM403 1235v-434q168 -6 177 -6q340 0 364 227v16q0 123 -168 172q-104 29 -256 29q-55 0 -117 -4z" />
<glyph unicode="Q" horiz-adv-x="1620" d="M1305 231l163 -161l-204 -136l-136 138q-145 -88 -321 -88q-295 0 -508 225q-213 219 -213 510q0 297 211 514q209 215 516 215h4q301 -2 508 -209q205 -207 207 -496v-12q0 -156 -51 -270q-54 -119 -176 -230zM811 1235q-201 0 -336 -154q-137 -155 -137 -366 q0 -205 144.5 -361.5t328.5 -156.5q84 2 156 39l-271 278l213 123l230 -236q135 140 137 322v12q0 197 -129 346q-135 152 -336 154z" />
<glyph unicode="R" horiz-adv-x="1374" d="M1012 -18l-348 610q-103 -4 -261 -8v-584h-253v1432q215 20 382 20q664 0 664 -422v-12q-6 -270 -274 -377l366 -618zM403 1235v-434q168 -6 177 -6q340 0 364 227v16q0 125 -168 172q-104 29 -256 29q-55 0 -117 -4z" />
<glyph unicode="S" horiz-adv-x="1268" d="M594 -14q-21 -2 -41 -2q-117 0 -264 49q-152 51 -201 98l127 201q35 -33 158 -78q135 -49 225 -53h29q131 0 217 68.5t86 166.5q0 90 -80 150q-80 55 -213 55h-35q-18 -2 -37 -2q-188 0 -313 115q-131 116 -131 288v21q6 174 192 285q154 94 328 98h25q110 0 241 -31 q144 -35 189 -78l-103 -190q-213 86 -336 86h-16q-115 -6 -192.5 -72.5t-77.5 -144.5q0 -74 73 -119q78 -45 222 -45h24h21q209 0 340 -125q129 -125 129 -311q0 -29 -2 -60q-43 -325 -584 -370z" />
<glyph unicode="T" horiz-adv-x="1325" d="M791 1221v-1221h-254v1221h-449l23 213h1106l22 -213h-448z" />
<glyph unicode="U" horiz-adv-x="1499" d="M741 -14q-591 22 -591 606v840l253 20v-854q5 -61 11 -123q6 -69 28 -119q33 -75 115 -118q76 -41 174 -41q158 0 264 96q105 94 105 242q0 22 -2 47v852h254v-852q0 -281 -168 -443q-160 -153 -410 -153h-33z" />
<glyph unicode="V" d="M874 0h-270l-557 1413l258 39l434 -1112l435 1112l258 -39z" />
<glyph unicode="W" horiz-adv-x="2003" d="M1538 0h-246l-291 1032l-290 -1032h-246l-436 1413l262 39l295 -1067l291 1030h249l291 -1030l295 1067l264 -39z" />
<glyph unicode="X" horiz-adv-x="1331" d="M1001 -18l-333 550l-336 -550l-285 41l477 720l-440 668l283 41l301 -496l301 496l282 -41l-442 -668l477 -720z" />
<glyph unicode="Y" horiz-adv-x="1272" d="M764 604v-604h-254v604l-504 809l287 39l344 -612l346 612l283 -41z" />
<glyph unicode="Z" horiz-adv-x="1352" d="M1243 0h-1134l-21 186l809 1035h-782l16 213h1081l25 -177l-817 -1044h846z" />
<glyph unicode="[" horiz-adv-x="614" d="M150 -530v2064h440v-217h-187v-1634h187v-213h-440z" />
<glyph unicode="\" horiz-adv-x="1018" d="M793 -336l-799 1794l235 86l795 -1786z" />
<glyph unicode="]" horiz-adv-x="614" d="M27 -530v213h186v1634h-186v217h440v-2064h-440z" />
<glyph unicode="^" horiz-adv-x="930" d="M715 1167l-248 158l-250 -158l-129 107l295 209h172l289 -209z" />
<glyph unicode="_" horiz-adv-x="1667" d="M88 -143v143h1493v-143h-1493z" />
<glyph unicode="`" horiz-adv-x="674" d="M66 1335l200 131l342 -266l-164 -88z" />
<glyph unicode="a" horiz-adv-x="1104" d="M698 -2v27q-129 -41 -215 -41q-166 0 -282 79q-125 89 -133 236v20q0 189 198 293q101 54 252 54q90 0 184 -19v27q0 96 -40 123q-27 18 -154 26h-16q-103 0 -285 -71l-103 184q258 96 396 96h16q123 -6 178 -18q90 -23 160 -84q100 -90 100 -260v-70q-2 -45 -2 -70v-532 h-254zM698 436q-84 15 -159 15q-224 0 -224 -127v-5q0 -124 179 -124q90 0 204 30v211z" />
<glyph unicode="b" horiz-adv-x="1241" d="M403 35v-35h-253v1470l253 21v-516q144 55 236 55h12q228 -8 359 -135q139 -135 143 -379v-24q0 -463 -485 -506h-25h-7q-93 0 -233 49zM758 778q-39 27 -109 27q-104 0 -246 -53v-510q152 -43 254 -43q72 0 103 22q80 60 110 123q31 62 31 168q-4 174 -143 266z" />
<glyph unicode="c" horiz-adv-x="1108" d="M596 -14q-215 18 -363 172q-147 153 -147 352q0 209 147 362q148 152 375 160h10q130 0 404 -94l-109 -201q-47 25 -94 43q-114 43 -215 43q-108 0 -186 -96t-78 -215v-6q0 -123 78 -215t188 -96h12q125 0 302 73l100 -186q-260 -98 -395 -98q-15 0 -29 2z" />
<glyph unicode="d" horiz-adv-x="1241" d="M840 0v35q-150 -49 -242 -51q-14 0 -27 2q-483 45 -483 510v20q4 244 141 379q131 127 359 135q26 2 51 2q119 0 201 -33v492l254 -21v-1470h-254zM840 776q-95 35 -211 35q-94 0 -146 -33q-139 -92 -141 -266v-12q0 -99 29 -156q28 -63 108 -123q31 -22 103 -22 q102 0 258 43v534z" />
<glyph unicode="e" horiz-adv-x="1190" d="M1087 410l-725 -23q29 -88 113 -143q84 -58 180 -58q162 0 265 95l102 -187q-53 -49 -178 -82q-111 -30 -197 -30q-217 0 -387 157q-172 156 -172 371q0 219 148 371q145 149 362 149q213 0 360 -141q146 -144 146 -354q0 -52 -17 -125zM596 823h-4q-98 0 -168 -65 q-72 -70 -74 -170l484 16q-11 94 -76 156q-68 61 -162 63z" />
<glyph unicode="f" horiz-adv-x="879" d="M836 1180q-142 57 -234 57q-55 0 -80 -23q-43 -34 -43 -161q0 -21 2 -43h361v-199h-359v-811h-254v811h-182v199h180v28q0 176 68 269q80 108 276 139q19 4 43 4q127 0 342 -78z" />
<glyph unicode="g" horiz-adv-x="1262" d="M860 6q-141 -45 -231 -45h-21q-229 16 -366 137q-150 135 -154 377v21q0 241 145 385q134 131 361 151h22q95 0 244 -59v49l254 -21v-987q-4 -75 -16 -141q-31 -154 -105 -225q-125 -121 -329 -121q-148 0 -467 96l104 195q188 -74 322 -74q98 0 163 41q35 22 52 70 q2 4 18 84q4 22 4 49v18zM860 752q-178 53 -287 53q-63 0 -92 -21q-139 -104 -139 -305v-12q2 -170 141 -264q43 -29 127 -29q107 0 250 43v535z" />
<glyph unicode="h" horiz-adv-x="1206" d="M858 0l4 643q-2 188 -213 199h-12q-86 0 -234 -74v-768h-253v1470l253 21v-504q158 68 248 70h8q142 0 281 -78q152 -86 168 -197q14 -84 14 -403q0 -160 -4 -379h-260z" />
<glyph unicode="i" horiz-adv-x="580" d="M291 1266h-4q-58 0 -97.5 38.5t-39.5 92.5v4q0 55 40 96q39 37 97 37h4q57 -2 98 -39q41 -39 43 -94q0 -55 -41 -94q-43 -39 -100 -41zM164 0v997l254 21v-1018h-254z" />
<glyph unicode="j" horiz-adv-x="582" d="M291 1262q-60 0 -101 41q-40 38 -40 96q0 55 40 96q41 39 101 39q57 0 100 -39q41 -41 41 -96q0 -58 -41 -96q-43 -41 -100 -41zM256 -381q-121 -90 -307 -90q-86 0 -268 63l67 189q141 -55 223 -55q115 0 154 96q39 94 39 258v917l254 21v-938q-4 -103 -23 -186 q-43 -201 -139 -275z" />
<glyph unicode="k" horiz-adv-x="1106" d="M850 -35l-447 414v-381h-253v1472l253 21v-750l375 285l264 -70l-501 -393l565 -534z" />
<glyph unicode="l" horiz-adv-x="551" d="M150 0v1470l253 21v-1491h-253z" />
<glyph unicode="m" horiz-adv-x="1901" d="M1534 0v629q0 104 -45 147q-47 43 -154 49h-8q-82 0 -237 -98q12 -113 12 -446q0 -125 -2 -281h-258v629q0 186 -207 196h-8q-82 0 -224 -80v-745h-253v1004l253 18v-68q146 76 234 78h12q185 0 328 -123q199 123 354 123h8q148 -4 281 -80q143 -80 160 -188 q14 -86 14 -438q0 -142 -2 -326h-258z" />
<glyph unicode="n" horiz-adv-x="1198" d="M829 0l5 629q0 186 -197 194h-8q-84 0 -226 -78v-745h-253v1004l253 18v-68q146 76 234 78h12q139 0 273 -76q139 -82 157 -192q15 -80 15 -393q0 -156 -4 -371h-261z" />
<glyph unicode="o" horiz-adv-x="1204" d="M600 -14q-223 0 -381 161q-151 156 -151 365q0 213 157 369q152 151 373 151h12q217 -2 369 -147q145 -142 158 -346v-33q0 -199 -146 -352q-157 -168 -391 -168zM604 823q-121 0 -203 -92q-82 -94 -82 -223q0 -127 82 -219t203 -92t201 94q78 92 78 217v8 q-2 125 -80 217q-80 90 -199 90z" />
<glyph unicode="p" horiz-adv-x="1241" d="M653 -37q-12 -2 -26 -2q-88 0 -224 45v-459l-253 -20v1474l253 21v-49q148 59 242 59h23q485 -45 485 -495v-21q-4 -246 -137 -391t-363 -162zM760 786q-29 21 -90 21q-105 0 -267 -51v-537q132 -43 232 -43q80 0 123 29q65 45 104 133q37 82 39 172q0 104 -29 160 q-28 55 -112 116z" />
<glyph unicode="q" horiz-adv-x="1253" d="M1180 -469q-52 2 -93 8q-98 15 -141 45q-106 80 -106 205v217q-138 -45 -228 -45q-14 0 -26 2q-228 17 -361 162t-137 391v21q0 239 145 370q129 117 340 125h13q96 0 254 -61v51l254 -21v-1183q0 -62 35.5 -76t173.5 -14zM840 756q-158 47 -256 47q-242 0 -242 -279v-12 q0 -90 37 -172q39 -88 104 -133q43 -29 123 -29q101 0 234 43v535z" />
<glyph unicode="r" horiz-adv-x="948" d="M807 762q-168 59 -240 63h-8q-76 0 -156 -80v-745h-253v1004l253 18v-53q86 61 166 63h6q130 0 326 -84z" />
<glyph unicode="s" horiz-adv-x="1075" d="M459 -14h-10q-93 0 -203 34q-119 35 -158 72l98 174q166 -69 258 -69h15q278 18 278 131q-2 53 -18 67q-29 25 -123 25q-35 0 -86 -2q-23 -2 -45 -2q-158 0 -252 78q-107 86 -107 235q0 160 170 242q136 63 322 63q170 0 342 -102l-102 -195q-35 33 -105 62 q-78 28 -141 28q-23 0 -41 -4q-100 -18 -123 -26q-61 -25 -66 -76v-10q0 -47 35 -66q41 -18 150 -18h43h20q185 0 285 -78q92 -74 92 -209q0 -21 -2 -43q-18 -158 -190 -240q-138 -65 -336 -71z" />
<glyph unicode="t" horiz-adv-x="823" d="M518 -14q-133 2 -213 65q-86 68 -86 187v573h-192v199h192v239l254 39v-278h238v-199h-238v-545q0 -55 11.5 -59t25.5 -4q53 0 143 61l105 -194q-158 -84 -236 -84h-4z" />
<glyph unicode="u" horiz-adv-x="1198" d="M795 -20v55q-146 -47 -234 -49h-12q-139 0 -273 77q-139 80 -157 189q-13 84 -13 412q0 145 3 337l258 21l-2 -635q0 -209 184 -209q104 0 246 66v766h254v-992z" />
<glyph unicode="v" horiz-adv-x="1182" d="M702 0h-223l-432 983l268 39l277 -703l274 703l271 -39z" />
<glyph unicode="w" horiz-adv-x="1733" d="M1321 0h-240l-215 637l-217 -637h-237l-365 983l262 39l219 -682l220 670h239l217 -670l221 682l263 -39z" />
<glyph unicode="x" horiz-adv-x="1104" d="M791 -18l-238 346l-240 -346l-266 41l356 491l-340 467l265 41l225 -324l221 324l266 -41l-340 -467l359 -491z" />
<glyph unicode="y" horiz-adv-x="1178" d="M651 -233q-37 -134 -98 -181q-61 -49 -234 -55l-122 197q120 0 157 16q35 14 64 86q4 10 69 182l-440 971l266 39l295 -723l277 723l245 -39z" />
<glyph unicode="z" horiz-adv-x="1065" d="M956 0h-829l-39 180l539 621h-508v209h790l41 -172l-547 -629h576z" />
<glyph unicode="{" horiz-adv-x="909" d="M518 -479q-131 65 -166 203q-12 53 -12 143q0 55 4 124.5t4 125.5q0 86 -10 133q-19 74 -188 135v229q169 62 188 138q10 45 10 131q0 55 -4 127q-4 69 -4 125q0 92 12 145q35 137 166 203q103 51 367 51l-56 -231q-65 12 -106 12q-51 0 -68 -19q-71 -75 -71 -225 q0 -31 4 -96q2 -66 2 -101q0 -180 -84 -290q-25 -31 -78 -88q96 -95 131 -172q35 -80 35 -197q0 -29 -4 -98.5t-4 -108.5q0 -139 69 -213q17 -18 68 -18q41 0 106 12l56 -231q-267 0 -367 51z" />
<glyph unicode="|" horiz-adv-x="522" d="M150 0v1534h225v-1534h-225z" />
<glyph unicode="}" horiz-adv-x="909" d="M555 -276q-33 -138 -162 -203q-102 -51 -366 -51l57 231q63 -12 102 -12q52 0 70 18q68 76 68 221q0 31 -2 99q-5 65 -5 100q0 180 91 289q26 33 75 80q-96 100 -131 184q-30 78 -30 197q0 28 4 94q2 65 2 96q0 152 -72 229q-18 19 -70 19q-39 0 -102 -12l-57 231 q264 0 366 -51q129 -66 164 -203q14 -57 14 -158q0 -51 -4 -112q-4 -74 -4 -129q0 -84 10 -129q17 -76 189 -138v-229q-172 -61 -189 -135q-10 -45 -10 -129q0 -55 4 -129q4 -58 4 -105q0 -106 -16 -163z" />
<glyph unicode="~" horiz-adv-x="874" d="M63 723q17 41 80 76q64 35 123 35q72 0 175.5 -66t170.5 -66q72 0 203 132v-213q-123 -123 -203 -123q-71 0 -174.5 64.5t-171.5 64.5h-4q-55 0 -115 -37q-61 -39 -84 -92v225z" />
<glyph unicode="&#xa1;" horiz-adv-x="582" d="M293 721q-68 0 -115 45q-49 45 -49 108q0 64 49 109q47 45 115 45q65 0 115 -45q47 -45 47 -109q0 -63 -47 -108q-50 -45 -115 -45zM166 -444v653l16 418l221 20l17 -438v-633z" />
<glyph unicode="&#xa2;" horiz-adv-x="1092" d="M719 100v-100h-225v106q-195 41 -306 173q-102 120 -102 276q0 158 102 281q111 133 306 178v133h225v-127q108 -19 252 -80l-37 -192q-55 30 -215 81v-536q108 20 252 115l33 -195q-46 -27 -91 -47q-108 -51 -194 -66zM494 809q-185 -86 -185 -248q0 -160 185 -242v490z " />
<glyph unicode="&#xa3;" horiz-adv-x="1059" d="M508 211h465v-211h-885v213q37 -2 62 -2q26 0 38 2q54 10 74 57v172h-174v209h174v119q0 143 96 248q95 102 248 123q15 2 31 2q117 0 319 -103l-77 -188q-136 84 -203 84q-10 0 -19 -2q-141 -29 -141 -168v-115h358v-209h-358v-176q-2 -16 -8 -55z" />
<glyph unicode="&#xa4;" horiz-adv-x="1407" d="M559 555h514l-82 -141h-401q82 -203 293 -203q135 0 329 82l107 -203q-287 -108 -436 -108q-17 0 -31 2q-199 16 -348 139q-148 117 -197 291h-219l82 141h113q0 39 2 57h-197l82 142h147q58 170 203 274q144 105 344 113h17q143 0 440 -105l-117 -217q-51 27 -104 47 q-125 47 -240 47h-4q-160 0 -246 -159h557l-82 -142h-524q-2 -26 -2 -57z" />
<glyph unicode="&#xa5;" horiz-adv-x="1264" d="M805 582h199v-209h-234v-64h234v-209h-234v-100h-274v100h-236v209h236v64h-236v209h201l-373 526l272 31l271 -398l272 398l275 -31z" />
<glyph unicode="&#xa7;" horiz-adv-x="905" d="M399 -31q-104 2 -311 125l111 193q63 -49 96 -72q67 -41 111 -41h18q88 0 125 19q39 18 39 71q-2 41 -25 49q-10 2 -39 2q-10 1 -22 1q-25 0 -58 -3q-18 -2 -34 -2q-136 0 -213 74q-76 72 -76 190v13q0 71 65 137q-65 68 -65 182v13q2 108 123 186q106 68 227 72h8 q99 0 305 -86l-90 -183q-137 72 -215 72h-8q-51 -2 -86 -23q-37 -22 -37 -47v-6q0 -31 19 -43q28 -16 116 -16h21h24q291 0 291 -232q0 -110 -51 -165q51 -52 51 -158q0 -25 -2 -51q-16 -142 -151 -213q-107 -58 -246 -58h-21zM449 649q-39 -2 -68 -22q-31 -23 -33 -49v-9 q0 -57 109 -57q24 0 53 2q78 6 78 78v4q-2 41 -25 49q-16 6 -61 6q-23 0 -53 -2z" />
<glyph unicode="&#xa8;" horiz-adv-x="836" d="M477 1243q0 53 39 94q37 37 88 37h4q56 -2 92 -39q37 -39 39 -92q0 -55 -37.5 -92t-93.5 -39h-4q-51 0 -88 37q-39 37 -39 90v4zM98 1243q0 53 39 92q37 39 90 39q56 0 95 -39q36 -39 38 -92q0 -55 -38 -92q-39 -39 -95 -39q-53 0 -92 39q-37 35 -37 88v4z" />
<glyph unicode="&#xa9;" horiz-adv-x="1126" d="M565 227q-198 0 -338 142q-139 139 -139 336q0 198 139 337q140 140 338 140q197 0 336 -140q139 -139 139 -337q0 -197 -139 -336q-141 -142 -336 -142zM565 1047q-133 0 -237 -105q-105 -104 -105 -237q0 -134 104.5 -238.5t237.5 -104.5q131 0 235.5 104.5 t104.5 238.5q0 133 -104 237q-105 105 -236 105zM549 446q-105 11 -170 86q-64 74 -64 173v6q0 100 66 172q63 69 164 82q8 2 18 2q62 0 166 -43l-14 -146q-90 49 -142 49q-94 0 -94 -118v-4q0 -121 103 -121q55 0 151 65l12 -145q-116 -58 -184 -58h-12z" />
<glyph unicode="&#xaa;" horiz-adv-x="664" d="M571 879h-168v26q-6 -2 -53 -22q-31 -13 -49 -13h-4q-186 27 -207 183q-2 16 -2 30q0 113 127 170q49 25 115 25q30 0 65 -6q-2 16 -6 37q-12 20 -45 20q-47 0 -172 -53l-74 129q156 63 230 63h8q123 -6 182 -61q60 -55 60 -168v-57q0 -95 -7 -303zM399 1120 q-77 17 -90 17q-53 0 -53 -50v-4q0 -67 82 -67q27 0 63 8z" />
<glyph unicode="&#xab;" horiz-adv-x="946" d="M455 106l-367 328v154l365 311l47 -190l-232 -201l234 -211zM813 106l-367 328v154l365 311l47 -190l-231 -201l233 -211z" />
<glyph unicode="&#xac;" horiz-adv-x="1198" d="M817 227v197h-688v184h942v-381h-254z" />
<glyph unicode="&#xad;" horiz-adv-x="834" d="M150 424v225h536v-225h-536z" />
<glyph unicode="&#xae;" horiz-adv-x="1126" d="M565 227q-198 0 -338 142q-139 139 -139 336q0 198 139 337q140 140 338 140q197 0 336 -140.5t139 -336.5q0 -197 -139 -336q-141 -142 -336 -142zM565 1047q-133 0 -237 -105q-105 -104 -105 -237q0 -134 104.5 -238.5t237.5 -104.5q131 0 235.5 104.5t104.5 238.5 q0 133 -104 237q-105 105 -236 105zM651 442l-98 189h-21v-178h-137v499q90 9 142 11q18 0 32 -2q191 -15 191 -162v-4q-2 -80 -68 -127l107 -197zM580 823q-25 4 -48 4v-65h19q65 0 70 39q0 16 -41 22z" />
<glyph unicode="&#xaf;" horiz-adv-x="731" d="M129 1124v144h475v-144h-475z" />
<glyph unicode="&#xb0;" horiz-adv-x="739" d="M371 952q-119 0 -201 70t-82 170t82 172t201 72q116 0 200 -72q82 -72 82 -172t-82 -170q-84 -70 -200 -70zM371 1268q-29 0 -49 -21q-23 -22 -23 -55q0 -31 23 -51q20 -21 49 -21q69 2 71 72q0 31 -20 53q-23 23 -51 23z" />
<glyph unicode="&#xb1;" horiz-adv-x="983" d="M618 463v-195h-253v195h-236v203h236v194h253v-194h238v-205zM129 -14v202h727v-202h-727z" />
<glyph unicode="&#xb2;" horiz-adv-x="1141" d="M129 0v190l320 252q182 148 243 228q53 69 53 135v16q-10 68 -75 113q-56 37 -115 37q-10 0 -20 -2q-154 -17 -322 -95l-84 203q225 97 410 97q209 0 313 -72q96 -68 133 -219q8 -37 8 -76q0 -283 -448 -596h469v-211h-885z" />
<glyph unicode="&#xb3;" horiz-adv-x="1100" d="M592 -14q-19 -2 -39 -2q-154 0 -424 98l72 209q194 -105 319 -105q17 0 31 2q168 19 182 134v16q0 59 -41 104q-49 50 -131 50h-297v213q144 -5 215 -5q53 0 66 2q147 31 147 127q0 23 -4 48q-20 90 -153 90q-103 0 -316 -90l-82 202q275 95 410 95q137 0 240.5 -66 t140.5 -186q14 -54 14 -105q0 -133 -88 -215q121 -86 121 -256q0 -16 -2 -33q-10 -139 -125 -229q-105 -84 -256 -98z" />
<glyph unicode="&#xb4;" horiz-adv-x="696" d="M76 1221l344 266l201 -131l-381 -223z" />
<glyph unicode="&#xb5;" horiz-adv-x="1294" d="M932 66q-131 -97 -303 -97h-13q-88 2 -233 51v-307h-254v1288l254 21v-803q135 -53 219 -53h12q97 4 148 63q51 60 51 150q0 207 -4 625h256l-2 -693q4 -143 207 -145v-193h-25q-190 0 -313 93z" />
<glyph unicode="&#xb6;" horiz-adv-x="1184" d="M1036 23l-225 -21v995l-68 4v-999l-225 21v448q-192 12 -307 100q-123 95 -123 252q0 189 135 277q133 86 426 86q162 0 387 -21v-1142z" />
<glyph unicode="&#xb8;" horiz-adv-x="696" d="M172 -403l-43 178q111 -17 154 -17q16 0 32 19q13 14 13 26v4q-4 13 -47 15l-84 4l41 217h194l-22 -123q157 -26 157 -104q0 -39 -43 -121q-59 -107 -252 -107q-53 0 -100 9z" />
<glyph unicode="&#xb9;" horiz-adv-x="702" d="M301 0v881l-106 -70l-107 186l246 150h221v-1147h-254z" />
<glyph unicode="&#xba;" horiz-adv-x="774" d="M385 877q-127 0 -211 84q-86 83 -86 194q0 125 94 205q88 74 205 74q115 0 199 -68q92 -74 100 -197v-16q0 -104 -78 -184q-90 -92 -223 -92zM385 1270q-37 0 -66 -31q-30 -33 -30 -84t28 -80q29 -28 68 -28t68 30q26 29 26 80q0 49 -26 82q-29 31 -68 31z" />
<glyph unicode="&#xbb;" horiz-adv-x="946" d="M137 109l-47 192l232 199l-234 211l47 190l367 -328v-153zM496 109l-47 192l231 199l-234 211l48 190l366 -328v-153z" />
<glyph unicode="&#xbc;" horiz-adv-x="2193" d="M1988 272v-272l-254 2v270h-602v187l625 688h231v-664h160v-211h-160zM1734 809l-299 -326h299v326zM610 -336l-232 94l797 1786l234 -86zM301 0v881l-106 -70l-107 186l246 150h221v-1147h-254z" />
<glyph unicode="&#xbd;" horiz-adv-x="2226" d="M1214 0v190l320 252q182 148 243 228q53 69 53 135v16q-10 68 -75 113q-56 37 -115 37q-10 0 -20 -2q-154 -17 -322 -95l-84 203q225 97 410 97q209 0 313 -72q96 -68 133 -219q8 -37 8 -76q0 -283 -448 -596h469v-211h-885zM610 -336l-232 94l797 1786l234 -86zM301 0 v881l-106 -70l-107 186l246 150h221v-1147h-254z" />
<glyph unicode="&#xbe;" horiz-adv-x="2591" d="M2386 272v-272l-254 2v270h-602v187l625 688h231v-664h160v-211h-160zM2132 809l-299 -326h299v326zM1008 -336l-232 94l797 1786l234 -86zM592 -14q-19 -2 -39 -2q-154 0 -424 98l72 209q194 -105 319 -105q17 0 31 2q168 19 182 134v16q0 59 -41 104q-49 50 -131 50 h-297v213q144 -5 215 -5q53 0 66 2q147 31 147 127q0 23 -4 48q-20 90 -153 90q-103 0 -316 -90l-82 202q275 95 410 95q137 0 240.5 -66t140.5 -186q14 -54 14 -105q0 -133 -88 -215q121 -86 121 -256q0 -16 -2 -33q-10 -139 -125 -229q-105 -84 -256 -98z" />
<glyph unicode="&#xbf;" horiz-adv-x="1077" d="M625 723q-68 0 -115 45q-49 45 -49 109q0 63 49 108q47 45 115 45q65 0 114 -45q47 -45 47 -108q0 -64 -47 -109q-49 -45 -114 -45zM530 -428q-178 14 -305 115q-137 108 -137 260q0 153 94 256q43 45 221 168q74 51 86 75q11 19 11 99v76l254 28v-112q0 -156 -103 -258 q-10 -13 -192 -144q-107 -78 -115 -168v-12q0 -57 53 -105q60 -53 146 -61q16 -2 35 -2q149 0 344 125l69 -209q-274 -133 -430 -133q-16 0 -31 2z" />
<glyph unicode="&#xc0;" d="M1174 -18l-160 407h-549l-160 -407l-258 38l557 1414h270l558 -1414zM739 1094l-190 -488h381zM433 1720l200 131l342 -266l-164 -88z" />
<glyph unicode="&#xc1;" d="M1174 -18l-160 407h-549l-160 -407l-258 38l557 1414h270l558 -1414zM739 1094l-190 -488h381zM445 1590l344 266l201 -131l-381 -223z" />
<glyph unicode="&#xc2;" d="M1174 -18l-160 407h-549l-160 -407l-258 38l557 1414h270l558 -1414zM739 1094l-190 -488h381zM946 1520l-204 110l-205 -110l-123 127l328 172l327 -172z" />
<glyph unicode="&#xc3;" d="M1174 -18l-160 407h-549l-160 -407l-258 38l557 1414h270l558 -1414zM739 1094l-190 -488h381zM358 1738q17 41 80 76q64 35 123 35q72 0 176 -66q103 -65 170 -65q72 0 203 131v-213q-123 -123 -203 -123q-71 0 -174 66q-104 63 -172 63h-4q-55 0 -115 -37 q-61 -39 -84 -92v225z" />
<glyph unicode="&#xc4;" d="M1174 -18l-160 407h-549l-160 -407l-258 38l557 1414h270l558 -1414zM739 1094l-190 -488h381zM815 1644q0 53 39 94q37 37 88 37h4q56 -2 92 -39q37 -39 39 -92q0 -55 -37.5 -92t-93.5 -39h-4q-51 0 -88 37q-39 37 -39 90v4zM436 1644q0 53 39 92q37 39 90 39 q56 0 95 -39q36 -39 38 -92q0 -55 -38 -92q-39 -39 -95 -39q-53 0 -92 39q-37 35 -37 88v4z" />
<glyph unicode="&#xc5;" d="M1174 -18l-160 407h-549l-160 -407l-258 38l557 1414h270l558 -1414zM739 1094l-190 -488h381zM746 1376q-115 0 -195 80q-82 80 -82 192q0 113 82 193q80 80 195 80q112 0 194 -80t82 -193q0 -112 -82 -192t-194 -80zM746 1745q-37 0 -62 -27q-24 -29 -24 -70v-4 q0 -37 24 -63q25 -29 62 -29q35 0 60.5 28.5t25.5 67.5q-2 41 -27 70q-24 27 -59 27z" />
<glyph unicode="&#xc6;" horiz-adv-x="2185" d="M2079 0h-977v393h-498l-305 -411l-252 43l1026 1409h1000l24 -213h-735v-330h616v-213h-616v-465h737zM1102 1090l-340 -484h340v484z" />
<glyph unicode="&#xc7;" horiz-adv-x="1370" d="M778 -14q-303 28 -497 241q-193 207 -193 488v12q2 283 193 485q188 201 485 236q22 2 51 2q166 0 432 -86l-41 -229q-221 102 -370 102q-37 0 -66 -6q-203 -45 -315 -182q-113 -136 -113 -324v-8q0 -197 119 -332q119 -137 332 -174q24 -4 55 -4q164 0 401 115l33 -222 q-293 -116 -465 -116q-20 0 -41 2zM664 -403l-43 178q111 -17 154 -17q16 0 32 19q13 14 13 26v4q-4 13 -47 15l-84 4l41 217h194l-22 -123q157 -26 157 -104q0 -39 -43 -121q-59 -107 -252 -107q-53 0 -100 9z" />
<glyph unicode="&#xc8;" horiz-adv-x="1225" d="M1116 0h-966v1434h925l23 -213h-695v-371h617v-213h-617v-424h736zM351 1720l200 131l342 -266l-164 -88z" />
<glyph unicode="&#xc9;" horiz-adv-x="1225" d="M1116 0h-966v1434h925l23 -213h-695v-371h617v-213h-617v-424h736zM363 1610l344 266l201 -131l-381 -223z" />
<glyph unicode="&#xca;" horiz-adv-x="1225" d="M1116 0h-966v1434h925l23 -213h-695v-371h617v-213h-617v-424h736zM843 1520l-204 110l-205 -110l-123 127l328 172l327 -172z" />
<glyph unicode="&#xcb;" horiz-adv-x="1225" d="M1116 0h-966v1434h925l23 -213h-695v-371h617v-213h-617v-424h736zM698 1661q0 53 39 94q37 37 88 37h4q56 -2 92 -39q37 -39 39 -92q0 -55 -37.5 -92t-93.5 -39h-4q-51 0 -88 37q-39 37 -39 90v4zM319 1661q0 53 39 92q37 39 90 39q56 0 95 -39q36 -39 38 -92 q0 -55 -38 -92q-39 -39 -95 -39q-53 0 -92 39q-37 35 -37 88v4z" />
<glyph unicode="&#xcc;" horiz-adv-x="551" d="M179 0v1432l253 20v-1452h-253zM25 1720l200 131l342 -266l-164 -88z" />
<glyph unicode="&#xcd;" horiz-adv-x="551" d="M175 0v1432l253 20v-1452h-253zM19 1590l344 266l201 -131l-381 -223z" />
<glyph unicode="&#xce;" horiz-adv-x="551" d="M211 0v1432l253 20v-1452h-253zM532 1520l-204 110l-205 -110l-123 127l328 172l327 -172z" />
<glyph unicode="&#xcf;" horiz-adv-x="551" d="M213 0v1432l253 20v-1452h-253zM389 1661q0 53 39 94q37 37 88 37h4q56 -2 92 -39q37 -39 39 -92q0 -55 -37.5 -92t-93.5 -39h-4q-51 0 -88 37q-39 37 -39 90v4zM10 1661q0 53 39 92q37 39 90 39q56 0 95 -39q36 -39 38 -92q0 -55 -38 -92q-39 -39 -95 -39q-53 0 -92 39 q-37 35 -37 88v4z" />
<glyph unicode="&#xd1;" horiz-adv-x="1491" d="M1065 -16l-662 1056v-1058l-253 20v1430l299 18l641 -1036v1020h253v-1432zM303 1731q21 41 96 73q74 33 144 33q84 0 207 -63q120 -64 200 -64q86 0 240 127v-207q-143 -119 -238 -119q-86 0 -207.5 63.5t-201.5 63.5q-68 0 -140.5 -36.5t-99.5 -90.5v220z" />
<glyph unicode="&#xd2;" horiz-adv-x="1579" d="M786 -14q-297 0 -501 225q-199 215 -199 504q0 297 199 512q204 221 510 221h4q291 -2 491 -215q191 -201 201 -488v-32q0 -281 -188 -494q-207 -233 -517 -233zM791 1235h-5q-192 0 -321 -158q-127 -151 -127 -362q0 -203 137 -359q135 -157 316 -157q188 2 319 161 q125 150 125 351v12q-2 207 -123 354q-129 156 -321 158zM515 1720l200 131l342 -266l-164 -88z" />
<glyph unicode="&#xd3;" horiz-adv-x="1579" d="M786 -14q-297 0 -501 225q-199 215 -199 504q0 297 199 512q204 221 510 221h4q291 -2 491 -215q191 -201 201 -488v-32q0 -281 -188 -494q-207 -233 -517 -233zM791 1235h-5q-192 0 -321 -158q-127 -151 -127 -362q0 -203 137 -359q135 -157 316 -157q188 2 319 161 q125 150 125 351v12q-2 207 -123 354q-129 156 -321 158zM516 1590l344 266l201 -131l-381 -223z" />
<glyph unicode="&#xd4;" horiz-adv-x="1579" d="M786 -14q-297 0 -501 225q-199 215 -199 504q0 297 199 512q204 221 510 221h4q291 -2 491 -215q191 -201 201 -488v-32q0 -281 -188 -494q-207 -233 -517 -233zM791 1235h-5q-192 0 -321 -158q-127 -151 -127 -362q0 -203 137 -359q135 -157 316 -157q188 2 319 161 q125 150 125 351v12q-2 207 -123 354q-129 156 -321 158zM1007 1520l-204 110l-205 -110l-123 127l328 172l327 -172z" />
<glyph unicode="&#xd5;" horiz-adv-x="1579" d="M786 -14q-297 0 -501 225q-199 215 -199 504q0 297 199 512q204 221 510 221h4q291 -2 491 -215q191 -201 201 -488v-32q0 -281 -188 -494q-207 -233 -517 -233zM791 1235h-5q-192 0 -321 -158q-127 -151 -127 -362q0 -203 137 -359q135 -157 316 -157q188 2 319 161 q125 150 125 351v12q-2 207 -123 354q-129 156 -321 158zM378 1738q17 41 80 76q64 35 123 35q72 0 176 -66q103 -65 170 -65q72 0 203 131v-213q-123 -123 -203 -123q-71 0 -174 66q-104 63 -172 63h-4q-55 0 -115 -37q-61 -39 -84 -92v225z" />
<glyph unicode="&#xd6;" horiz-adv-x="1579" d="M786 -14q-297 0 -501 225q-199 215 -199 504q0 297 199 512q204 221 510 221h4q291 -2 491 -215q191 -201 201 -488v-32q0 -281 -188 -494q-207 -233 -517 -233zM791 1235h-5q-192 0 -321 -158q-127 -151 -127 -362q0 -203 137 -359q135 -157 316 -157q188 2 319 161 q125 150 125 351v12q-2 207 -123 354q-129 156 -321 158zM856 1644q0 53 39 94q37 37 88 37h4q56 -2 92 -39q37 -39 39 -92q0 -55 -37.5 -92t-93.5 -39h-4q-51 0 -88 37q-39 37 -39 90v4zM477 1644q0 53 39 92q37 39 90 39q56 0 95 -39q36 -39 38 -92q0 -55 -38 -92 q-39 -39 -95 -39q-53 0 -92 39q-37 35 -37 88v4z" />
<glyph unicode="&#xd8;" horiz-adv-x="1579" d="M786 -16q-157 0 -297 77l-77 -112l-238 82l131 184q-219 248 -219 510q0 242 164 446q160 199 391 259q78 20 154 20q166 0 319 -98l94 133l238 -82l-148 -211q183 -231 193 -447v-38q0 -275 -191 -488q-210 -235 -514 -235zM1145 979l-524 -735q75 -45 161 -45h9 q190 0 321 159q123 150 123 342v21q-4 110 -90 258zM791 1235h-5q-188 0 -319 -156q-129 -153 -129 -352v-12q4 -129 115 -293l536 752q-88 61 -198 61z" />
<glyph unicode="&#xd9;" horiz-adv-x="1499" d="M741 -14q-591 22 -591 606v840l253 20v-854q5 -61 11 -123q6 -69 28 -119q33 -75 115 -118q76 -41 174 -41q158 0 264 96q105 94 105 242q0 22 -2 47v852h254v-852q0 -281 -168 -443q-160 -153 -410 -153h-33zM494 1720l200 131l342 -266l-164 -88z" />
<glyph unicode="&#xda;" horiz-adv-x="1499" d="M741 -14q-591 22 -591 606v840l253 20v-854q5 -61 11 -123q6 -69 28 -119q33 -75 115 -118q76 -41 174 -41q158 0 264 96q105 94 105 242q0 22 -2 47v852h254v-852q0 -281 -168 -443q-160 -153 -410 -153h-33zM496 1590l344 266l201 -131l-381 -223z" />
<glyph unicode="&#xdb;" horiz-adv-x="1499" d="M741 -14q-591 22 -591 606v840l253 20v-854q5 -61 11 -123q6 -69 28 -119q33 -75 115 -118q76 -41 174 -41q158 0 264 96q105 94 105 242q0 22 -2 47v852h254v-852q0 -281 -168 -443q-160 -153 -410 -153h-33zM966 1520l-204 110l-205 -110l-123 127l328 172l327 -172z " />
<glyph unicode="&#xdc;" horiz-adv-x="1499" d="M741 -14q-591 22 -591 606v840l253 20v-854q5 -61 11 -123q6 -69 28 -119q33 -75 115 -118q76 -41 174 -41q158 0 264 96q105 94 105 242q0 22 -2 47v852h254v-852q0 -281 -168 -443q-160 -153 -410 -153h-33zM815 1644q0 53 39 94q37 37 88 37h4q56 -2 92 -39 q37 -39 39 -92q0 -55 -37.5 -92t-93.5 -39h-4q-51 0 -88 37q-39 37 -39 90v4zM436 1644q0 53 39 92q37 39 90 39q56 0 95 -39q36 -39 38 -92q0 -55 -38 -92q-39 -39 -95 -39q-53 0 -92 39q-37 35 -37 88v4z" />
<glyph unicode="&#xdd;" horiz-adv-x="1272" d="M474 1662l344 266l201 -131l-381 -223zM764 604v-604h-254v604l-504 809l287 39l344 -612l346 612l283 -41z" />
<glyph unicode="&#xdf;" horiz-adv-x="1255" d="M674 -14h-15q-75 0 -202 18l35 215q106 -26 188 -26q238 0 238 198q0 15 -3 31q-10 102 -194 176q-105 41 -223 61v240q102 14 190 47q152 58 152 141q-2 148 -283 148q-68 0 -154 -10v-1227l-253 10v1424q231 16 393 16q57 0 100 -2q162 -10 285 -80q153 -88 168 -238 v-20q0 -96 -66 -186q-65 -88 -164 -142q123 -57 205 -147q98 -111 98 -236q-2 -393 -495 -411z" />
<glyph unicode="&#xe0;" horiz-adv-x="1104" d="M698 -2v27q-129 -41 -215 -41q-166 0 -282 79q-125 89 -133 236v20q0 189 198 293q101 54 252 54q90 0 184 -19v27q0 96 -40 123q-27 18 -154 26h-16q-103 0 -285 -71l-103 184q258 96 396 96h16q123 -6 178 -18q90 -23 160 -84q100 -90 100 -260v-70q-2 -45 -2 -70v-532 h-254zM698 436q-84 15 -159 15q-224 0 -224 -127v-5q0 -124 179 -124q90 0 204 30v211zM230 1355l200 131l342 -266l-164 -88z" />
<glyph unicode="&#xe1;" horiz-adv-x="1104" d="M698 -2v27q-129 -41 -215 -41q-166 0 -282 79q-125 89 -133 236v20q0 189 198 293q101 54 252 54q90 0 184 -19v27q0 96 -40 123q-27 18 -154 26h-16q-103 0 -285 -71l-103 184q258 96 396 96h16q123 -6 178 -18q90 -23 160 -84q100 -90 100 -260v-70q-2 -45 -2 -70v-532 h-254zM698 436q-84 15 -159 15q-224 0 -224 -127v-5q0 -124 179 -124q90 0 204 30v211zM260 1221l344 266l201 -131l-381 -223z" />
<glyph unicode="&#xe2;" horiz-adv-x="1104" d="M698 -2v27q-129 -41 -215 -41q-166 0 -282 79q-125 89 -133 236v20q0 189 198 293q101 54 252 54q90 0 184 -19v27q0 96 -40 123q-27 18 -154 26h-16q-103 0 -285 -71l-103 184q258 96 396 96h16q123 -6 178 -18q90 -23 160 -84q100 -90 100 -260v-70q-2 -45 -2 -70v-532 h-254zM698 436q-84 15 -159 15q-224 0 -224 -127v-5q0 -124 179 -124q90 0 204 30v211zM733 1137l-204 110l-205 -110l-123 127l328 172l327 -172z" />
<glyph unicode="&#xe3;" horiz-adv-x="1104" d="M698 -2v27q-129 -41 -215 -41q-166 0 -282 79q-125 89 -133 236v20q0 189 198 293q101 54 252 54q90 0 184 -19v27q0 96 -40 123q-27 18 -154 26h-16q-103 0 -285 -71l-103 184q258 96 396 96h16q123 -6 178 -18q90 -23 160 -84q100 -90 100 -260v-70q-2 -45 -2 -70v-532 h-254zM698 436q-84 15 -159 15q-224 0 -224 -127v-5q0 -124 179 -124q90 0 204 30v211zM143 1337q17 41 80 76q64 35 123 35q72 0 176 -66q103 -65 170 -65q72 0 203 131v-213q-123 -123 -203 -123q-71 0 -174 66q-104 63 -172 63h-4q-55 0 -115 -37q-61 -39 -84 -92v225z " />
<glyph unicode="&#xe4;" horiz-adv-x="1104" d="M698 -2v27q-129 -41 -215 -41q-166 0 -282 79q-125 89 -133 236v20q0 189 198 293q101 54 252 54q90 0 184 -19v27q0 96 -40 123q-27 18 -154 26h-16q-103 0 -285 -71l-103 184q258 96 396 96h16q123 -6 178 -18q90 -23 160 -84q100 -90 100 -260v-70q-2 -45 -2 -70v-532 h-254zM698 436q-84 15 -159 15q-224 0 -224 -127v-5q0 -124 179 -124q90 0 204 30v211zM600 1243q0 53 39 94q37 37 88 37h4q56 -2 92 -39q37 -39 39 -92q0 -55 -37.5 -92t-93.5 -39h-4q-51 0 -88 37q-39 37 -39 90v4zM221 1243q0 53 39 92q37 39 90 39q56 0 95 -39 q36 -39 38 -92q0 -55 -38 -92q-39 -39 -95 -39q-53 0 -92 39q-37 35 -37 88v4z" />
<glyph unicode="&#xe5;" horiz-adv-x="1104" d="M698 -2v27q-129 -41 -215 -41q-166 0 -282 79q-125 89 -133 236v20q0 189 198 293q101 54 252 54q90 0 184 -19v27q0 96 -40 123q-27 18 -154 26h-16q-103 0 -285 -71l-103 184q258 96 396 96h16q123 -6 178 -18q90 -23 160 -84q100 -90 100 -260v-70q-2 -45 -2 -70v-532 h-254zM698 436q-84 15 -159 15q-224 0 -224 -127v-5q0 -124 179 -124q90 0 204 30v211zM524 987q-100 0 -172.5 71.5t-72.5 172.5q0 100 72.5 172t172.5 72q101 0 174 -72q74 -72 74 -172q0 -101 -74 -172q-73 -72 -174 -72zM524 1317q-30 0 -53 -25q-22 -26 -22 -61t22 -60 q23 -26 53 -26q31 0 56 26q22 25 22 60q0 37 -22 61q-25 25 -56 25z" />
<glyph unicode="&#xe6;" horiz-adv-x="1815" d="M1714 410l-725 -23q29 -88 105 -141q80 -60 190 -60q72 0 152 31q73 29 112 64l103 -187q-47 -45 -178 -80q-113 -30 -207 -30q-25 0 -47 2q-199 18 -308 102l-131 -51q-157 -53 -268 -53q-25 0 -47 2q-154 24 -252 94q-119 86 -125 219v20q0 189 199 293q98 54 248 54 q92 0 188 -19v27q0 96 -41 123q-29 18 -156 26h-16q-100 0 -285 -71l-100 184q258 96 395 96h17q131 -6 192 -22q96 -25 164 -97q135 119 338 119q199 0 338 -129t160 -317q2 -21 2 -43q0 -62 -17 -133zM1223 823h-4q-84 0 -156 -71q-66 -68 -86 -156l483 14q-18 97 -82 154 q-63 57 -155 59zM719 436q-88 15 -164 15q-219 0 -219 -127v-5q0 -124 180 -124q90 0 203 30v211z" />
<glyph unicode="&#xe7;" horiz-adv-x="1108" d="M596 -14q-215 18 -363 172q-147 153 -147 352q0 209 147 362q148 152 375 160h10q130 0 404 -94l-109 -201q-47 25 -94 43q-114 43 -215 43q-108 0 -186 -96t-78 -215v-6q0 -123 78 -215t188 -96h12q125 0 302 73l100 -186q-260 -98 -395 -98q-15 0 -29 2zM459 -403 l-43 178q111 -17 154 -17q16 0 32 19q13 14 13 26v4q-4 13 -47 15l-84 4l41 217h194l-22 -123q157 -26 157 -104q0 -39 -43 -121q-59 -107 -252 -107q-53 0 -100 9z" />
<glyph unicode="&#xe8;" horiz-adv-x="1190" d="M1087 410l-725 -23q29 -88 113 -143q84 -58 180 -58q162 0 265 95l102 -187q-53 -49 -178 -82q-111 -30 -197 -30q-217 0 -387 157q-172 156 -172 371q0 219 148 371q145 149 362 149q213 0 360 -141q146 -144 146 -354q0 -52 -17 -125zM596 823h-4q-98 0 -168 -65 q-72 -70 -74 -170l484 16q-11 94 -76 156q-68 61 -162 63zM332 1335l200 131l342 -266l-164 -88z" />
<glyph unicode="&#xe9;" horiz-adv-x="1190" d="M1087 410l-725 -23q29 -88 113 -143q84 -58 180 -58q162 0 265 95l102 -187q-53 -49 -178 -82q-111 -30 -197 -30q-217 0 -387 157q-172 156 -172 371q0 219 148 371q145 149 362 149q213 0 360 -141q146 -144 146 -354q0 -52 -17 -125zM596 823h-4q-98 0 -168 -65 q-72 -70 -74 -170l484 16q-11 94 -76 156q-68 61 -162 63zM342 1221l344 266l201 -131l-381 -223z" />
<glyph unicode="&#xea;" horiz-adv-x="1190" d="M1087 410l-725 -23q29 -88 113 -143q84 -58 180 -58q162 0 265 95l102 -187q-53 -49 -178 -82q-111 -30 -197 -30q-217 0 -387 157q-172 156 -172 371q0 219 148 371q145 149 362 149q213 0 360 -141q146 -144 146 -354q0 -52 -17 -125zM596 823h-4q-98 0 -168 -65 q-72 -70 -74 -170l484 16q-11 94 -76 156q-68 61 -162 63zM815 1137l-204 110l-205 -110l-123 127l328 172l327 -172z" />
<glyph unicode="&#xeb;" horiz-adv-x="1190" d="M1087 410l-725 -23q29 -88 113 -143q84 -58 180 -58q162 0 265 95l102 -187q-53 -49 -178 -82q-111 -30 -197 -30q-217 0 -387 157q-172 156 -172 371q0 219 148 371q145 149 362 149q213 0 360 -141q146 -144 146 -354q0 -52 -17 -125zM596 823h-4q-98 0 -168 -65 q-72 -70 -74 -170l484 16q-11 94 -76 156q-68 61 -162 63zM661 1243q0 53 39 94q37 37 88 37h4q56 -2 92 -39q37 -39 39 -92q0 -55 -37.5 -92t-93.5 -39h-4q-51 0 -88 37q-39 37 -39 90v4zM282 1243q0 53 39 92q37 39 90 39q56 0 95 -39q36 -39 38 -92q0 -55 -38 -92 q-39 -39 -95 -39q-53 0 -92 39q-37 35 -37 88v4z" />
<glyph unicode="&#xec;" horiz-adv-x="580" d="M170 0v1001l254 21v-1022h-254zM46 1335l200 131l342 -266l-164 -88z" />
<glyph unicode="&#xed;" horiz-adv-x="580" d="M170 0v1001l254 21v-1022h-254zM41 1221l344 266l201 -131l-381 -223z" />
<glyph unicode="&#xee;" horiz-adv-x="580" d="M170 0v1001l254 21v-1022h-254zM508 1137l-204 110l-205 -110l-123 127l328 172l327 -172z" />
<glyph unicode="&#xef;" horiz-adv-x="580" d="M170 0v1001l254 21v-1022h-254zM354 1243q0 53 39 94q37 37 88 37h4q56 -2 92 -39q37 -39 39 -92q0 -55 -37.5 -92t-93.5 -39h-4q-51 0 -88 37q-39 37 -39 90v4zM-25 1243q0 53 39 92q37 39 90 39q56 0 95 -39q36 -39 38 -92q0 -55 -38 -92q-39 -39 -95 -39q-53 0 -92 39 q-37 35 -37 88v4z" />
<glyph unicode="&#xf1;" horiz-adv-x="1198" d="M829 0l5 629q0 186 -197 194h-8q-84 0 -226 -78v-745h-253v1004l253 18v-68q146 76 234 78h12q139 0 273 -76q139 -82 157 -192q15 -80 15 -393q0 -156 -4 -371h-261zM245 1337q17 41 80 76q64 35 123 35q72 0 176 -66q103 -65 170 -65q72 0 203 131v-213 q-123 -123 -203 -123q-71 0 -174 66q-104 63 -172 63h-4q-55 0 -115 -37q-61 -39 -84 -92v225z" />
<glyph unicode="&#xf2;" horiz-adv-x="1204" d="M600 -14q-223 0 -381 161q-151 156 -151 365q0 213 157 369q152 151 373 151h12q217 -2 369 -147q145 -142 158 -346v-33q0 -199 -146 -352q-157 -168 -391 -168zM604 823q-121 0 -203 -92q-82 -94 -82 -223q0 -127 82 -219t203 -92t201 94q78 92 78 217v8 q-2 125 -80 217q-80 90 -199 90zM353 1335l200 131l342 -266l-164 -88z" />
<glyph unicode="&#xf3;" horiz-adv-x="1204" d="M600 -14q-223 0 -381 161q-151 156 -151 365q0 213 157 369q152 151 373 151h12q217 -2 369 -147q145 -142 158 -346v-33q0 -199 -146 -352q-157 -168 -391 -168zM604 823q-121 0 -203 -92q-82 -94 -82 -223q0 -127 82 -219t203 -92t201 94q78 92 78 217v8 q-2 125 -80 217q-80 90 -199 90zM363 1221l344 266l201 -131l-381 -223z" />
<glyph unicode="&#xf4;" horiz-adv-x="1204" d="M600 -14q-223 0 -381 161q-151 156 -151 365q0 213 157 369q152 151 373 151h12q217 -2 369 -147q145 -142 158 -346v-33q0 -199 -146 -352q-157 -168 -391 -168zM604 823q-121 0 -203 -92q-82 -94 -82 -223q0 -127 82 -219t203 -92t201 94q78 92 78 217v8 q-2 125 -80 217q-80 90 -199 90zM835 1137l-204 110l-205 -110l-123 127l328 172l327 -172z" />
<glyph unicode="&#xf5;" horiz-adv-x="1204" d="M600 -14q-223 0 -381 161q-151 156 -151 365q0 213 157 369q152 151 373 151h12q217 -2 369 -147q145 -142 158 -346v-33q0 -199 -146 -352q-157 -168 -391 -168zM604 823q-121 0 -203 -92q-82 -94 -82 -223q0 -127 82 -219t203 -92t201 94q78 92 78 217v8 q-2 125 -80 217q-80 90 -199 90zM225 1337q17 41 80 76q64 35 123 35q72 0 176 -66q103 -65 170 -65q72 0 203 131v-213q-123 -123 -203 -123q-71 0 -174 66q-104 63 -172 63h-4q-55 0 -115 -37q-61 -39 -84 -92v225z" />
<glyph unicode="&#xf6;" horiz-adv-x="1204" d="M600 -14q-223 0 -381 161q-151 156 -151 365q0 213 157 369q152 151 373 151h12q217 -2 369 -147q145 -142 158 -346v-33q0 -199 -146 -352q-157 -168 -391 -168zM604 823q-121 0 -203 -92q-82 -94 -82 -223q0 -127 82 -219t203 -92t201 94q78 92 78 217v8 q-2 125 -80 217q-80 90 -199 90zM661 1243q0 53 39 94q37 37 88 37h4q56 -2 92 -39q37 -39 39 -92q0 -55 -37.5 -92t-93.5 -39h-4q-51 0 -88 37q-39 37 -39 90v4zM282 1243q0 53 39 92q37 39 90 39q56 0 95 -39q36 -39 38 -92q0 -55 -38 -92q-39 -39 -95 -39q-53 0 -92 39 q-37 35 -37 88v4z" />
<glyph unicode="&#xf7;" horiz-adv-x="983" d="M489 586q-53 0 -90 37q-37 34 -37 88q0 51 37 90q37 37 90 37q52 0 89 -37q36 -39 36 -90q0 -52 -36.5 -88.5t-88.5 -36.5zM129 317v226h727v-226h-727zM489 33q-53 0 -90 37q-37 34 -37 88q0 51 37 90q37 37 90 37q52 0 89 -37q36 -39 36 -90q0 -52 -36.5 -88.5 t-88.5 -36.5z" />
<glyph unicode="&#xf8;" horiz-adv-x="1247" d="M623 -16q-107 0 -205 43l-58 -78l-235 82l106 139q-143 164 -143 338v4q0 33 4 63q27 195 182 322q154 125 349 125q112 0 215 -47l61 80l238 -80l-111 -148q121 -143 131 -297q2 -20 2 -38q0 -191 -147 -342q-162 -166 -389 -166zM883 594q-4 14 -13 27l-317 -414 q39 -12 76 -12q141 0 225 137q51 82 51 162q0 51 -22 100zM627 811q-123 0 -203 -90q-82 -92 -82 -207q0 -68 43 -139l317 420q-36 16 -75 16z" />
<glyph unicode="&#xf9;" horiz-adv-x="1198" d="M795 -20v55q-146 -47 -234 -49h-12q-139 0 -273 77q-139 80 -157 189q-13 84 -13 412q0 145 3 337l258 21l-2 -635q0 -209 184 -209q104 0 246 66v766h254v-992zM353 1335l200 131l342 -266l-164 -88z" />
<glyph unicode="&#xfa;" horiz-adv-x="1198" d="M795 -20v55q-146 -47 -234 -49h-12q-139 0 -273 77q-139 80 -157 189q-13 84 -13 412q0 145 3 337l258 21l-2 -635q0 -209 184 -209q104 0 246 66v766h254v-992zM363 1221l344 266l201 -131l-381 -223z" />
<glyph unicode="&#xfb;" horiz-adv-x="1198" d="M795 -20v55q-146 -47 -234 -49h-12q-139 0 -273 77q-139 80 -157 189q-13 84 -13 412q0 145 3 337l258 21l-2 -635q0 -209 184 -209q104 0 246 66v766h254v-992zM794 1137l-204 110l-205 -110l-123 127l328 172l327 -172z" />
<glyph unicode="&#xfc;" horiz-adv-x="1198" d="M795 -20v55q-146 -47 -234 -49h-12q-139 0 -273 77q-139 80 -157 189q-13 84 -13 412q0 145 3 337l258 21l-2 -635q0 -209 184 -209q104 0 246 66v766h254v-992zM641 1243q0 53 39 94q37 37 88 37h4q56 -2 92 -39q37 -39 39 -92q0 -55 -37.5 -92t-93.5 -39h-4 q-51 0 -88 37q-39 37 -39 90v4zM262 1243q0 53 39 92q37 39 90 39q56 0 95 -39q36 -39 38 -92q0 -55 -38 -92q-39 -39 -95 -39q-53 0 -92 39q-37 35 -37 88v4z" />
<glyph unicode="&#xfd;" horiz-adv-x="1178" d="M435 1242l344 266l201 -131l-381 -223zM651 -233q-37 -134 -98 -181q-61 -49 -234 -55l-122 197q120 0 157 16q35 14 64 86q4 10 69 182l-440 971l266 39l295 -723l277 723l245 -39z" />
<glyph unicode="&#xff;" horiz-adv-x="1178" d="M651 -233q-37 -134 -98 -181q-61 -49 -234 -55l-122 197q120 0 157 16q35 14 64 86q4 10 69 182l-440 971l266 39l295 -723l277 723l245 -39zM661 1243q0 53 39 94q37 37 88 37h4q56 -2 92 -39q37 -39 39 -92q0 -55 -37.5 -92t-93.5 -39h-4q-51 0 -88 37q-39 37 -39 90v4 zM282 1243q0 53 39 92q37 39 90 39q56 0 95 -39q36 -39 38 -92q0 -55 -38 -92q-39 -39 -95 -39q-53 0 -92 39q-37 35 -37 88v4z" />
<glyph unicode="&#x131;" horiz-adv-x="580" d="M170 0v1001l254 21v-1022h-254z" />
<glyph unicode="&#x152;" horiz-adv-x="2136" d="M2025 0h-1239q-292 0 -499 221q-199 213 -199 498q0 287 207 502q207 213 502 213h1228l23 -213h-735v-330h616v-213h-616v-465h735zM1059 1221h-268q-191 0 -322 -150.5t-131 -355.5q0 -199 137 -350q135 -152 316 -152h268v1008z" />
<glyph unicode="&#x153;" horiz-adv-x="2003" d="M1903 410l-725 -23q28 -88 106 -143q76 -56 184 -56q74 0 154 29q74 29 113 64l102 -187q-43 -39 -154 -74q-118 -36 -227 -36q-274 0 -430 176q-154 -174 -387 -174q-217 0 -381 145q-170 150 -170 371q0 39 4 80q33 209 195 333q151 117 348 117q239 0 393 -170 q146 170 389 170q201 0 342 -131q135 -127 156 -315q2 -23 2 -47q0 -60 -14 -129zM1411 823h-4q-86 0 -152 -67q-69 -72 -92 -160l486 14q-19 97 -82.5 154t-155.5 59zM625 823h-4q-119 0 -199 -92q-82 -96 -82 -225q2 -127 84 -219q78 -90 197 -90h4q120 0 200 94 q78 92 78 215v8q0 125 -80 217q-80 90 -198 92z" />
<glyph unicode="&#x178;" horiz-adv-x="1272" d="M764 604v-604h-254v604l-504 809l287 39l344 -612l346 612l283 -41zM749 1661q0 53 39 94q37 37 88 37h4q56 -2 92 -39q37 -39 39 -92q0 -55 -37.5 -92t-93.5 -39h-4q-51 0 -88 37q-39 37 -39 90v4zM370 1661q0 53 39 92q37 39 90 39q56 0 95 -39q36 -39 38 -92 q0 -55 -38 -92q-39 -39 -95 -39q-53 0 -92 39q-37 35 -37 88v4z" />
<glyph unicode="&#x2c6;" horiz-adv-x="727" d="M569 1137l-204 110l-205 -110l-123 127l328 172l327 -172z" />
<glyph unicode="&#x2da;" horiz-adv-x="666" d="M334 1020q-115 0 -195 80q-82 80 -82 192q0 113 82 193q80 80 195 80q112 0 194 -80t82 -193q0 -112 -82 -192t-194 -80zM334 1389q-37 0 -62 -27q-24 -29 -24 -70v-4q0 -37 24 -63q25 -29 62 -29q35 0 60.5 28.5t25.5 67.5q-2 41 -27 70q-24 27 -59 27z" />
<glyph unicode="&#x2dc;" horiz-adv-x="874" d="M63 1337q17 41 80 76q64 35 123 35q72 0 176 -66q103 -65 170 -65q72 0 203 131v-213q-123 -123 -203 -123q-71 0 -174 66q-104 63 -172 63h-4q-55 0 -115 -37q-61 -39 -84 -92v225z" />
<glyph unicode="&#x2000;" horiz-adv-x="964" />
<glyph unicode="&#x2001;" horiz-adv-x="1928" />
<glyph unicode="&#x2002;" horiz-adv-x="964" />
<glyph unicode="&#x2003;" horiz-adv-x="1928" />
<glyph unicode="&#x2004;" horiz-adv-x="642" />
<glyph unicode="&#x2005;" horiz-adv-x="482" />
<glyph unicode="&#x2006;" horiz-adv-x="321" />
<glyph unicode="&#x2007;" horiz-adv-x="321" />
<glyph unicode="&#x2008;" horiz-adv-x="241" />
<glyph unicode="&#x2009;" horiz-adv-x="385" />
<glyph unicode="&#x200a;" horiz-adv-x="107" />
<glyph unicode="&#x2010;" horiz-adv-x="834" d="M150 424v225h536v-225h-536z" />
<glyph unicode="&#x2011;" horiz-adv-x="834" d="M150 424v225h536v-225h-536z" />
<glyph unicode="&#x2013;" horiz-adv-x="1161" d="M129 424v225h905v-225h-905z" />
<glyph unicode="&#x2014;" horiz-adv-x="1735" d="M129 424v225h1479v-225h-1479z" />
<glyph unicode="&#x2018;" horiz-adv-x="432" d="M328 1190q-27 -133 -142 -133q-55 0 -96 39q-43 39 -43 100q0 37 49 107l174 245l117 -47z" />
<glyph unicode="&#x2019;" horiz-adv-x="432" d="M338 1294l-174 -245l-117 47l59 311q25 133 140 133q57 0 100 -39q41 -41 41 -100q0 -37 -49 -107z" />
<glyph unicode="&#x201a;" horiz-adv-x="432" d="M338 -16l-174 -246l-117 47l59 311q25 133 140 133q55 0 98 -39q43 -38 43 -100q0 -37 -49 -106z" />
<glyph unicode="&#x201c;" horiz-adv-x="786" d="M328 1190q-27 -133 -142 -133q-55 0 -96 39q-43 39 -43 100q0 37 49 107l174 245l117 -47zM682 1190q-27 -133 -141 -133q-56 0 -97 39q-43 39 -43 100q0 37 50 107l174 245l116 -47z" />
<glyph unicode="&#x201d;" horiz-adv-x="786" d="M692 1294l-174 -245l-117 47l60 311q24 133 139 133q57 0 100 -39q41 -41 41 -100q0 -37 -49 -107zM338 1294l-174 -245l-117 47l59 311q25 133 140 133q55 0 98 -39t43 -100q0 -37 -49 -107z" />
<glyph unicode="&#x201e;" horiz-adv-x="786" d="M338 -16l-174 -246l-117 47l59 311q25 133 140 133q55 0 98 -39q43 -38 43 -100q0 -37 -49 -106zM692 -16l-174 -246l-117 47l60 311q24 133 139 133q57 0 100 -39q41 -40 41 -100q0 -37 -49 -106z" />
<glyph unicode="&#x2022;" horiz-adv-x="674" d="M338 342q-105 0 -176 72q-74 69 -74 172q0 100 74 172q71 69 176 69q102 0 176 -69q74 -72 74 -172q0 -101 -74 -172.5t-176 -71.5z" />
<glyph unicode="&#x2026;" horiz-adv-x="1401" d="M250 -16q-68 0 -115 47t-47 114q0 68 47 115t115 47q65 0 114.5 -47t49.5 -115q0 -67 -49.5 -114t-114.5 -47zM1151 -16q-68 0 -115 47t-47 114q0 68 47 115t115 47q66 0 115 -47t49 -115q0 -67 -49 -114t-115 -47zM700 -16q-67 0 -114 47t-47 114q0 68 47 115t114 47 q66 0 115 -47t49 -115q0 -67 -49 -114t-115 -47z" />
<glyph unicode="&#x202f;" horiz-adv-x="385" />
<glyph unicode="&#x2039;" horiz-adv-x="588" d="M455 106l-367 328v154l365 311l47 -190l-232 -201l234 -211z" />
<glyph unicode="&#x203a;" horiz-adv-x="588" d="M137 109l-47 192l232 199l-234 211l47 190l367 -328v-153z" />
<glyph unicode="&#x2044;" horiz-adv-x="383" d="M-92 -336l-232 94l797 1786l234 -86z" />
<glyph unicode="&#x205f;" horiz-adv-x="482" />
<glyph unicode="&#x2122;" horiz-adv-x="1382" d="M1106 872l-21 218l-81 -205h-123l-84 205l-19 -218l-149 25l55 537h129l129 -318l125 318h131l57 -537zM442 1311v-426h-145v426h-168v123h481v-123h-168z" />
</font>
</defs>
</svg>
