<?xml version="1.0" standalone="no"?>
<!DOCTYPE svg PUBLIC "-//W3C//DTD SVG 1.1//EN" "http://www.w3.org/Graphics/SVG/1.1/DTD/svg11.dtd" >
<svg xmlns="http://www.w3.org/2000/svg">
<metadata>
This is a custom SVG webfont generated by Font Squirrel.
</metadata>
<defs>
<font id="webfontcecgBZj7" horiz-adv-x="1169" >
<font-face units-per-em="2048" ascent="1638" descent="-410" />
<missing-glyph horiz-adv-x="512" />
<glyph unicode=" "  horiz-adv-x="512" />
<glyph unicode="&#x09;" horiz-adv-x="512" />
<glyph unicode="&#xa0;" horiz-adv-x="512" />
<glyph unicode="!" horiz-adv-x="571" d="M387 809l-90 -426l-145 -14l63 440l111 625l174 14zM299 104q0 -55 -45 -92q-35 -30 -78 -30q-10 0 -20 2q-101 18 -101 120q0 56 45 93q35 30 78 30q10 0 21 -2q100 -16 100 -121z" />
<glyph unicode="&#x22;" horiz-adv-x="612" d="M246 1378l-117 -250l-55 2l2 269q2 96 80 121q16 6 32 6q68 0 80 -62v-8q0 -24 -22 -78zM553 1378l-117 -250l-55 2l2 269q2 96 80 121q16 6 33 6q67 0 79 -62v-8q0 -24 -22 -78z" />
<glyph unicode="#" horiz-adv-x="1202" d="M987 287h-172l-49 -273l-145 -14l51 287h-244l-51 -287l-141 14l49 273h-172l24 143h172l51 287h-172l25 143h172l51 287l146 14l-54 -301h244l53 301l142 -14l-52 -287h172l-24 -143h-172l-51 -287h172zM696 430l52 287h-244l-51 -287h243z" />
<glyph unicode="$" horiz-adv-x="973" d="M825 326q-63 -224 -342 -283l-12 -74h-143l10 58h-33q-86 4 -186 36q-84 29 -99 46l91 127q32 -19 65 -31q82 -33 160 -33h29l53 309h-19q-258 0 -258 224q0 34 9 73q18 96 133 178q108 78 237 99l21 121h143l-20 -123q77 -11 147 -37q57 -23 72 -39l-84 -125 q-39 18 -162 55l-49 -280q254 -6 254 -191q0 -49 -17 -110zM444 627l48 274q-91 -24 -107 -35q-55 -28 -63 -94q-5 -29 -5 -49q0 -49 29 -70q27 -22 98 -26zM664 354q4 33 4 52q0 73 -105 79l-51 -286q74 26 100 51q43 35 52 104z" />
<glyph unicode="%" horiz-adv-x="1341" d="M375 618q-92 0 -154 68q-63 66 -63 158q0 114 92 198q92 82 209 82q92 0 155 -57q64 -57 64 -152q0 -114 -92 -204q-94 -93 -211 -93zM1174 1042l-977 -1062l-88 90l956 1040zM885 -16q-92 0 -152.5 68.5t-60.5 162.5q0 119 94 213q92 92 211 92q96 0 158 -61 q59 -62 59 -158q0 -121 -94 -219t-215 -98zM541 901q0 47 -29 80t-74 33q-59 0 -102 -49q-43 -52 -43 -113q0 -45 29 -78q26 -33 71 -33q60 0 105 50q43 49 43 110zM1057 287q0 49 -27 86q-26 35 -74 35q-63 0 -104 -58q-43 -59 -43 -125q0 -47 25 -82q24 -37 71 -37 q64 0 109 58q43 57 43 123z" />
<glyph unicode="&#x26;" horiz-adv-x="1436" d="M1227 84l-144 -123l-206 264q-242 -229 -455 -229h-16q-164 8 -263 104q-98 97 -98 232q0 28 6 59q19 103 101 189q57 59 184 143q31 18 86 57q-127 154 -127 283q0 37 12 67q55 138 154 211q90 68 198 70h5q122 0 200 -82q70 -74 70 -190q0 -19 -2 -37q-8 -82 -117 -195 q-72 -71 -149 -125l247 -323l228 196l96 -112l-242 -199zM778 1094q2 12 2 22q0 55 -35 101q-38 51 -104 51h-4q-72 -2 -129 -58q-59 -57 -59 -127q0 -82 112 -186q209 111 217 197zM778 344l-246 326q-129 -72 -176 -107q-129 -94 -133 -170v-20q0 -94 49 -156 q60 -76 177 -78h4q122 0 325 205z" />
<glyph unicode="'" horiz-adv-x="305" d="M246 1378l-117 -250l-55 2l2 269q2 96 80 121q16 6 32 6q68 0 80 -62v-8q0 -24 -22 -78z" />
<glyph unicode="(" horiz-adv-x="668" d="M797 1466q-242 -213 -359 -430q-119 -219 -162 -536q-20 -148 -20 -269q0 -331 193 -688l-160 -75q-209 385 -209 745q0 129 22 287q48 340 172 573q125 234 383 461z" />
<glyph unicode=")" horiz-adv-x="668" d="M565 500q-45 -338 -170 -572q-125 -233 -381 -460l-131 75q236 211 350 428q115 215 158 529q21 145 21 266q0 338 -201 700l164 68q211 -389 211 -752q0 -127 -21 -282z" />
<glyph unicode="*" horiz-adv-x="797" d="M592 1020l-152 121l-26 -215h-131l47 215l-201 -125l-43 125l209 100l-174 100l88 121l156 -121l24 199h131l-45 -201l195 123l43 -121l-199 -100l164 -100z" />
<glyph unicode="+" horiz-adv-x="973" d="M797 358l-238 2l-39 -217h-172l39 215h-235l24 144h236l39 215h172l-39 -215h237z" />
<glyph unicode="," horiz-adv-x="510" d="M326 225q104 -20 104 -98q0 -10 -2 -23q-8 -43 -66 -98l-223 -250l-73 29l116 319q41 123 123 123q10 0 21 -2z" />
<glyph unicode="-" horiz-adv-x="782" d="M606 465h-454l24 143h455z" />
<glyph unicode="." horiz-adv-x="449" d="M346 104q0 -55 -45 -92q-35 -30 -78 -30q-10 0 -20 2q-101 16 -101 120q0 56 45 93q35 30 76 30q10 0 21 -2q102 -16 102 -121z" />
<glyph unicode="/" horiz-adv-x="920" d="M1073 1473l-1081 -1797l-144 68l1078 1790z" />
<glyph unicode="0" horiz-adv-x="1380" d="M608 -14q-213 0 -352 137q-141 135 -141 346q0 274 213 483t487 209q211 0 352 -135q142 -137 142 -348q0 -275 -213 -483.5t-488 -208.5zM1133 651q0 152 -97 252q-98 101 -250 101q-200 0 -350 -158q-149 -160 -149 -361q0 -149 100 -245q98 -97 248 -97q196 0 348 156 q150 156 150 352z" />
<glyph unicode="1" horiz-adv-x="639" d="M375 0h-172l172 981l-150 -94l-45 127l226 133h169z" />
<glyph unicode="2" horiz-adv-x="1090" d="M842 0h-803l27 143l274 193q205 147 315 262q150 154 150 260q0 105 -45 142.5t-164 37.5q-59 0 -162.5 -28.5t-163.5 -57.5l-26 138q184 84 372 84q181 0 258 -54q99 -67 99 -237q0 -338 -662 -740h557z" />
<glyph unicode="3" horiz-adv-x="1038" d="M410 -16q-160 0 -357 88l70 139q143 -92 283 -92q116 0 192 47q92 57 92 166q0 119 -80 166q-59 34 -178 34q-31 0 -90 -2q-59 -4 -84 -4l27 144l170 -4h8q117 0 190 45q97 57 97 172q0 151 -170 151q-111 0 -308 -82l-28 138q229 84 370 84q134 0 222 -84 q86 -86 86 -220q0 -176 -172 -272q102 -47 102 -215q0 -186 -129 -295q-121 -104 -313 -104z" />
<glyph unicode="4" horiz-adv-x="1057" d="M946 293h-160l-51 -293l-168 2l51 291h-606l25 143l727 711h172l-125 -711h160zM643 436l84 479l-498 -479h414z" />
<glyph unicode="5" horiz-adv-x="1059" d="M385 -23q-156 0 -328 101l72 137q164 -96 285 -96q116 0 213 84q94 84 94 196q0 185 -158 185q-92 0 -291 -47l-98 92l135 518h617l-11 -143h-489l-86 -318q121 31 235 31q138 0 224 -78q84 -78 84 -215q0 -178 -162 -315q-154 -132 -336 -132z" />
<glyph unicode="6" horiz-adv-x="1092" d="M924 1313l65 -123q-203 -86 -330 -178q-139 -101 -266 -267q80 39 187 39q157 0 264 -92q104 -94 104 -241q0 -31 -4 -62q-29 -170 -178 -285q-150 -114 -328 -118h-12q-154 0 -262 94q-115 96 -115 242q0 272 297 581q266 283 578 410zM219 397q-8 -41 -8 -75 q0 -193 254 -193q115 0 211 82q96 80 119 195q4 24 4 47q0 94 -74 147q-76 53 -176 53q-115 0 -207 -67q-100 -74 -123 -189z" />
<glyph unicode="7" horiz-adv-x="983" d="M971 1004q-180 -191 -445 -551q-256 -351 -403 -605l-123 64q125 227 346 537q232 321 438 555h-571l37 143h731z" />
<glyph unicode="8" horiz-adv-x="1057" d="M449 -20q-144 0 -250 63q-129 76 -129 209q0 125 84 225q84 101 206 139q-145 52 -145 213q0 156 137 256q125 89 287 89q129 0 221 -56q109 -67 109 -186q0 -107 -62 -193q-63 -88 -162 -127q187 -57 187 -250q0 -176 -158 -286q-141 -96 -325 -96zM813 911 q0 74 -63 115q-54 33 -132 33q-92 0 -167 -55q-84 -60 -84 -148q0 -72 63 -115q55 -39 129 -39q92 0 174 62q80 59 80 147zM772 340q0 76 -80 139q-76 58 -153 58q-109 0 -207 -72q-109 -76 -109 -180q0 -95 70 -144q61 -43 160 -43q114 0 211 62q108 71 108 180z" />
<glyph unicode="9" horiz-adv-x="1092" d="M168 -152l-66 123q203 86 330 179q139 100 266 266q-82 -39 -186 -39q-156 0 -262 94q-107 92 -107 238q0 30 4 63q31 170 183 287q145 112 323 117h13q153 0 264 -93q112 -98 112 -243q0 -273 -297 -582q-266 -283 -577 -410zM872 764q7 37 7 67q0 201 -252 201 q-115 0 -211 -80q-97 -82 -119 -196q-6 -27 -6 -51q0 -97 80 -150q69 -47 172 -47q114 0 213 72q96 69 116 184z" />
<glyph unicode=":" horiz-adv-x="449" d="M299 104q0 -55 -45 -92q-35 -30 -78 -30q-10 0 -20 2q-101 18 -101 120q0 56 45 93q35 30 76 30q10 0 21 -2q102 -16 102 -121zM393 637q0 -55 -45 -92q-35 -31 -78 -31q-10 0 -20 2q-100 19 -100 121q0 55 45 92q34 31 75 31q11 0 21 -2q102 -17 102 -121z" />
<glyph unicode=";" horiz-adv-x="510" d="M475 637q0 -55 -45 -92q-35 -31 -78 -31q-10 0 -22 2q-99 19 -99 121q0 55 45 92q35 31 76 31q10 0 21 -2q102 -17 102 -121zM279 225q104 -20 104 -98q0 -10 -2 -23q-8 -43 -66 -98l-223 -250l-74 29l117 319q41 123 123 123q10 0 21 -2z" />
<glyph unicode="&#x3c;" horiz-adv-x="985" d="M778 260l-73 -117l-551 299l24 138l649 284l31 -119l-534 -237z" />
<glyph unicode="=" horiz-adv-x="907" d="M752 436h-580l25 144h579zM711 207h-580l25 143h579z" />
<glyph unicode="&#x3e;" horiz-adv-x="985" d="M807 428l-649 -285l-33 121l534 236l-452 248l74 116l550 -299z" />
<glyph unicode="?" horiz-adv-x="1018" d="M983 1110q-25 -139 -139 -252q-58 -53 -213 -156q-121 -79 -139 -131q-21 -51 -35 -114l-13 -68l-176 -20l19 94q2 29 22 94q29 100 146 191l209 147q114 90 141 190q6 23 6 45q0 82 -76 138q-71 49 -168 49q-159 0 -338 -105l-16 134q250 118 397 118q17 0 31 -2 q147 -12 248 -96q98 -84 98 -207q0 -24 -4 -49zM434 104q0 -55 -45 -92q-35 -30 -78 -30q-10 0 -22 2q-99 18 -99 120q0 56 46 93q34 30 75 30q11 0 21 -2q102 -16 102 -121z" />
<glyph unicode="@" horiz-adv-x="1245" d="M1169 719q0 -189 -133 -307q-129 -113 -305 -113h-18l-82 4l6 14q-80 -22 -119 -22q-67 0 -121.5 56.5t-54.5 123.5q0 121 129 199q111 65 236 65q110 0 190 -14q-45 -164 -98 -319q250 120 250 292q0 107 -117 160q-90 41 -209 41q-195 0 -348 -135q-160 -139 -160 -332 q0 -123 107 -209q100 -80 227 -80q158 0 389 93l-41 -101q-240 -90 -430 -90q-162 0 -268 105q-109 104 -109 266q0 260 205 428q190 157 457 157q417 0 417 -282zM731 641q-24 6 -49 6q-72 0 -129 -53q-59 -55 -59 -127q0 -68 104 -68q33 0 64 7z" />
<glyph unicode="A" horiz-adv-x="1397" d="M1212 14l-180 -28l-84 426h-606l-231 -426l-172 28l780 1420h213zM922 559l-131 674l-369 -674h500z" />
<glyph unicode="B" horiz-adv-x="1276" d="M401 -20q-184 0 -364 20l254 1434q153 22 319 22q211 0 353 -49q206 -74 206 -244q0 -116 -100 -239q-102 -123 -217 -142q115 -26 191.5 -123.5t76.5 -216.5q0 -243 -254 -366q-194 -96 -465 -96zM997 1139q0 172 -426 172q-75 0 -131 -4l-82 -461q21 -8 72 -8 q191 0 350 61q217 82 217 240zM950 461q0 129 -180 188q-123 39 -291 39q-94 0 -151 -12l-95 -537q99 -18 213 -18q195 0 332 72q172 90 172 268z" />
<glyph unicode="C" horiz-adv-x="1274" d="M1102 92q-246 -110 -416 -110q-31 0 -59 4q-236 39 -385 207q-150 165 -150 401q0 65 12 133q56 293 258 490q213 208 512 231q19 2 39 2q148 0 379 -76l-53 -153q-176 88 -324 88q-41 0 -77 -9q-226 -49 -375.5 -206.5t-186.5 -376.5q-10 -60 -10 -115q0 -180 103 -303 q100 -123 288 -158q29 -6 64 -6q158 0 387 103z" />
<glyph unicode="D" horiz-adv-x="1407" d="M434 -14q-168 0 -397 14l252 1434q164 22 327 22q297 0 488 -129q221 -149 221 -434q0 -373 -260 -639q-260 -268 -631 -268zM1145 860q0 223 -160 342q-143 105 -375 105q-80 0 -176 -17l-201 -1149q95 -18 187 -18q301 0 514 217q211 217 211 520z" />
<glyph unicode="E" d="M967 143l-41 -143h-889l254 1434h848l-13 -144h-690l-76 -430h617l-25 -143h-616l-100 -574h731z" />
<glyph unicode="F" horiz-adv-x="1128" d="M1126 1290h-690l-76 -430h617l-25 -143h-616l-127 -717h-172l254 1434h848z" />
<glyph unicode="G" horiz-adv-x="1430" d="M1323 702q-31 -296 -219 -499q-201 -217 -492 -217q-237 0 -385 180q-137 170 -137 412q0 335 246 604q246 266 579 266q158 0 377 -70l-53 -153q-182 82 -350 82q-258 0 -449 -230q-178 -215 -178 -479q0 -184 94 -319q107 -150 285 -150q172 0 320 131q145 129 169 299 h-368l26 143h535z" />
<glyph unicode="H" horiz-adv-x="1403" d="M1112 0l-174 -14l129 731h-731l-127 -717h-172l254 1434l174 14l-105 -588h732l102 574h172z" />
<glyph unicode="I" horiz-adv-x="500" d="M209 0h-172l252 1434l174 14z" />
<glyph unicode="J" horiz-adv-x="1182" d="M977 485q-14 -65 -72 -206q-166 -287 -491 -287h-13q-122 2 -256 76q-108 59 -165 129l108 116q176 -178 318 -178h20q125 12 190 51q60 33 121 123q37 56 66 170l172 969l168 -14z" />
<glyph unicode="K" horiz-adv-x="1237" d="M1073 14l-205 -28l-540 680l-119 -666h-172l254 1434l174 14l-111 -631l736 631l196 -29l-794 -676z" />
<glyph unicode="L" d="M965 143l-39 -143h-889l252 1434l174 14l-230 -1305h732z" />
<glyph unicode="M" horiz-adv-x="1710" d="M1485 14l-189 -28l111 1161l-573 -1147h-209l-185 1147l-286 -1161l-174 28l376 1420l197 14l211 -1243l637 1243l192 -14z" />
<glyph unicode="N" horiz-adv-x="1440" d="M1149 0l-217 -14l-510 1222l-215 -1222l-170 14l254 1434l237 14l492 -1202l211 1188h172z" />
<glyph unicode="O" horiz-adv-x="1528" d="M1165 225q-239 -239 -532 -239q-244 0 -397 176q-146 170 -146 420q0 166 76 336q74 169 199 294q235 236 532 236h4q246 -2 391 -170q146 -170 146 -420q0 -168 -74 -338t-199 -295zM1262 840q0 196 -101 325q-106 138 -293 140h-4q-239 0 -424 -226 q-178 -217 -178 -473q0 -198 113 -338q112 -139 287 -139q217 2 395 197q205 225 205 514z" />
<glyph unicode="P" horiz-adv-x="1231" d="M317 616l-110 -616h-172l254 1434q174 18 340 18q563 0 563 -326q0 -335 -301 -446q-172 -64 -574 -64zM1022 1100q0 211 -393 211q-21 0 -191 -13l-96 -534h29q32 0 78 -2q75 -6 106 -6q188 0 313 75q154 93 154 269z" />
<glyph unicode="Q" horiz-adv-x="1569" d="M1137 203l127 -162l-152 -94l-108 145q-166 -106 -349 -106q-243 0 -405 184q-156 176 -156 424q0 330 252 592q250 262 578 262q245 0 403 -168t158 -414q0 -176 -101 -366q-100 -193 -247 -297zM1309 842q0 192 -111 323q-117 140 -305 140q-252 0 -442 -224 q-185 -213 -185 -469q0 -190 113 -331q121 -152 307 -152q119 0 232 74l-220 293l158 86l195 -263q258 220 258 523z" />
<glyph unicode="R" horiz-adv-x="1300" d="M1073 14l-194 -28l-234 641q-59 -9 -162 -11h-166l-108 -616h-172l254 1434q172 18 340 18q563 0 563 -326q0 -168 -102 -292q-103 -127 -267 -177zM1024 1098q0 211 -432 211q-60 0 -154 -6l-94 -539h18q35 0 87 -4q75 -4 106 -4q186 0 313 75q156 91 156 267z" />
<glyph unicode="S" horiz-adv-x="1206" d="M1034 342q-33 -336 -610 -356h-16q-109 0 -256 49q-136 45 -158 69l108 140q15 -17 134 -60q135 -49 221 -53h28q117 0 226 47q151 68 157 193q2 20 2 39q0 116 -55 184q-70 84 -223 84h-35h-29q-166 0 -256 117q-82 106 -82 270v16q3 172 203 277q160 82 342 88h25 q102 0 223 -31q123 -29 141 -51l-98 -141q-186 80 -305 80h-16q-93 -5 -193 -60q-125 -69 -150 -168q-10 -39 -10 -71q0 -185 291 -185h31h16q180 0 268 -119q80 -104 80 -280q0 -39 -4 -78z" />
<glyph unicode="T" horiz-adv-x="1266" d="M1264 1290h-445l-227 -1290h-172l227 1290h-444l41 144h1032z" />
<glyph unicode="U" horiz-adv-x="1448" d="M1260 573q-56 -282 -238 -440q-172 -147 -404 -147h-30q-219 8 -328 98q-131 106 -131 346q0 72 12 156l150 848l174 14l-152 -858q0 -15 -6 -76q-8 -61 -8 -102q0 -277 307 -285h17q266 0 391 221q53 94 73 227l152 859h172z" />
<glyph unicode="V" horiz-adv-x="1397" d="M1458 1419l-780 -1419h-213l-281 1419l181 29l241 -1247l680 1247z" />
<glyph unicode="W" horiz-adv-x="1925" d="M2007 1419l-666 -1419h-184l-108 1208l-535 -1208h-184l-166 1419l184 29l107 -1243l534 1208h189l108 -1208l545 1243z" />
<glyph unicode="X" horiz-adv-x="1227" d="M1042 14l-200 -28l-250 618l-465 -618l-188 28l583 731l-303 674l201 29l223 -561l422 561l186 -29l-538 -674z" />
<glyph unicode="Y" d="M1272 1419l-621 -811l-106 -608h-172l106 608l-336 811l203 29l246 -688l489 688z" />
<glyph unicode="Z" horiz-adv-x="1294" d="M1092 143l-41 -143h-1061l12 143l1049 1147h-820l37 144h1008l-8 -136l-1059 -1155h883z" />
<glyph unicode="[" horiz-adv-x="563" d="M340 -530h-358l344 2064h358l-25 -143h-186l-295 -1780h187z" />
<glyph unicode="\" horiz-adv-x="920" d="M768 -256l-168 -68l-446 1797l168 61z" />
<glyph unicode="]" horiz-adv-x="563" d="M217 -530h-358l24 141h187l295 1780h-187l25 143h358z" />
<glyph unicode="^" horiz-adv-x="844" d="M729 1257l-88 -79l-211 198l-280 -198l-60 79l291 226h141z" />
<glyph unicode="_" horiz-adv-x="1616" d="M1501 -143h-1411l25 143h1411z" />
<glyph unicode="`" horiz-adv-x="551" d="M489 1204l-106 -57l-322 190l142 90z" />
<glyph unicode="a" horiz-adv-x="1085" d="M1059 111l-94 -125h-9q-149 0 -200 86q-207 -86 -312 -86q-176 0 -270 100q-96 100 -96 279q0 262 149 456q162 209 410 211h6q178 0 387 -117l-129 -710v-4q0 -60 51 -78q29 -12 107 -12zM844 834q-115 49 -264 49q-125 0 -238 -187q-100 -170 -100 -317 q0 -250 221 -250q110 0 262 55z" />
<glyph unicode="b" d="M1081 645q0 -272 -139 -457q-154 -202 -418 -202q-209 0 -426 120l240 1367l174 14l-94 -535q174 80 287 80q178 0 278 -104q98 -105 98 -283zM915 618q0 113 -53 181q-61 75 -172 75q-135 0 -299 -67l-106 -610q161 -68 286 -68q170 0 267 166q77 139 77 323z" />
<glyph unicode="c" horiz-adv-x="1040" d="M1016 948l-90 -135q-107 76 -281 76q-153 0 -274 -156q-115 -143 -115 -301q0 -121 70 -209q75 -94 196 -94q137 0 299 68l41 -127q-215 -86 -360 -86q-172 0 -289 131q-119 131 -119 305q0 244 182 428q183 184 424 184q107 0 316 -84z" />
<glyph unicode="d" horiz-adv-x="1155" d="M1165 1473l-241 -1367q-258 -122 -469 -122q-174 0 -277 98q-102 98 -102 270q0 275 143 467q158 213 422 213q113 0 260 -80l94 535zM874 807q-139 67 -274 67q-172 0 -276 -176q-86 -147 -86 -333q0 -105 59 -170q57 -66 162 -66q133 0 307 55z" />
<glyph unicode="e" horiz-adv-x="1055" d="M1008 616q-2 -151 -355 -180l-391 -18v-15v-14q0 -129 35 -184q49 -76 197 -76q217 0 294 66l41 -125q-45 -39 -170 -64q-102 -20 -186 -20q-174 0 -278 127q-99 118 -99 297q0 229 160 421q170 201 395 201q164 0 264 -127q93 -117 93 -280v-9zM848 627v12q0 96 -57 172 q-64 78 -170 78q-121 0 -224 -109q-90 -96 -121 -221l353 14q219 19 219 54z" />
<glyph unicode="f" horiz-adv-x="829" d="M451 881l-156 -881q-47 -258 -84 -319q-68 -115 -283 -150l-51 139l39 -2h21q112 0 159 105q19 39 54 227l155 881h-182l22 129h183q14 204 121 317q110 123 311 123q121 0 262 -61l-111 -127q-100 47 -198 47q-113 0 -178 -99q-56 -82 -62 -200h387l-24 -129h-385z" />
<glyph unicode="g" horiz-adv-x="1137" d="M1079 889l-157 -889q-37 -211 -150 -334q-127 -139 -328 -139q-180 0 -366 84l88 129q135 -66 260 -66q174 0 246 97q55 73 90 278q-164 -63 -281 -63q-178 0 -282 102q-105 100 -105 277q0 266 144 458q157 209 415 209q168 0 426 -143zM893 807q-162 67 -295 67 q-149 0 -252 -180q-88 -153 -88 -315q0 -113 64 -180q63 -70 178 -70q131 0 282 55z" />
<glyph unicode="h" horiz-adv-x="1165" d="M1126 111l-94 -125q-98 0 -164 34q-77 43 -77 123q0 19 4 37l59 273q31 157 31 262q0 174 -211 174q-111 0 -295 -94l-139 -795h-172l258 1473l176 14l-99 -551q203 96 324 96q113 0 211 -69q111 -76 111 -185q0 -178 -84 -573q-2 -10 -2 -21q0 -73 163 -73z" />
<glyph unicode="i" horiz-adv-x="573" d="M545 1434q-6 -43 -43 -74t-82 -31h-4q-41 0 -64 31q-20 22 -20 53q0 10 2 21q8 43 45 75q33 29 76 29h4q43 0 67 -31q21 -24 21 -57q0 -8 -2 -16zM465 111l-94 -125h-4q-236 0 -236 194l145 824l175 14l-144 -813v-4q0 -60 51 -78q29 -12 107 -12z" />
<glyph unicode="j" horiz-adv-x="578" d="M578 1434q-7 -43 -43.5 -74t-81.5 -31h-4q-41 0 -64 31q-20 22 -20 53q0 10 2 21q8 43 45 75q32 29 75 29h5q43 0 67 -31q21 -24 21 -57q0 -8 -2 -16zM485 1018l-170 -957q-20 -100 -49 -180q-71 -196 -174 -266q-127 -86 -291 -86h-8q-76 2 -207 49l62 119 q30 -14 135 -39q35 -6 65 -6q72 0 117 31q55 36 88 92q15 26 51 121q23 57 39 165l166 943z" />
<glyph unicode="k" horiz-adv-x="1001" d="M995 981l-565 -422l467 -547l-170 -43l-414 506l-84 -475h-172l260 1473l175 14l-148 -836l496 377z" />
<glyph unicode="l" horiz-adv-x="524" d="M498 1487l-209 -1282v-4q0 -60 51 -80q29 -10 106 -10l-94 -125h-4q-235 0 -235 194l211 1293z" />
<glyph unicode="m" horiz-adv-x="1823" d="M1776 111l-95 -125q-110 0 -176 43q-67 45 -67 125q0 12 2 26q8 68 55 281q37 172 37 268q0 76 -55.5 119t-141.5 43q-108 0 -303 -127q-4 -158 -45 -383l-74 -381h-168l74 360q47 224 47 359q0 172 -202 172q-107 0 -281 -105l-137 -786h-172l176 1004l174 14l-16 -100 q188 114 294 114q177 0 279 -145q215 145 391 145q115 0 213 -67q111 -76 111 -187q0 -110 -31 -282q-27 -146 -51 -291q-2 -10 -2 -19q0 -47 49 -63q33 -12 115 -12z" />
<glyph unicode="n" horiz-adv-x="1141" d="M1130 111l-94 -125q-98 0 -164 34q-77 43 -77 123q0 19 4 37l59 273q31 157 31 262q0 78 -60 127q-61 47 -151 47q-111 0 -295 -94l-139 -795h-172l178 1004l174 14l-14 -82q202 96 321 96q113 0 211 -69q111 -76 111 -185q0 -178 -84 -573q-2 -10 -2 -21q0 -73 163 -73z " />
<glyph unicode="o" horiz-adv-x="1153" d="M1059 610q0 -235 -170 -426q-174 -198 -406 -198q-174 0 -284 129q-105 123 -105 299q0 237 174 427.5t410 190.5q174 0 280 -127q101 -119 101 -295zM897 586q0 116 -66 205q-71 98 -186 98q-151 0 -272 -154q-115 -143 -115 -299q0 -119 66 -207q71 -98 188 -98 q150 0 270 156q115 145 115 299z" />
<glyph unicode="p" horiz-adv-x="1198" d="M1157 686q0 -270 -151 -475q-166 -225 -431 -225q-110 0 -251 63l-88 -504l-177 -14l213 1206q-65 -35 -145 -94l-14 82q84 68 180 125l41 242l176 14l-29 -160q178 86 295 86q172 0 276.5 -88t104.5 -258zM991 655q0 93 -61.5 157.5t-153.5 64.5q-135 0 -317 -66 l-111 -625q131 -55 262 -55q178 0 287 178q94 154 94 346z" />
<glyph unicode="q" horiz-adv-x="1139" d="M1112 889l-197 -1139v-4q0 -59 52 -78q28 -12 106 -12l-96 -125h-4q-234 0 -234 195q0 61 21 161l33 162q-164 -65 -277 -65q-180 0 -283 116q-98 111 -98 293q0 269 135 447q150 194 410 194q172 0 432 -145zM926 807q-164 67 -297 67q-170 0 -258 -157 q-72 -129 -72 -311q0 -273 236 -273q131 0 282 55z" />
<glyph unicode="r" horiz-adv-x="813" d="M879 963l-84 -129q-33 16 -64 26q-72 29 -121 31h-16q-94 0 -205 -70l-143 -821h-172l176 1004l174 14l-10 -66q35 23 69 39q82 39 152 41h4q102 0 240 -69z" />
<glyph unicode="s" horiz-adv-x="973" d="M889 950l-84 -125q-137 64 -242 64q-92 0 -170 -58q-84 -63 -84 -149q0 -90 178 -90q21 0 54 2h43q262 0 262 -197q0 -198 -160 -311q-143 -100 -348 -100q-168 0 -313 82l90 127q104 -64 223 -64q143 0 231 49q115 62 115 189q0 86 -149 86q-27 0 -72 -2q-45 -4 -57 -4 q-259 0 -259 223q0 153 150 262q135 98 297 98q63 0 156 -22q110 -25 139 -60z" />
<glyph unicode="t" horiz-adv-x="760" d="M760 1010l-21 -129h-264q-33 -170 -63 -340q-39 -205 -39 -326v-12q2 -68 69 -68q72 0 138 43l45 -129q-117 -63 -181 -63q-82 0 -147 37q-76 45 -78 120v15q0 143 39 356l72 367h-193l21 129h192l39 243l150 29l-43 -272h264z" />
<glyph unicode="u" horiz-adv-x="1126" d="M1098 111l-94 -125h-9q-151 0 -202 90q-246 -90 -338 -90q-121 0 -222 63q-114 74 -114 189q0 153 45 385l78 381l172 14l-78 -359q-47 -221 -47 -356q0 -90 55 -139q53 -51 148 -51q108 0 276 86l143 811h172l-141 -805v-4q0 -60 49 -78q29 -12 107 -12z" />
<glyph unicode="v" horiz-adv-x="1098" d="M1114 989l-547 -989h-219l-198 989l186 29l156 -834l450 834z" />
<glyph unicode="w" horiz-adv-x="1491" d="M1040 0h-178l-67 793l-349 -793h-176l-125 989l183 29l57 -864l363 856h174l59 -856l362 864l170 -29z" />
<glyph unicode="x" horiz-adv-x="995" d="M1001 989l-403 -475l250 -500l-182 -28l-189 403l-327 -403l-175 28l426 500l-237 475l180 29l178 -381l307 381z" />
<glyph unicode="y" horiz-adv-x="1120" d="M455 -14q-121 0 -222 63q-114 74 -114 189q0 153 45 385l78 381l174 14l-78 -356q-45 -222 -45 -357q0 -192 199 -192q108 0 276 86l143 811h172l-176 -1010q-37 -213 -149 -334q-127 -139 -330 -139q-178 0 -367 84l91 129q135 -66 260 -66q184 0 258 115q39 61 75 268 q-184 -71 -290 -71z" />
<glyph unicode="z" horiz-adv-x="1008" d="M942 874l-704 -731h604l-39 -143h-760l-4 143l704 723h-548l24 144h717z" />
<glyph unicode="{" horiz-adv-x="848" d="M625 -532h-15q-186 0 -274 51q-115 67 -115 217q0 80 47 262q39 162 39 238v14q-4 90 -160 158l33 182q51 20 92 43q99 55 123 117q31 75 56 266q22 188 55 272q53 139 178 197q100 47 305 51l-61 -154q-33 7 -66 7q-76 0 -114 -35q-91 -84 -123 -232l-43 -260 q-31 -153 -115 -250q-43 -47 -125 -118q29 -31 82 -107t53 -176q0 -72 -35.5 -213t-35.5 -205q0 -84 43 -143q24 -35 100 -35q35 0 67 6z" />
<glyph unicode="|" horiz-adv-x="471" d="M172 0h-143l270 1534h143z" />
<glyph unicode="}" horiz-adv-x="848" d="M668 408q-52 -21 -93 -43q-98 -54 -122 -115q-29 -76 -54 -262q-24 -189 -57 -273q-55 -137 -178 -196q-101 -49 -305 -51l61 153q33 -6 66 -6q75 0 114 35q90 84 121 231q21 131 39 262q33 152 121 244q41 41 121 107q-27 34 -80 118q-43 76 -43 174q0 74 32.5 214.5 t32.5 201.5q0 88 -45 152q-24 35 -100 35q-35 0 -68 -7l-8 154h15q186 0 274 -51q117 -66 117 -219q0 -80 -47 -265q-41 -167 -41 -243v-8q4 -91 159 -160z" />
<glyph unicode="~" horiz-adv-x="874" d="M70 662q22 40 91.5 75t129.5 35q71 0 164 -65q90 -66 157 -66q74 0 228 131l-27 -151q-145 -123 -225 -123q-72 0 -162 65q-92 64 -160 64h-4q-59 0 -123 -37q-67 -39 -100 -92z" />
<glyph unicode="&#xa1;" horiz-adv-x="530" d="M164 203l90 426l145 14l-63 -440l-111 -629l-174 -14zM252 907q0 56 45 94q35 29 76 29q10 0 22 -2q101 -18 101 -121q0 -55 -43 -92q-37 -31 -80 -31q-11 0 -21 2q-100 17 -100 121z" />
<glyph unicode="&#xa2;" horiz-adv-x="1038" d="M870 207q-47 -27 -94 -47q-114 -47 -205 -58l-16 -102h-143l18 106q-151 25 -244.5 126.5t-93.5 246.5q0 37 6 76q31 174 172 301q136 123 320 156l22 135h144l-23 -131q113 -15 236 -72l-43 -121q-33 19 -66 33q-78 33 -147 41l-119 -672q123 8 280 101zM453 242 l114 645q-133 -41 -229 -148q-102 -110 -102 -229q0 -94 61 -166t156 -102z" />
<glyph unicode="&#xa3;" horiz-adv-x="1008" d="M805 0h-803l25 143h16q57 0 86 15q61 26 90 84l41 231h-174l25 143h174l28 168q17 150 120.5 248t252.5 109h12q103 0 267 -84l-70 -123q-109 67 -180 67q-10 0 -19 -2q-170 -22 -211 -219l-28 -164h358l-24 -143h-359l-41 -227q-6 -17 -26 -53q-13 -21 -46 -50h510z" />
<glyph unicode="&#xa5;" horiz-adv-x="1153" d="M1147 1114l-479 -571h235l-26 -144h-234l-18 -106h233l-24 -143h-234l-27 -150h-194l27 150h-234l25 143h233l19 106h-234l27 144h235l-278 571l186 23l209 -459l375 459z" />
<glyph unicode="&#xa7;" horiz-adv-x="844" d="M270 -31q-116 0 -256 105l92 129q103 -97 191 -97q238 0 238 177q0 57 -101 57q-22 0 -57 -2q-37 -4 -47 -4q-211 0 -211 190q0 125 117 211q-56 47 -56 137q0 127 117 220q109 86 242 86q104 0 245 -72l-75 -117q-97 60 -179 60q-75 0 -135 -35q-69 -41 -69 -111 q0 -59 80 -76q22 -4 122 -4q224 0 224 -155q0 -166 -113 -230q55 -32 55 -106q0 -170 -131 -271q-119 -92 -293 -92zM598 635q0 61 -115 61q-86 0 -145 -30q-76 -39 -76 -119q0 -78 137 -78q199 0 199 166z" />
<glyph unicode="&#xa8;" horiz-adv-x="784" d="M303 1243q0 -41 -29 -69q-30 -31 -71 -31t-70 31q-31 28 -31 69t31 72q29 28 70 28t71 -28q29 -31 29 -72zM682 1243q0 -41 -29 -69q-30 -31 -71 -31t-70 31q-31 28 -31 69t31 72q29 28 70 28t71 -28q29 -31 29 -72z" />
<glyph unicode="&#xa9;" horiz-adv-x="1116" d="M479 248q-166 0 -274 106q-109 107 -109 271q0 211 166 373.5t377 162.5q162 0 272 -110q109 -113 109 -275q0 -207 -166 -366q-168 -162 -375 -162zM905 764q0 123 -82 203t-205 80q-157 0 -282 -121q-125 -123 -125 -281q0 -123 84 -203q82 -80 205 -80q157 0 282 123 q123 121 123 279zM684 514q-100 -49 -166 -49q-84 0 -137 57q-55 56 -55 140q0 108 84 196q82 86 190 86q64 0 139 -35l-28 -98q-60 39 -115 39q-61 0 -102 -55q-43 -56 -43 -119q0 -45 28 -78q27 -35 72 -35q59 0 141 51z" />
<glyph unicode="&#xaa;" horiz-adv-x="653" d="M500 899h-129l2 12q-68 -22 -111 -22q-10 0 -18 2q-160 24 -160 156v8q6 129 133 194q53 29 127 29q41 0 84 -10q2 18 2 30q0 13 -2 21q-10 24 -55 24q-70 0 -176 -40l-37 92q141 53 211 53h8q115 -6 158 -55q32 -37 32 -93q0 -20 -16 -116.5t-53 -284.5zM389 1008 l21 151q-35 8 -70 8q-113 0 -127 -86q-2 -8 -2 -16q0 -68 94 -68q37 0 84 11z" />
<glyph unicode="&#xab;" horiz-adv-x="891" d="M387 260l-47 -117l-248 299l25 138l348 284l6 -119l-289 -237zM745 260l-47 -117l-247 299l24 138l348 284l6 -119l-288 -237z" />
<glyph unicode="&#xac;" horiz-adv-x="1147" d="M971 227h-172l41 238h-688l24 143h860z" />
<glyph unicode="&#xad;" horiz-adv-x="782" d="M606 465h-454l24 143h455z" />
<glyph unicode="&#xae;" horiz-adv-x="1116" d="M479 248q-166 0 -274 106q-109 107 -109 271q0 211 166 373.5t377 162.5q164 0 272 -106q109 -107 109 -271q0 -211 -164 -372q-166 -164 -377 -164zM905 764q0 123 -82 203t-205 80q-157 0 -282 -121q-125 -123 -125 -281q0 -123 84 -203q82 -80 205 -80q155 0 280 123 t125 279zM723 483l-111 -18l-63 186l-53 -2l-31 -176h-96l82 461q67 8 120 8q181 0 181 -117q0 -102 -101 -151zM653 809q0 39 -98 39h-8h-17l-18 -105q27 -2 39 -2q102 0 102 68z" />
<glyph unicode="&#xaf;" horiz-adv-x="680" d="M524 1124h-393l25 144h393z" />
<glyph unicode="&#xb0;" horiz-adv-x="688" d="M301 952q-86 0 -143 56q-60 55 -60 141q0 113 88 201q88 86 201 86q84 0 143 -56q60 -55 60 -139q0 -115 -86 -201q-88 -88 -203 -88zM459 1219q0 43 -25 73q-24 29 -67 29q-56 0 -97 -47q-41 -49 -41 -105q0 -43 27 -71q25 -31 66 -31q55 0 96 47t41 105z" />
<glyph unicode="&#xb1;" horiz-adv-x="932" d="M793 399l-236 2l-39 -217h-172l37 215h-236l27 144h236l36 215h172l-36 -215h237zM721 -14h-645l24 143h645z" />
<glyph unicode="&#xb2;" horiz-adv-x="1090" d="M842 0h-803l27 143l274 193q205 147 315 262q150 154 150 260q0 105 -45 142.5t-164 37.5q-59 0 -162.5 -28.5t-163.5 -57.5l-26 138q184 84 372 84q181 0 258 -54q99 -67 99 -237q0 -338 -662 -740h557z" />
<glyph unicode="&#xb3;" horiz-adv-x="1038" d="M410 -16q-160 0 -357 88l70 139q143 -92 283 -92q116 0 192 47q92 57 92 166q0 119 -80 166q-59 34 -178 34q-31 0 -90 -2q-59 -4 -84 -4l27 144l170 -4h8q117 0 190 45q97 57 97 172q0 151 -170 151q-111 0 -308 -82l-28 138q229 84 370 84q134 0 222 -84 q86 -86 86 -220q0 -176 -172 -272q102 -47 102 -215q0 -186 -129 -295q-121 -104 -313 -104z" />
<glyph unicode="&#xb4;" horiz-adv-x="571" d="M500 1337l-320 -190l-108 57l288 223z" />
<glyph unicode="&#xb5;" horiz-adv-x="1223" d="M1114 -12h-12q-164 0 -262 112q-142 -114 -303 -114h-13q-102 2 -264 71l-59 -344h-172l227 1291l174 14l-147 -834q147 -71 247 -71h17q217 12 262 266l109 625h172q-46 -242 -123 -697q-2 -16 -2 -33q0 -69 47 -114q45 -47 125 -47z" />
<glyph unicode="&#xb6;" horiz-adv-x="1133" d="M866 20l-145 -14l186 1057l-147 10l-189 -1067l-141 14l86 482q-360 8 -371 338v12q0 334 590 334q150 0 334 -19z" />
<glyph unicode="&#xb8;" horiz-adv-x="606" d="M434 -244q-63 -90 -213 -90q-45 0 -84 8l-6 90q49 -4 92 -4q103 0 103 27q0 6 -7 14q-24 35 -112 41l55 160h109l-33 -86q121 -29 121 -98q0 -29 -25 -62z" />
<glyph unicode="&#xb9;" horiz-adv-x="639" d="M375 0h-172l172 981l-150 -94l-45 127l226 133h169z" />
<glyph unicode="&#xba;" horiz-adv-x="725" d="M311 877q-96 0 -153 67q-60 66 -60 162q0 123 97 227q94 103 217 103h4q96 -2 153 -68q58 -65 58 -162q0 -121 -95.5 -225t-220.5 -104zM500 1196q0 55 -29 92t-78 39h-4q-63 0 -115 -63q-53 -68 -53 -144q0 -57 31 -94q29 -37 78 -37h4q65 2 117 68q49 65 49 139z" />
<glyph unicode="&#xbb;" horiz-adv-x="891" d="M416 428l-348 -285l-7 121l289 236l-205 248l48 116l247 -299zM774 428l-348 -285l-6 121l289 236l-205 248l47 116l248 -299z" />
<glyph unicode="&#xbc;" horiz-adv-x="2001" d="M1890 293h-160l-51 -293l-168 2l51 291h-606l25 143l727 711h172l-125 -711h160zM1587 436l84 479l-498 -479h414zM1405 1473l-1081 -1797l-144 68l1077 1790zM375 0h-172l172 981l-150 -94l-45 127l226 133h169z" />
<glyph unicode="&#xbd;" horiz-adv-x="2034" d="M1786 0h-803l27 143l274 193q205 147 315 262q150 154 150 260q0 105 -45 142.5t-164 37.5q-59 0 -162.5 -28.5t-163.5 -57.5l-26 138q184 84 372 84q181 0 258 -54q99 -67 99 -237q0 -338 -662 -740h557zM1405 1473l-1081 -1797l-144 68l1077 1790zM375 0h-172l172 981 l-150 -94l-45 127l226 133h169z" />
<glyph unicode="&#xbe;" horiz-adv-x="2400" d="M2289 293h-160l-51 -293l-168 2l51 291h-606l25 143l727 711h172l-125 -711h160zM1986 436l84 479l-498 -479h414zM1804 1473l-1081 -1797l-144 68l1077 1790zM410 -16q-160 0 -357 88l70 139q143 -92 283 -92q116 0 192 47q92 57 92 166q0 119 -80 166q-59 34 -178 34 q-31 0 -90 -2q-59 -4 -84 -4l27 144l170 -4h8q117 0 190 45q97 57 97 172q0 151 -170 151q-111 0 -308 -82l-28 138q229 84 370 84q134 0 222 -84q86 -86 86 -220q0 -176 -172 -272q102 -47 102 -215q0 -186 -129 -295q-121 -104 -313 -104z" />
<glyph unicode="&#xbf;" horiz-adv-x="1018" d="M37 -74q24 142 125 244q59 57 198 143q125 76 164 127q15 21 23 54l12 61l12 70l177 20l-19 -96q-2 -29 -22 -92q-29 -101 -144 -187l-209 -135q-112 -84 -139 -184q-6 -23 -6 -45q0 -84 74 -135q73 -54 168 -54q159 0 340 107l18 -133q-252 -121 -399 -121q-17 0 -31 2 q-148 12 -246 98q-100 84 -100 207q0 25 4 49zM582 909q0 56 45 95q35 28 75 28q13 0 25 -2q98 -18 98 -121q0 -55 -43 -92q-37 -31 -77 -31q-11 0 -21 2q-102 19 -102 121z" />
<glyph unicode="&#xc0;" horiz-adv-x="1397" d="M1212 14l-180 -28l-84 426h-606l-231 -426l-172 28l780 1420h213zM922 559l-131 674l-369 -674h500zM1019 1589l-106 -57l-322 190l142 90z" />
<glyph unicode="&#xc1;" horiz-adv-x="1397" d="M1212 14l-180 -28l-84 426h-606l-231 -426l-172 28l780 1420h213zM922 559l-131 674l-369 -674h500zM1032 1706l-320 -190l-108 57l288 223z" />
<glyph unicode="&#xc2;" horiz-adv-x="1397" d="M1212 14l-180 -28l-84 426h-606l-231 -426l-172 28l780 1420h213zM922 559l-131 674l-369 -674h500zM1082 1628l-90 -98l-177 110l-213 -110l-57 98l297 164z" />
<glyph unicode="&#xc3;" horiz-adv-x="1397" d="M1212 14l-180 -28l-84 426h-606l-231 -426l-172 28l780 1420h213zM922 559l-131 674l-369 -674h500zM447 1677q22 41 91.5 75.5t129.5 34.5q71 0 164 -65q90 -66 157 -66q74 0 228 131l-27 -151q-145 -123 -225 -123q-72 0 -162 66q-92 63 -160 63h-4q-59 0 -123 -37 q-67 -39 -100 -92z" />
<glyph unicode="&#xc4;" horiz-adv-x="1397" d="M1212 14l-180 -28l-84 426h-606l-231 -426l-172 28l780 1420h213zM922 559l-131 674l-369 -674h500zM729 1661q0 -41 -29 -69q-30 -31 -71 -31t-70 31q-31 28 -31 69t31 72q29 28 70 28t71 -28q29 -31 29 -72zM1108 1661q0 -41 -29 -69q-30 -31 -71 -31t-70 31 q-31 28 -31 69t31 72q29 28 70 28t71 -28q29 -31 29 -72z" />
<glyph unicode="&#xc5;" horiz-adv-x="1397" d="M1212 14l-180 -28l-84 426h-606l-231 -426l-172 28l780 1420h213zM922 559l-131 674l-369 -674h500zM819 1409q-86 0 -145 57q-61 57 -61 143q0 113 90 199q90 84 202 84q86 0 148 -57q59 -58 59 -144q0 -112 -90 -196q-90 -86 -203 -86zM981 1675q0 43 -26 74 q-27 28 -70 28q-57 0 -98 -45q-43 -47 -43 -106q0 -43 26 -72q27 -31 70 -31q57 0 100 47q41 48 41 105z" />
<glyph unicode="&#xc6;" horiz-adv-x="2101" d="M1898 143l-38 -143h-897l73 416h-561l-377 -430l-159 28l1226 1420h942l-8 -144h-731l-76 -430h617l-25 -143h-616l-103 -574h733zM1061 559l121 686l-580 -686h459z" />
<glyph unicode="&#xc7;" horiz-adv-x="1274" d="M1102 92q-246 -110 -416 -110q-31 0 -59 4q-236 39 -385 207q-150 165 -150 401q0 65 12 133q56 293 258 490q213 208 512 231q19 2 39 2q148 0 379 -76l-53 -153q-176 88 -324 88q-41 0 -77 -9q-226 -49 -375.5 -206.5t-186.5 -376.5q-10 -60 -10 -115q0 -180 103 -303 q100 -123 288 -158q29 -6 64 -6q158 0 387 103zM823 -244q-63 -90 -213 -90q-45 0 -84 8l-6 90q49 -4 92 -4q103 0 103 27q0 6 -7 14q-24 35 -112 41l55 160h109l-33 -86q121 -29 121 -98q0 -29 -25 -62z" />
<glyph unicode="&#xc8;" d="M967 143l-41 -143h-889l254 1434h848l-13 -144h-690l-76 -430h617l-25 -143h-616l-100 -574h731zM978 1589l-106 -57l-322 190l142 90z" />
<glyph unicode="&#xc9;" d="M967 143l-41 -143h-889l254 1434h848l-13 -144h-690l-76 -430h617l-25 -143h-616l-100 -574h731zM971 1706l-320 -190l-108 57l288 223z" />
<glyph unicode="&#xca;" d="M967 143l-41 -143h-889l254 1434h848l-13 -144h-690l-76 -430h617l-25 -143h-616l-100 -574h731zM1020 1628l-90 -98l-177 110l-213 -110l-57 98l297 164z" />
<glyph unicode="&#xcb;" d="M967 143l-41 -143h-889l254 1434h848l-13 -144h-690l-76 -430h617l-25 -143h-616l-100 -574h731zM668 1661q0 -41 -29 -69q-30 -31 -71 -31t-70 31q-31 28 -31 69t31 72q29 28 70 28t71 -28q29 -31 29 -72zM1047 1661q0 -41 -29 -69q-30 -31 -71 -31t-70 31 q-31 28 -31 69t31 72q29 28 70 28t71 -28q29 -31 29 -72z" />
<glyph unicode="&#xcc;" horiz-adv-x="500" d="M217 0h-172l252 1434l174 14zM612 1589l-106 -57l-322 190l142 90z" />
<glyph unicode="&#xcd;" horiz-adv-x="500" d="M197 0h-172l252 1434l174 14zM613 1706l-320 -190l-108 57l288 223z" />
<glyph unicode="&#xce;" horiz-adv-x="500" d="M256 0h-172l252 1434l174 14zM715 1628l-90 -98l-177 110l-213 -110l-57 98l297 164z" />
<glyph unicode="&#xcf;" horiz-adv-x="500" d="M258 0h-172l252 1434l174 14zM364 1661q0 -41 -29 -69q-30 -31 -71 -31t-70 31q-31 28 -31 69t31 72q29 28 70 28t71 -28q29 -31 29 -72zM743 1661q0 -41 -29 -69q-30 -31 -71 -31t-70 31q-31 28 -31 69t31 72q29 28 70 28t71 -28q29 -31 29 -72z" />
<glyph unicode="&#xd1;" horiz-adv-x="1440" d="M1149 0l-217 -14l-510 1222l-215 -1222l-170 14l254 1434l237 14l492 -1202l211 1188h172zM508 1677q22 41 91.5 75.5t129.5 34.5q71 0 164 -65q90 -66 157 -66q74 0 228 131l-27 -151q-145 -123 -225 -123q-72 0 -162 66q-92 63 -160 63h-4q-59 0 -123 -37 q-67 -39 -100 -92z" />
<glyph unicode="&#xd2;" horiz-adv-x="1528" d="M1165 225q-239 -239 -532 -239q-244 0 -397 176q-146 170 -146 420q0 166 76 336q74 169 199 294q235 236 532 236h4q246 -2 391 -170q146 -170 146 -420q0 -168 -74 -338t-199 -295zM1262 840q0 196 -101 325q-106 138 -293 140h-4q-239 0 -424 -226 q-178 -217 -178 -473q0 -198 113 -338q112 -139 287 -139q217 2 395 197q205 225 205 514zM1122 1589l-106 -57l-322 190l142 90z" />
<glyph unicode="&#xd3;" horiz-adv-x="1528" d="M1165 225q-239 -239 -532 -239q-244 0 -397 176q-146 170 -146 420q0 166 76 336q74 169 199 294q235 236 532 236h4q246 -2 391 -170q146 -170 146 -420q0 -168 -74 -338t-199 -295zM1262 840q0 196 -101 325q-106 138 -293 140h-4q-239 0 -424 -226 q-178 -217 -178 -473q0 -198 113 -338q112 -139 287 -139q217 2 395 197q205 225 205 514zM1125 1706l-320 -190l-108 57l288 223z" />
<glyph unicode="&#xd4;" horiz-adv-x="1528" d="M1165 225q-239 -239 -532 -239q-244 0 -397 176q-146 170 -146 420q0 166 76 336q74 169 199 294q235 236 532 236h4q246 -2 391 -170q146 -170 146 -420q0 -168 -74 -338t-199 -295zM1262 840q0 196 -101 325q-106 138 -293 140h-4q-239 0 -424 -226 q-178 -217 -178 -473q0 -198 113 -338q112 -139 287 -139q217 2 395 197q205 225 205 514zM1164 1628l-90 -98l-177 110l-213 -110l-57 98l297 164z" />
<glyph unicode="&#xd5;" horiz-adv-x="1446" d="M1165 225q-239 -239 -532 -239q-244 0 -397 176q-146 170 -146 420q0 166 76 336q74 169 199 294q235 236 532 236h4q246 -2 391 -170q146 -170 146 -420q0 -168 -74 -338t-199 -295zM1262 840q0 196 -101 325q-106 138 -293 140h-4q-239 0 -424 -226 q-178 -217 -178 -473q0 -198 113 -338q112 -139 287 -139q217 2 395 197q205 225 205 514zM529 1677q22 41 91.5 75.5t129.5 34.5q71 0 164 -65q90 -66 157 -66q74 0 228 131l-27 -151q-145 -123 -225 -123q-72 0 -162 66q-92 63 -160 63h-4q-59 0 -123 -37 q-67 -39 -100 -92z" />
<glyph unicode="&#xd6;" horiz-adv-x="1528" d="M1165 225q-239 -239 -532 -239q-244 0 -397 176q-146 170 -146 420q0 166 76 336q74 169 199 294q235 236 532 236h4q246 -2 391 -170q146 -170 146 -420q0 -168 -74 -338t-199 -295zM1262 840q0 196 -101 325q-106 138 -293 140h-4q-239 0 -424 -226 q-178 -217 -178 -473q0 -198 113 -338q112 -139 287 -139q217 2 395 197q205 225 205 514zM801 1661q0 -41 -29 -69q-30 -31 -71 -31t-70 31q-31 28 -31 69t31 72q29 28 70 28t71 -28q29 -31 29 -72zM1180 1661q0 -41 -29 -69q-30 -31 -71 -31t-70 31q-31 28 -31 69t31 72 q29 28 70 28t71 -28q29 -31 29 -72z" />
<glyph unicode="&#xd8;" horiz-adv-x="1446" d="M592 -14q-168 0 -293 96l-102 -125l-150 57l152 176q-111 158 -111 379q0 111 31 222q78 276 274 460q209 197 463 197h4q170 0 307 -119l125 148l148 -58l-170 -202q88 -148 88 -349q0 -321 -223 -596q-236 -286 -543 -286zM1065 1206q-92 97 -236 99h-4 q-233 0 -403 -232q-160 -217 -160 -477q0 -145 57 -264zM1182 856q0 119 -37 215l-737 -864q90 -78 213 -78q237 2 405 240q156 223 156 487z" />
<glyph unicode="&#xd9;" horiz-adv-x="1448" d="M1260 573q-56 -282 -238 -440q-172 -147 -404 -147h-30q-219 8 -328 98q-131 106 -131 346q0 72 12 156l150 848l174 14l-152 -858q0 -15 -6 -76q-8 -61 -8 -102q0 -277 307 -285h17q266 0 391 221q53 94 73 227l152 859h172zM1101 1589l-106 -57l-322 190l142 90z" />
<glyph unicode="&#xda;" horiz-adv-x="1448" d="M1260 573q-56 -282 -238 -440q-172 -147 -404 -147h-30q-219 8 -328 98q-131 106 -131 346q0 72 12 156l150 848l174 14l-152 -858q0 -15 -6 -76q-8 -61 -8 -102q0 -277 307 -285h17q266 0 391 221q53 94 73 227l152 859h172zM1104 1706l-320 -190l-108 57l288 223z" />
<glyph unicode="&#xdb;" horiz-adv-x="1448" d="M1260 573q-56 -282 -238 -440q-172 -147 -404 -147h-30q-219 8 -328 98q-131 106 -131 346q0 72 12 156l150 848l174 14l-152 -858q0 -15 -6 -76q-8 -61 -8 -102q0 -277 307 -285h17q266 0 391 221q53 94 73 227l152 859h172zM1164 1628l-90 -98l-177 110l-213 -110 l-57 98l297 164z" />
<glyph unicode="&#xdc;" horiz-adv-x="1448" d="M1260 573q-56 -282 -238 -440q-172 -147 -404 -147h-30q-219 8 -328 98q-131 106 -131 346q0 72 12 156l150 848l174 14l-152 -858q0 -15 -6 -76q-8 -61 -8 -102q0 -277 307 -285h17q266 0 391 221q53 94 73 227l152 859h172zM801 1661q0 -41 -29 -69q-30 -31 -71 -31 t-70 31q-31 28 -31 69t31 72q29 28 70 28t71 -28q29 -31 29 -72zM1180 1661q0 -41 -29 -69q-30 -31 -71 -31t-70 31q-31 28 -31 69t31 72q29 28 70 28t71 -28q29 -31 29 -72z" />
<glyph unicode="&#xdd;" d="M1055 1760l-320 -190l-108 57l288 223zM1272 1419l-621 -811l-106 -608h-172l106 608l-336 811l203 29l246 -688l489 688z" />
<glyph unicode="&#xdf;" horiz-adv-x="1204" d="M1042 379q-2 -373 -526 -393h-16q-72 0 -191 14l45 139q80 -18 166 -18q326 0 354 287q3 10 3 20q0 176 -369 262l33 184q102 19 178 50q184 69 205 184q2 18 2 33q0 162 -299 162q-84 0 -191 -13l-227 -1290l-170 6l252 1428q196 14 348 14q59 0 104 -2q140 -8 240 -86 q109 -82 121 -213v-21q0 -122 -129 -229q-117 -94 -236 -115q111 -28 203 -141q100 -123 100 -262z" />
<glyph unicode="&#xe0;" horiz-adv-x="1085" d="M1059 111l-94 -125h-9q-149 0 -200 86q-207 -86 -312 -86q-176 0 -270 100q-96 100 -96 279q0 262 149 456q162 209 410 211h6q178 0 387 -117l-129 -710v-4q0 -60 51 -78q29 -12 107 -12zM844 834q-115 49 -264 49q-125 0 -238 -187q-100 -170 -100 -317 q0 -250 221 -250q110 0 262 55zM878 1204l-106 -57l-322 190l142 90z" />
<glyph unicode="&#xe1;" horiz-adv-x="1085" d="M1059 111l-94 -125h-9q-149 0 -200 86q-207 -86 -312 -86q-176 0 -270 100q-96 100 -96 279q0 262 149 456q162 209 410 211h6q178 0 387 -117l-129 -710v-4q0 -60 51 -78q29 -12 107 -12zM844 834q-115 49 -264 49q-125 0 -238 -187q-100 -170 -100 -317 q0 -250 221 -250q110 0 262 55zM930 1337l-320 -190l-108 57l288 223z" />
<glyph unicode="&#xe2;" horiz-adv-x="1085" d="M1059 111l-94 -125h-9q-149 0 -200 86q-207 -86 -312 -86q-176 0 -270 100q-96 100 -96 279q0 262 149 456q162 209 410 211h6q178 0 387 -117l-129 -710v-4q0 -60 51 -78q29 -12 107 -12zM844 834q-115 49 -264 49q-125 0 -238 -187q-100 -170 -100 -317 q0 -250 221 -250q110 0 262 55zM951 1245l-90 -98l-177 110l-213 -110l-57 98l297 164z" />
<glyph unicode="&#xe3;" horiz-adv-x="1085" d="M1059 111l-94 -125h-9q-149 0 -200 86q-207 -86 -312 -86q-176 0 -270 100q-96 100 -96 279q0 262 149 456q162 209 410 211h6q178 0 387 -117l-129 -710v-4q0 -60 51 -78q29 -12 107 -12zM844 834q-115 49 -264 49q-125 0 -238 -187q-100 -170 -100 -317 q0 -250 221 -250q110 0 262 55zM316 1276q22 41 91.5 75.5t129.5 34.5q71 0 164 -65q90 -66 157 -66q74 0 228 131l-27 -151q-145 -123 -225 -123q-72 0 -162 66q-92 63 -160 63h-4q-59 0 -123 -37q-67 -39 -100 -92z" />
<glyph unicode="&#xe4;" horiz-adv-x="1085" d="M1059 111l-94 -125h-9q-149 0 -200 86q-207 -86 -312 -86q-176 0 -270 100q-96 100 -96 279q0 262 149 456q162 209 410 211h6q178 0 387 -117l-129 -710v-4q0 -60 51 -78q29 -12 107 -12zM844 834q-115 49 -264 49q-125 0 -238 -187q-100 -170 -100 -317 q0 -250 221 -250q110 0 262 55zM590 1243q0 -41 -29 -69q-30 -31 -71 -31t-70 31q-31 28 -31 69t31 72q29 28 70 28t71 -28q29 -31 29 -72zM969 1243q0 -41 -29 -69q-30 -31 -71 -31t-70 31q-31 28 -31 69t31 72q29 28 70 28t71 -28q29 -31 29 -72z" />
<glyph unicode="&#xe5;" horiz-adv-x="1085" d="M1059 111l-94 -125h-9q-149 0 -200 86q-207 -86 -312 -86q-176 0 -270 100q-96 100 -96 279q0 262 149 456q162 209 410 211h6q178 0 387 -117l-129 -710v-4q0 -60 51 -78q29 -12 107 -12zM844 834q-115 49 -264 49q-125 0 -238 -187q-100 -170 -100 -317 q0 -250 221 -250q110 0 262 55zM653 993q-86 0 -143 56q-60 55 -60 141q0 113 88 201q88 86 201 86q84 0 143 -56q60 -55 60 -139q0 -115 -86 -201q-88 -88 -203 -88zM811 1260q0 43 -25 73q-24 29 -67 29q-56 0 -97 -47q-41 -49 -41 -105q0 -43 27 -71q25 -31 66 -31 q55 0 96 47t41 105z" />
<glyph unicode="&#xe6;" horiz-adv-x="1722" d="M1632 616q-2 -141 -368 -184q-125 -14 -289 -14h-76v-17q0 -106 53 -182q60 -88 154 -90h16q92 0 181 21q83 20 112 45l43 -125q-33 -27 -129 -54q-112 -30 -229 -30h-17q-161 2 -262 116l-164 -63q-143 -59 -247 -59q-31 0 -56 6q-127 28 -202 102q-86 80 -89 197v8 q0 98 60 170q53 61 172 123q100 51 237 51q113 0 220 -31q26 80 26 144q0 59 -24 88q-31 34 -80 41q-51 6 -103 10q-12 2 -26 2q-105 0 -271 -68l-41 125q209 84 340 84h27q125 -10 164 -20q80 -19 131 -78q18 -23 33 -53q155 151 350 151q162 0 262 -129q92 -115 92 -278 v-9zM1452 627v16q0 98 -45 164q-57 82 -162 82q-119 0 -217 -109q-84 -94 -115 -221q156 0 269 8q268 17 270 60zM725 463q-100 24 -199 24q-262 0 -293 -182q-4 -20 -4 -39q0 -137 193 -137q110 0 252 43z" />
<glyph unicode="&#xe7;" horiz-adv-x="1040" d="M1016 948l-90 -135q-107 76 -281 76q-153 0 -274 -156q-115 -143 -115 -301q0 -121 70 -209q75 -94 196 -94q137 0 299 68l41 -127q-215 -86 -360 -86q-172 0 -289 131q-119 131 -119 305q0 244 182 428q183 184 424 184q107 0 316 -84zM618 -244q-63 -90 -213 -90 q-45 0 -84 8l-6 90q49 -4 92 -4q103 0 103 27q0 6 -7 14q-24 35 -112 41l55 160h109l-33 -86q121 -29 121 -98q0 -29 -25 -62z" />
<glyph unicode="&#xe8;" horiz-adv-x="1055" d="M1008 616q-2 -151 -355 -180l-391 -18v-15v-14q0 -129 35 -184q49 -76 197 -76q217 0 294 66l41 -125q-45 -39 -170 -64q-102 -20 -186 -20q-174 0 -278 127q-99 118 -99 297q0 229 160 421q170 201 395 201q164 0 264 -127q93 -117 93 -280v-9zM848 627v12q0 96 -57 172 q-64 78 -170 78q-121 0 -224 -109q-90 -96 -121 -221l353 14q219 19 219 54zM837 1204l-106 -57l-322 190l142 90z" />
<glyph unicode="&#xe9;" horiz-adv-x="1055" d="M1008 616q-2 -151 -355 -180l-391 -18v-15v-14q0 -129 35 -184q49 -76 197 -76q217 0 294 66l41 -125q-45 -39 -170 -64q-102 -20 -186 -20q-174 0 -278 127q-99 118 -99 297q0 229 160 421q170 201 395 201q164 0 264 -127q93 -117 93 -280v-9zM848 627v12q0 96 -57 172 q-64 78 -170 78q-121 0 -224 -109q-90 -96 -121 -221l353 14q219 19 219 54zM848 1337l-320 -190l-108 57l288 223z" />
<glyph unicode="&#xea;" horiz-adv-x="1055" d="M1008 616q-2 -151 -355 -180l-391 -18v-15v-14q0 -129 35 -184q49 -76 197 -76q217 0 294 66l41 -125q-45 -39 -170 -64q-102 -20 -186 -20q-174 0 -278 127q-99 118 -99 297q0 229 160 421q170 201 395 201q164 0 264 -127q93 -117 93 -280v-9zM848 627v12q0 96 -57 172 q-64 78 -170 78q-121 0 -224 -109q-90 -96 -121 -221l353 14q219 19 219 54zM910 1245l-90 -98l-177 110l-213 -110l-57 98l297 164z" />
<glyph unicode="&#xeb;" horiz-adv-x="1055" d="M1008 616q-2 -151 -355 -180l-391 -18v-15v-14q0 -129 35 -184q49 -76 197 -76q217 0 294 66l41 -125q-45 -39 -170 -64q-102 -20 -186 -20q-174 0 -278 127q-99 118 -99 297q0 229 160 421q170 201 395 201q164 0 264 -127q93 -117 93 -280v-9zM848 627v12q0 96 -57 172 q-64 78 -170 78q-121 0 -224 -109q-90 -96 -121 -221l353 14q219 19 219 54zM549 1243q0 -41 -29 -69q-30 -31 -71 -31t-70 31q-31 28 -31 69t31 72q29 28 70 28t71 -28q29 -31 29 -72zM928 1243q0 -41 -29 -69q-30 -31 -71 -31t-70 31q-31 28 -31 69t31 72q29 28 70 28 t71 -28q29 -31 29 -72z" />
<glyph unicode="&#xec;" horiz-adv-x="573" d="M581 1204l-106 -57l-322 190l142 90zM465 111l-94 -125h-4q-236 0 -236 194l145 824l175 14l-144 -813v-4q0 -60 51 -78q29 -12 107 -12z" />
<glyph unicode="&#xed;" horiz-adv-x="573" d="M582 1337l-320 -190l-108 57l288 223zM465 111l-94 -125h-4q-236 0 -236 194l145 824l175 14l-144 -813v-4q0 -60 51 -78q29 -12 107 -12z" />
<glyph unicode="&#xee;" horiz-adv-x="573" d="M654 1245l-90 -98l-177 110l-213 -110l-57 98l297 164zM465 111l-94 -125h-4q-236 0 -236 194l145 824l175 14l-144 -813v-4q0 -60 51 -78q29 -12 107 -12z" />
<glyph unicode="&#xef;" horiz-adv-x="573" d="M293 1243q0 -41 -29 -69q-30 -31 -71 -31t-70 31q-31 28 -31 69t31 72q29 28 70 28t71 -28q29 -31 29 -72zM672 1243q0 -41 -29 -69q-30 -31 -71 -31t-70 31q-31 28 -31 69t31 72q29 28 70 28t71 -28q29 -31 29 -72zM465 111l-94 -125h-4q-236 0 -236 194l145 824l175 14 l-144 -813v-4q0 -60 51 -78q29 -12 107 -12z" />
<glyph unicode="&#xf1;" horiz-adv-x="1141" d="M1130 111l-94 -125q-98 0 -164 34q-77 43 -77 123q0 19 4 37l59 273q31 157 31 262q0 78 -60 127q-61 47 -151 47q-111 0 -295 -94l-139 -795h-172l178 1004l174 14l-14 -82q202 96 321 96q113 0 211 -69q111 -76 111 -185q0 -178 -84 -573q-2 -10 -2 -21q0 -73 163 -73z M310 1276q22 41 91.5 75.5t129.5 34.5q71 0 164 -65q90 -66 157 -66q74 0 228 131l-27 -151q-145 -123 -225 -123q-72 0 -162 66q-92 63 -160 63h-4q-59 0 -123 -37q-67 -39 -100 -92z" />
<glyph unicode="&#xf2;" horiz-adv-x="1153" d="M1059 610q0 -235 -170 -426q-174 -198 -406 -198q-174 0 -284 129q-105 123 -105 299q0 237 174 427.5t410 190.5q174 0 280 -127q101 -119 101 -295zM897 586q0 116 -66 205q-71 98 -186 98q-151 0 -272 -154q-115 -143 -115 -299q0 -119 66 -207q71 -98 188 -98 q150 0 270 156q115 145 115 299zM899 1204l-106 -57l-322 190l142 90z" />
<glyph unicode="&#xf3;" horiz-adv-x="1153" d="M1059 610q0 -235 -170 -426q-174 -198 -406 -198q-174 0 -284 129q-105 123 -105 299q0 237 174 427.5t410 190.5q174 0 280 -127q101 -119 101 -295zM897 586q0 116 -66 205q-71 98 -186 98q-151 0 -272 -154q-115 -143 -115 -299q0 -119 66 -207q71 -98 188 -98 q150 0 270 156q115 145 115 299zM930 1337l-320 -190l-108 57l288 223z" />
<glyph unicode="&#xf4;" horiz-adv-x="1153" d="M1059 610q0 -235 -170 -426q-174 -198 -406 -198q-174 0 -284 129q-105 123 -105 299q0 237 174 427.5t410 190.5q174 0 280 -127q101 -119 101 -295zM897 586q0 116 -66 205q-71 98 -186 98q-151 0 -272 -154q-115 -143 -115 -299q0 -119 66 -207q71 -98 188 -98 q150 0 270 156q115 145 115 299zM951 1245l-90 -98l-177 110l-213 -110l-57 98l297 164z" />
<glyph unicode="&#xf5;" horiz-adv-x="1153" d="M1059 610q0 -235 -170 -426q-174 -198 -406 -198q-174 0 -284 129q-105 123 -105 299q0 237 174 427.5t410 190.5q174 0 280 -127q101 -119 101 -295zM897 586q0 116 -66 205q-71 98 -186 98q-151 0 -272 -154q-115 -143 -115 -299q0 -119 66 -207q71 -98 188 -98 q150 0 270 156q115 145 115 299zM351 1276q22 41 91.5 75.5t129.5 34.5q71 0 164 -65q90 -66 157 -66q74 0 228 131l-27 -151q-145 -123 -225 -123q-72 0 -162 66q-92 63 -160 63h-4q-59 0 -123 -37q-67 -39 -100 -92z" />
<glyph unicode="&#xf6;" horiz-adv-x="1153" d="M1059 610q0 -235 -170 -426q-174 -198 -406 -198q-174 0 -284 129q-105 123 -105 299q0 237 174 427.5t410 190.5q174 0 280 -127q101 -119 101 -295zM897 586q0 116 -66 205q-71 98 -186 98q-151 0 -272 -154q-115 -143 -115 -299q0 -119 66 -207q71 -98 188 -98 q150 0 270 156q115 145 115 299zM610 1243q0 -41 -29 -69q-30 -31 -71 -31t-70 31q-31 28 -31 69t31 72q29 28 70 28t71 -28q29 -31 29 -72zM989 1243q0 -41 -29 -69q-30 -31 -71 -31t-70 31q-31 28 -31 69t31 72q29 28 70 28t71 -28q29 -31 29 -72z" />
<glyph unicode="&#xf7;" horiz-adv-x="932" d="M584 649q-6 -35 -35 -59.5t-64 -24.5q-34 0 -55 25q-18 18 -18 45q0 6 2 14q6 35 37 62q30 24 65 24t55 -24q15 -21 15 -45q0 -9 -2 -17zM774 358h-645l27 144h645zM508 219q-6 -35 -35 -59.5t-63 -24.5q-35 0 -56 25q-18 18 -18 45q0 6 2 14q6 35 37 62q31 24 65 24 q35 0 56 -24q14 -21 14 -45q0 -9 -2 -17z" />
<glyph unicode="&#xf8;" horiz-adv-x="1155" d="M485 -14q-114 0 -206 59l-74 -88l-148 57l119 133q-80 117 -80 269q0 82 25 159q61 193 217 320q151 123 336 123h4q119 -2 209 -60l78 89l147 -58l-121 -139q70 -107 70 -250q0 -225 -176 -420q-176 -194 -400 -194zM881 508q6 41 6 78q0 65 -21 123l-477 -541 q55 -37 125 -37q129 2 240 121q104 113 127 256zM776 831q-57 43 -129 43q-131 0 -244 -120q-104 -113 -129 -254q-6 -33 -6 -64q0 -74 31 -147z" />
<glyph unicode="&#xf9;" horiz-adv-x="1126" d="M1098 111l-94 -125h-9q-151 0 -202 90q-246 -90 -338 -90q-121 0 -222 63q-114 74 -114 189q0 153 45 385l78 381l172 14l-78 -359q-47 -221 -47 -356q0 -90 55 -139q53 -51 148 -51q108 0 276 86l143 811h172l-141 -805v-4q0 -60 49 -78q29 -12 107 -12zM878 1204 l-106 -57l-322 190l142 90z" />
<glyph unicode="&#xfa;" horiz-adv-x="1126" d="M1098 111l-94 -125h-9q-151 0 -202 90q-246 -90 -338 -90q-121 0 -222 63q-114 74 -114 189q0 153 45 385l78 381l172 14l-78 -359q-47 -221 -47 -356q0 -90 55 -139q53 -51 148 -51q108 0 276 86l143 811h172l-141 -805v-4q0 -60 49 -78q29 -12 107 -12zM889 1337 l-320 -190l-108 57l288 223z" />
<glyph unicode="&#xfb;" horiz-adv-x="1126" d="M1098 111l-94 -125h-9q-151 0 -202 90q-246 -90 -338 -90q-121 0 -222 63q-114 74 -114 189q0 153 45 385l78 381l172 14l-78 -359q-47 -221 -47 -356q0 -90 55 -139q53 -51 148 -51q108 0 276 86l143 811h172l-141 -805v-4q0 -60 49 -78q29 -12 107 -12zM930 1245 l-90 -98l-177 110l-213 -110l-57 98l297 164z" />
<glyph unicode="&#xfc;" horiz-adv-x="1126" d="M1098 111l-94 -125h-9q-151 0 -202 90q-246 -90 -338 -90q-121 0 -222 63q-114 74 -114 189q0 153 45 385l78 381l172 14l-78 -359q-47 -221 -47 -356q0 -90 55 -139q53 -51 148 -51q108 0 276 86l143 811h172l-141 -805v-4q0 -60 49 -78q29 -12 107 -12zM579 1243 q0 -41 -29 -69q-30 -31 -71 -31t-70 31q-31 28 -31 69t31 72q29 28 70 28t71 -28q29 -31 29 -72zM958 1243q0 -41 -29 -69q-30 -31 -71 -31t-70 31q-31 28 -31 69t31 72q29 28 70 28t71 -28q29 -31 29 -72z" />
<glyph unicode="&#xfd;" horiz-adv-x="1120" d="M760 1344l-320 -190l-108 57l288 223zM455 -14q-121 0 -222 63q-114 74 -114 189q0 153 45 385l78 381l174 14l-78 -356q-45 -222 -45 -357q0 -192 199 -192q108 0 276 86l143 811h172l-176 -1010q-37 -213 -149 -334q-127 -139 -330 -139q-178 0 -367 84l91 129 q135 -66 260 -66q184 0 258 115q39 61 75 268q-184 -71 -290 -71z" />
<glyph unicode="&#xff;" horiz-adv-x="1120" d="M455 -14q-121 0 -222 63q-114 74 -114 189q0 153 45 385l78 381l174 14l-78 -356q-45 -222 -45 -357q0 -192 199 -192q108 0 276 86l143 811h172l-176 -1010q-37 -213 -149 -334q-127 -139 -330 -139q-178 0 -367 84l91 129q135 -66 260 -66q184 0 258 115q39 61 75 268 q-184 -71 -290 -71zM610 1243q0 -41 -29 -69q-30 -31 -71 -31t-70 31q-31 28 -31 69t31 72q29 28 70 28t71 -28q29 -31 29 -72zM989 1243q0 -41 -29 -69q-30 -31 -71 -31t-70 31q-31 28 -31 69t31 72q29 28 70 28t71 -28q29 -31 29 -72z" />
<glyph unicode="&#x131;" horiz-adv-x="573" d="M465 111l-94 -125h-4q-236 0 -236 194l145 824l175 14l-144 -813v-4q0 -60 51 -78q29 -12 107 -12z" />
<glyph unicode="&#x152;" horiz-adv-x="2040" d="M1837 143l-41 -143h-1202q-242 0 -371 205q-112 176 -112 442q0 72 8 144q37 278 258 462q213 181 481 181h1192l-12 -144h-731l-76 -430h616l-24 -143h-617l-100 -574h731zM934 143l201 1147h-310q-217 0 -381 -170q-163 -172 -172 -405q-2 -27 -2 -51q0 -195 72 -334 q94 -187 283 -187h309z" />
<glyph unicode="&#x153;" horiz-adv-x="1868" d="M1778 616q-2 -141 -369 -184q-125 -14 -291 -14h-76v-17q0 -108 56 -186q61 -86 166 -86q217 0 295 66l43 -125q-50 -41 -170 -66q-99 -18 -187 -18q-244 0 -340 217q-180 -217 -424 -217q-172 0 -282 129q-105 123 -105 301q0 235 174 425.5t408 190.5q110 0 203 -57 q90 -57 137 -156q168 213 405 213q164 0 265 -127q92 -117 92 -280v-9zM1597 627v16q0 98 -47 164q-55 82 -159 82q-119 0 -217 -109q-84 -94 -115 -221q155 0 268 8q268 17 270 60zM885 584q0 118 -60 204q-65 101 -180 101q-151 0 -268 -154q-111 -145 -111 -301 q0 -119 62 -207q69 -96 184 -96q143 0 262 156q111 147 111 297z" />
<glyph unicode="&#x178;" d="M1272 1419l-621 -811l-106 -608h-172l106 608l-336 811l203 29l246 -688l489 688zM698 1661q0 -41 -29 -69q-30 -31 -71 -31t-70 31q-31 28 -31 69t31 72q29 28 70 28t71 -28q29 -31 29 -72zM1077 1661q0 -41 -29 -69q-30 -31 -71 -31t-70 31q-31 28 -31 69t31 72 q29 28 70 28t71 -28q29 -31 29 -72z" />
<glyph unicode="&#x2c6;" horiz-adv-x="639" d="M582 1245l-90 -98l-177 110l-213 -110l-57 98l297 164z" />
<glyph unicode="&#x2da;" horiz-adv-x="635" d="M274 1051q-86 0 -145 57q-61 57 -61 143q0 113 90 199q90 84 202 84q86 0 148 -57q59 -58 59 -144q0 -112 -90 -196q-90 -86 -203 -86zM436 1317q0 43 -26 74q-27 28 -70 28q-57 0 -98 -45q-43 -47 -43 -106q0 -43 26 -72q27 -31 70 -31q57 0 100 47q41 48 41 105z" />
<glyph unicode="&#x2dc;" horiz-adv-x="874" d="M70 1276q22 41 91.5 75.5t129.5 34.5q71 0 164 -65q90 -66 157 -66q74 0 228 131l-27 -151q-145 -123 -225 -123q-72 0 -162 66q-92 63 -160 63h-4q-59 0 -123 -37q-67 -39 -100 -92z" />
<glyph unicode="&#x2000;" horiz-adv-x="946" />
<glyph unicode="&#x2001;" horiz-adv-x="1892" />
<glyph unicode="&#x2002;" horiz-adv-x="946" />
<glyph unicode="&#x2003;" horiz-adv-x="1892" />
<glyph unicode="&#x2004;" horiz-adv-x="630" />
<glyph unicode="&#x2005;" horiz-adv-x="473" />
<glyph unicode="&#x2006;" horiz-adv-x="315" />
<glyph unicode="&#x2007;" horiz-adv-x="315" />
<glyph unicode="&#x2008;" horiz-adv-x="236" />
<glyph unicode="&#x2009;" horiz-adv-x="378" />
<glyph unicode="&#x200a;" horiz-adv-x="105" />
<glyph unicode="&#x2010;" horiz-adv-x="782" d="M606 465h-454l24 143h455z" />
<glyph unicode="&#x2011;" horiz-adv-x="782" d="M606 465h-454l24 143h455z" />
<glyph unicode="&#x2013;" horiz-adv-x="1110" d="M954 465h-823l25 143h823z" />
<glyph unicode="&#x2014;" horiz-adv-x="1683" d="M1528 465h-1397l25 143h1396z" />
<glyph unicode="&#x2018;" horiz-adv-x="375" d="M332 1196q-37 -96 -117 -98q-41 0 -65 28q-19 21 -19 50q0 10 2 20q6 35 55 82l197 219l49 -20z" />
<glyph unicode="&#x2019;" horiz-adv-x="375" d="M379 1319l-197 -219l-51 20l102 281q37 98 117 98q41 0 66 -29q18 -20 18 -49q0 -10 -2 -20q-6 -37 -53 -82z" />
<glyph unicode="&#x201a;" horiz-adv-x="375" d="M279 8l-197 -219l-51 21l102 280q35 98 115 98q41 0 65 -28q21 -23 21 -54q0 -8 -2 -16q-8 -37 -53 -82z" />
<glyph unicode="&#x201c;" horiz-adv-x="688" d="M629 1196q-37 -98 -117 -100q-41 0 -66 30q-18 21 -18 50q0 10 2 20q6 35 55 82l197 219l49 -20zM315 1196q-36 -96 -116 -98q-41 0 -66 28q-18 21 -18 50q0 10 2 20q6 35 55 82l197 219l49 -20z" />
<glyph unicode="&#x201d;" horiz-adv-x="688" d="M676 1319l-197 -219l-51 20l102 281q37 98 117 98q41 0 66 -29q18 -20 18 -49q0 -10 -2 -20q-6 -37 -53 -82zM362 1319l-196 -219l-51 20l102 281q37 98 117 98q41 0 65 -29q19 -20 19 -49q0 -10 -2 -20q-6 -37 -54 -82z" />
<glyph unicode="&#x201e;" horiz-adv-x="688" d="M279 8l-197 -219l-51 21l102 280q35 98 115 98q41 0 65 -28q21 -23 21 -54q0 -8 -2 -16q-8 -37 -53 -82zM592 8l-197 -219l-51 21l102 280q35 98 115 98q41 0 66 -28q20 -23 20 -54q0 -8 -2 -16q-8 -37 -53 -82z" />
<glyph unicode="&#x2022;" horiz-adv-x="623" d="M276 383q-77 0 -126 49q-50 47 -50 119q0 90 76 164q76 71 170 71q78 0 129 -47q49 -47 49 -118q0 -91 -75 -164q-78 -74 -173 -74z" />
<glyph unicode="&#x2026;" horiz-adv-x="1268" d="M346 104q0 -55 -45 -92q-35 -30 -78 -30q-10 0 -20 2q-101 16 -101 120q0 56 45 93q35 30 76 30q10 0 21 -2q102 -16 102 -121zM756 104q0 -55 -45 -92q-35 -30 -78 -30q-10 0 -21 2q-100 16 -100 120q0 56 45 93q35 30 76 30q10 0 20 -2q103 -16 103 -121zM1165 104 q0 -55 -45 -92q-35 -30 -78 -30q-10 0 -20 2q-100 16 -100 120q0 56 45 93q34 30 75 30q11 0 21 -2q102 -16 102 -121z" />
<glyph unicode="&#x202f;" horiz-adv-x="378" />
<glyph unicode="&#x2039;" horiz-adv-x="532" d="M387 260l-47 -117l-248 299l25 138l348 284l6 -119l-289 -237z" />
<glyph unicode="&#x203a;" horiz-adv-x="532" d="M416 428l-348 -285l-7 121l289 236l-205 248l48 116l247 -299z" />
<glyph unicode="&#x2044;" horiz-adv-x="305" d="M766 1473l-1081 -1797l-144 68l1077 1790z" />
<glyph unicode="&#x205f;" horiz-adv-x="473" />
<glyph unicode="&#x20ac;" horiz-adv-x="1315" d="M1126 78q-249 -96 -389 -96q-18 0 -35 2q-188 18 -307 147q-121 129 -127 313h-186l59 91h129q6 49 21 100h-176l59 92h152q82 180 239 293q158 113 353 121h16q131 0 364 -94l-102 -127q-39 24 -84 41q-106 40 -229 43q-107 0 -217 -86q-101 -78 -162 -191h577l-59 -92 h-557q-8 -25 -21 -76v-24h510l-59 -91h-455q9 -125 92 -219q84 -96 203 -100h15q141 0 333 76z" />
<glyph unicode="&#x2122;" horiz-adv-x="1309" d="M1120 895l-112 -18l26 301l-160 -293h-94l-59 293l-78 -301l-104 18l145 539h96l76 -379l207 379h98zM616 1343h-167l-80 -458h-105l80 458h-168l17 91h440z" />
</font>
</defs>
</svg>
