<?xml version="1.0" standalone="no"?>
<!DOCTYPE svg PUBLIC "-//W3C//DTD SVG 1.1//EN" "http://www.w3.org/Graphics/SVG/1.1/DTD/svg11.dtd" >
<svg xmlns="http://www.w3.org/2000/svg">
<metadata>
This is a custom SVG webfont generated by Font Squirrel.
Copyright   : Copyright c 2011 by Pablo Impallari wwwimpallaricom Igino Marini wwwikerncom All rights reserved
Designer    : Pablo Impallari
Foundry     : Pablo Impallari wwwimpallaricom Igino Marini wwwikerncom
Foundry URL : wwwimpallaricom
</metadata>
<defs>
<font id="webfontk6Q2k4Wa" horiz-adv-x="1280" >
<font-face units-per-em="2048" ascent="1638" descent="-410" />
<missing-glyph horiz-adv-x="460" />
<glyph unicode=" "  horiz-adv-x="460" />
<glyph unicode="&#x09;" horiz-adv-x="460" />
<glyph unicode="&#xa0;" horiz-adv-x="460" />
<glyph unicode="!" horiz-adv-x="512" d="M383 1536l-41 -1126h-172l-41 1126h254zM383 0h-254v254h254v-254z" />
<glyph unicode="&#x22;" horiz-adv-x="811" d="M737 1536l-41 -614h-172l-41 614h254zM328 1536l-41 -614h-172l-41 614h254z" />
<glyph unicode="#" horiz-adv-x="1454" d="M1389 1049l-70 -201h-234l-75 -203h256l-99 -213h-239l-172 -455h-197l172 455h-229l-176 -455h-193l172 455h-242l95 213h229l76 203h-248l66 201h258l151 385h193l-148 -385h234l147 385h193l-148 -385h228zM893 848h-234l-79 -203h233z" />
<glyph unicode="$" horiz-adv-x="1073" d="M610 164l33 -230h-219l33 228q-242 12 -359 82l35 260q137 -129 385 -129q209 0 209 108q0 57 -66.5 97.5t-160.5 68t-189.5 60t-162 98t-66.5 162.5q0 119 90 214t285 113l-33 236h219l-33 -236q96 -6 187.5 -29.5t138.5 -49.5l-23 -232q-205 106 -352 107 q-229 0 -229 -99q0 -53 68.5 -88t168 -59.5t197.5 -59t166.5 -110.5t68.5 -191q0 -51 -15 -97t-54 -95t-122 -84t-200 -45z" />
<glyph unicode="%" horiz-adv-x="1724" d="M1339 -18q-139 0 -223 101t-84 269q0 174 90 279.5t228 105.5q135 0 221 -100t86 -268q0 -176 -87.5 -281.5t-230.5 -105.5zM1378 1434l-864 -1459h-213l864 1459h213zM377 686q-139 0 -223 101.5t-84 269.5q0 174 90 279.5t227 105.5q135 0 221 -100.5t86 -268.5 q0 -176 -87 -281.5t-230 -105.5zM1348 590q-63 0 -107.5 -59.5t-44.5 -178.5q0 -113 40 -166t105 -53q154 0 154 236q0 111 -43 166t-104 55zM385 1294q-63 0 -107.5 -59t-44.5 -178q0 -113 40 -166t106 -53q154 0 153 235q0 111 -43 166t-104 55z" />
<glyph unicode="&#x26;" horiz-adv-x="1284" d="M1278 0h-295l-63 70q-150 -119 -377 -119q-236 0 -356.5 113.5t-120.5 279.5q0 129 66.5 225.5t182.5 182.5q-154 193 -153 350q0 154 123 246t293 92q154 0 239.5 -80t85.5 -213q0 -63 -21.5 -118.5t-72.5 -107t-87 -80t-110 -81.5l287 -328q16 82 21 289h243 q0 -285 -100 -475zM565 1237q-68 0 -110.5 -38t-42.5 -107q0 -88 94 -207q174 123 174 233q0 119 -115 119zM791 215l-355 399q-106 -113 -106 -247q0 -94 56 -158t192 -64q133 0 213 70z" />
<glyph unicode="'" horiz-adv-x="401" d="M328 1536l-41 -614h-172l-41 614h254z" />
<glyph unicode="(" horiz-adv-x="567" d="M522 -279h-231q-102 180 -154.5 390.5t-52.5 517.5t52 517t155 390h231q-231 -408 -231 -907.5t231 -907.5z" />
<glyph unicode=")" horiz-adv-x="567" d="M276 -279h-231q231 408 231 907.5t-231 907.5h231q102 -180 154.5 -390t52.5 -517t-52.5 -517.5t-154.5 -390.5z" />
<glyph unicode="*" horiz-adv-x="913" d="M633 844l-172 280l-176 -286l-138 133l248 186l-332 107l97 168l272 -220l-72 322h193l-74 -322l275 220l96 -168l-326 -103l246 -184z" />
<glyph unicode="+" horiz-adv-x="937" d="M848 471h-283v-262h-192v262h-283v193h283v262h192v-262h283v-193z" />
<glyph unicode="," horiz-adv-x="475" d="M365 0l-201 -225l-53 28l67 177l-67 20v266h254v-266z" />
<glyph unicode="-" horiz-adv-x="856" d="M745 471h-634v193h634v-193z" />
<glyph unicode="." horiz-adv-x="475" d="M365 0h-254v266h254v-266z" />
<glyph unicode="/" horiz-adv-x="1128" d="M1061 1434l-748 -1608h-274l747 1608h275z" />
<glyph unicode="0" horiz-adv-x="1445" d="M711 -29q-266 0 -428 199t-162 524q0 338 176 553t438 215q256 0 423 -205.5t167 -527.5q0 -342 -167.5 -550t-446.5 -208zM731 1231q-143 0 -245.5 -139.5t-102.5 -397.5q0 -246 91 -366.5t241 -120.5q160 0 256 128t96 394q0 242 -97.5 372t-238.5 130z" />
<glyph unicode="1" horiz-adv-x="755" d="M557 0h-262v1063q-86 -57 -180 -74l-23 221q68 14 152 83t112 141h201v-1434z" />
<glyph unicode="2" horiz-adv-x="1083" d="M967 0h-877q250 360 384 586.5t164 307.5t30 144q0 96 -52.5 150.5t-146.5 54.5q-186 0 -330 -219l-33 236q39 72 149 137t267 65q205 0 299 -115.5t94 -269.5q0 -139 -87 -329.5t-287 -493.5h426v-254z" />
<glyph unicode="3" horiz-adv-x="1103" d="M459 -29q-123 0 -241 39t-144 72l63 242q45 -43 134 -72t178 -29q276 0 276 209q0 113 -56.5 179.5t-205.5 66.5h-184l22 203h94q272 0 273 188q0 172 -211 172q-174 0 -252 -70l-41 197q37 37 126 65.5t197 28.5q131 0 224.5 -36.5t138.5 -97t63.5 -121t18.5 -126.5 q0 -186 -137 -286q188 -113 188 -351q0 -225 -154.5 -349t-369.5 -124z" />
<glyph unicode="4" horiz-adv-x="1189" d="M1073 389h-174v-389h-262v389h-617l660 1045h219v-832h174v-213zM637 602v430l-260 -430h260z" />
<glyph unicode="5" horiz-adv-x="1099" d="M475 -27q-125 0 -247 42t-128 73l62 238q121 -106 305 -107q119 0 197.5 58.5t78.5 185.5q0 102 -73.5 159.5t-276.5 57.5h-219l90 754h658l-27 -254h-434l-35 -281q299 -4 435 -105.5t136 -320.5q0 -238 -153.5 -369t-368.5 -131z" />
<glyph unicode="6" horiz-adv-x="1150" d="M565 -29q-203 0 -324.5 132.5t-121.5 414.5q0 188 68.5 366.5t166 294t200.5 185.5t179 70l172 -103q-63 0 -178 -83t-216 -216t-116 -250q63 80 238 80q190 0 311 -107.5t121 -305.5q0 -197 -138.5 -337.5t-361.5 -140.5zM616 649q-109 0 -176 -59.5t-67 -173.5 q0 -98 68.5 -154.5t150.5 -56.5q102 0 166.5 72.5t64.5 175.5q0 76 -53.5 136t-153.5 60z" />
<glyph unicode="7" horiz-adv-x="1044" d="M1030 1434l-598 -1434h-274l491 1180h-561v254h942z" />
<glyph unicode="8" horiz-adv-x="1232" d="M596 -29q-236 0 -358.5 119t-122.5 289q0 231 221 393q-141 113 -141 328q0 158 101 260t329 102q217 0 316 -93t99 -239q0 -193 -176 -339q115 -53 184.5 -151.5t69.5 -221.5q0 -174 -134 -310.5t-388 -136.5zM614 1257q-100 0 -145 -50t-45 -132q0 -156 180 -205 q195 53 195 215q0 76 -44.5 124t-140.5 48zM623 680q-104 -16 -181 -90t-77 -191q0 -104 64.5 -161.5t176.5 -57.5q119 0 186.5 62.5t67.5 167.5q0 109 -67.5 178t-169.5 92z" />
<glyph unicode="9" horiz-adv-x="1155" d="M586 1462q203 0 325.5 -133t122.5 -411q0 -190 -60.5 -365.5t-151.5 -293.5t-198.5 -188.5t-205.5 -70.5l-166 102q70 0 185.5 72t219 205t111.5 270q-35 -39 -120 -58.5t-130 -19.5q-195 0 -313.5 105.5t-118.5 302.5q0 203 138.5 343t361.5 140zM543 784 q106 0 174.5 59.5t68.5 172t-64.5 163t-150.5 50.5q-106 0 -167.5 -73t-61.5 -167q0 -84 50.5 -144.5t150.5 -60.5z" />
<glyph unicode=":" horiz-adv-x="475" d="M365 635h-254v266h254v-266zM365 0h-254v266h254v-266z" />
<glyph unicode=";" horiz-adv-x="505" d="M395 635h-280v266h280v-266zM369 0l-201 -225l-53 28l67 177l-67 20v266h254v-266z" />
<glyph unicode="&#x3c;" horiz-adv-x="913" d="M795 160h-301l-435 422l435 422h301l-435 -422z" />
<glyph unicode="=" horiz-adv-x="1011" d="M885 635h-758v192h758v-192zM885 307h-758v193h758v-193z" />
<glyph unicode="&#x3e;" horiz-adv-x="913" d="M854 582l-434 -422h-301l434 422l-434 422h301z" />
<glyph unicode="?" horiz-adv-x="905" d="M500 410h-172q-6 92 -6 108q0 86 39.5 175t88 151.5t88.5 144.5t40 156q0 94 -57.5 142t-149.5 48q-160 0 -254 -133l-58 189q98 145 328 145q203 0 316.5 -124t113.5 -265q0 -68 -32.5 -139.5t-78.5 -135.5l-94 -128q-47 -66 -79.5 -146t-32.5 -162v-26zM541 0h-254v254 h254v-254z" />
<glyph unicode="@" horiz-adv-x="1462" d="M1108 776q-104 109 -250 109q-190 0 -355 -181.5t-165 -394.5q0 -98 46 -162.5t148 -64.5q88 0 195 65.5t166 171.5q0 -4 -3 -30.5t-3 -32.5q0 -66 26.5 -118t86 -52t140.5 40t132 91q-98 -178 -279.5 -286.5t-392.5 -108.5q-236 0 -372 139t-136 387q0 330 228.5 557.5 t543.5 227.5q240 0 375 -140.5t135 -380.5q0 -150 -51 -286q-39 -61 -116 -97t-136 -36q-76 0 -76 108q0 49 15.5 113.5t46.5 172t51 189.5zM860 760q94 0 111 -45q-29 -168 -153 -333t-226 -165q-45 0 -67.5 37t-22.5 94q0 162 122.5 287t235.5 125z" />
<glyph unicode="A" d="M1274 0h-273l-122 346h-478l-122 -346h-273l510 1434h248zM788 600l-149 420l-147 -420h296z" />
<glyph unicode="B" horiz-adv-x="1282" d="M711 0h-553v1434h387q109 0 185.5 -8.5t149 -31t116.5 -62.5t71 -106.5t27 -160.5q0 -199 -121 -299q127 -49 188.5 -130t61.5 -214q0 -119 -45 -205t-122 -131t-162 -65.5t-183 -20.5zM651 1210h-231v-352h256q70 0 122 38t52 130q0 104 -50.5 144t-148.5 40zM692 651 h-272v-428h258q133 0 203.5 49.5t70.5 163.5q0 215 -260 215z" />
<glyph unicode="C" horiz-adv-x="1247" d="M778 -29q-311 0 -508.5 206t-197.5 540t197.5 539.5t508.5 205.5q236 0 408 -84l-29 -250q-207 82 -379 82q-203 0 -311.5 -135t-108.5 -358t108.5 -358.5t311.5 -135.5q172 0 379 82l29 -250q-172 -84 -408 -84z" />
<glyph unicode="D" horiz-adv-x="1474" d="M694 0h-536v1434h536q313 0 510 -192.5t197 -524.5t-197 -524.5t-510 -192.5zM694 1182h-274v-930h274q205 0 312.5 123t107.5 342t-107.5 342t-312.5 123z" />
<glyph unicode="E" horiz-adv-x="1163" d="M1096 0h-938v1434h917v-254h-649v-306h504v-253h-504v-367h670v-254z" />
<glyph unicode="F" horiz-adv-x="1075" d="M1040 1180h-620v-306h479v-253h-479v-621h-262v1434h882v-254z" />
<glyph unicode="G" horiz-adv-x="1359" d="M772 -29q-305 0 -502.5 206t-197.5 542q0 334 198.5 538.5t515.5 204.5q109 0 232 -23.5t199 -60.5l-29 -250q-201 82 -395 82q-215 0 -325 -134t-110 -353q0 -227 115 -363.5t332 -136.5q88 0 196 23v256h-157v217h420v-639q-78 -45 -223.5 -77t-268.5 -32z" />
<glyph unicode="H" horiz-adv-x="1515" d="M1358 0h-262v621h-676v-621h-262v1434h262v-560h676v560h262v-1434z" />
<glyph unicode="I" horiz-adv-x="577" d="M420 0h-262v1434h262v-1434z" />
<glyph unicode="J" horiz-adv-x="577" d="M88 -352h-74l-20 196h55q59 0 84 39t25 125v1426h262v-1483q0 -150 -87 -226.5t-245 -76.5z" />
<glyph unicode="K" horiz-adv-x="1271" d="M1266 0h-295l-500 758l500 676h295l-500 -676zM420 0h-262v1434h262v-1434z" />
<glyph unicode="L" horiz-adv-x="1024" d="M1010 0h-852v1434h262v-1180h590v-254z" />
<glyph unicode="M" horiz-adv-x="1705" d="M1616 0h-273l-122 961l-367 -660l-369 657l-123 -958h-272l199 1434h215l350 -654l348 654h215z" />
<glyph unicode="N" horiz-adv-x="1447" d="M1290 0h-215l-655 983v-983h-262v1434h258l612 -926v926h262v-1434z" />
<glyph unicode="O" horiz-adv-x="1556" d="M778.5 -29q-311.5 0 -509 206t-197.5 540t197.5 539.5t509 205.5t509 -205.5t197.5 -539.5t-197.5 -540t-509 -206zM778 1210q-203 0 -311.5 -135t-108.5 -358t108.5 -358.5t311.5 -135.5t311.5 135.5t108.5 358.5t-108.5 358t-311.5 135z" />
<glyph unicode="P" horiz-adv-x="1220" d="M676 471h-256v-471h-262v1434h405q162 0 265.5 -16.5t188.5 -63.5t123 -138.5t38 -236.5t-48.5 -250.5t-128 -159t-159.5 -76t-166 -22.5zM635 1214h-215v-497h221q145 0 207.5 58.5t62.5 201.5q0 127 -58 182t-218 55z" />
<glyph unicode="Q" horiz-adv-x="1556" d="M1485 162l-152 -182l-141 116q-172 -125 -414 -125q-311 0 -508.5 206t-197.5 540t197.5 539.5t509 205.5t509 -205.5t197.5 -539.5q0 -258 -127 -451zM778 1210q-203 0 -311.5 -135t-108.5 -358t108.5 -358.5t311.5 -135.5q117 0 205 47l-172 146l152 182l180 -152 q55 115 55 271q0 223 -108.5 358t-311.5 135z" />
<glyph unicode="R" horiz-adv-x="1282" d="M1255 0h-272l-297 532h-266v-532h-262v1434h524q494 0 494 -414q0 -154 -63.5 -250t-180.5 -168zM623 1214h-203v-436h192q166 0 227.5 57.5t61.5 166t-59 160.5t-219 52z" />
<glyph unicode="S" horiz-adv-x="1187" d="M573 -29q-154 0 -280.5 31t-194.5 74l31 299q66 -63 183.5 -107.5t267.5 -44.5q256 0 256 156q0 43 -20.5 78t-44 57.5t-79 48t-86.5 36.5l-104 36q-63 20 -89 31l-83 34q-56 23 -82.5 40.5t-65.5 49t-57.5 64.5t-32.5 79t-14 99q0 168 127 299t391 131q137 0 265 -34.5 t192 -75.5l-27 -269q-236 129 -420 129q-104 0 -183 -34.5t-79 -116.5q0 -78 71.5 -120t217.5 -87q76 -23 115.5 -37t109.5 -43t109 -60.5t81 -77.5t61 -108.5t19 -138.5q0 -57 -10 -107.5t-46 -109.5t-94 -101t-162 -71t-243 -29z" />
<glyph unicode="T" horiz-adv-x="1134" d="M1104 1180h-406v-1180h-262v1180h-405v254h1073v-254z" />
<glyph unicode="U" horiz-adv-x="1470" d="M735 -29q-295 0 -444.5 171t-149.5 472v820h262v-732q0 -227 71 -353t261.5 -126t261 126t70.5 353v732h262v-820q0 -301 -149.5 -472t-444.5 -171z" />
<glyph unicode="V" horiz-adv-x="1345" d="M1339 1434l-503 -1434h-320l-516 1434h272l402 -1088l395 1088h270z" />
<glyph unicode="W" horiz-adv-x="1972" d="M1960 1434l-420 -1434h-231l-320 956l-317 -956h-248l-404 1434h273l287 -1018l319 1018h182l332 -992l275 992h272z" />
<glyph unicode="X" horiz-adv-x="1284" d="M1288 0h-303l-348 526l-338 -526h-301l506 715l-484 719h304l331 -504l303 504h302l-472 -691z" />
<glyph unicode="Y" horiz-adv-x="1224" d="M1239 1434l-496 -799v-635h-262v635l-495 799h278l348 -566l349 566h278z" />
<glyph unicode="Z" horiz-adv-x="1122" d="M1108 1434l-659 -1180h567v-254h-1000l660 1180h-567v254h999z" />
<glyph unicode="[" horiz-adv-x="686" d="M664 -279h-527v1815h527v-223h-295v-1368h295v-224z" />
<glyph unicode="\" horiz-adv-x="1128" d="M1090 -174h-275l-747 1608h274z" />
<glyph unicode="]" horiz-adv-x="696" d="M559 -279h-526v254h295v1307h-295v254h526v-1815z" />
<glyph unicode="^" horiz-adv-x="1046" d="M944 819l-422 434l-422 -434v301l422 434l422 -434v-301z" />
<glyph unicode="_" horiz-adv-x="1142" d="M1145 -266h-1147v192h1147v-192z" />
<glyph unicode="`" horiz-adv-x="620" d="M502 1198l-383 125v213l383 -186v-152z" />
<glyph unicode="a" horiz-adv-x="1019" d="M997 188l-22 -208h-92q-166 0 -230 118q-105 -118 -310 -118h-3q-127 0 -212 82.5t-85 224.5q0 102 60.5 177t156.5 112.5t185.5 56t172.5 20.5q-4 90 -46 129t-138 39q-123 0 -280 -78l-23 207q186 90 373 90q371 0 370 -411v-277q0 -111 16.5 -137.5t74.5 -26.5h32z M621 248v233q-123 -6 -217.5 -53t-94.5 -131q0 -123 137 -123q99 0 175 74z" />
<glyph unicode="b" horiz-adv-x="1169" d="M610 -20q-139 0 -252 77l-4 -57h-237v1536h254v-563q101 67 235 67h4q236 0 369 -152.5t133 -377.5t-133 -377.5t-369 -152.5zM594 831q-119 0 -177.5 -86t-58.5 -235.5t58.5 -235.5t177.5 -86q121 0 189.5 88.5t68.5 233.5t-68.5 233t-189.5 88z" />
<glyph unicode="c" horiz-adv-x="917" d="M555 -20q-236 0 -367 151.5t-131 378.5t131 378.5t367 151.5q186 0 307 -75l-22 -217q-126 83 -262 83h-3q-121 0 -189.5 -88t-68.5 -233t69 -233.5t189 -88.5q137 0 265 84l22 -217q-121 -75 -307 -75z" />
<glyph unicode="d" horiz-adv-x="1169" d="M1053 0h-240l-4 57q-112 -77 -247 -77h-3q-236 0 -369 152.5t-133 377.5t133.5 377.5t368.5 152.5q137 0 240 -67v563h254v-1536zM575 831q-121 0 -189.5 -88t-68.5 -233t69 -233.5t189 -88.5q119 0 177.5 86t58.5 235.5t-58.5 235.5t-177.5 86z" />
<glyph unicode="e" horiz-adv-x="1054" d="M983 457h-661q20 -133 107 -201t198 -68q70 0 160 25t155 59l12 -215q-145 -77 -337 -77h-5q-266 0 -410.5 151.5t-144.5 378.5q0 223 132.5 376.5t359.5 153.5q197 0 323.5 -121.5t126.5 -322.5q0 -61 -16 -139zM557 831q-94 0 -151.5 -55t-77.5 -147h413q0 80 -45 141 t-139 61z" />
<glyph unicode="f" horiz-adv-x="696" d="M659 815h-225v-815h-254v815h-145l22 209h123v244q0 109 64.5 188.5t181.5 79.5q96 0 231 -12l-22 -211q-45 10 -109 10q-55 0 -73.5 -33t-18.5 -127v-139h225v-209z" />
<glyph unicode="g" horiz-adv-x="1026" d="M532 -512q-238 0 -360.5 89t-122.5 214q0 141 168 229q-92 57 -92 147.5t102 139.5q-157 112 -157 327q0 175 110.5 290.5t304.5 115.5q137 0 234 -61q82 45 219 45h66l-17 -160h-92q-35 0 -57 -2q61 -96 61 -225q0 -172 -109.5 -288t-304.5 -116q-51 0 -108 11 q-23 -10 -23 -33q0 -35 56.5 -51.5t199.5 -32.5q57 -8 100.5 -15.5t107 -30t103.5 -53t70.5 -85t30.5 -125.5q0 -152 -128.5 -241t-361.5 -89zM485 854q-92 0 -140 -58.5t-48 -158.5t48 -158.5t140 -58.5q90 0 138.5 58.5t48.5 158.5t-48.5 158.5t-138.5 58.5zM524 -61 q-55 6 -123 18q-141 -47 -141 -141q0 -68 68.5 -108t191.5 -40q121 0 199 37t78 102q0 35 -22.5 59.5t-69 38t-82.5 21t-99 13.5z" />
<glyph unicode="h" horiz-adv-x="1128" d="M1020 0h-254v551q0 143 -48 211.5t-155 68.5q-117 0 -192 -88v-743h-254v1536h254v-565q105 69 210 69h3q436 0 436 -489v-551z" />
<glyph unicode="i" horiz-adv-x="491" d="M373 1180h-254v254h254v-254zM373 0h-254v1024h254v-1024z" />
<glyph unicode="j" horiz-adv-x="491" d="M111 -496h-93l-22 209q84 0 103.5 23.5t19.5 140.5v1147h254v-1251q0 -119 -65.5 -194t-196.5 -75zM373 1180h-254v254h254v-254z" />
<glyph unicode="k" horiz-adv-x="993" d="M371 0h-254v1536h254v-932l325 420h287l-375 -492l375 -532h-287l-325 455v-455z" />
<glyph unicode="l" horiz-adv-x="538" d="M496 188l-23 -208h-92q-131 0 -196.5 74.5t-65.5 193.5v1288h254v-1184q0 -117 20.5 -140.5t102.5 -23.5z" />
<glyph unicode="m" horiz-adv-x="1773" d="M1665 0h-254v551q0 145 -43 212.5t-147 67.5q-115 0 -159 -53t-44 -145v-633h-252v551q0 162 -47 221t-158 59q-117 0 -188 -83v-748h-254v1024h209l14 -80q117 96 262 96q94 0 178 -39.5t136 -115.5q31 57 121.5 106t217.5 49q201 0 304.5 -133t103.5 -356v-551z" />
<glyph unicode="n" horiz-adv-x="1130" d="M1022 0h-254v551q0 143 -48 211.5t-155 68.5q-117 0 -192 -88v-743h-254v1024h237l4 -61q105 77 223 77h3q436 0 436 -489v-551z" />
<glyph unicode="o" horiz-adv-x="1150" d="M575.5 -20q-237.5 0 -378 153.5t-140.5 376.5t140.5 376.5t378 153.5t378 -153.5t140.5 -376.5t-140.5 -376.5t-378 -153.5zM575.5 831q-120.5 0 -189.5 -88t-69 -233t69 -233.5t189.5 -88.5t189.5 88.5t69 233.5t-69 233t-189.5 88z" />
<glyph unicode="p" horiz-adv-x="1171" d="M612 -20q-135 0 -239 69v-545h-254v1520h221l20 -59q112 75 248 75h4q236 0 369 -152.5t133 -377.5t-133 -377.5t-369 -152.5zM596 831q-119 0 -177.5 -86t-58.5 -235.5t58.5 -235.5t177.5 -86q121 0 189.5 88.5t68.5 233.5t-68.5 233t-189.5 88z" />
<glyph unicode="q" horiz-adv-x="1171" d="M559 -20q-236 0 -369 152.5t-133 377.5t133.5 377.5t368.5 152.5q139 0 252 -75l20 59h222v-1520h-254v545q-105 -69 -240 -69zM575 831q-121 0 -189.5 -88t-68.5 -233t69 -233.5t189 -88.5q119 0 177.5 86t58.5 235.5t-58.5 235.5t-177.5 86z" />
<glyph unicode="r" horiz-adv-x="700" d="M702 1040l-49 -239h-94q-61 0 -112.5 -29t-73.5 -74v-698h-254v1024h237l6 -109q121 125 273 125h67z" />
<glyph unicode="s" horiz-adv-x="866" d="M410 -20q-231 0 -347 75l23 217q51 -39 142 -70.5t173 -31.5q84 0 120 33t36 80q0 57 -46 86.5t-142 58.5q-57 16 -88 27.5t-77 35t-69.5 51t-42 71.5t-18.5 102q0 129 89 227t286 98q94 0 185 -22.5t136 -52.5l-22 -217q-43 43 -123 76.5t-158 33.5q-74 0 -122 -27.5 t-48 -85.5q0 -16 3 -29.5t11 -24.5t16.5 -20t25 -17.5t27.5 -13.5t33.5 -12t35 -11.5t40 -11.5t41.5 -11q129 -37 205 -104.5t76 -208.5q0 -301 -401 -301z" />
<glyph unicode="t" horiz-adv-x="704" d="M657 188l-22 -208h-182q-135 0 -205 78.5t-70 189.5v567h-145l22 209h123v225l254 27v-252h225v-209h-225v-463q0 -115 23.5 -139.5t132.5 -24.5h69z" />
<glyph unicode="u" horiz-adv-x="1130" d="M1012 0h-238l-4 61q-108 -81 -224 -81h-3q-434 0 -434 493v551h253v-551q0 -143 48.5 -211.5t154.5 -68.5q119 0 193 86v745h254v-1024z" />
<glyph unicode="v" horiz-adv-x="1015" d="M1010 1024l-394 -1024h-217l-393 1024h250l252 -709l252 709h250z" />
<glyph unicode="w" horiz-adv-x="1486" d="M1466 1024l-299 -1024h-213l-211 668l-211 -668h-213l-299 1024h248l176 -715l193 695h213l190 -695l179 715h247z" />
<glyph unicode="x" horiz-adv-x="1005" d="M985 0h-303l-186 289l-172 -289h-304l330 512l-330 512h304l186 -289l172 289h303l-332 -512z" />
<glyph unicode="y" horiz-adv-x="1099" d="M1096 1024l-641 -1520h-254l227 564l-426 956h283l262 -659l266 659h283z" />
<glyph unicode="z" horiz-adv-x="966" d="M926 1024l-453 -799h430v-225h-860l453 799h-433v225h863z" />
<glyph unicode="{" horiz-adv-x="653" d="M182 59q0 37 7.5 135.5t7.5 145.5q0 111 -36 175.5t-132 113.5q94 49 131 111.5t37 179.5q0 47 -7.5 144t-7.5 134q0 170 101.5 254t345.5 84v-223q-66 0 -104 -2t-67.5 -17.5t-43 -29t-21.5 -54.5t-9 -74.5t-1 -111.5q0 -27 3 -83t3 -85q0 -162 -104 -227 q104 -63 104 -211q0 -27 -3 -87.5t-3 -94.5q0 -78 1 -112t9 -76t21.5 -55t43 -28.5t67.5 -17.5t104 -2v-224q-240 0 -343.5 82t-103.5 256z" />
<glyph unicode="|" horiz-adv-x="479" d="M342 -430h-205v1966h205v-1966z" />
<glyph unicode="}" horiz-adv-x="653" d="M471 59q0 -174 -103.5 -256t-342.5 -82v224q66 0 103.5 2t67 17.5t43 28.5t21.5 55t9 76t1 112q0 35 -3 95t-3 87q0 147 105 211q-104 66 -105 227q0 29 3 85t3 83q0 78 -1 111.5t-9 74.5t-21.5 54.5t-43 29t-67.5 17.5t-103 2v223q244 0 345 -84t101 -254q0 -37 -7 -134 t-7 -144q0 -117 36.5 -179.5t131.5 -111.5q-96 -49 -132 -113.5t-36 -175.5q0 -47 7 -145.5t7 -135.5z" />
<glyph unicode="~" horiz-adv-x="954" d="M623 360q-59 0 -142.5 43t-118.5 43q-41 0 -65.5 -29.5t-32.5 -66.5l-170 41q10 96 87 152.5t169 56.5q68 0 138.5 -43t103.5 -43q45 0 77.5 30.5t39.5 65.5l155 -41q-14 -84 -78.5 -146.5t-162.5 -62.5z" />
<glyph unicode="&#xa1;" horiz-adv-x="471" d="M109 -512l41 1126h172l40 -1126h-253zM109 1024h253v-254h-253v254z" />
<glyph unicode="&#xa2;" horiz-adv-x="974" d="M623 182l30 -248h-196l32 252q-201 27 -310 173.5t-109 353.5t111.5 354t312.5 172l-37 293h196l-35 -291q150 -6 256 -74l-22 -217q-127 84 -264 84q-121 0 -189.5 -88t-68.5 -233.5t68.5 -233.5t189.5 -88q137 0 264 84l22 -217q-101 -66 -251 -76z" />
<glyph unicode="&#xa3;" horiz-adv-x="1075" d="M965 1237l-99 -125q-12 41 -22 64.5t-28.5 50t-46.5 39t-64 12.5q-51 0 -83 -21.5t-45.5 -67.5t-17.5 -90t-4 -116v-172h375l-41 -172h-342q-16 -238 -98 -426h497v-213h-883q203 242 242 639h-182l41 172h151v213q0 86 11.5 150.5t45.5 132t106.5 103.5t183.5 36 q252 0 303 -209z" />
<glyph unicode="&#xa4;" horiz-adv-x="1286" d="M1176 141l-123 -102l-154 203q-109 -59 -256 -59.5t-256 59.5l-151 -203l-123 102l147 199q-135 147 -135 372.5t137 372.5l-149 199l123 102l151 -202q115 59 256 59q143 0 256 -61l154 204l123 -102l-150 -201q135 -147 135 -370.5t-137 -372.5zM643 1034 q-121 0 -189.5 -88t-68.5 -233.5t68.5 -233.5t189.5 -88.5t189.5 88t68.5 234t-68.5 233.5t-189.5 88z" />
<glyph unicode="&#xa5;" horiz-adv-x="1445" d="M1391 1434l-500 -744h299l-53 -141h-283v-125h336l-53 -141h-283v-283h-262v283h-338l49 141h289v125h-338l49 141h252l-500 744h273l395 -566l395 566h273z" />
<glyph unicode="&#xa6;" horiz-adv-x="458" d="M319 582h-180v954h180v-954zM319 -430h-180v819h180v-819z" />
<glyph unicode="&#xa7;" horiz-adv-x="942" d="M686 381q88 -74 88 -213t-82 -240.5t-268 -101.5q-82 0 -170 25.5t-123 58.5l19 215q141 -102 264 -102q184 0 184 118q0 61 -53 102.5t-129 69t-153 64.5t-130 112.5t-53 190.5q0 227 174 301q-88 70 -88 213q0 139 83 240.5t269 101.5q82 0 170 -25.5t123 -58.5 l-18 -215q-141 102 -265 102q-184 0 -184 -118q0 -61 53.5 -102.5t129 -69t152.5 -64.5t130 -112.5t53 -190.5q0 -229 -176 -301zM403 836q-39 0 -84 -34t-45 -77q0 -152 269 -219q37 0 83 44t46 87q0 39 -19.5 69.5t-43 49t-67.5 36.5q-44 20 -68 26z" />
<glyph unicode="&#xa8;" horiz-adv-x="864" d="M686 1217h-199v217h199v-217zM377 1217h-199v217h199v-217z" />
<glyph unicode="&#xa9;" horiz-adv-x="1435" d="M718.5 76q-278.5 0 -457.5 186.5t-179 485.5q0 301 179 486t457.5 185t457 -185t178.5 -486.5t-178.5 -486.5t-457 -185zM719 1276q-233 0 -356 -145.5t-123 -383t122.5 -384t356.5 -146.5q231 0 354 146.5t123 384t-123 383t-354 145.5zM735 389q-147 0 -241.5 98.5 t-94.5 255.5q0 160 93.5 258.5t242.5 98.5q106 0 209 -47l-20 -174q-113 47 -189 47q-72 0 -110.5 -48.5t-38.5 -134.5q0 -84 39 -133t110 -49q82 0 189 51l20 -172q-90 -51 -209 -51z" />
<glyph unicode="&#xaa;" horiz-adv-x="739" d="M666 1063l-9 -174q-186 0 -235 41q-43 -41 -193 -41q-68 0 -118 48t-50 140q0 57 40 101.5t100.5 66t106.5 31.5t79 12q-2 0 -9 9.5t-24.5 18.5t-48.5 9q-41 0 -103.5 -14.5t-78.5 -16.5l-10 166q129 39 252 39q94 0 164.5 -46t70.5 -122v-219q0 -49 33 -49h33zM389 1026 v127q-102 -23 -102 -72q0 -27 21.5 -43t51.5 -16q9 0 29 4z" />
<glyph unicode="&#xab;" horiz-adv-x="1243" d="M1167 160h-301l-311 422l311 422h301l-311 -422zM635 160h-301l-311 422l311 422h301l-311 -422z" />
<glyph unicode="&#xac;" horiz-adv-x="1204" d="M1065 309h-193v330h-749v192h942v-522z" />
<glyph unicode="&#xad;" horiz-adv-x="856" d="M745 471h-634v193h634v-193z" />
<glyph unicode="&#xae;" horiz-adv-x="1435" d="M718.5 76q-278.5 0 -457.5 186.5t-179 485.5q0 301 179 486t457.5 185t457 -185t178.5 -486.5t-178.5 -486.5t-457 -185zM718.5 1274q-231.5 0 -354 -144.5t-122.5 -381.5q0 -236 122.5 -382.5t354 -146.5t353.5 146.5t122 382.5q0 238 -122 382t-353.5 144zM1020 416 h-191l-127 229h-61v-229h-180v686h260q244 0 244 -225q0 -57 -29 -105.5t-68 -73.5zM694 948h-53v-137h49q53 0 71.5 17.5t18.5 52t-16.5 51t-69.5 16.5z" />
<glyph unicode="&#xb0;" horiz-adv-x="665" d="M332 987q-123 0 -197 80t-74 198.5t74 199.5t197 81q125 0 198.5 -81t73.5 -199.5t-73.5 -198.5t-198.5 -80zM332 1442q-61 0 -96 -48t-35 -128t34.5 -127t96.5 -47q63 0 97 47t34 127t-34 128t-97 48z" />
<glyph unicode="&#xb1;" horiz-adv-x="997" d="M877 635h-283v-262h-193v262h-282v192h282v263h193v-263h283v-192zM877 61h-758v193h758v-193z" />
<glyph unicode="&#xb2;" horiz-adv-x="632" d="M565 655h-530q319 438 319 553q0 88 -73 88q-37 0 -72 -18t-58.5 -45t-37 -46.5t-21.5 -33.5l-24 178q63 115 247 115q119 0 171.5 -61.5t52.5 -141.5q0 -135 -166 -385h192v-203z" />
<glyph unicode="&#xb3;" horiz-adv-x="624" d="M254 639q-66 0 -136.5 21.5t-82.5 39.5l49 185q63 -45 156 -45q137 0 137 45q0 117 -90 116h-135l14 148h70q39 0 64.5 13.5t32.5 26.5t7 23q0 76 -129 76q-68 0 -96 -26l-27 133q25 23 78 37t102 14q78 0 134.5 -21.5t82 -57.5t36.5 -69.5t11 -68.5q0 -37 -9 -72 t-17 -52.5t-14 -19.5q6 -14 26.5 -42.5t32.5 -61.5t12 -80q0 -123 -91 -192.5t-218 -69.5z" />
<glyph unicode="&#xb4;" horiz-adv-x="620" d="M502 1323l-383 -125v152l383 186v-213z" />
<glyph unicode="&#xb5;" horiz-adv-x="1247" d="M1167 188l-22 -208h-92q-156 0 -222 106q-45 -43 -115.5 -72.5t-137.5 -29.5q-102 0 -183 28v-508h-254v1520h254v-551q0 -143 48.5 -211.5t154.5 -68.5q119 0 193 86v745h253v-672q0 -111 16.5 -137.5t74.5 -26.5h32z" />
<glyph unicode="&#xb6;" d="M1188 1214h-141v-1214h-181v1214h-127v-1214h-141v469q-250 14 -390 156.5t-140 328.5q0 195 154.5 337.5t432.5 142.5h533v-220z" />
<glyph unicode="&#xb7;" horiz-adv-x="475" d="M365 436h-254v266h254v-266z" />
<glyph unicode="&#xb8;" horiz-adv-x="620" d="M621 -106l-205 -273l-152 -18l144 272z" />
<glyph unicode="&#xb9;" horiz-adv-x="452" d="M334 655h-197v519l-80 -17v152q39 0 76 38.5t45 82.5h156v-775z" />
<glyph unicode="&#xba;" horiz-adv-x="772" d="M385.5 889q-149.5 0 -239 90t-89.5 215t89.5 215t239 90t238.5 -90t89 -215t-89 -215t-238.5 -90zM385 1341q-51 0 -82 -44t-31 -103t31 -103t82 -44t82 44t31 103t-31 103t-82 44z" />
<glyph unicode="&#xbb;" horiz-adv-x="1243" d="M1221 582l-312 -422h-301l312 422l-312 422h301zM688 582l-311 -422h-301l311 422l-311 422h301z" />
<glyph unicode="&#xbc;" horiz-adv-x="1507" d="M365 655h-197v519l-80 -17v152q39 0 76 38.5t45 82.5h156v-775zM1143 1434l-748 -1608h-274l747 1608h275zM1440 211h-101v-211h-196v211h-359l383 563h172v-418h101v-145zM1143 356v156l-111 -156h111z" />
<glyph unicode="&#xbd;" horiz-adv-x="1501" d="M1137 1434l-748 -1608h-274l747 1608h275zM1430 0h-531q319 438 320 553q0 88 -74 88q-37 0 -72 -18.5t-59 -44.5q-23 -26 -36 -46l-22 -34l-24 178q63 115 248 115q119 0 171 -61.5t52 -141.5q0 -135 -166 -385h193v-203zM358 655h-196v519l-80 -17v152q39 0 76 38.5 t45 82.5h155v-775z" />
<glyph unicode="&#xbe;" horiz-adv-x="1851" d="M1479 1434l-748 -1608h-274l747 1608h275zM283 639q-66 0 -136.5 21.5t-83.5 39.5l50 185q63 -45 155 -45q137 0 138 45q0 117 -91 116h-135l15 148h69q39 0 64.5 13.5t33 26.5t7.5 23q0 76 -129 76q-68 0 -97 -26l-26 133q25 23 78 37t102 14q78 0 134 -21.5t82 -57.5 t37 -69.5t11 -68.5q0 -37 -9 -72t-17.5 -52.5t-14.5 -19.5q6 -14 26.5 -42.5t33 -61.5t12.5 -80q0 -123 -91 -192.5t-218 -69.5zM1782 211h-101v-211h-196v211h-359l383 563h172v-418h101v-145zM1485 356v156l-111 -156h111z" />
<glyph unicode="&#xbf;" horiz-adv-x="897" d="M412 614h172q6 -92 6 -108q0 -86 -40 -175t-88 -151.5t-88 -144.5t-40 -156q0 -94 57.5 -142t149.5 -48q160 0 254 133l57 -189q-98 -145 -328 -145q-203 0 -316.5 124t-113.5 265q0 68 33 139.5t80 135.5l93 128q46 66 79 146t33 162v26zM371 1024h254v-254h-254v254z " />
<glyph unicode="&#xc0;" d="M1274 0h-273l-122 346h-478l-122 -346h-273l510 1434h248zM788 600l-149 420l-147 -420h296zM831 1608l-382 125v213l382 -187v-151z" />
<glyph unicode="&#xc1;" d="M1274 0h-273l-122 346h-478l-122 -346h-273l510 1434h248zM788 600l-149 420l-147 -420h296zM831 1733l-382 -125v151l382 187v-213z" />
<glyph unicode="&#xc2;" d="M1274 0h-273l-122 346h-478l-122 -346h-273l510 1434h248zM788 600l-149 420l-147 -420h296zM940 1608l-301 145l-301 -145v151l301 187l301 -187v-151z" />
<glyph unicode="&#xc3;" d="M1274 0h-273l-122 346h-478l-122 -346h-273l510 1434h248zM788 600l-149 420l-147 -420h296zM782 1636q-59 0 -142 43t-118 43q-41 0 -65.5 -29.5t-32.5 -66.5l-170 41q10 96 87 152.5t169 56.5q68 0 138.5 -43t103.5 -43q45 0 77.5 30.5t38.5 65.5l156 -41 q-14 -84 -79 -146.5t-163 -62.5z" />
<glyph unicode="&#xc4;" d="M1274 0h-273l-122 346h-478l-122 -346h-273l510 1434h248zM788 600l-149 420l-147 -420h296zM893 1626h-199v217h199v-217zM584 1626h-199v217h199v-217z" />
<glyph unicode="&#xc5;" d="M1274 0h-273l-122 346h-478l-122 -346h-273l510 1434h248zM788 600l-149 420l-147 -420h296zM639 1589q-96 0 -154.5 52.5t-58.5 130t58.5 131t154.5 53.5t154.5 -53.5t58.5 -131t-58.5 -130t-154.5 -52.5zM639 1855q-39 0 -64.5 -23.5t-25.5 -60t25.5 -60t64.5 -23.5 t64.5 23.5t25.5 60t-25.5 60t-64.5 23.5z" />
<glyph unicode="&#xc6;" horiz-adv-x="1775" d="M1706 0h-893v346h-397l-166 -346h-273l699 1434h1012v-254h-607v-306h467v-253h-467v-367h625v-254zM813 600v574l-276 -574h276z" />
<glyph unicode="&#xc7;" horiz-adv-x="1249" d="M778 -29q-311 0 -508.5 206t-197.5 540t197.5 539.5t508.5 205.5q236 0 408 -84l-29 -250q-207 82 -379 82q-203 0 -311.5 -135t-108.5 -358t108.5 -358.5t311.5 -135.5q172 0 379 82l29 -250q-172 -84 -408 -84zM801 -106l-205 -273l-152 -18l144 272z" />
<glyph unicode="&#xc8;" horiz-adv-x="1163" d="M1096 0h-938v1434h917v-254h-649v-306h504v-253h-504v-367h670v-254zM752 1608l-383 125v213l383 -187v-151z" />
<glyph unicode="&#xc9;" horiz-adv-x="1163" d="M1096 0h-938v1434h917v-254h-649v-306h504v-253h-504v-367h670v-254zM752 1733l-383 -125v151l383 187v-213z" />
<glyph unicode="&#xca;" horiz-adv-x="1163" d="M1096 0h-938v1434h917v-254h-649v-306h504v-253h-504v-367h670v-254zM860 1608l-301 145l-301 -145v151l301 187l301 -187v-151z" />
<glyph unicode="&#xcb;" horiz-adv-x="1163" d="M1096 0h-938v1434h917v-254h-649v-306h504v-253h-504v-367h670v-254zM813 1626h-199v217h199v-217zM504 1626h-199v217h199v-217z" />
<glyph unicode="&#xcc;" horiz-adv-x="577" d="M420 0h-262v1434h262v-1434zM481 1608l-383 125v213l383 -187v-151z" />
<glyph unicode="&#xcd;" horiz-adv-x="577" d="M420 0h-262v1434h262v-1434zM481 1733l-383 -125v151l383 187v-213z" />
<glyph unicode="&#xce;" horiz-adv-x="577" d="M420 0h-262v1434h262v-1434zM590 1608l-301 145l-301 -145v151l301 187l301 -187v-151z" />
<glyph unicode="&#xcf;" horiz-adv-x="577" d="M420 0h-262v1434h262v-1434zM543 1626h-199v217h199v-217zM233 1626h-198v217h198v-217z" />
<glyph unicode="&#xd0;" horiz-adv-x="1497" d="M717 0h-537v612h-188v193h188v629h537q313 0 509.5 -192.5t196.5 -524.5t-196.5 -524.5t-509.5 -192.5zM717 1182h-275v-377h250v-193h-250v-360h275q205 0 312.5 123t107.5 342t-107.5 342t-312.5 123z" />
<glyph unicode="&#xd1;" horiz-adv-x="1447" d="M1290 0h-215l-655 983v-983h-262v1434h258l612 -926v926h262v-1434zM866 1636q-59 0 -142 43t-118 43q-41 0 -65.5 -29.5t-32.5 -66.5l-170 41q10 96 87 152.5t169 56.5q68 0 138.5 -43t103.5 -43q45 0 77.5 30.5t38.5 65.5l156 -41q-14 -84 -79 -146.5t-163 -62.5z" />
<glyph unicode="&#xd2;" horiz-adv-x="1556" d="M778.5 -29q-311.5 0 -509 206t-197.5 540t197.5 539.5t509 205.5t509 -205.5t197.5 -539.5t-197.5 -540t-509 -206zM778 1210q-203 0 -311.5 -135t-108.5 -358t108.5 -358.5t311.5 -135.5t311.5 135.5t108.5 358.5t-108.5 358t-311.5 135zM969 1608l-383 125v213 l383 -187v-151z" />
<glyph unicode="&#xd3;" horiz-adv-x="1556" d="M778.5 -29q-311.5 0 -509 206t-197.5 540t197.5 539.5t509 205.5t509 -205.5t197.5 -539.5t-197.5 -540t-509 -206zM778 1210q-203 0 -311.5 -135t-108.5 -358t108.5 -358.5t311.5 -135.5t311.5 135.5t108.5 358.5t-108.5 358t-311.5 135zM969 1733l-383 -125v151 l383 187v-213z" />
<glyph unicode="&#xd4;" horiz-adv-x="1556" d="M778.5 -29q-311.5 0 -509 206t-197.5 540t197.5 539.5t509 205.5t509 -205.5t197.5 -539.5t-197.5 -540t-509 -206zM778 1210q-203 0 -311.5 -135t-108.5 -358t108.5 -358.5t311.5 -135.5t311.5 135.5t108.5 358.5t-108.5 358t-311.5 135zM1079 1608l-301 145l-301 -145 v151l301 187l301 -187v-151z" />
<glyph unicode="&#xd5;" horiz-adv-x="1556" d="M778.5 -29q-311.5 0 -509 206t-197.5 540t197.5 539.5t509 205.5t509 -205.5t197.5 -539.5t-197.5 -540t-509 -206zM778 1210q-203 0 -311.5 -135t-108.5 -358t108.5 -358.5t311.5 -135.5t311.5 135.5t108.5 358.5t-108.5 358t-311.5 135zM922 1636q-59 0 -142.5 43 t-117.5 43q-41 0 -66 -29.5t-33 -66.5l-170 41q10 96 87 152.5t169 56.5q68 0 138.5 -43t103.5 -43q45 0 77.5 30.5t39.5 65.5l155 -41q-14 -84 -78.5 -146.5t-162.5 -62.5z" />
<glyph unicode="&#xd6;" horiz-adv-x="1556" d="M778.5 -29q-311.5 0 -509 206t-197.5 540t197.5 539.5t509 205.5t509 -205.5t197.5 -539.5t-197.5 -540t-509 -206zM778 1210q-203 0 -311.5 -135t-108.5 -358t108.5 -358.5t311.5 -135.5t311.5 135.5t108.5 358.5t-108.5 358t-311.5 135zM1032 1626h-198v217h198v-217z M723 1626h-199v217h199v-217z" />
<glyph unicode="&#xd7;" horiz-adv-x="917" d="M803 348l-125 -125l-219 219l-219 -219l-125 125l219 219l-219 219l125 125l219 -219l219 219l125 -125l-219 -219z" />
<glyph unicode="&#xd8;" horiz-adv-x="1556" d="M778 -29q-178 0 -329 74l-74 -108h-275l166 241q-195 207 -194 539q0 334 197.5 539.5t508.5 205.5q174 0 320 -69l51 73h274l-141 -206q203 -207 203 -543q0 -334 -198 -540t-509 -206zM1122 1028l-526 -770q80 -35 182 -35q203 0 311.5 135.5t108.5 358.5 q0 186 -76 311zM778 1210q-203 0 -311.5 -135t-108.5 -358q0 -182 70 -303l522 764q-78 32 -172 32z" />
<glyph unicode="&#xd9;" horiz-adv-x="1470" d="M735 -29q-295 0 -444.5 171t-149.5 472v820h262v-732q0 -227 71 -353t261.5 -126t261 126t70.5 353v732h262v-820q0 -301 -149.5 -472t-444.5 -171zM926 1608l-383 125v213l383 -187v-151z" />
<glyph unicode="&#xda;" horiz-adv-x="1470" d="M735 -29q-295 0 -444.5 171t-149.5 472v820h262v-732q0 -227 71 -353t261.5 -126t261 126t70.5 353v732h262v-820q0 -301 -149.5 -472t-444.5 -171zM926 1733l-383 -125v151l383 187v-213z" />
<glyph unicode="&#xdb;" horiz-adv-x="1470" d="M735 -29q-295 0 -444.5 171t-149.5 472v820h262v-732q0 -227 71 -353t261.5 -126t261 126t70.5 353v732h262v-820q0 -301 -149.5 -472t-444.5 -171zM1036 1608l-301 145l-301 -145v151l301 187l301 -187v-151z" />
<glyph unicode="&#xdc;" horiz-adv-x="1470" d="M735 -29q-295 0 -444.5 171t-149.5 472v820h262v-732q0 -227 71 -353t261.5 -126t261 126t70.5 353v732h262v-820q0 -301 -149.5 -472t-444.5 -171zM989 1626h-198v217h198v-217zM680 1626h-199v217h199v-217z" />
<glyph unicode="&#xdd;" horiz-adv-x="1224" d="M1239 1434l-496 -799v-635h-262v635l-495 799h278l348 -566l349 566h278zM803 1733l-383 -125v151l383 187v-213z" />
<glyph unicode="&#xde;" horiz-adv-x="1155" d="M514 395h-94v-395h-262v1434h262v-269h94q125 0 212 -7t167 -30.5t126 -63.5t73.5 -106.5t27.5 -160.5q0 -223 -146.5 -312.5t-459.5 -89.5zM582 965h-162v-373h162q150 0 211 48t61 144q0 98 -59 139.5t-213 41.5z" />
<glyph unicode="&#xdf;" horiz-adv-x="1157" d="M662 -31q-68 0 -123 11v190q92 0 139 3t92 16.5t62.5 41t17.5 76.5q0 74 -44 139.5t-96.5 104.5t-96.5 89t-44 97q0 45 45 103.5t90.5 135.5t45.5 163q0 94 -47.5 137t-114.5 43q-74 0 -116 -47t-42 -125v-1426h-250v1094h-145l22 209h123v113q0 174 127 286.5t283 112.5 q66 0 132 -22.5t128.5 -65.5t102.5 -121t40 -176q0 -76 -24.5 -147.5t-52.5 -113.5l-54 -81q-24 -39 -24 -57q0 -25 43 -65t95 -82t95 -123t43 -177q0 -176 -125.5 -256t-326.5 -80z" />
<glyph unicode="&#xe0;" horiz-adv-x="1019" d="M997 188l-22 -208h-92q-166 0 -230 118q-106 -119 -313 -118q-127 0 -212 82.5t-85 224.5q0 102 60.5 177t156.5 112.5t185.5 56t172.5 20.5q-4 90 -46 129t-138 39q-123 0 -280 -78l-23 207q186 90 373 90q371 0 370 -411v-277q0 -111 16.5 -137.5t74.5 -26.5h32z M621 248v233q-123 -6 -217.5 -53t-94.5 -131q0 -123 137 -123q99 0 175 74zM702 1198l-383 125v213l383 -186v-152z" />
<glyph unicode="&#xe1;" horiz-adv-x="1019" d="M997 188l-22 -208h-92q-166 0 -230 118q-106 -119 -313 -118q-127 0 -212 82.5t-85 224.5q0 102 60.5 177t156.5 112.5t185.5 56t172.5 20.5q-4 90 -46 129t-138 39q-123 0 -280 -78l-23 207q186 90 373 90q371 0 370 -411v-277q0 -111 16.5 -137.5t74.5 -26.5h32z M621 248v233q-123 -6 -217.5 -53t-94.5 -131q0 -123 137 -123q99 0 175 74zM702 1323l-383 -125v152l383 186v-213z" />
<glyph unicode="&#xe2;" horiz-adv-x="1019" d="M997 188l-22 -208h-92q-166 0 -230 118q-106 -119 -313 -118q-127 0 -212 82.5t-85 224.5q0 102 60.5 177t156.5 112.5t185.5 56t172.5 20.5q-4 90 -46 129t-138 39q-123 0 -280 -78l-23 207q186 90 373 90q371 0 370 -411v-277q0 -111 16.5 -137.5t74.5 -26.5h32z M621 248v233q-123 -6 -217.5 -53t-94.5 -131q0 -123 137 -123q99 0 175 74zM813 1198l-301 145l-301 -145v152l301 186l301 -186v-152z" />
<glyph unicode="&#xe3;" horiz-adv-x="1019" d="M997 188l-22 -208h-92q-166 0 -230 118q-106 -119 -313 -118q-127 0 -212 82.5t-85 224.5q0 102 60.5 177t156.5 112.5t185.5 56t172.5 20.5q-4 90 -46 129t-138 39q-123 0 -280 -78l-23 207q186 90 373 90q371 0 370 -411v-277q0 -111 16.5 -137.5t74.5 -26.5h32z M621 248v233q-123 -6 -217.5 -53t-94.5 -131q0 -123 137 -123q99 0 175 74zM649 1227q-59 0 -142 43t-118 43q-41 0 -65.5 -30t-32.5 -66l-170 40q10 96 87 152.5t169 56.5q68 0 138.5 -43t102.5 -43q45 0 78 31t39 66l156 -41q-14 -84 -79 -146.5t-163 -62.5z" />
<glyph unicode="&#xe4;" horiz-adv-x="1019" d="M997 188l-22 -208h-92q-166 0 -230 118q-106 -119 -313 -118q-127 0 -212 82.5t-85 224.5q0 102 60.5 177t156.5 112.5t185.5 56t172.5 20.5q-4 90 -46 129t-138 39q-123 0 -280 -78l-23 207q186 90 373 90q371 0 370 -411v-277q0 -111 16.5 -137.5t74.5 -26.5h32z M621 248v233q-123 -6 -217.5 -53t-94.5 -131q0 -123 137 -123q99 0 175 74zM766 1217h-199v217h199v-217zM457 1217h-199v217h199v-217z" />
<glyph unicode="&#xe5;" horiz-adv-x="1019" d="M997 188l-22 -208h-92q-166 0 -230 118q-106 -119 -313 -118q-127 0 -212 82.5t-85 224.5q0 102 60.5 177t156.5 112.5t185.5 56t172.5 20.5q-4 90 -46 129t-138 39q-123 0 -280 -78l-23 207q186 90 373 90q371 0 370 -411v-277q0 -111 16.5 -137.5t74.5 -26.5h32z M621 248v233q-123 -6 -217.5 -53t-94.5 -131q0 -123 137 -123q99 0 175 74zM512 1180q-96 0 -154.5 52t-58.5 130t58.5 131t154.5 53t154.5 -53t58.5 -131t-58.5 -130t-154.5 -52zM512 1446q-39 0 -64.5 -23.5t-25.5 -60.5t25.5 -60.5t64.5 -23.5t64.5 23.5t25.5 60.5 t-25.5 60.5t-64.5 23.5z" />
<glyph unicode="&#xe6;" horiz-adv-x="1626" d="M1552 457h-649q20 -135 101 -202t192 -67q70 0 160 25t155 59l13 -215q-147 -78 -340 -77q-303 0 -410 192q-160 -203 -397 -203q-160 0 -248 78t-88 213q0 90 42 159.5t102.5 108.5t144.5 66t150.5 36t137.5 13q-4 96 -45 137t-141 41q-123 0 -280 -78l-23 207 q186 90 371 90q123 0 198.5 -41t110.5 -141q27 70 128 126t226 56q180 0 293 -120.5t113 -319.5q-1 -65 -17 -143zM1155 831q-92 0 -159.5 -56t-86.5 -146h432q0 82 -45 142t-141 60zM635 471q-123 -2 -225.5 -49t-102.5 -139q0 -53 36 -85t87 -32q78 0 142.5 66.5 t64.5 181.5q0 34 -2 57z" />
<glyph unicode="&#xe7;" horiz-adv-x="919" d="M555 -20q-236 0 -367 151.5t-131 378.5t131 378.5t367 151.5q186 0 307 -75l-22 -217q-127 84 -265 83q-121 0 -189.5 -88t-68.5 -233t69 -233.5t189 -88.5q137 0 265 84l22 -217q-121 -75 -307 -75zM696 -106l-204 -273l-152 -18l143 272z" />
<glyph unicode="&#xe8;" horiz-adv-x="1054" d="M983 457h-661q20 -133 107 -201t198 -68q70 0 160 25t155 59l12 -215q-147 -78 -342 -77q-266 0 -410.5 151.5t-144.5 378.5q0 223 132.5 376.5t359.5 153.5q197 0 323.5 -121.5t126.5 -322.5q0 -61 -16 -139zM557 831q-94 0 -151.5 -55t-77.5 -147h413q0 80 -45 141 t-139 61zM719 1198l-383 125v213l383 -186v-152z" />
<glyph unicode="&#xe9;" horiz-adv-x="1054" d="M983 457h-661q20 -133 107 -201t198 -68q70 0 160 25t155 59l12 -215q-147 -78 -342 -77q-266 0 -410.5 151.5t-144.5 378.5q0 223 132.5 376.5t359.5 153.5q197 0 323.5 -121.5t126.5 -322.5q0 -61 -16 -139zM557 831q-94 0 -151.5 -55t-77.5 -147h413q0 80 -45 141 t-139 61zM719 1323l-383 -125v152l383 186v-213z" />
<glyph unicode="&#xea;" horiz-adv-x="1054" d="M983 457h-661q20 -133 107 -201t198 -68q70 0 160 25t155 59l12 -215q-147 -78 -342 -77q-266 0 -410.5 151.5t-144.5 378.5q0 223 132.5 376.5t359.5 153.5q197 0 323.5 -121.5t126.5 -322.5q0 -61 -16 -139zM557 831q-94 0 -151.5 -55t-77.5 -147h413q0 80 -45 141 t-139 61zM827 1198l-301 145l-301 -145v152l301 186l301 -186v-152z" />
<glyph unicode="&#xeb;" horiz-adv-x="1054" d="M983 457h-661q20 -133 107 -201t198 -68q70 0 160 25t155 59l12 -215q-147 -78 -342 -77q-266 0 -410.5 151.5t-144.5 378.5q0 223 132.5 376.5t359.5 153.5q197 0 323.5 -121.5t126.5 -322.5q0 -61 -16 -139zM557 831q-94 0 -151.5 -55t-77.5 -147h413q0 80 -45 141 t-139 61zM780 1217h-198v217h198v-217zM471 1217h-199v217h199v-217z" />
<glyph unicode="&#xec;" horiz-adv-x="491" d="M373 0h-254v1024h254v-1024zM438 1198l-383 125v213l383 -186v-152z" />
<glyph unicode="&#xed;" horiz-adv-x="491" d="M373 0h-254v1024h254v-1024zM438 1323l-383 -125v152l383 186v-213z" />
<glyph unicode="&#xee;" horiz-adv-x="491" d="M373 0h-254v1024h254v-1024zM547 1198l-301 145l-301 -145v152l301 186l301 -186v-152z" />
<glyph unicode="&#xef;" horiz-adv-x="491" d="M373 0h-254v1024h254v-1024zM500 1217h-199v217h199v-217zM190 1217h-198v217h198v-217z" />
<glyph unicode="&#xf0;" horiz-adv-x="1026" d="M496 -27q-199 0 -331 126t-132 321q0 180 114.5 316t319.5 136q137 0 240 -79q-8 70 -50.5 174t-89.5 135q-135 -102 -280 -117l-80 150q106 0 246 90q-119 100 -242 102l84 109q154 -4 297 -107q76 70 115 127l137 -33q-80 -125 -142 -192q121 -129 193 -312.5 t72 -390.5q0 -156 -43 -269.5t-115 -172.5t-149.5 -86t-163.5 -27zM494 674q-104 0 -162 -68.5t-58 -154.5q0 -113 58.5 -192t167.5 -79q92 0 156.5 61.5t64.5 182.5q0 119 -58 184.5t-169 65.5z" />
<glyph unicode="&#xf1;" horiz-adv-x="1130" d="M1022 0h-254v551q0 143 -48 211.5t-155 68.5q-117 0 -192 -88v-743h-254v1024h237l4 -61q106 78 226 77q436 0 436 -489v-551zM709 1227q-59 0 -142.5 43t-117.5 43q-41 0 -66 -30t-33 -66l-170 40q10 96 87 152.5t169 56.5q68 0 138.5 -43t103.5 -43q45 0 77.5 31 t39.5 66l155 -41q-14 -84 -78.5 -146.5t-162.5 -62.5z" />
<glyph unicode="&#xf2;" horiz-adv-x="1150" d="M575.5 -20q-237.5 0 -378 153.5t-140.5 376.5t140.5 376.5t378 153.5t378 -153.5t140.5 -376.5t-140.5 -376.5t-378 -153.5zM575.5 831q-120.5 0 -189.5 -88t-69 -233t69 -233.5t189.5 -88.5t189.5 88.5t69 233.5t-69 233t-189.5 88zM766 1198l-383 125v213l383 -186 v-152z" />
<glyph unicode="&#xf3;" horiz-adv-x="1150" d="M575.5 -20q-237.5 0 -378 153.5t-140.5 376.5t140.5 376.5t378 153.5t378 -153.5t140.5 -376.5t-140.5 -376.5t-378 -153.5zM575.5 831q-120.5 0 -189.5 -88t-69 -233t69 -233.5t189.5 -88.5t189.5 88.5t69 233.5t-69 233t-189.5 88zM766 1323l-383 -125v152l383 186 v-213z" />
<glyph unicode="&#xf4;" horiz-adv-x="1150" d="M575.5 -20q-237.5 0 -378 153.5t-140.5 376.5t140.5 376.5t378 153.5t378 -153.5t140.5 -376.5t-140.5 -376.5t-378 -153.5zM575.5 831q-120.5 0 -189.5 -88t-69 -233t69 -233.5t189.5 -88.5t189.5 88.5t69 233.5t-69 233t-189.5 88zM877 1198l-302 145l-301 -145v152 l301 186l302 -186v-152z" />
<glyph unicode="&#xf5;" horiz-adv-x="1150" d="M575.5 -20q-237.5 0 -378 153.5t-140.5 376.5t140.5 376.5t378 153.5t378 -153.5t140.5 -376.5t-140.5 -376.5t-378 -153.5zM575.5 831q-120.5 0 -189.5 -88t-69 -233t69 -233.5t189.5 -88.5t189.5 88.5t69 233.5t-69 233t-189.5 88zM719 1227q-59 0 -142 43t-118 43 q-41 0 -65.5 -30t-33.5 -66l-170 40q10 96 87 152.5t169 56.5q68 0 138.5 -43t103.5 -43q45 0 78 31t39 66l156 -41q-14 -84 -79 -146.5t-163 -62.5z" />
<glyph unicode="&#xf6;" horiz-adv-x="1150" d="M575.5 -20q-237.5 0 -378 153.5t-140.5 376.5t140.5 376.5t378 153.5t378 -153.5t140.5 -376.5t-140.5 -376.5t-378 -153.5zM575.5 831q-120.5 0 -189.5 -88t-69 -233t69 -233.5t189.5 -88.5t189.5 88.5t69 233.5t-69 233t-189.5 88zM829 1217h-198v217h198v-217z M520 1217h-198v217h198v-217z" />
<glyph unicode="&#xf7;" horiz-adv-x="1148" d="M692 827h-254v267h254v-267zM1044 471h-942v193h942v-193zM692 41h-254v266h254v-266z" />
<glyph unicode="&#xf8;" horiz-adv-x="1150" d="M575 -20q-72 0 -143 16l-33 -70h-217l74 154q-96 72 -147.5 184.5t-51.5 245.5q0 223 140.5 376.5t377.5 153.5q68 0 138 -16l32 70h224l-76 -154q201 -154 201 -430q0 -223 -140.5 -376.5t-378.5 -153.5zM784 715l-256 -522q29 -4 47 -5q121 0 190 88.5t69 233.5 q-1 117 -50 205zM575 831q-121 0 -189.5 -88t-68.5 -233q0 -121 48 -205l251 522q-25 4 -41 4z" />
<glyph unicode="&#xf9;" horiz-adv-x="1130" d="M1012 0h-238l-4 61q-109 -82 -227 -81q-434 0 -434 493v551h253v-551q0 -143 48.5 -211.5t154.5 -68.5q119 0 193 86v745h254v-1024zM756 1198l-383 125v213l383 -186v-152z" />
<glyph unicode="&#xfa;" horiz-adv-x="1130" d="M1012 0h-238l-4 61q-109 -82 -227 -81q-434 0 -434 493v551h253v-551q0 -143 48.5 -211.5t154.5 -68.5q119 0 193 86v745h254v-1024zM756 1323l-383 -125v152l383 186v-213z" />
<glyph unicode="&#xfb;" horiz-adv-x="1130" d="M1012 0h-238l-4 61q-109 -82 -227 -81q-434 0 -434 493v551h253v-551q0 -143 48.5 -211.5t154.5 -68.5q119 0 193 86v745h254v-1024zM866 1198l-301 145l-301 -145v152l301 186l301 -186v-152z" />
<glyph unicode="&#xfc;" horiz-adv-x="1130" d="M1012 0h-238l-4 61q-109 -82 -227 -81q-434 0 -434 493v551h253v-551q0 -143 48.5 -211.5t154.5 -68.5q119 0 193 86v745h254v-1024zM819 1217h-198v217h198v-217zM510 1217h-199v217h199v-217z" />
<glyph unicode="&#xfd;" horiz-adv-x="1099" d="M1096 1024l-641 -1520h-254l227 564l-426 956h283l262 -659l266 659h283zM741 1323l-383 -125v152l383 186v-213z" />
<glyph unicode="&#xfe;" horiz-adv-x="1169" d="M610 -20q-135 0 -239 69v-545h-254v2032h254v-563q102 68 239 67q236 0 369 -152.5t133 -377.5t-133 -377.5t-369 -152.5zM594 831q-119 0 -177.5 -86t-58.5 -235.5t58.5 -235.5t177.5 -86q121 0 189.5 88.5t68.5 233.5t-68.5 233t-189.5 88z" />
<glyph unicode="&#xff;" horiz-adv-x="1099" d="M1096 1024l-641 -1520h-254l227 564l-426 956h283l262 -659l266 659h283zM803 1217h-199v217h199v-217zM494 1217h-199v217h199v-217z" />
<glyph unicode="&#x131;" horiz-adv-x="491" d="M373 0h-254v1024h254v-1024z" />
<glyph unicode="&#x152;" horiz-adv-x="2177" d="M2107 0h-893v113q-186 -141 -436 -142q-311 0 -508.5 206t-197.5 540t197.5 539.5t508.5 205.5q250 0 436 -141v113h875v-254h-606v-306h467v-253h-467v-367h624v-254zM778 1210q-203 0 -311.5 -135t-108.5 -358t108.5 -358.5t311.5 -135.5t311.5 135.5t108.5 358.5 t-108.5 358t-311.5 135z" />
<glyph unicode="&#x153;" horiz-adv-x="1832" d="M1761 457h-661q20 -133 107 -201t198 -68q70 0 160 25t155 59l13 -215q-147 -78 -342 -77q-276 0 -426 165q-143 -166 -390 -165q-238 0 -378 153.5t-140 376.5t140.5 376.5t377.5 153.5q240 0 386 -161q137 162 366 161q197 0 324 -121.5t127 -322.5q-1 -61 -17 -139z M1335.5 831q-94.5 0 -152 -55t-77.5 -147h414q0 80 -45 141t-139.5 61zM575.5 831q-120.5 0 -189.5 -88t-69 -233t69 -233.5t189.5 -88.5t189.5 88.5t69 233.5t-69 233t-189.5 88z" />
<glyph unicode="&#x160;" horiz-adv-x="1187" d="M573 -29q-154 0 -280.5 31t-194.5 74l31 299q66 -63 183.5 -107.5t267.5 -44.5q256 0 256 156q0 43 -20.5 78t-44 57.5t-79 48t-86.5 36.5l-104 36q-63 21 -89 31l-83 34q-56 24 -82.5 41t-65.5 48.5t-57.5 64.5t-32.5 79t-14 99q0 168 127 299t391 131q137 0 265 -34.5 t192 -75.5l-27 -269q-236 129 -420 129q-104 0 -183 -34.5t-79 -116.5q0 -78 71.5 -120t217.5 -87q76 -23 115.5 -37t109.5 -43t109 -60.5t81 -77.5t61 -108.5t19 -138.5q0 -57 -10 -107.5t-46 -109.5t-94 -101t-162 -71t-243 -29zM895 1794l-301 -186l-301 186v152 l301 -146l301 146v-152z" />
<glyph unicode="&#x161;" horiz-adv-x="866" d="M410 -20q-231 0 -347 75l23 217q51 -39 142 -70.5t173 -31.5q84 0 120 33t36 80q0 57 -46 86.5t-142 58.5q-57 16 -88 27.5t-77 35t-69.5 51t-42 71.5t-18.5 102q0 129 89 227t286 98q94 0 185 -22.5t136 -52.5l-22 -217q-43 43 -123 76.5t-158 33.5q-74 0 -122 -27.5 t-48 -85.5q0 -16 3 -29.5t11 -24.5t16.5 -20t25 -17.5t27.5 -13.5t33.5 -12t35 -11.5t40 -11.5t41.5 -11q129 -37 205 -104.5t76 -208.5q0 -301 -401 -301zM727 1384l-301 -186l-301 186v152l301 -145l301 145v-152z" />
<glyph unicode="&#x178;" horiz-adv-x="1224" d="M1239 1434l-496 -799v-635h-262v635l-495 799h278l348 -566l349 566h278zM866 1626h-198v217h198v-217zM557 1626h-199v217h199v-217z" />
<glyph unicode="&#x17d;" horiz-adv-x="1122" d="M1108 1434l-659 -1180h567v-254h-1000l660 1180h-567v254h999zM860 1794l-301 -186l-301 186v152l301 -146l301 146v-152z" />
<glyph unicode="&#x17e;" horiz-adv-x="966" d="M926 1024l-453 -799h430v-225h-860l453 799h-433v225h863zM784 1384l-301 -186l-301 186v152l301 -145l301 145v-152z" />
<glyph unicode="&#x192;" horiz-adv-x="727" d="M774 1438l-22 -193q-63 14 -99 15q-88 0 -126 -50.5t-60 -185.5h260l-16 -168h-271l-159 -1022q-27 -168 -102 -249t-146 -81h-64l-41 209q63 0 95 32t47 132l143 979h-160l19 168h166l12 80q27 166 131 262t250 96q69 1 143 -24z" />
<glyph unicode="&#x237;" horiz-adv-x="491" d="M111 -496h-93l-22 209q84 0 103.5 23.5t19.5 140.5v1147h254v-1251q0 -119 -65.5 -194t-196.5 -75z" />
<glyph unicode="&#x2c6;" horiz-adv-x="913" d="M758 1198l-301 145l-301 -145v152l301 186l301 -186v-152z" />
<glyph unicode="&#x2c7;" horiz-adv-x="913" d="M758 1384l-301 -186l-301 186v152l301 -145l301 145v-152z" />
<glyph unicode="&#x2da;" horiz-adv-x="598" d="M299 1180q-96 0 -154.5 52t-58.5 130t58.5 131t154.5 53t154.5 -53t58.5 -131t-58.5 -130t-154.5 -52zM299 1446q-39 0 -64.5 -23.5t-25.5 -60.5t25.5 -60.5t64.5 -23.5t64.5 23.5t25.5 60.5t-25.5 60.5t-64.5 23.5z" />
<glyph unicode="&#x2dc;" horiz-adv-x="1081" d="M684 1227q-59 0 -142 43t-118 43q-41 0 -65.5 -30t-32.5 -66l-170 40q10 96 86.5 152.5t169.5 56.5q68 0 138.5 -43t102.5 -43q45 0 78 31t39 66l156 -41q-14 -84 -79 -146.5t-163 -62.5z" />
<glyph unicode="&#x2000;" horiz-adv-x="978" />
<glyph unicode="&#x2001;" horiz-adv-x="1956" />
<glyph unicode="&#x2002;" horiz-adv-x="978" />
<glyph unicode="&#x2003;" horiz-adv-x="1956" />
<glyph unicode="&#x2004;" horiz-adv-x="652" />
<glyph unicode="&#x2005;" horiz-adv-x="489" />
<glyph unicode="&#x2006;" horiz-adv-x="326" />
<glyph unicode="&#x2007;" horiz-adv-x="326" />
<glyph unicode="&#x2008;" horiz-adv-x="244" />
<glyph unicode="&#x2009;" horiz-adv-x="391" />
<glyph unicode="&#x200a;" horiz-adv-x="108" />
<glyph unicode="&#x2010;" horiz-adv-x="856" d="M745 471h-634v193h634v-193z" />
<glyph unicode="&#x2011;" horiz-adv-x="856" d="M745 471h-634v193h634v-193z" />
<glyph unicode="&#x2012;" horiz-adv-x="856" d="M745 471h-634v193h634v-193z" />
<glyph unicode="&#x2013;" horiz-adv-x="1015" d="M905 471h-794v193h794v-193z" />
<glyph unicode="&#x2014;" horiz-adv-x="1204" d="M1094 471h-983v193h983v-193z" />
<glyph unicode="&#x2018;" horiz-adv-x="430" d="M88 1311l201 225l53 -29l-68 -176l68 -20v-267h-254v267z" />
<glyph unicode="&#x2019;" horiz-adv-x="393" d="M338 1270l-201 -226l-53 29l68 176l-68 21v266h254v-266z" />
<glyph unicode="&#x201a;" horiz-adv-x="475" d="M365 0l-201 -225l-53 28l67 177l-67 20v266h254v-266z" />
<glyph unicode="&#x201c;" horiz-adv-x="860" d="M88 1311l201 225l53 -29l-68 -176l68 -20v-267h-254v267zM518 1311l201 225l53 -29l-67 -176l67 -20v-267h-254v267z" />
<glyph unicode="&#x201d;" horiz-adv-x="823" d="M768 1270l-201 -226l-53 29l68 176l-68 21v266h254v-266zM338 1270l-201 -226l-53 29l68 176l-68 21v266h254v-266z" />
<glyph unicode="&#x201e;" horiz-adv-x="946" d="M365 0l-201 -225l-53 28l67 177l-67 20v266h254v-266zM836 0l-201 -225l-53 28l67 177l-67 20v266h254v-266z" />
<glyph unicode="&#x2020;" horiz-adv-x="872" d="M799 715l-269 53l60 -242l-62 -526h-184l-61 526l59 242l-268 -53v270l268 -55l-59 313h307l-60 -313l269 55v-270z" />
<glyph unicode="&#x2021;" horiz-adv-x="966" d="M846 137l-268 56l59 -314h-307l59 314l-268 -56v271l268 -54l-59 207l59 207l-268 -53v270l268 -55l-59 313h307l-59 -313l268 55v-270l-268 53l59 -207l-59 -207l268 54v-271z" />
<glyph unicode="&#x2022;" horiz-adv-x="610" d="M305 346q-92 0 -157.5 65.5t-65.5 158t65.5 158t157.5 65.5t157.5 -65.5t65.5 -158t-65.5 -158t-157.5 -65.5z" />
<glyph unicode="&#x2026;" horiz-adv-x="1441" d="M365 0h-254v266h254v-266zM848 0h-254v266h254v-266zM1331 0h-254v266h254v-266z" />
<glyph unicode="&#x202f;" horiz-adv-x="391" />
<glyph unicode="&#x2030;" horiz-adv-x="2465" d="M1341 -18q-139 0 -223 101t-84 269q0 174 90 279.5t228 105.5q135 0 221 -100t86 -268q0 -176 -87.5 -281.5t-230.5 -105.5zM1380 1434l-864 -1459h-213l864 1459h213zM379 686q-139 0 -223 101.5t-84 269.5q0 174 90 279.5t227 105.5q135 0 221 -100.5t86 -268.5 q0 -176 -87 -281.5t-230 -105.5zM1350 590q-63 0 -107.5 -59.5t-44.5 -178.5q0 -113 40 -166t105 -53q154 0 154 236q0 111 -43 166t-104 55zM387 1294q-63 0 -107 -59t-44 -178q0 -113 39.5 -166t105.5 -53q154 0 154 235q0 111 -43.5 166t-104.5 55zM2081 -18 q-139 0 -223 101t-84 269q0 174 90 279.5t227 105.5q135 0 221 -100t86 -268q0 -176 -87 -281.5t-230 -105.5zM2089 590q-63 0 -107.5 -59.5t-44.5 -178.5q0 -113 40 -166t106 -53q154 0 153 236q0 111 -43 166t-104 55z" />
<glyph unicode="&#x2039;" horiz-adv-x="710" d="M635 160h-301l-311 422l311 422h301l-311 -422z" />
<glyph unicode="&#x203a;" horiz-adv-x="710" d="M688 582l-311 -422h-301l311 422l-311 422h301z" />
<glyph unicode="&#x205f;" horiz-adv-x="489" />
<glyph unicode="&#x2070;" horiz-adv-x="817" d="M401 639q-156 0 -249 109.5t-93 283.5q0 178 101.5 296t255.5 118q150 0 246 -113.5t96 -285.5q0 -180 -97.5 -294t-259.5 -114zM414 1274q-61 0 -110.5 -61.5t-49.5 -180.5q0 -113 42 -164t107 -51q162 0 162 230q0 113 -46 170t-105 57z" />
<glyph unicode="&#x2074;" horiz-adv-x="712" d="M659 866h-100v-211h-197v211h-358l383 564h172v-418h100v-146zM362 1012v155l-110 -155h110z" />
<glyph unicode="&#x2075;" horiz-adv-x="628" d="M289 643q-39 0 -127 27.5t-113 62.5l47 176q43 -80 242 -80q29 0 41 16.5t12 63.5q0 74 -139 74h-162l55 447h385l-20 -203h-219l-15 -88q293 -4 293 -236q0 -137 -80.5 -198.5t-199.5 -61.5z" />
<glyph unicode="&#x2076;" horiz-adv-x="651" d="M317 639q-117 0 -187.5 79t-70.5 240q0 190 130 328.5t227 143.5l131 -76q-53 0 -170 -112t-117 -136q27 16 107 16q104 0 172.5 -59t68.5 -164q0 -102 -82 -181t-209 -79zM352 969q-55 0 -80.5 -17.5t-25.5 -68.5q0 -25 31.5 -44.5t56.5 -19.5q39 0 69.5 25.5t30.5 66.5 q0 23 -26.5 40.5t-55.5 17.5z" />
<glyph unicode="&#x2077;" horiz-adv-x="610" d="M614 1430l-327 -775h-215l245 572h-260v203h557z" />
<glyph unicode="&#x2078;" horiz-adv-x="698" d="M336 639q-133 0 -205 59.5t-72 155.5q0 109 86 219q-18 12 -30.5 66.5t-12.5 103.5q0 203 252 203q244 0 244 -184q0 -43 -19.5 -100.5t-33.5 -80.5q31 -31 63.5 -87t32.5 -103q0 -100 -77.5 -176t-227.5 -76zM350 1311q-37 0 -55.5 -15.5t-22.5 -33t-4 -45.5 q0 -84 72 -84q80 0 80 90q0 25 -2 40t-18.5 31.5t-49.5 16.5zM356 1012q-37 0 -80 -38t-43 -93q0 -43 30 -72t79 -29q61 0 85 24.5t24 74.5q0 61 -29 97t-66 36z" />
<glyph unicode="&#x2079;" horiz-adv-x="649" d="M330 1446q121 0 190.5 -83t69.5 -237q0 -166 -117 -318.5t-256 -152.5l-108 76q66 0 184.5 93.5t118.5 164.5q-39 -25 -121 -24q-86 0 -169 60t-83 155q0 106 81 186t210 80zM307 1116q53 0 80 16.5t27 63.5q0 78 -86 78q-41 0 -68 -30t-27 -60q0 -33 21.5 -50.5 t52.5 -17.5z" />
<glyph unicode="&#x2080;" horiz-adv-x="870" d="M428 -16q-156 0 -249 109.5t-93 283.5q0 178 101.5 296t254.5 118q150 0 246 -114t96 -286q0 -180 -97 -293.5t-259 -113.5zM440 618q-61 0 -110 -61t-49 -180q0 -113 42 -164t107 -51q162 0 162 229q0 113 -46.5 170t-105.5 57z" />
<glyph unicode="&#x2081;" horiz-adv-x="495" d="M365 0h-197v506l-84 -4v151q39 0 78 40t47 81h156v-774z" />
<glyph unicode="&#x2082;" horiz-adv-x="681" d="M588 0h-531q319 438 320 553q0 88 -74 88q-37 0 -71.5 -18.5t-58 -45t-37 -46t-21.5 -33.5l-25 178q63 115 248 115q119 0 171 -61.5t52 -141.5q0 -135 -166 -385h193v-203z" />
<glyph unicode="&#x2083;" horiz-adv-x="677" d="M281 -16q-68 0 -137.5 21.5t-82.5 39.5l50 184q18 -18 66 -31.5t89 -13.5q137 0 137 45q0 117 -90 117h-135l15 148h69q39 0 64.5 13t33 26.5t7.5 23.5q0 76 -129 76q-68 0 -97 -27l-26 133q25 23 78 37.5t102 14.5q78 0 134 -21.5t82 -57.5t37 -70t11 -69 q0 -37 -9 -71.5t-17.5 -52t-14.5 -19.5q6 -14 26.5 -43t33 -61.5t12.5 -79.5q0 -123 -91 -192.5t-218 -69.5z" />
<glyph unicode="&#x2084;" horiz-adv-x="763" d="M682 211h-100v-211h-197v211h-358l383 563h172v-418h100v-145zM385 356v156l-111 -156h111z" />
<glyph unicode="&#x2085;" horiz-adv-x="686" d="M317 -12q-45 0 -126.5 23.5t-112.5 66.5l47 176q43 -80 242 -80q29 0 41 16.5t12 63.5q0 74 -139 74h-162l55 446h385l-20 -203h-220l-14 -88q293 -4 293 -235q0 -137 -81 -198.5t-200 -61.5z" />
<glyph unicode="&#x2086;" horiz-adv-x="702" d="M344 -16q-117 0 -187.5 78.5t-70.5 240.5q0 100 43 192.5t102.5 151t118 93t92.5 34.5l131 -76q-72 0 -179 -105.5t-107 -139.5q23 14 98 14q113 0 181.5 -59.5t68.5 -163.5q0 -102 -82 -181t-209 -79zM379 315q-53 0 -80 -18t-27 -70q0 -25 32 -45t56 -20q37 0 69 26.5 t32 67.5q0 23 -26.5 41t-55.5 18z" />
<glyph unicode="&#x2087;" horiz-adv-x="684" d="M643 774l-328 -774h-215l246 571h-260v203h557z" />
<glyph unicode="&#x2088;" horiz-adv-x="751" d="M362 -16q-133 0 -204.5 59t-71.5 156q0 109 86 219q-18 12 -30.5 66.5t-12.5 103.5q0 203 252 203q244 0 244 -185q0 -43 -19.5 -100t-34.5 -80q31 -31 64 -87t33 -103q0 -100 -78 -176t-228 -76zM377 655q-53 0 -67.5 -24.5t-14.5 -69.5q0 -84 72 -84q80 0 79 90 q0 25 -2 40.5t-18 31.5t-49 16zM383 356q-37 0 -80 -37.5t-43 -93.5q0 -43 29.5 -71.5t79.5 -28.5q61 0 84.5 24.5t23.5 73.5q0 61 -28.5 97t-65.5 36z" />
<glyph unicode="&#x2089;" horiz-adv-x="696" d="M350 791q121 0 190.5 -83t69.5 -237q0 -166 -116.5 -318.5t-255.5 -152.5l-109 76q68 0 184.5 92t120.5 168q-43 -27 -125 -27q-104 0 -177 58.5t-73 156.5q0 106 81 186.5t210 80.5zM328 461q53 0 79.5 16.5t26.5 63.5q0 76 -84 75q-41 0 -68.5 -28.5t-27.5 -59.5 q0 -33 21.5 -50t52.5 -17z" />
<glyph unicode="&#x20ac;" horiz-adv-x="1439" d="M961 35q-207 0 -367 104.5t-234 288.5h-294l61 176h188q-6 51 -6 113v28h-184l57 166h150q55 225 225 356.5t404 131.5q217 0 370 -76l-28 -231q-193 82 -342 82q-276 0 -357 -263h514l-61 -166h-479v-28q0 -66 8 -113h493l-61 -176h-375q96 -168 318 -168q150 0 342 82 l28 -231q-153 -76 -370 -76z" />
<glyph unicode="&#x2122;" horiz-adv-x="1513" d="M1026 870h-22l-154 254l-55 -434h-168l100 744h102l187 -304l184 304h105l100 -744h-170l-53 434zM641 1434l-20 -160h-193v-584h-164v584h-198v160h575z" />
<glyph unicode="&#xe000;" horiz-adv-x="1025" d="M0 1025h1025v-1025h-1025v1025z" />
<glyph horiz-adv-x="1142" d="M1135 0h-261l-104 268h-397l-103 -268h-262l447 1190h233zM682 514l-113 268l-108 -268h221z" />
<glyph horiz-adv-x="1572" d="M1507 0h-786v276h-336l-139 -276h-266l614 1190h897v-246h-522v-203h401v-243h-401v-252h538v-246zM721 518v422l-219 -422h219z" />
<glyph horiz-adv-x="1169" d="M651 0h-506v1190h361q119 0 199.5 -11.5t149.5 -43t102.5 -96t33.5 -162.5q0 -82 -28.5 -147.5t-77.5 -92.5q111 -39 167 -105.5t56 -183.5q0 -178 -136.5 -263t-320.5 -85zM616 983h-219v-262h230q47 0 92 29.5t45 83.5q0 80 -37 114.5t-111 34.5zM627 537h-230v-330 h246q205 0 205 168q0 162 -221 162z" />
<glyph horiz-adv-x="1116" d="M688 -25q-270 0 -444 172t-174 448.5t174 447.5t444 171q211 0 363 -69l-29 -240q-162 66 -334 66q-168 0 -255 -101.5t-87 -273.5q0 -174 87 -275.5t253 -101.5q174 0 336 66l29 -238q-148 -72 -363 -72z" />
<glyph horiz-adv-x="1312" d="M621 0h-476v1190h476q274 0 446 -160t172 -434q0 -276 -172 -436t-446 -160zM621 946h-224v-702h224q170 0 256 91t86 261q0 168 -86 259t-256 91z" />
<glyph horiz-adv-x="1048" d="M985 0h-840v1190h822v-246h-561v-203h432v-243h-432v-252h579v-246z" />
<glyph horiz-adv-x="966" d="M926 944h-529v-203h408v-243h-408v-498h-252v1190h781v-246z" />
<glyph horiz-adv-x="1210" d="M686 -25q-268 0 -442 172t-174 448.5t174 447.5t452 171q96 0 206 -19t175 -52l-28 -244q-164 72 -347 72q-178 0 -267 -100.5t-89 -268.5q0 -176 93 -279.5t268 -103.5q41 0 159 12v166h-116v199h368v-530q-66 -37 -194.5 -64t-237.5 -27z" />
<glyph horiz-adv-x="1347" d="M1202 0h-254v498h-551v-498h-252v1190h252v-449h551v449h254v-1190z" />
<glyph horiz-adv-x="542" d="M397 0h-252v1190h252v-1190z" />
<glyph horiz-adv-x="542" d="M109 -293h-78l-19 201h64q70 0 69 104v1178h252v-1223q0 -131 -77.5 -195.5t-210.5 -64.5z" />
<glyph horiz-adv-x="1167" d="M1151 0h-287l-430 629l430 561h287l-430 -561zM397 0h-252v1190h252v-1190z" />
<glyph horiz-adv-x="919" d="M895 0h-750v1190h252v-944h498v-246z" />
<glyph horiz-adv-x="1536" d="M1450 0h-262l-105 741l-315 -510l-315 508l-103 -739h-262l176 1190h205l301 -516l297 516h205z" />
<glyph horiz-adv-x="1294" d="M1149 0h-207l-545 750v-750h-252v1190h242l510 -703v703h252v-1190z" />
<glyph horiz-adv-x="1384" d="M692.5 -25q-272.5 0 -447.5 172t-175 448.5t175 447.5t447.5 171t446.5 -171t174 -447.5t-174 -448.5t-446.5 -172zM692 971q-168 0 -257 -101.5t-89 -273.5q0 -174 89 -275.5t257 -101.5t256 101.5t88 275.5q0 172 -88 273.5t-256 101.5z" />
<glyph horiz-adv-x="1927" d="M1862 0h-803v68q-154 -92 -363 -93q-274 0 -450 172t-176 448.5t176 447.5t450 171q209 0 363 -92v68h786v-246h-524v-203h403v-243h-403v-252h541v-246zM696 971q-168 0 -258 -102.5t-90 -272.5q0 -172 90 -274.5t258 -102.5t258 102.5t90 274.5q0 170 -90 272.5 t-258 102.5z" />
<glyph horiz-adv-x="1110" d="M602 377h-207v-377h-250v1190h340q160 0 257.5 -13.5t176 -53.5t111.5 -115.5t33 -198.5q0 -127 -45 -217t-119 -134t-146.5 -62.5t-150.5 -18.5zM584 987h-189v-375h176q131 0 184.5 40t53.5 157q0 94 -47 136t-178 42z" />
<glyph horiz-adv-x="1384" d="M1323 150l-149 -179l-127 101q-141 -96 -355 -97q-272 0 -447 172t-175 448.5t175 447.5t447.5 171t446.5 -171t174 -447q0 -217 -105 -358zM692 971q-168 0 -257 -101.5t-89 -273.5q0 -174 89 -275.5t257 -101.5q51 0 146 25l-140 108l150 176l147 -108q35 74 35 176 q0 172 -86 273.5t-252 101.5z" />
<glyph horiz-adv-x="1165" d="M1133 0h-261l-254 430h-223v-430h-250v1190h482q195 0 313.5 -81t118.5 -259q0 -96 -33 -168t-70.5 -106.5t-105.5 -79.5zM555 981h-160v-322h131q90 0 147.5 14.5t82 42t32 51.5t7.5 58q0 82 -47.5 119t-192.5 37z" />
<glyph horiz-adv-x="1064" d="M516 -25q-137 0 -249.5 27t-172.5 66l29 280q53 -55 157.5 -92t241.5 -37q100 0 148.5 22.5t48.5 77.5q0 25 -9 47q-10 22 -34 40l-44 32q-18 14 -61 29l-63 23q-20 8 -72 26q-74 25 -104.5 37t-91 43t-88 60.5t-51 79.5t-23.5 114q0 143 112.5 253.5t344.5 110.5 q123 0 237.5 -30.5t165.5 -67.5l-25 -250q-197 106 -372 107q-211 0 -211 -99q0 -31 17.5 -55t59.5 -43.5t73.5 -30t97.5 -28.5q72 -20 116.5 -34.5t110 -47.5t103.5 -70t65.5 -97t27.5 -136q0 -49 -9 -92t-40.5 -93.5t-83 -86t-141.5 -60.5t-211 -25z" />
<glyph horiz-adv-x="1024" d="M991 944h-352v-944h-254v944h-352v246h958v-246z" />
<glyph horiz-adv-x="1306" d="M653 -25q-258 0 -390 144.5t-132 392.5v678h252v-606q0 -180 57.5 -272.5t213 -92.5t213 92t57.5 273v606h252v-678q0 -248 -131.5 -392.5t-391.5 -144.5z" />
<glyph horiz-adv-x="1198" d="M1190 1190l-428 -1190h-318l-444 1190h262l338 -848l332 848h258z" />
<glyph horiz-adv-x="1744" d="M1729 1190l-369 -1190h-209l-274 696l-271 -696h-227l-356 1190h262l241 -758l269 770h161l283 -737l229 725h261z" />
<glyph horiz-adv-x="1171" d="M1167 0h-299l-284 410l-287 -410h-295l453 594l-426 596h293l278 -393l238 393h295l-402 -572z" />
<glyph horiz-adv-x="1099" d="M1114 1190l-440 -676v-514h-248v514l-440 676h268l297 -455l295 455h268z" />
<glyph horiz-adv-x="1007" d="M985 1190l-545 -944h463v-246h-878l544 944h-463v246h879z" />
</font>
</defs>
</svg>
