<?xml version="1.0" standalone="no"?>
<!DOCTYPE svg PUBLIC "-//W3C//DTD SVG 1.1//EN" "http://www.w3.org/Graphics/SVG/1.1/DTD/svg11.dtd" >
<svg xmlns="http://www.w3.org/2000/svg">
<metadata>
This is a custom SVG webfont generated by Font Squirrel.
Copyright   : Copyright c 2011 by Pablo Impallari wwwimpallaricom Igino Marini wwwikerncom All rights reserved
Designer    : Pablo Impallari
Foundry     : Pablo Impallari wwwimpallaricom Igino Marini wwwikerncom
Foundry URL : wwwimpallaricom
</metadata>
<defs>
<font id="webfontUBcZ5BjV" horiz-adv-x="1243" >
<font-face units-per-em="2048" ascent="1638" descent="-410" />
<missing-glyph horiz-adv-x="460" />
<glyph unicode=" "  horiz-adv-x="460" />
<glyph unicode="&#x09;" horiz-adv-x="460" />
<glyph unicode="&#xa0;" horiz-adv-x="460" />
<glyph unicode="!" horiz-adv-x="507" d="M539 1536l-234 -1126h-172l162 1126h244zM274 0h-256l45 254h256z" />
<glyph unicode="&#x22;" horiz-adv-x="792" d="M877 1536l-148 -614h-176l70 614h254zM492 1536l-148 -614h-174l70 614h252z" />
<glyph unicode="#" horiz-adv-x="1409" d="M1419 1049l-104 -201h-223l-107 -203h246l-135 -213h-228l-245 -455h-193l244 455h-213l-250 -455h-188l243 455h-229l129 213h219l107 203h-238l100 201h246l213 385h191l-209 -385h217l209 385h190l-209 -385h217zM903 848h-219l-111 -203h220z" />
<glyph unicode="$" horiz-adv-x="1046" d="M520 164l-8 -230h-217l72 228q-227 12 -330 82l80 260q47 -55 137 -92t211 -37q219 0 219 123q0 51 -55.5 87t-135 62.5t-158.5 57t-134.5 88t-55.5 139.5q0 55 22.5 111.5t70 110.5t132.5 93t195 49l13 236h215l-74 -236q90 -6 175 -29.5t124 -49.5l-64 -232 q-180 106 -321 107q-236 0 -236 -111q0 -47 57.5 -78t139.5 -54.5t165 -55t140 -97t57 -161.5q0 -39 -8 -78t-35.5 -89.5t-71.5 -90t-127 -71.5t-194 -42z" />
<glyph unicode="%" horiz-adv-x="1673" d="M1184 -18q-111 0 -174.5 78.5t-63.5 209.5q0 203 112.5 335t268.5 132q111 0 175.5 -78.5t64.5 -212.5q0 -199 -109.5 -331.5t-273.5 -132.5zM1483 1434l-1088 -1459h-213l1086 1459h215zM385 686q-113 0 -176.5 78t-63.5 211q0 203 114 335t269 132q111 0 175.5 -79 t64.5 -212q0 -199 -109.5 -332t-273.5 -133zM1300 590q-72 0 -129 -81t-57 -224q0 -152 100 -152q82 0 135.5 78t53.5 219q0 78 -29 119t-74 41zM500 1294q-72 0 -130.5 -80.5t-58.5 -224.5q0 -152 103 -151q84 0 137 77.5t53 219.5q0 80 -29.5 119.5t-74.5 39.5z" />
<glyph unicode="&#x26;" horiz-adv-x="1239" d="M1139 0h-299l-45 70q-156 -119 -379 -119q-199 0 -298.5 94t-99.5 242q0 145 85 252.5t233 212.5q-92 168 -92 299q0 174 142 281.5t323 107.5q131 0 202.5 -65.5t71.5 -180.5q0 -76 -27.5 -139.5t-92 -123t-102.5 -87t-124 -84.5l201 -328q20 70 61 289h246 q-43 -279 -174 -475zM664 1237q-72 0 -119 -46t-47 -128q0 -74 55 -178q98 72 148.5 129t50.5 133q0 90 -88 90zM692 215l-260 399q-141 -145 -141 -290q0 -178 194 -179q121 0 207 70z" />
<glyph unicode="'" horiz-adv-x="407" d="M492 1536l-148 -614h-172l68 614h252z" />
<glyph unicode="(" horiz-adv-x="571" d="M369 -279h-234q-78 219 -78 545q0 352 92.5 660.5t305.5 609.5h233q-193 -270 -303.5 -557t-110.5 -651q1 -347 95 -607z" />
<glyph unicode=")" horiz-adv-x="571" d="M125 -279h-234q193 270 303.5 557t110.5 652q0 346 -94 606h233q78 -219 78 -545q0 -352 -92 -660.5t-305 -609.5z" />
<glyph unicode="*" horiz-adv-x="892" d="M651 844l-110 280l-215 -286l-119 133l274 186l-301 107l129 168l219 -220l-20 322h201l-134 -322l297 220l70 -168l-330 -103l205 -184z" />
<glyph unicode="+" horiz-adv-x="907" d="M793 471h-269l-47 -262h-188l45 262h-268l34 193h269l47 262h188l-47 -262h270z" />
<glyph unicode="," horiz-adv-x="479" d="M260 0l-240 -225l-47 28l97 177l-62 20l47 266h250z" />
<glyph unicode="-" horiz-adv-x="835" d="M700 471h-610l35 193h608z" />
<glyph unicode="." horiz-adv-x="481" d="M262 0h-254l47 266h254z" />
<glyph unicode="/" horiz-adv-x="1101" d="M1178 1434l-998 -1608h-274l997 1608h275z" />
<glyph unicode="0" horiz-adv-x="1415" d="M594 -29q-225 0 -346 154t-121 420q0 381 224 649t513 268q213 0 336 -159.5t123 -434.5q0 -373 -213 -635t-516 -262zM825 1231q-162 0 -299 -183.5t-137 -478.5q0 -362 246 -362q180 0 306 174t126 457q0 203 -66.5 298t-175.5 95z" />
<glyph unicode="1" horiz-adv-x="749" d="M442 0h-260l189 1063q-82 -55 -183 -74l19 221q68 14 160 83t129 141h200z" />
<glyph unicode="2" horiz-adv-x="1062" d="M834 0h-846q319 381 480 595t210 311.5t49 172.5q0 164 -156 164q-178 0 -350 -219l8 236q53 72 171 137t264 65q168 0 243.5 -92t75.5 -223q0 -150 -110.5 -344.5t-391.5 -548.5h398z" />
<glyph unicode="3" horiz-adv-x="1081" d="M342 -29q-121 0 -228.5 39t-125.5 72l106 242q29 -41 111 -71t174 -30q129 0 213 62.5t84 201.5q0 190 -205 191h-182l57 203h94q158 0 222.5 63.5t64.5 153.5q0 143 -172 143q-162 0 -248 -70l-8 197q47 37 138 65.5t198 28.5q195 0 277.5 -94t82.5 -225 q0 -217 -182 -348q121 -96 121 -283q0 -246 -180.5 -393.5t-411.5 -147.5z" />
<glyph unicode="4" horiz-adv-x="1165" d="M1010 389h-168l-68 -389h-262l70 389h-592l817 1045h219l-145 -832h166zM618 602l76 430l-317 -430h241z" />
<glyph unicode="5" horiz-adv-x="1081" d="M362 -27q-84 0 -166.5 21.5t-130 48.5t-45.5 45l103 238q39 -45 112.5 -76t159.5 -31q129 0 218 71.5t89 205.5q0 90 -60 137t-230 47h-217l221 754h631l-72 -254h-410l-82 -281q252 -4 363.5 -86t111.5 -266q0 -174 -91 -309.5t-224.5 -200t-280.5 -64.5z" />
<glyph unicode="6" horiz-adv-x="1128" d="M451 -29q-354 0 -355 412q0 170 60.5 337t152.5 292t197.5 222t201 148.5t156.5 51.5l154 -103q-57 0 -183 -83t-250 -217t-153 -249q74 80 238 80q158 0 253 -87t95 -249q0 -221 -164.5 -388t-402.5 -167zM604 649q-106 0 -184 -72.5t-78 -185.5q0 -94 52 -140t124 -46 q100 0 178 86t78 190q0 70 -41 119t-129 49z" />
<glyph unicode="7" horiz-adv-x="1028" d="M1145 1434l-823 -1434h-275l672 1180h-526l45 254h907z" />
<glyph unicode="8" horiz-adv-x="1202" d="M479 -29q-205 0 -305 98.5t-100 245.5q0 258 280 457q-80 82 -80 252q0 180 116 309t366 129q352 0 352 -278q0 -209 -225 -393q78 -43 126 -127t48 -185q0 -86 -38 -173t-106.5 -162.5t-182.5 -124t-251 -48.5zM713 1257q-113 0 -162 -66.5t-49 -150.5q0 -127 135 -170 q223 61 223 248q0 139 -147 139zM623 680q-113 -18 -205 -105.5t-92 -212.5q0 -182 196 -182q125 0 201 76t76 193q0 94 -49 152.5t-127 78.5z" />
<glyph unicode="9" horiz-adv-x="1134" d="M721 1462q354 0 354 -420q0 -201 -80 -398.5t-197.5 -334.5t-252.5 -223t-244 -86l-143 102q61 0 186 72t251 205t155 270q-41 -39 -126 -58.5t-122 -19.5q-162 0 -257 85t-95 247q0 223 165.5 391t405.5 168zM571 784q106 0 185.5 74t79.5 195q0 96 -49.5 136t-116.5 40 q-111 0 -185.5 -88t-74.5 -195q0 -68 37.5 -115t123.5 -47z" />
<glyph unicode=":" horiz-adv-x="479" d="M373 635h-254l47 266h254zM260 0h-254l47 266h254z" />
<glyph unicode=";" horiz-adv-x="512" d="M406 635h-283l47 266h283zM264 0l-239 -225l-48 28l97 177l-62 20l47 266h250z" />
<glyph unicode="&#x3c;" horiz-adv-x="899" d="M705 160h-306l-342 422l490 422h305l-490 -422z" />
<glyph unicode="=" horiz-adv-x="993" d="M864 635h-727l35 192h727zM807 307h-727l35 193h727z" />
<glyph unicode="&#x3e;" horiz-adv-x="903" d="M838 582l-490 -422h-305l489 422l-339 422h305z" />
<glyph unicode="?" horiz-adv-x="884" d="M457 410h-174q10 92 14 108q14 76 55 150q40 76 90 136l97 120q47 60 78.5 126t31.5 134q0 74 -43 112.5t-117 38.5q-145 0 -266 -133l-22 189q125 145 340 145q172 0 261 -104.5t89 -235.5q0 -78 -39 -154q-38 -77 -98 -144l-120 -136q-60 -68 -109.5 -154t-63.5 -172z M424 0h-254l45 254h254z" />
<glyph unicode="@" horiz-adv-x="1425" d="M1106 776q-80 109 -219 109q-131 0 -274.5 -94.5t-238.5 -243t-95 -289.5q0 -78 34.5 -127t110.5 -49q90 0 202.5 63.5t192.5 173.5l-8 -25q-6 -18 -10 -39.5t-4 -43.5q0 -125 90 -125q51 0 136 40t142 91q-127 -178 -320.5 -286.5t-393.5 -108.5q-193 0 -300.5 110.5 t-107.5 307.5q0 240 130 447.5t336 326.5t425 119q197 0 304.5 -112t107.5 -304q0 -88 -23 -177t-66 -168t-115.5 -129t-162.5 -50q-35 0 -52.5 14t-17.5 55q0 55 23.5 121t81 185.5t92.5 207.5zM883 760q72 0 80 -45q-57 -166 -206 -332t-245 -166q-68 0 -68 96 q0 168 154 307.5t285 139.5z" />
<glyph unicode="A" d="M1135 0h-273l-55 346h-447l-176 -346h-272l741 1434h246zM762 600l-60 420l-206 -420h266z" />
<glyph unicode="B" horiz-adv-x="1261" d="M594 0h-541l252 1434h383q240 0 355.5 -59.5t115.5 -235.5q0 -233 -178 -373q98 -45 143 -110.5t45 -180.5q0 -104 -35.5 -187t-92 -135.5t-133.5 -88t-154.5 -50t-159.5 -14.5zM758 1210h-230l-61 -352h248q72 0 133 49t61 164q0 80 -36.5 109.5t-114.5 29.5zM686 651 h-256l-76 -428h258q287 0 287 244q0 94 -49 139t-164 45z" />
<glyph unicode="C" horiz-adv-x="1214" d="M655 -29q-264 0 -416.5 164t-152.5 453q0 375 241.5 624.5t587.5 249.5q221 0 373 -84l-74 -250q-182 82 -333 82q-240 0 -373 -172t-133 -426q0 -389 334 -389q152 0 360 82l-14 -250q-183 -84 -400 -84z" />
<glyph unicode="D" horiz-adv-x="1437" d="M569 0h-516l252 1434h516q262 0 415 -156t153 -442q0 -365 -238 -600.5t-582 -235.5zM778 1182h-254l-164 -930h254q229 0 357.5 159.5t128.5 399.5q0 371 -322 371z" />
<glyph unicode="E" horiz-adv-x="1136" d="M961 0h-908l252 1434h889l-45 -254h-619l-53 -306h477l-45 -253h-477l-65 -367h639z" />
<glyph unicode="F" horiz-adv-x="1050" d="M1110 1180h-586l-55 -306h455l-45 -253h-455l-109 -621h-262l252 1434h850z" />
<glyph unicode="G" horiz-adv-x="1323" d="M645 -29q-256 0 -407.5 166t-151.5 455q0 371 240.5 620.5t586.5 249.5q106 0 222 -23.5t182 -60.5l-74 -250q-174 82 -362 82q-123 0 -221.5 -49t-159 -133t-92 -187.5t-31.5 -217.5q0 -188 86 -294t254 -106q76 0 184 23l45 256h-141l39 217h401l-112 -639 q-80 -45 -225.5 -77t-262.5 -32z" />
<glyph unicode="H" horiz-adv-x="1470" d="M1206 0h-262l109 621h-629l-109 -621h-262l252 1434h262l-98 -560h629l98 560h262z" />
<glyph unicode="I" horiz-adv-x="579" d="M315 0h-262l252 1434h262z" />
<glyph unicode="J" horiz-adv-x="579" d="M-66 -352h-77l14 196h61q49 0 77 39t44 125l252 1426h262l-262 -1483q-27 -150 -125.5 -226.5t-245.5 -76.5z" />
<glyph unicode="K" horiz-adv-x="1253" d="M1133 0h-297l-342 758l593 676h297l-593 -676zM315 0h-262l252 1434h262z" />
<glyph unicode="L" horiz-adv-x="1003" d="M870 0h-817l252 1434h262l-207 -1180h555z" />
<glyph unicode="M" horiz-adv-x="1656" d="M1458 0h-272l57 952l-469 -651l-235 651l-283 -952h-272l444 1434h227l203 -654l434 654h226z" />
<glyph unicode="N" horiz-adv-x="1409" d="M1143 0h-213l-441 983l-174 -983h-262l252 1434h256l410 -926l164 926h262z" />
<glyph unicode="O" horiz-adv-x="1519" d="M657 -29q-264 0 -417.5 165t-153.5 452q0 371 240.5 622.5t576.5 251.5q264 0 418 -164.5t154 -451.5q0 -371 -241 -623t-577 -252zM860 1210q-219 0 -352 -177t-133 -423q0 -184 81 -285.5t242 -101.5q219 0 352.5 177.5t133.5 422.5q0 184 -81 285.5t-243 101.5z" />
<glyph unicode="P" horiz-adv-x="1202" d="M635 471h-238l-84 -471h-260l252 1434h381q152 0 244 -12.5t164.5 -51.5t103.5 -111.5t31 -189.5q0 -133 -41 -239.5t-103.5 -172t-144.5 -109.5t-157.5 -60.5t-147.5 -16.5zM733 1214h-205l-88 -497h205q172 0 241.5 74.5t69.5 230.5q0 100 -43 146t-180 46z" />
<glyph unicode="Q" horiz-adv-x="1519" d="M1364 162l-184 -182l-117 116q-180 -125 -412 -125q-260 0 -412.5 165t-152.5 452q0 371 240.5 622.5t576.5 251.5q264 0 418 -164.5t154 -441.5q0 -311 -213 -590zM860 1210q-219 0 -352 -175t-133 -423q0 -182 80 -285.5t239 -103.5q104 0 187 47l-133 146l186 182 l139 -152q109 199 109 390q0 172 -80 273t-242 101z" />
<glyph unicode="R" horiz-adv-x="1255" d="M1118 0h-272l-189 532h-249l-95 -532h-260l252 1434h514q410 0 410 -347q0 -303 -316 -485zM715 1214h-187l-77 -436h167q174 0 252 66.5t78 197.5q0 88 -47 130t-186 42z" />
<glyph unicode="S" horiz-adv-x="1159" d="M449 -29q-147 0 -265 31t-174 74l82 299q49 -63 155.5 -107.5t250.5 -44.5q264 0 264 174q0 86 -60.5 132t-212.5 106q-82 33 -122.5 52.5t-100 60t-86 97t-26.5 130.5q0 61 19.5 126.5t64.5 130t110.5 116t164.5 83t220 31.5q133 0 251 -34.5t169 -75.5l-74 -269 q-207 129 -379 129q-45 0 -90 -8t-88 -25.5t-69.5 -52t-26.5 -82.5q0 -72 57.5 -109.5t182.5 -80.5q76 -27 116.5 -43t103 -51t94.5 -73t57.5 -98.5t25.5 -135.5q0 -90 -32 -171t-100.5 -153t-192 -115t-289.5 -43z" />
<glyph unicode="T" horiz-adv-x="1155" d="M1198 1180h-387l-207 -1180h-262l207 1180h-387l45 254h1036z" />
<glyph unicode="U" horiz-adv-x="1423" d="M602 -29q-236 0 -354.5 121t-118.5 342q0 90 16 180l146 820h260l-129 -732q-20 -115 -21 -200q2 -135 57.5 -207t186.5 -72q178 0 265 126t128 353l129 732h263l-146 -820q-53 -301 -226 -472t-456 -171z" />
<glyph unicode="V" horiz-adv-x="1306" d="M1436 1434l-731 -1434h-324l-238 1434h273l188 -1129l561 1129h271z" />
<glyph unicode="W" horiz-adv-x="1912" d="M2040 1434l-656 -1434h-225l-135 956l-469 -956h-242l-135 1434h273l90 -1018l481 1018h176l137 -992l432 992h273z" />
<glyph unicode="X" horiz-adv-x="1261" d="M1153 0h-307l-232 526l-411 -526h-303l610 737l-332 697h303l213 -516l375 516h305l-567 -707z" />
<glyph unicode="Y" horiz-adv-x="1234" d="M1366 1434l-618 -799l-113 -635h-260l110 635l-335 799h278l234 -574l425 574h279z" />
<glyph unicode="Z" horiz-adv-x="1097" d="M1221 1434l-824 -1180h527l-45 -254h-959l823 1180h-526l45 254h959z" />
<glyph unicode="[" horiz-adv-x="667" d="M489 -279h-505l319 1815h506l-39 -223h-274l-242 -1368h274z" />
<glyph unicode="\" horiz-adv-x="1095" d="M920 -174h-277l-430 1608h276z" />
<glyph unicode="]" horiz-adv-x="681" d="M387 -279h-506l45 254h273l231 1307h-274l45 254h506z" />
<glyph unicode="^" horiz-adv-x="1005" d="M1053 819l-330 434l-481 -434l53 301l481 434l328 -434z" />
<glyph unicode="_" horiz-adv-x="1097" d="M946 -266h-1102l35 192h1100z" />
<glyph unicode="`" horiz-adv-x="595" d="M694 1198l-346 125l37 213l336 -186z" />
<glyph unicode="a" horiz-adv-x="1196" d="M1100 1024l-119 -700q-8 -47 -8 -78q0 -41 18.5 -49.5t81.5 -8.5l-57 -208q-154 0 -207 21.5t-92 96.5q-126 -118 -290 -118h-3q-178 0 -282.5 122.5t-104.5 315.5q0 160 68.5 300t207 231t316.5 91q129 0 209 -67l28 51h234zM606 831q-133 0 -219 -114.5t-86 -278.5 q0 -250 201 -250q80 0 138 41t86 107.5t40 130t12 131.5q0 115 -39 174t-133 59z" />
<glyph unicode="b" horiz-adv-x="1146" d="M485 -20q-78 0 -123 18t-96 59l-12 -57h-240l271 1536h256l-101 -563q104 67 226 67h4q201 0 304 -120.5t103 -315.5q0 -162 -67.5 -302t-206 -231t-318.5 -91zM614 831q-78 0 -135 -38.5t-87 -102t-43 -131t-13 -137.5q0 -233 174 -234q135 0 220 115t85 277 q0 251 -201 251z" />
<glyph unicode="c" horiz-adv-x="894" d="M451 -20q-211 0 -312.5 119.5t-101.5 312.5q0 256 160.5 442t437.5 186q166 0 266 -75l-59 -217q-105 83 -227 83h-3q-141 0 -226 -113.5t-85 -279.5q0 -250 199 -250q121 0 258 84l-17 -217q-126 -75 -290 -75z" />
<glyph unicode="d" horiz-adv-x="1148" d="M922 0h-242l8 57q-121 -77 -241 -77h-3q-201 0 -304 120.5t-103 313.5q0 252 162.5 439t429.5 187q129 0 209 -67l100 563h254zM606 831q-133 0 -219 -114.5t-86 -278.5q0 -250 201 -250q80 0 138 41t86 107.5t40 130t12 131.5q0 115 -39 174t-133 59z" />
<glyph unicode="e" horiz-adv-x="999" d="M948 743q0 -174 -138 -254.5t-351 -80.5q-102 0 -156 12q6 -119 73.5 -175.5t162.5 -56.5q68 0 161 25t160 59l-29 -215q-154 -77 -337 -77h-5q-223 0 -337.5 122.5t-114.5 317.5q0 246 162.5 433t414.5 187q160 0 247 -80t87 -217zM604 831q-106 0 -181 -79.5 t-99 -169.5q33 -8 94 -9q317 0 317 158q0 100 -131 100z" />
<glyph unicode="f" horiz-adv-x="686" d="M680 815h-211l-143 -815h-254l143 815h-135l59 209h113l43 244q45 268 332 268q59 0 178 -12l-60 -211q-57 10 -81 10q-70 0 -92.5 -30.5t-41.5 -129.5l-24 -139h211z" />
<glyph unicode="g" horiz-adv-x="997" d="M326 -512q-211 0 -315.5 78t-104.5 190q0 156 205 264q-63 49 -64 125q0 100 123 162q-98 92 -98 262q0 193 133 332t342 139q135 0 213 -61q78 45 215 45h69l-43 -160h-96q-27 0 -45 -2q23 -63 23 -153q0 -195 -131 -335.5t-344 -140.5q-45 0 -101 11q-23 -12 -22 -39 q0 -33 50 -47.5t173 -30.5q51 -8 87 -15.5t90 -26.5t87 -46t57.5 -75t24.5 -109q0 -160 -142 -263.5t-386 -103.5zM512 854q-98 0 -155.5 -77t-57.5 -189q0 -168 141 -168q98 0 156.5 76.5t58.5 187.5q0 170 -143 170zM625 -184q0 35 -25 59.5t-69 37.5t-83.5 20.5t-94 13.5 t-74.5 10q-160 -53 -160 -156q0 -63 57 -98t164 -35q119 0 202 41t83 107z" />
<glyph unicode="h" horiz-adv-x="1101" d="M887 0h-254q106 616 106 662q0 169 -147 169h-2q-106 0 -191 -88l-131 -743h-254l271 1536h254l-99 -565q115 69 223 69h3q164 0 247.5 -92t83.5 -254q1 -67 -110 -694z" />
<glyph unicode="i" horiz-adv-x="495" d="M477 1180h-254l43 254h256zM268 0h-254l181 1024h254z" />
<glyph unicode="j" horiz-adv-x="497" d="M-70 -496h-94l14 209q78 0 100.5 24.5t43.5 139.5l203 1147h254l-222 -1251q-49 -269 -299 -269zM477 1180h-254l45 254h254z" />
<glyph unicode="k" horiz-adv-x="983" d="M268 0h-254l271 1536h256l-166 -932l381 420h284l-440 -492l258 -532h-285l-225 455z" />
<glyph unicode="l" horiz-adv-x="540" d="M412 188l-60 -208h-92q-106 0 -158.5 55t-52.5 147q0 31 234 1354h254q-221 -1253 -221.5 -1284t13 -45t30 -16.5t53.5 -2.5z" />
<glyph unicode="m" horiz-adv-x="1712" d="M1497 0h-254q109 623 109 664q0 96 -35 131.5t-103 35.5q-186 0 -221 -198l-110 -633h-252q113 643 112 684q0 147 -157 147q-104 0 -185 -83l-133 -748h-254l181 1024h208v-80q113 96 267 96q86 0 158.5 -38.5t107.5 -116.5q37 57 133 106t217 49q160 0 241 -92t81 -250 q0 -61 -111 -698z" />
<glyph unicode="n" horiz-adv-x="1097" d="M883 0h-256q106 606 106 659q0 90 -34.5 131t-110.5 41q-100 0 -189 -88l-131 -743h-254l181 1024h223l10 -61q108 77 233 77h3q162 0 245.5 -92t83.5 -254q1 -67 -110 -694z" />
<glyph unicode="o" horiz-adv-x="1124" d="M459 -20q-205 0 -314.5 124.5t-109.5 315.5q0 248 171 434t427 186q205 0 314.5 -124.5t109.5 -315.5q0 -248 -171 -434t-427 -186zM598 831q-129 0 -215 -114.5t-86 -276.5q0 -119 50 -185.5t147 -66.5q131 0 216 116t85 278q0 119 -50.5 184t-146.5 65z" />
<glyph unicode="p" horiz-adv-x="1146" d="M483 -20q-121 0 -207 69l-96 -545h-254l269 1520h223l10 -59q114 75 241 75h3q197 0 301 -122.5t104 -313.5q0 -252 -165 -438t-429 -186zM612.5 831q-102.5 0 -169 -70.5t-88 -156.5t-21.5 -182q0 -233 174 -234q135 0 221 115t86 279q0 117 -50 183t-152.5 66z" />
<glyph unicode="q" horiz-adv-x="1148" d="M444 -20q-199 0 -303 121.5t-104 314.5q0 252 164 438t422 186q135 0 223 -75l31 59h225l-268 -1520h-256l96 545q-111 -69 -230 -69zM610 831q-137 0 -224 -113.5t-87 -277.5q0 -252 203 -252q102 0 168.5 71t88 157t21.5 182q0 233 -170 233z" />
<glyph unicode="r" horiz-adv-x="696" d="M766 1040l-90 -239h-96q-57 0 -109.5 -29t-79.5 -74l-125 -698h-252l181 1024h241l-16 -109q45 47 120.5 86t153.5 39h72z" />
<glyph unicode="s" horiz-adv-x="851" d="M295 -20q-221 0 -322 75l60 217q45 -39 128 -70.5t161 -31.5q90 0 125.5 41t35.5 88q0 35 -24.5 61.5t-50 38t-80.5 29.5q-57 18 -89 32.5t-71 41t-57.5 67.5t-18.5 97q0 59 21.5 120.5t67.5 121t132 96t199 36.5q94 0 181 -23.5t124 -51.5l-59 -217q-31 41 -105.5 75.5 t-152.5 34.5q-72 0 -125 -31.5t-53 -93.5q0 -23 9 -41t19 -28.5t35 -22.5t38 -16l49 -15l48 -16q109 -35 165 -89t56 -169q0 -152 -105 -254t-341 -102z" />
<glyph unicode="t" horiz-adv-x="692" d="M571 188l-61 -208h-176q-113 0 -168 60t-55 155q0 33 104 620h-135l59 209h113l41 225l258 27l-45 -252h211l-37 -209h-209q-94 -530 -94 -561q0 -43 24.5 -54.5t98.5 -11.5h71z" />
<glyph unicode="u" horiz-adv-x="1107" d="M881 0h-240l8 61q-123 -81 -245 -81h-3q-164 0 -246.5 93t-82.5 257q0 68 110 694h254q-106 -608 -106 -659q0 -172 151 -172q111 0 193 86l133 745h254z" />
<glyph unicode="v" horiz-adv-x="987" d="M1044 1024l-561 -1024h-209l-198 1024h248l110 -709l365 709h245z" />
<glyph unicode="w" horiz-adv-x="1439" d="M1487 1024l-467 -1024h-205l-84 668l-321 -668h-205l-107 1024h242l41 -715l305 695h207l57 -695l295 715h242z" />
<glyph unicode="x" horiz-adv-x="985" d="M852 0h-305l-111 303l-211 -303h-305l404 512l-224 512h306l106 -330l217 330h305l-409 -512z" />
<glyph unicode="y" horiz-adv-x="1071" d="M1133 1024l-887 -1520h-252l317 564l-241 956h282l127 -659l371 659h283z" />
<glyph unicode="z" horiz-adv-x="944" d="M973 1024l-563 -799h399l-41 -225h-825l563 799h-404l41 225h830z" />
<glyph unicode="{" horiz-adv-x="645" d="M78 -14q0 63 40 210.5t40 219.5q0 141 -123 213q100 49 147 111.5t68 179.5q8 47 19.5 144t17.5 134q31 170 142.5 254t346.5 84l-39 -223q-61 0 -97 -2t-66.5 -17.5t-45 -28t-30.5 -55.5q-15 -44 -21 -76l-20 -110q-6 -27 -13.5 -84t-11.5 -84q-31 -162 -129 -227 q59 -49 59 -150q0 -55 -34.5 -175t-34.5 -220q0 -86 41 -112.5t162 -26.5l-41 -224q-199 0 -288 65t-89 200z" />
<glyph unicode="|" horiz-adv-x="475" d="M156 -430h-201l346 1966h201z" />
<glyph unicode="}" horiz-adv-x="647" d="M369 59q-31 -174 -145.5 -256t-344.5 -82l39 224q61 0 97 2t67 17.5t45 27.5t29.5 55t21.5 76l21 113q6 35 14 95t12 87q25 145 127 211q-57 49 -57 159q0 39 33.5 158t33.5 228q0 86 -40.5 112.5t-161.5 26.5l39 223q203 0 291 -66.5t88 -197.5q0 -63 -40 -211t-40 -219 q0 -76 28.5 -125t94.5 -88q-102 -49 -148.5 -112.5t-66.5 -176.5q-8 -47 -19.5 -144.5t-17.5 -136.5z" />
<glyph unicode="~" horiz-adv-x="942" d="M569 360q-59 0 -128.5 43t-104.5 43q-37 0 -64.5 -29.5t-40.5 -66.5l-170 41q25 96 110 152.5t179 56.5q68 0 123 -43t88 -43q41 0 79 32t46 64l156 -41q-25 -84 -100 -146.5t-173 -62.5z" />
<glyph unicode="&#xa1;" horiz-adv-x="501" d="M-68 -512l236 1126h170l-162 -1126h-244zM197 1024h256l-43 -254h-258z" />
<glyph unicode="&#xa2;" horiz-adv-x="948" d="M535 182l-15 -248h-198l75 252q-154 23 -234.5 139.5t-80.5 284.5q0 236 138 417t368 212l16 293h197l-84 -291q137 -6 229 -74l-61 -217q-106 84 -240 84q-135 0 -220 -114.5t-85 -282.5q0 -113 50 -179.5t142 -66.5q131 0 269 84l-15 -217q-110 -66 -251 -76z" />
<glyph unicode="&#xa3;" horiz-adv-x="1052" d="M1053 1237l-123 -125q-6 55 -14.5 85t-34 55.5t-72.5 25.5q-88 0 -125 -72.5t-63 -222.5l-29 -172h354l-72 -172h-321q-55 -229 -166 -426h467l-37 -213h-856q244 244 348 639h-174l74 172h141l37 213q16 86 37.5 150.5t66 132t122 103.5t184.5 36q244 0 256 -209z" />
<glyph unicode="&#xa4;" horiz-adv-x="1253" d="M1059 141l-146 -102l-110 203q-106 -59 -249.5 -59.5t-231.5 59.5l-179 -203l-110 102l174 199q-70 109 -70 278q0 268 205 467l-109 199l148 102l108 -202q113 59 250 59q139 0 230 -61l182 204l109 -102l-177 -201q70 -109 70 -278q0 -266 -203 -465zM702 1034 q-133 0 -217 -114.5t-84 -282.5q0 -113 48.5 -179.5t140.5 -67.5q131 0 216 115.5t85 282.5q0 113 -49.5 179.5t-139.5 66.5z" />
<glyph unicode="&#xa5;" horiz-adv-x="1413" d="M1493 1434l-606 -744h280l-77 -141h-269l-22 -125h321l-78 -141h-268l-49 -283h-262l49 283h-319l73 141h273l20 125h-319l73 141h232l-344 744h274l273 -566l471 566h274z" />
<glyph unicode="&#xa6;" horiz-adv-x="452" d="M309 582h-174l168 954h174zM129 -430h-172l145 819h172z" />
<glyph unicode="&#xa7;" horiz-adv-x="921" d="M635 381q47 -61 47 -158q0 -61 -19.5 -124.5t-62.5 -128t-126 -104.5t-195 -40q-78 0 -159 26.5t-108 57.5l56 215q47 -43 113.5 -72.5t119.5 -29.5q197 0 197 139q0 51 -42 87t-101.5 61.5t-119 58t-101.5 96t-42 153.5q0 123 55.5 219.5t163.5 143.5q-47 57 -47 156 q0 63 20.5 127.5t63.5 128t127 103.5t197 40q78 0 158.5 -26.5t107.5 -57.5l-55 -215q-117 102 -236 102q-197 0 -196 -139q0 -51 42 -87t102 -61.5t119.5 -58t101.5 -96t42 -154.5q0 -125 -57 -221t-166 -141zM434 836q-43 0 -89 -40t-46 -94q0 -131 213 -196q35 0 89 50 t54 103q0 41 -19.5 72t-57 51.5t-67.5 31t-77 22.5z" />
<glyph unicode="&#xa8;" horiz-adv-x="829" d="M872 1217h-198l37 217h200zM584 1217h-199l39 217h199z" />
<glyph unicode="&#xa9;" horiz-adv-x="1423" d="M618 76q-229 0 -367 150.5t-138 398.5q0 344 217 569t526 225q229 0 367.5 -149.5t138.5 -397.5q0 -344 -217.5 -570t-526.5 -226zM831 1276q-260 0 -409.5 -185.5t-149.5 -457.5q0 -188 94.5 -302t278.5 -114q260 0 407.5 186.5t147.5 458.5q0 188 -93.5 301t-275.5 113 zM690 389q-123 0 -195.5 79t-72.5 210q0 182 113.5 302t279.5 120q106 0 197 -47l-51 -174q-102 47 -177 47q-78 0 -126 -63.5t-48 -162.5q0 -139 111 -139q80 0 192 51l-10 -172q-96 -51 -213 -51z" />
<glyph unicode="&#xaa;" horiz-adv-x="722" d="M727 1063l-37 -174h-106q-29 0 -67 13t-52 28q-47 -41 -193 -41q-53 0 -92 38t-39 111q0 70 45 122t112 78t115 37t81 13q-14 37 -70 37q-39 0 -102.5 -14.5t-79.5 -16.5l20 166q135 39 254 39q74 0 135.5 -37t61.5 -90q0 -49 -37 -260q-2 -12 -2 -29q2 -20 20 -20h33z M449 1026l22 127q-32 0 -68 -25q-33 -23 -32 -59q0 -14 11 -27.5t32 -13.5q6 0 18.5 -1t16.5 -1z" />
<glyph unicode="&#xab;" horiz-adv-x="1216" d="M1063 160h-303l-225 422l374 422h303l-374 -422zM553 160h-305l-225 422l374 422h303l-374 -422z" />
<glyph unicode="&#xac;" horiz-adv-x="1165" d="M971 309h-197l57 330h-706l35 192h903z" />
<glyph unicode="&#xad;" horiz-adv-x="835" d="M700 471h-610l35 193h608z" />
<glyph unicode="&#xae;" horiz-adv-x="1423" d="M618 76q-229 0 -367 150.5t-138 398.5q0 344 217 569t526 225q229 0 367.5 -149.5t138.5 -397.5q0 -344 -217.5 -570t-526.5 -226zM831 1274q-260 0 -408.5 -185.5t-148.5 -455.5q0 -186 94.5 -300t276.5 -114q260 0 406.5 186.5t146.5 458.5q0 186 -92.5 298t-274.5 112 zM975 416h-193l-82 229h-51l-39 -229h-182l121 686h254q203 0 203 -174q0 -78 -39 -138.5t-90 -91.5zM750 948h-45l-25 -137h41q96 0 96 90q1 47 -67 47z" />
<glyph unicode="&#xb0;" horiz-adv-x="653" d="M389 987q-102 0 -158.5 64.5t-56.5 165.5q0 133 89 231t224 98q104 0 162 -65.5t58 -165.5q0 -133 -90.5 -230.5t-227.5 -97.5zM469 1442q-66 0 -110 -64.5t-44 -156.5q0 -59 25 -94t68 -35q70 0 112.5 63.5t42.5 157.5q0 129 -94 129z" />
<glyph unicode="&#xb1;" horiz-adv-x="970" d="M858 635h-268l-45 -262h-195l47 262h-268l35 192h266l47 263h195l-47 -263h266zM756 61h-727l34 193h728z" />
<glyph unicode="&#xb2;" horiz-adv-x="620" d="M559 655h-512q254 291 330 403.5t76 174.5q0 63 -54 63q-66 0 -124 -52t-80 -91l6 178q86 115 260 115q96 0 138 -50t42 -118q0 -74 -52 -171t-169 -249h176z" />
<glyph unicode="&#xb3;" horiz-adv-x="610" d="M254 639q-61 0 -126 21.5t-73 39.5l82 185q8 -20 51 -34.5t86 -14.5q141 0 142 88q0 78 -62 77h-135l41 148h70q53 0 78.5 25.5t25.5 50.5q0 27 -18.5 49t-61.5 22q-80 0 -123 -34l-6 133q27 23 84.5 37t100.5 14q121 0 171 -55.5t50 -126.5q0 -43 -15.5 -87t-29 -64.5 t-19.5 -27.5q2 -12 18.5 -57t16.5 -88q0 -139 -105.5 -220t-242.5 -81z" />
<glyph unicode="&#xb4;" horiz-adv-x="595" d="M715 1323l-389 -125l26 152l402 186z" />
<glyph unicode="&#xb5;" horiz-adv-x="1234" d="M1067 188l-57 -208h-95q-147 0 -194 106q-47 -43 -122 -72.5t-136 -29.5q-102 0 -164 28l-88 -508h-256l268 1520h254l-96 -551q-10 -51 -10 -106q0 -174 147 -174q117 0 193 86l133 745h256l-119 -672q-12 -70 -12 -106.5t14 -47t53 -10.5h31z" />
<glyph unicode="&#xb6;" d="M1253 1214h-133l-215 -1214h-186l215 1214h-109l-215 -1214h-145l84 469q-205 12 -314.5 133t-109.5 285q0 213 179 380t476 167h512z" />
<glyph unicode="&#xb7;" horiz-adv-x="471" d="M328 436h-244l47 266h244z" />
<glyph unicode="&#xb8;" horiz-adv-x="593" d="M584 -106l-248 -273l-158 -18l187 272z" />
<glyph unicode="&#xb9;" horiz-adv-x="450" d="M338 655h-195l88 506q-20 -4 -71 -4l22 152q25 0 77 41t60 80h156z" />
<glyph unicode="&#xba;" horiz-adv-x="757" d="M426 889q-127 0 -197.5 75.5t-70.5 184.5q0 137 107.5 243.5t269.5 106.5q127 0 197.5 -75.5t70.5 -184.5q0 -137 -106.5 -243.5t-270.5 -106.5zM506 1341q-53 0 -92 -55t-39 -123q0 -49 20.5 -82.5t59.5 -33.5q53 0 92 55t39 123q0 49 -21.5 82.5t-58.5 33.5z" />
<glyph unicode="&#xbb;" horiz-adv-x="1218" d="M1188 582l-375 -422h-303l375 422l-228 422h306zM676 582l-375 -422h-303l375 422l-226 422h304z" />
<glyph unicode="&#xbc;" horiz-adv-x="1470" d="M371 655h-195l88 506q-20 -4 -71 -4l22 152q25 0 77 41t60 80h156zM1262 1434l-998 -1608h-274l997 1608h275zM1331 211h-96l-39 -211h-195l37 211h-344l467 563h172l-73 -418h96zM1065 356l27 156l-127 -156h100z" />
<glyph unicode="&#xbd;" horiz-adv-x="1460" d="M1257 1434l-997 -1608h-274l997 1608h274zM1280 0h-512q254 291 330 403.5t76 174.5q0 63 -54 63q-66 0 -124 -52t-81 -91l7 178q86 115 260 115q96 0 138 -50.5t42 -117.5q0 -74 -52.5 -171.5t-168.5 -248.5h176zM367 655h-195l88 506q-20 -4 -72 -4l23 152q25 0 77 41 t60 80h156z" />
<glyph unicode="&#xbe;" horiz-adv-x="1796" d="M1577 1434l-997 -1608h-275l998 1608h274zM283 639q-61 0 -126 21.5t-73 39.5l82 185q8 -20 51 -34.5t86 -14.5q141 0 141 88q0 78 -61 77h-135l41 148h69q53 0 79 25.5t26 50.5q0 27 -18.5 49t-61.5 22q-80 0 -123 -34l-6 133q27 23 84 37t100 14q121 0 171 -55.5 t50 -126.5q0 -43 -15 -87t-28.5 -64.5t-19.5 -27.5q2 -12 18.5 -57t16.5 -88q0 -139 -105.5 -220t-242.5 -81zM1655 211h-96l-39 -211h-195l37 211h-344l467 563h172l-74 -418h96zM1389 356l26 156l-127 -156h101z" />
<glyph unicode="&#xbf;" horiz-adv-x="878" d="M399 614h174q-10 -92 -14 -108q-14 -76 -55 -150q-41 -76 -90 -136l-96 -120q-48 -60 -79.5 -126t-31.5 -134q0 -74 44 -112.5t118 -38.5q143 0 264 133l22 -189q-125 -145 -340 -145q-172 0 -261 104.5t-89 235.5q0 78 39 154q38 77 98 144l120 136q60 68 109.5 154 t63.5 172zM432 1024h254l-45 -254h-254z" />
<glyph unicode="&#xc0;" d="M1135 0h-273l-55 346h-447l-176 -346h-272l741 1434h246zM762 600l-60 420l-206 -420h266zM991 1608l-346 125l37 213l336 -187z" />
<glyph unicode="&#xc1;" d="M1135 0h-273l-55 346h-447l-176 -346h-272l741 1434h246zM762 600l-60 420l-206 -420h266zM1014 1733l-389 -125l26 151l402 187z" />
<glyph unicode="&#xc2;" d="M1135 0h-273l-55 346h-447l-176 -346h-272l741 1434h246zM762 600l-60 420l-206 -420h266zM1096 1608l-262 145l-316 -145l27 151l321 187l256 -187z" />
<glyph unicode="&#xc3;" d="M1135 0h-273l-55 346h-447l-176 -346h-272l741 1434h246zM762 600l-60 420l-206 -420h266zM950 1636q-59 0 -128.5 43t-104.5 43q-37 0 -64.5 -29.5t-40.5 -66.5l-170 41q25 96 110 152.5t179 56.5q68 0 123 -43t88 -43q41 0 79 31.5t46 64.5l156 -41 q-25 -84 -100 -146.5t-173 -62.5z" />
<glyph unicode="&#xc4;" d="M1135 0h-273l-55 346h-447l-176 -346h-272l741 1434h246zM762 600l-60 420l-206 -420h266zM1053 1626h-199l37 217h201zM764 1626h-199l39 217h199z" />
<glyph unicode="&#xc5;" d="M1135 0h-273l-55 346h-447l-176 -346h-272l741 1434h246zM762 600l-60 420l-206 -420h266zM803 1589q-82 0 -129 44t-47 112q0 86 68.5 148.5t170.5 62.5q82 0 129 -45t47 -113q0 -86 -68.5 -147.5t-170.5 -61.5zM848 1855q-41 0 -68.5 -28.5t-27.5 -69.5q0 -33 18 -51 t49 -18q41 0 70 27.5t29 70.5q0 31 -19.5 50t-50.5 19z" />
<glyph unicode="&#xc6;" horiz-adv-x="1726" d="M1548 0h-858l62 346h-375l-217 -346h-275l924 1434h975l-45 -254h-578l-53 -306h444l-45 -253h-444l-66 -367h596zM797 600l100 574l-354 -574h254z" />
<glyph unicode="&#xc7;" horiz-adv-x="1214" d="M655 -29q-264 0 -416.5 164t-152.5 453q0 375 241.5 624.5t587.5 249.5q221 0 373 -84l-74 -250q-182 82 -333 82q-240 0 -373 -172t-133 -426q0 -389 334 -389q152 0 360 82l-14 -250q-183 -84 -400 -84zM662 -106l-248 -273l-158 -18l186 272z" />
<glyph unicode="&#xc8;" horiz-adv-x="1136" d="M961 0h-908l252 1434h889l-45 -254h-619l-53 -306h477l-45 -253h-477l-65 -367h639zM907 1608l-346 125l37 213l336 -187z" />
<glyph unicode="&#xc9;" horiz-adv-x="1136" d="M961 0h-908l252 1434h889l-45 -254h-619l-53 -306h477l-45 -253h-477l-65 -367h639zM928 1733l-389 -125l26 151l402 187z" />
<glyph unicode="&#xca;" horiz-adv-x="1136" d="M961 0h-908l252 1434h889l-45 -254h-619l-53 -306h477l-45 -253h-477l-65 -367h639zM1010 1608l-262 145l-316 -145l27 151l321 187l256 -187z" />
<glyph unicode="&#xcb;" horiz-adv-x="1136" d="M961 0h-908l252 1434h889l-45 -254h-619l-53 -306h477l-45 -253h-477l-65 -367h639zM969 1626h-199l37 217h201zM680 1626h-199l39 217h199z" />
<glyph unicode="&#xcc;" horiz-adv-x="579" d="M315 0h-262l252 1434h262zM653 1608l-346 125l37 213l336 -187z" />
<glyph unicode="&#xcd;" horiz-adv-x="579" d="M315 0h-262l252 1434h262zM674 1733l-389 -125l26 151l402 187z" />
<glyph unicode="&#xce;" horiz-adv-x="579" d="M315 0h-262l252 1434h262zM758 1608l-262 145l-316 -145l27 151l321 187l256 -187z" />
<glyph unicode="&#xcf;" horiz-adv-x="579" d="M315 0h-262l252 1434h262zM715 1626h-199l37 217h201zM426 1626h-199l39 217h199z" />
<glyph unicode="&#xd0;" horiz-adv-x="1466" d="M596 0h-516l108 612h-180l35 193h178l111 629h518q258 0 412.5 -156t154.5 -426q0 -381 -236.5 -616.5t-584.5 -235.5zM805 1182h-254l-66 -377h236l-33 -193h-237l-64 -360h254q231 0 358 159.5t127 415.5q0 168 -80.5 261.5t-240.5 93.5z" />
<glyph unicode="&#xd1;" horiz-adv-x="1409" d="M1143 0h-213l-441 983l-174 -983h-262l252 1434h256l410 -926l164 926h262zM1024 1636q-59 0 -129 43t-104 43q-37 0 -65 -29.5t-40 -66.5l-170 41q25 96 110 152.5t179 56.5q68 0 123 -43t88 -43q41 0 79 31.5t46 64.5l155 -41q-25 -84 -99.5 -146.5t-172.5 -62.5z" />
<glyph unicode="&#xd2;" horiz-adv-x="1519" d="M657 -29q-264 0 -417.5 165t-153.5 452q0 371 240.5 622.5t576.5 251.5q264 0 418 -164.5t154 -451.5q0 -371 -241 -623t-577 -252zM860 1210q-219 0 -352 -177t-133 -423q0 -184 81 -285.5t242 -101.5q219 0 352.5 177.5t133.5 422.5q0 184 -81 285.5t-243 101.5z M1120 1608l-346 125l37 213l336 -187z" />
<glyph unicode="&#xd3;" horiz-adv-x="1519" d="M657 -29q-264 0 -417.5 165t-153.5 452q0 371 240.5 622.5t576.5 251.5q264 0 418 -164.5t154 -451.5q0 -371 -241 -623t-577 -252zM860 1210q-219 0 -352 -177t-133 -423q0 -184 81 -285.5t242 -101.5q219 0 352.5 177.5t133.5 422.5q0 184 -81 285.5t-243 101.5z M1141 1733l-389 -125l26 151l402 187z" />
<glyph unicode="&#xd4;" horiz-adv-x="1519" d="M657 -29q-264 0 -417.5 165t-153.5 452q0 371 240.5 622.5t576.5 251.5q264 0 418 -164.5t154 -451.5q0 -371 -241 -623t-577 -252zM860 1210q-219 0 -352 -177t-133 -423q0 -184 81 -285.5t242 -101.5q219 0 352.5 177.5t133.5 422.5q0 184 -81 285.5t-243 101.5z M1225 1608l-262 145l-316 -145l27 151l321 187l256 -187z" />
<glyph unicode="&#xd5;" horiz-adv-x="1519" d="M657 -29q-264 0 -417.5 165t-153.5 452q0 371 240.5 622.5t576.5 251.5q264 0 418 -164.5t154 -451.5q0 -371 -241 -623t-577 -252zM860 1210q-219 0 -352 -177t-133 -423q0 -184 81 -285.5t242 -101.5q219 0 352.5 177.5t133.5 422.5q0 184 -81 285.5t-243 101.5z M1081 1636q-59 0 -128.5 43t-104.5 43q-37 0 -64.5 -29.5t-40.5 -66.5l-170 41q25 96 110 152.5t179 56.5q68 0 123 -43t88 -43q41 0 79 31.5t46 64.5l156 -41q-25 -84 -100 -146.5t-173 -62.5z" />
<glyph unicode="&#xd6;" horiz-adv-x="1519" d="M657 -29q-264 0 -417.5 165t-153.5 452q0 371 240.5 622.5t576.5 251.5q264 0 418 -164.5t154 -451.5q0 -371 -241 -623t-577 -252zM860 1210q-219 0 -352 -177t-133 -423q0 -184 81 -285.5t242 -101.5q219 0 352.5 177.5t133.5 422.5q0 184 -81 285.5t-243 101.5z M1184 1626h-199l37 217h201zM895 1626h-199l39 217h199z" />
<glyph unicode="&#xd7;" horiz-adv-x="905" d="M741 348l-151 -125l-166 219l-244 -219l-106 125l243 219l-165 219l149 125l166 -219l246 219l104 -125l-244 -219z" />
<glyph unicode="&#xd8;" horiz-adv-x="1517" d="M649 -29q-174 0 -299 74l-88 -108h-276l204 241q-104 150 -104 397q0 385 240.5 636t584.5 251q168 0 289 -69l62 73h276l-174 -206q111 -154 111 -404q0 -383 -241 -634t-585 -251zM1161 1028l-626 -770q57 -35 157 -35q229 0 361.5 176t132.5 437q0 118 -25 192z M868 1210q-229 0 -362 -176t-133 -438q0 -106 20 -182l623 764q-56 32 -148 32z" />
<glyph unicode="&#xd9;" horiz-adv-x="1423" d="M602 -29q-236 0 -354.5 121t-118.5 342q0 90 16 180l146 820h260l-129 -732q-20 -115 -21 -200q2 -135 57.5 -207t186.5 -72q178 0 265 126t128 353l129 732h263l-146 -820q-53 -301 -226 -472t-456 -171zM1073 1608l-346 125l37 213l336 -187z" />
<glyph unicode="&#xda;" horiz-adv-x="1423" d="M602 -29q-236 0 -354.5 121t-118.5 342q0 90 16 180l146 820h260l-129 -732q-20 -115 -21 -200q2 -135 57.5 -207t186.5 -72q178 0 265 126t128 353l129 732h263l-146 -820q-53 -301 -226 -472t-456 -171zM1094 1733l-389 -125l26 151l402 187z" />
<glyph unicode="&#xdb;" horiz-adv-x="1423" d="M602 -29q-236 0 -354.5 121t-118.5 342q0 90 16 180l146 820h260l-129 -732q-20 -115 -21 -200q2 -135 57.5 -207t186.5 -72q178 0 265 126t128 353l129 732h263l-146 -820q-53 -301 -226 -472t-456 -171zM1178 1608l-263 145l-315 -145l27 151l321 187l256 -187z" />
<glyph unicode="&#xdc;" horiz-adv-x="1423" d="M602 -29q-236 0 -354.5 121t-118.5 342q0 90 16 180l146 820h260l-129 -732q-20 -115 -21 -200q2 -135 57.5 -207t186.5 -72q178 0 265 126t128 353l129 732h263l-146 -820q-53 -301 -226 -472t-456 -171zM1137 1626h-199l37 217h201zM848 1626h-199l39 217h199z" />
<glyph unicode="&#xdd;" horiz-adv-x="1234" d="M1366 1434l-618 -799l-113 -635h-260l110 635l-335 799h278l234 -574l425 574h279zM987 1733l-389 -125l27 151l401 187z" />
<glyph unicode="&#xde;" horiz-adv-x="1126" d="M467 395h-84l-70 -395h-260l252 1434h262l-47 -269h82q270 0 397 -58t127 -233q0 -262 -158.5 -370.5t-500.5 -108.5zM631 965h-148l-65 -373h147q170 0 229.5 62.5t59.5 174.5q0 72 -50 104t-173 32z" />
<glyph unicode="&#xdf;" horiz-adv-x="1132" d="M532 -31q-66 0 -118 11l32 190q190 0 253 28.5t63 145.5q0 76 -47 144.5t-94.5 126t-47.5 106.5q0 43 38 95t83 95t83 116t38 157q0 70 -32.5 102.5t-84.5 32.5q-66 0 -111.5 -48t-60.5 -124l-252 -1426h-249l192 1094h-139l61 209h115l20 113q33 174 174.5 286.5 t290.5 112.5q123 0 225.5 -82t102.5 -240q0 -92 -34 -177q-33 -85 -73 -134l-74 -93q-34 -44 -34 -65q0 -23 28.5 -58.5t61.5 -72t61.5 -103.5t28.5 -142q0 -141 -72.5 -234.5t-180.5 -129.5t-247 -36z" />
<glyph unicode="&#xe0;" horiz-adv-x="1196" d="M1100 1024l-119 -700q-8 -47 -8 -78q0 -41 18.5 -49.5t81.5 -8.5l-57 -208q-154 0 -207 21.5t-92 96.5q-127 -119 -293 -118q-178 0 -282.5 122.5t-104.5 315.5q0 160 68.5 300t207 231t316.5 91q129 0 209 -67l28 51h234zM606 831q-133 0 -219 -114.5t-86 -278.5 q0 -250 201 -250q80 0 138 41t86 107.5t40 130t12 131.5q0 115 -39 174t-133 59zM967 1198l-346 125l36 213l336 -186z" />
<glyph unicode="&#xe1;" horiz-adv-x="1196" d="M1100 1024l-119 -700q-8 -47 -8 -78q0 -41 18.5 -49.5t81.5 -8.5l-57 -208q-154 0 -207 21.5t-92 96.5q-127 -119 -293 -118q-178 0 -282.5 122.5t-104.5 315.5q0 160 68.5 300t207 231t316.5 91q129 0 209 -67l28 51h234zM606 831q-133 0 -219 -114.5t-86 -278.5 q0 -250 201 -250q80 0 138 41t86 107.5t40 130t12 131.5q0 115 -39 174t-133 59zM987 1323l-389 -125l27 152l401 186z" />
<glyph unicode="&#xe2;" horiz-adv-x="1196" d="M1100 1024l-119 -700q-8 -47 -8 -78q0 -41 18.5 -49.5t81.5 -8.5l-57 -208q-154 0 -207 21.5t-92 96.5q-127 -119 -293 -118q-178 0 -282.5 122.5t-104.5 315.5q0 160 68.5 300t207 231t316.5 91q129 0 209 -67l28 51h234zM606 831q-133 0 -219 -114.5t-86 -278.5 q0 -250 201 -250q80 0 138 41t86 107.5t40 130t12 131.5q0 115 -39 174t-133 59zM1071 1198l-262 145l-315 -145l26 152l322 186l256 -186z" />
<glyph unicode="&#xe3;" horiz-adv-x="1196" d="M1100 1024l-119 -700q-8 -47 -8 -78q0 -41 18.5 -49.5t81.5 -8.5l-57 -208q-154 0 -207 21.5t-92 96.5q-127 -119 -293 -118q-178 0 -282.5 122.5t-104.5 315.5q0 160 68.5 300t207 231t316.5 91q129 0 209 -67l28 51h234zM606 831q-133 0 -219 -114.5t-86 -278.5 q0 -250 201 -250q80 0 138 41t86 107.5t40 130t12 131.5q0 115 -39 174t-133 59zM922 1227q-59 0 -129 43t-105 43q-37 0 -64.5 -30t-39.5 -66l-170 40q25 96 109.5 152.5t178.5 56.5q68 0 123.5 -43t87.5 -43q41 0 79 32t46 65l156 -41q-25 -84 -99.5 -146.5t-172.5 -62.5z " />
<glyph unicode="&#xe4;" horiz-adv-x="1196" d="M1100 1024l-119 -700q-8 -47 -8 -78q0 -41 18.5 -49.5t81.5 -8.5l-57 -208q-154 0 -207 21.5t-92 96.5q-127 -119 -293 -118q-178 0 -282.5 122.5t-104.5 315.5q0 160 68.5 300t207 231t316.5 91q129 0 209 -67l28 51h234zM606 831q-133 0 -219 -114.5t-86 -278.5 q0 -250 201 -250q80 0 138 41t86 107.5t40 130t12 131.5q0 115 -39 174t-133 59zM1030 1217h-199l37 217h201zM741 1217h-198l39 217h198z" />
<glyph unicode="&#xe5;" horiz-adv-x="1196" d="M1100 1024l-119 -700q-8 -47 -8 -78q0 -41 18.5 -49.5t81.5 -8.5l-57 -208q-154 0 -207 21.5t-92 96.5q-127 -119 -293 -118q-178 0 -282.5 122.5t-104.5 315.5q0 160 68.5 300t207 231t316.5 91q129 0 209 -67l28 51h234zM606 831q-133 0 -219 -114.5t-86 -278.5 q0 -250 201 -250q80 0 138 41t86 107.5t40 130t12 131.5q0 115 -39 174t-133 59zM780 1180q-82 0 -129 44t-47 111q0 86 68.5 148.5t171.5 62.5q82 0 129 -45t47 -112q0 -86 -69 -147.5t-171 -61.5zM825 1446q-41 0 -68.5 -28.5t-27.5 -69.5q0 -33 18.5 -51.5t49.5 -18.5 q41 0 69.5 27.5t28.5 70.5q0 31 -19.5 50.5t-50.5 19.5z" />
<glyph unicode="&#xe6;" horiz-adv-x="1572" d="M1473 457h-619q0 -39 6 -72q16 -98 76.5 -147.5t144.5 -49.5q70 0 165 25t159 59l-29 -215q-152 -78 -342 -77q-145 0 -236 51t-122 141q-94 -98 -190.5 -150.5t-223.5 -52.5q-135 0 -207.5 63.5t-72.5 176.5q0 102 46 181t112.5 124t156.5 74.5t161.5 40t145.5 14.5 q0 102 -24.5 140t-114.5 38q-119 0 -289 -78l14 207q197 90 379 90q125 0 185.5 -39.5t76.5 -142.5q35 70 140.5 126t228.5 56q147 0 235.5 -96t88.5 -258q0 -98 -51 -229zM1155 831q-88 0 -161.5 -56t-104.5 -146h403q4 18 4 53q0 149 -141 149zM588 471 q-74 -2 -145.5 -21.5t-129 -68.5t-57.5 -119q0 -43 26.5 -69.5t67.5 -26.5q70 0 139.5 66.5t90.5 181.5q6 32 8 57z" />
<glyph unicode="&#xe7;" horiz-adv-x="894" d="M451 -20q-211 0 -312.5 119.5t-101.5 312.5q0 256 160.5 442t437.5 186q166 0 266 -75l-59 -217q-106 84 -230 83q-141 0 -226 -113.5t-85 -279.5q0 -250 199 -250q121 0 258 84l-17 -217q-126 -75 -290 -75zM559 -106l-248 -273l-157 -18l186 272z" />
<glyph unicode="&#xe8;" horiz-adv-x="999" d="M948 743q0 -174 -138 -254.5t-351 -80.5q-102 0 -156 12q6 -119 73.5 -175.5t162.5 -56.5q68 0 161 25t160 59l-29 -215q-156 -78 -342 -77q-223 0 -337.5 122.5t-114.5 317.5q0 246 162.5 433t414.5 187q160 0 247 -80t87 -217zM604 831q-106 0 -181 -79.5t-99 -169.5 q33 -8 94 -9q317 0 317 158q0 100 -131 100zM805 1198l-346 125l37 213l335 -186z" />
<glyph unicode="&#xe9;" horiz-adv-x="999" d="M948 743q0 -174 -138 -254.5t-351 -80.5q-102 0 -156 12q6 -119 73.5 -175.5t162.5 -56.5q68 0 161 25t160 59l-29 -215q-156 -78 -342 -77q-223 0 -337.5 122.5t-114.5 317.5q0 246 162.5 433t414.5 187q160 0 247 -80t87 -217zM604 831q-106 0 -181 -79.5t-99 -169.5 q33 -8 94 -9q317 0 317 158q0 100 -131 100zM827 1323l-389 -125l27 152l401 186z" />
<glyph unicode="&#xea;" horiz-adv-x="999" d="M948 743q0 -174 -138 -254.5t-351 -80.5q-102 0 -156 12q6 -119 73.5 -175.5t162.5 -56.5q68 0 161 25t160 59l-29 -215q-156 -78 -342 -77q-223 0 -337.5 122.5t-114.5 317.5q0 246 162.5 433t414.5 187q160 0 247 -80t87 -217zM604 831q-106 0 -181 -79.5t-99 -169.5 q33 -8 94 -9q317 0 317 158q0 100 -131 100zM909 1198l-262 145l-315 -145l26 152l322 186l256 -186z" />
<glyph unicode="&#xeb;" horiz-adv-x="999" d="M948 743q0 -174 -138 -254.5t-351 -80.5q-102 0 -156 12q6 -119 73.5 -175.5t162.5 -56.5q68 0 161 25t160 59l-29 -215q-156 -78 -342 -77q-223 0 -337.5 122.5t-114.5 317.5q0 246 162.5 433t414.5 187q160 0 247 -80t87 -217zM604 831q-106 0 -181 -79.5t-99 -169.5 q33 -8 94 -9q317 0 317 158q0 100 -131 100zM866 1217h-198l37 217h200zM578 1217h-199l39 217h198z" />
<glyph unicode="&#xec;" horiz-adv-x="495" d="M268 0h-254l181 1024h254zM539 1198l-346 125l36 213l336 -186z" />
<glyph unicode="&#xed;" horiz-adv-x="495" d="M268 0h-254l181 1024h254zM559 1323l-389 -125l27 152l401 186z" />
<glyph unicode="&#xee;" horiz-adv-x="495" d="M268 0h-254l181 1024h254zM641 1198l-262 145l-316 -145l27 152l322 186l256 -186z" />
<glyph unicode="&#xef;" horiz-adv-x="495" d="M268 0h-254l181 1024h254zM600 1217h-199l37 217h201zM311 1217h-198l39 217h198z" />
<glyph unicode="&#xf0;" horiz-adv-x="1024" d="M379 -27q-166 0 -270.5 104.5t-104.5 270.5q0 197 141.5 360.5t362.5 163.5q123 0 211 -79q0 80 -18.5 179t-55.5 130q-141 -102 -289 -117l-53 150q106 0 250 90q-96 100 -213 102l102 109q150 -2 267 -107q96 84 131 127l133 -33q-104 -127 -170 -192 q66 -94 104.5 -238.5t38.5 -300.5q0 -162 -36 -291t-93 -206.5t-134 -130t-151.5 -72t-152.5 -19.5zM500 674q-115 0 -183.5 -86t-68.5 -197q0 -92 43 -151.5t129 -59.5q98 0 178 78t80 225q0 90 -45 140.5t-133 50.5z" />
<glyph unicode="&#xf1;" horiz-adv-x="1097" d="M883 0h-256q106 606 106 659q0 90 -34.5 131t-110.5 41q-100 0 -189 -88l-131 -743h-254l181 1024h223l10 -61q109 78 236 77q162 0 245.5 -92t83.5 -254q1 -67 -110 -694zM797 1227q-59 0 -129 43t-105 43q-37 0 -64.5 -30t-39.5 -66l-170 40q25 96 109.5 152.5 t179.5 56.5q70 0 125 -43t85 -43q41 0 79 32t46 65l156 -41q-25 -84 -99.5 -146.5t-172.5 -62.5z" />
<glyph unicode="&#xf2;" horiz-adv-x="1124" d="M459 -20q-205 0 -314.5 124.5t-109.5 315.5q0 248 171 434t427 186q205 0 314.5 -124.5t109.5 -315.5q0 -248 -171 -434t-427 -186zM598 831q-129 0 -215 -114.5t-86 -276.5q0 -119 50 -185.5t147 -66.5q131 0 216 116t85 278q0 119 -50.5 184t-146.5 65zM850 1198 l-346 125l37 213l336 -186z" />
<glyph unicode="&#xf3;" horiz-adv-x="1124" d="M459 -20q-205 0 -314.5 124.5t-109.5 315.5q0 248 171 434t427 186q205 0 314.5 -124.5t109.5 -315.5q0 -248 -171 -434t-427 -186zM598 831q-129 0 -215 -114.5t-86 -276.5q0 -119 50 -185.5t147 -66.5q131 0 216 116t85 278q0 119 -50.5 184t-146.5 65zM870 1323 l-389 -125l27 152l401 186z" />
<glyph unicode="&#xf4;" horiz-adv-x="1124" d="M459 -20q-205 0 -314.5 124.5t-109.5 315.5q0 248 171 434t427 186q205 0 314.5 -124.5t109.5 -315.5q0 -248 -171 -434t-427 -186zM598 831q-129 0 -215 -114.5t-86 -276.5q0 -119 50 -185.5t147 -66.5q131 0 216 116t85 278q0 119 -50.5 184t-146.5 65zM954 1198 l-262 145l-315 -145l26 152l322 186l256 -186z" />
<glyph unicode="&#xf5;" horiz-adv-x="1124" d="M459 -20q-205 0 -314.5 124.5t-109.5 315.5q0 248 171 434t427 186q205 0 314.5 -124.5t109.5 -315.5q0 -248 -171 -434t-427 -186zM598 831q-129 0 -215 -114.5t-86 -276.5q0 -119 50 -185.5t147 -66.5q131 0 216 116t85 278q0 119 -50.5 184t-146.5 65zM811 1227 q-59 0 -129 43t-104 43q-37 0 -65 -30t-40 -66l-170 40q25 96 110 152.5t179 56.5q68 0 123 -43t88 -43q41 0 79 32t46 65l155 -41q-25 -84 -99.5 -146.5t-172.5 -62.5z" />
<glyph unicode="&#xf6;" horiz-adv-x="1124" d="M459 -20q-205 0 -314.5 124.5t-109.5 315.5q0 248 171 434t427 186q205 0 314.5 -124.5t109.5 -315.5q0 -248 -171 -434t-427 -186zM598 831q-129 0 -215 -114.5t-86 -276.5q0 -119 50 -185.5t147 -66.5q131 0 216 116t85 278q0 119 -50.5 184t-146.5 65zM913 1217h-198 l37 217h200zM625 1217h-199l39 217h199z" />
<glyph unicode="&#xf7;" horiz-adv-x="1112" d="M713 827h-256l47 267h256zM983 471h-905l35 193h903zM573 41h-254l48 266h254z" />
<glyph unicode="&#xf8;" horiz-adv-x="1116" d="M449 -20q-70 0 -130 16l-43 -70h-219l99 154q-121 111 -121 336q0 252 170 438t432 186q68 0 123 -16l43 70h225l-100 -154q123 -119 123 -340q0 -250 -171 -435t-431 -185zM776 715l-325 -522q8 -4 34 -5q135 0 219 115t84 285q0 78 -12 127zM600 831 q-135 0 -220 -115.5t-85 -289.5q0 -70 10 -121l324 522q-9 4 -29 4z" />
<glyph unicode="&#xf9;" horiz-adv-x="1107" d="M881 0h-240l8 61q-125 -82 -248 -81q-164 0 -246.5 93t-82.5 257q0 68 110 694h254q-106 -608 -106 -659q0 -172 151 -172q111 0 193 86l133 745h254zM836 1198l-347 125l37 213l336 -186z" />
<glyph unicode="&#xfa;" horiz-adv-x="1107" d="M881 0h-240l8 61q-125 -82 -248 -81q-164 0 -246.5 93t-82.5 257q0 68 110 694h254q-106 -608 -106 -659q0 -172 151 -172q111 0 193 86l133 745h254zM856 1323l-389 -125l27 152l401 186z" />
<glyph unicode="&#xfb;" horiz-adv-x="1107" d="M881 0h-240l8 61q-125 -82 -248 -81q-164 0 -246.5 93t-82.5 257q0 68 110 694h254q-106 -608 -106 -659q0 -172 151 -172q111 0 193 86l133 745h254zM940 1198l-262 145l-316 -145l27 152l322 186l256 -186z" />
<glyph unicode="&#xfc;" horiz-adv-x="1107" d="M881 0h-240l8 61q-125 -82 -248 -81q-164 0 -246.5 93t-82.5 257q0 68 110 694h254q-106 -608 -106 -659q0 -172 151 -172q111 0 193 86l133 745h254zM899 1217h-199l37 217h201zM610 1217h-198l39 217h198z" />
<glyph unicode="&#xfd;" horiz-adv-x="1071" d="M1133 1024l-887 -1520h-252l317 564l-241 956h282l127 -659l371 659h283zM838 1323l-389 -125l26 152l402 186z" />
<glyph unicode="&#xfe;" horiz-adv-x="1140" d="M485 -20q-119 0 -206 69l-97 -545h-254l359 2032h254l-99 -563q102 68 230 67q195 0 297 -121.5t102 -310.5q0 -256 -162 -442t-424 -186zM621 831q-137 0 -210 -120.5t-73 -292.5q0 -106 42 -168t126 -62q133 0 218 115t85 283q0 113 -49 179t-139 66z" />
<glyph unicode="&#xff;" horiz-adv-x="1071" d="M1133 1024l-887 -1520h-252l317 564l-241 956h282l127 -659l371 659h283zM879 1217h-199l37 217h201zM590 1217h-199l39 217h199z" />
<glyph unicode="&#x131;" horiz-adv-x="495" d="M268 0h-254l181 1024h254z" />
<glyph unicode="&#x152;" horiz-adv-x="2107" d="M1929 0h-866l20 113q-186 -141 -432 -142q-256 0 -410.5 166t-154.5 441q0 383 240.5 633.5t586.5 250.5q248 0 383 -141l21 113h848l-45 -254h-578l-53 -306h444l-45 -253h-444l-66 -367h596zM868 1210q-227 0 -359 -175t-132 -433q0 -172 81 -275.5t236 -103.5 q227 0 360.5 175t133.5 433q0 172 -81 275.5t-239 103.5z" />
<glyph unicode="&#x153;" horiz-adv-x="1769" d="M1669 457h-629q0 -37 7 -68q18 -102 81.5 -151.5t155.5 -49.5q66 0 158 25t160 59l-27 -215q-160 -78 -348 -77q-256 0 -375 165q-176 -166 -401 -165q-199 0 -307.5 124.5t-108.5 313.5q0 252 170 437t432 185q221 0 340 -161q162 162 379 161q164 0 264 -100t100 -266 q0 -90 -51 -217zM1327 831q-88 0 -151.5 -55t-98.5 -147h381q6 31 6 59q0 143 -137 143zM600 831q-133 0 -218 -114.5t-85 -282.5q0 -113 49 -179.5t141 -66.5q133 0 219.5 114t86.5 284q0 113 -50.5 179t-142.5 66z" />
<glyph unicode="&#x160;" horiz-adv-x="1159" d="M449 -29q-147 0 -265 31t-174 74l82 299q49 -63 155.5 -107.5t250.5 -44.5q264 0 264 174q0 86 -60.5 132t-212.5 106q-82 33 -122.5 52.5t-100 60t-86 97t-26.5 130.5q0 61 19.5 126.5t64.5 130t110.5 116t164.5 83t220 31.5q133 0 251 -34.5t169 -75.5l-74 -269 q-207 129 -379 129q-45 0 -90 -8t-88 -25.5t-69.5 -52t-26.5 -82.5q0 -72 57.5 -109.5t182.5 -80.5q76 -27 116.5 -43t103 -51t94.5 -73t57.5 -98.5t25.5 -135.5q0 -90 -32 -171t-100.5 -153t-192 -115t-289.5 -43zM1079 1794l-321 -186l-256 186l26 152l265 -146l313 146z " />
<glyph unicode="&#x161;" horiz-adv-x="851" d="M295 -20q-221 0 -322 75l60 217q45 -39 128 -70.5t161 -31.5q90 0 125.5 41t35.5 88q0 35 -24.5 61.5t-50 38t-80.5 29.5q-57 18 -89 32.5t-71 41t-57.5 67.5t-18.5 97q0 59 21.5 120.5t67.5 121t132 96t199 36.5q94 0 181 -23.5t124 -51.5l-59 -217q-31 41 -105.5 75.5 t-152.5 34.5q-72 0 -125 -31.5t-53 -93.5q0 -23 9 -41t19 -28.5t35 -22.5t38 -16l49 -15l48 -16q109 -35 165 -89t56 -169q0 -152 -105 -254t-341 -102zM846 1384l-322 -186l-256 186l27 152l264 -145l313 145z" />
<glyph unicode="&#x178;" horiz-adv-x="1234" d="M1366 1434l-618 -799l-113 -635h-260l110 635l-335 799h278l234 -574l425 574h279zM1030 1626h-199l37 217h201zM741 1626h-198l39 217h198z" />
<glyph unicode="&#x17d;" horiz-adv-x="1097" d="M1221 1434l-824 -1180h527l-45 -254h-959l823 1180h-526l45 254h959zM1042 1794l-321 -186l-256 186l27 152l264 -146l313 146z" />
<glyph unicode="&#x17e;" horiz-adv-x="944" d="M973 1024l-563 -799h399l-41 -225h-825l563 799h-404l41 225h830zM899 1384l-321 -186l-256 186l26 152l264 -145l314 145z" />
<glyph unicode="&#x192;" horiz-adv-x="714" d="M899 1438l-57 -193q-63 14 -97 15q-78 0 -120.5 -51.5t-85.5 -184.5h241l-45 -168h-252l-331 -1022q-53 -168 -140.5 -249t-158.5 -81h-68v209q59 0 93 32t67 132l307 979h-148l48 168h153l27 80q55 166 172 262t256 96q71 1 139 -24z" />
<glyph unicode="&#x237;" horiz-adv-x="497" d="M-70 -496h-94l14 209q80 0 101.5 22.5t42.5 141.5l203 1147h254l-222 -1251q-49 -269 -299 -269z" />
<glyph unicode="&#x2c6;" horiz-adv-x="876" d="M938 1198l-262 145l-316 -145l27 152l322 186l256 -186z" />
<glyph unicode="&#x2c7;" horiz-adv-x="876" d="M971 1384l-322 -186l-256 186l27 152l264 -145l313 145z" />
<glyph unicode="&#x2da;" horiz-adv-x="575" d="M496 1180q-82 0 -129.5 44t-47.5 111q0 86 69 148.5t171 62.5q82 0 129 -45t47 -112q0 -86 -68.5 -147.5t-170.5 -61.5zM541 1446q-41 0 -69 -28.5t-28 -69.5q0 -33 18.5 -51.5t49.5 -18.5q41 0 69.5 27.5t28.5 70.5q0 31 -19 50.5t-50 19.5z" />
<glyph unicode="&#x2dc;" horiz-adv-x="1038" d="M874 1227q-59 0 -128.5 43t-104.5 43q-37 0 -64.5 -30t-39.5 -66l-170 40q25 96 109.5 152.5t178.5 56.5q70 0 125.5 -43t85.5 -43q41 0 79 32t46 65l156 -41q-25 -84 -100 -146.5t-173 -62.5z" />
<glyph unicode="&#x2000;" horiz-adv-x="978" />
<glyph unicode="&#x2001;" horiz-adv-x="1956" />
<glyph unicode="&#x2002;" horiz-adv-x="978" />
<glyph unicode="&#x2003;" horiz-adv-x="1956" />
<glyph unicode="&#x2004;" horiz-adv-x="652" />
<glyph unicode="&#x2005;" horiz-adv-x="489" />
<glyph unicode="&#x2006;" horiz-adv-x="326" />
<glyph unicode="&#x2007;" horiz-adv-x="326" />
<glyph unicode="&#x2008;" horiz-adv-x="244" />
<glyph unicode="&#x2009;" horiz-adv-x="391" />
<glyph unicode="&#x200a;" horiz-adv-x="108" />
<glyph unicode="&#x2010;" horiz-adv-x="835" d="M700 471h-610l35 193h608z" />
<glyph unicode="&#x2011;" horiz-adv-x="835" d="M700 471h-610l35 193h608z" />
<glyph unicode="&#x2012;" horiz-adv-x="835" d="M700 471h-610l35 193h608z" />
<glyph unicode="&#x2013;" horiz-adv-x="991" d="M852 471h-762l35 193h762z" />
<glyph unicode="&#x2014;" horiz-adv-x="1169" d="M1034 471h-944l35 193h942z" />
<glyph unicode="&#x2018;" horiz-adv-x="432" d="M213 1311l240 225l45 -29l-95 -176l62 -20l-47 -267h-252z" />
<glyph unicode="&#x2019;" horiz-adv-x="397" d="M455 1270l-240 -226l-47 29l96 176l-61 21l47 266h250z" />
<glyph unicode="&#x201a;" horiz-adv-x="479" d="M260 0l-240 -225l-47 28l97 177l-62 20l47 266h250z" />
<glyph unicode="&#x201c;" horiz-adv-x="843" d="M213 1311l240 225l45 -29l-95 -176l62 -20l-47 -267h-252zM627 1311l237 225l47 -29l-94 -176l60 -20l-48 -267h-249z" />
<glyph unicode="&#x201d;" horiz-adv-x="811" d="M866 1270l-237 -226l-47 29l94 176l-62 21l48 266h251zM455 1270l-240 -226l-47 29l96 176l-61 21l47 266h250z" />
<glyph unicode="&#x201e;" horiz-adv-x="931" d="M260 0l-240 -225l-47 28l97 177l-62 20l47 266h250zM711 0l-238 -225l-47 28l94 177l-59 20l45 266h252z" />
<glyph unicode="&#x2020;" horiz-adv-x="845" d="M791 715l-240 53l10 -242l-151 -526h-187l33 526l96 242l-258 -53l47 270l240 -55v313h309l-112 -313l260 55z" />
<glyph unicode="&#x2021;" horiz-adv-x="944" d="M739 137l-239 56v-314h-307l110 314l-260 -56l47 271l240 -54l-17 207l90 207l-258 -53l48 270l239 -55v313h307l-110 -313l260 55l-47 -270l-240 53l16 -207l-90 -207l258 54z" />
<glyph unicode="&#x2022;" horiz-adv-x="598" d="M252 346q-78 0 -128 55.5t-50 135.5q0 102 78.5 179t179.5 77q78 0 128 -55.5t50 -135.5q0 -102 -79 -179t-179 -77z" />
<glyph unicode="&#x2026;" horiz-adv-x="1409" d="M262 0h-254l47 266h254zM727 0h-254l45 266h256zM1190 0h-254l47 266h254z" />
<glyph unicode="&#x202f;" horiz-adv-x="391" />
<glyph unicode="&#x2030;" horiz-adv-x="2383" d="M1186 -18q-111 0 -174.5 78.5t-63.5 209.5q0 203 113 335t268 132q111 0 175.5 -78.5t64.5 -212.5q0 -199 -109.5 -331.5t-273.5 -132.5zM1485 1434l-1088 -1459h-213l1086 1459h215zM387 686q-113 0 -176.5 78t-63.5 211q0 203 114 335t269 132q111 0 175.5 -79 t64.5 -212q0 -199 -109.5 -332t-273.5 -133zM1303 590q-72 0 -129.5 -81t-57.5 -224q0 -152 101 -152q82 0 135 78t53 219q0 78 -28.5 119t-73.5 41zM502 1294q-72 0 -130.5 -80.5t-58.5 -224.5q0 -152 103 -151q84 0 137 77.5t53 219.5q0 80 -29.5 119.5t-74.5 39.5z M1896 -18q-111 0 -175 78.5t-64 209.5q0 203 113.5 335t269.5 132q109 0 174 -78.5t65 -212.5q0 -199 -109.5 -331.5t-273.5 -132.5zM2013 590q-72 0 -130 -81t-58 -224q0 -152 102 -152q82 0 135.5 78t53.5 219q0 78 -29 119t-74 41z" />
<glyph unicode="&#x2039;" horiz-adv-x="702" d="M549 160h-301l-223 422l370 422h301l-370 -422z" />
<glyph unicode="&#x203a;" horiz-adv-x="702" d="M670 582l-371 -422h-301l371 422l-222 422h302z" />
<glyph unicode="&#x205f;" horiz-adv-x="489" />
<glyph unicode="&#x2070;" horiz-adv-x="800" d="M399 639q-127 0 -197.5 86t-70.5 227q0 203 127 348.5t297 145.5q123 0 194.5 -90t71.5 -232q0 -203 -120 -344t-302 -141zM522 1274q-70 0 -133 -81t-63 -224q0 -152 106 -152q84 0 140.5 70.5t56.5 218.5q0 82 -32 125t-75 43z" />
<glyph unicode="&#x2074;" horiz-adv-x="700" d="M692 866h-96l-39 -211h-195l37 211h-344l467 564h172l-73 -418h96zM426 1012l27 155l-127 -155h100z" />
<glyph unicode="&#x2075;" horiz-adv-x="620" d="M295 643q-63 0 -115.5 17.5t-76 37t-25.5 35.5l78 176q8 -31 52 -55.5t111 -24.5q117 0 117 93q0 61 -114 61h-162l133 447h371l-58 -203h-205l-28 -88q240 -4 239 -189q0 -160 -94 -233.5t-223 -73.5z" />
<glyph unicode="&#x2076;" horiz-adv-x="641" d="M319 639q-94 0 -147 58.5t-53 179.5q0 119 53 227t126 176t143.5 107.5t111.5 42.5l119 -76q-53 0 -185.5 -113t-132.5 -135q14 10 99 16q88 0 142 -49t54 -135q0 -115 -96.5 -207t-233.5 -92zM412 969q-59 0 -86 -19.5t-27 -70.5q0 -25 24.5 -42.5t43.5 -17.5 q35 0 71.5 29t36.5 67q0 20 -21.5 37t-41.5 17z" />
<glyph unicode="&#x2077;" horiz-adv-x="604" d="M745 1430l-448 -775h-215l330 572h-240l37 203h536z" />
<glyph unicode="&#x2078;" horiz-adv-x="681" d="M334 639q-113 0 -172.5 50t-59.5 132q0 106 119 252q-12 16 -12 98q0 274 285 275q205 0 204 -152q0 -27 -11 -63.5t-23 -62.5l-27 -55l-16 -32q53 -115 53 -170q0 -100 -90 -186t-250 -86zM465 1311q-94 0 -94 -131q0 -39 57 -47q53 10 71.5 36.5t18.5 87.5q0 54 -53 54 zM420 1012q-37 0 -88 -43t-51 -105q0 -37 22.5 -60.5t61.5 -23.5q63 0 90.5 30t27.5 99q0 91 -63 103z" />
<glyph unicode="&#x2079;" horiz-adv-x="634" d="M471 1446q96 0 149.5 -61.5t53.5 -178.5q0 -190 -148.5 -370.5t-304.5 -180.5l-92 76q66 0 196 93.5t142 164.5q-45 -25 -117 -24q-70 0 -138.5 53t-68.5 137q0 109 96.5 200t231.5 91zM393 1116q55 0 84 20.5t29 75.5q0 61 -66 62q-41 0 -71.5 -35t-30.5 -68 q0 -27 16 -41t39 -14z" />
<glyph unicode="&#x2080;" horiz-adv-x="851" d="M309 -16q-127 0 -197.5 86t-70.5 227q0 203 127 348.5t297 145.5q123 0 194.5 -90.5t71.5 -231.5q0 -203 -120 -344t-302 -141zM432 618q-70 0 -133 -80.5t-63 -224.5q0 -152 106 -151q84 0 140.5 70.5t56.5 218.5q0 82 -32 124.5t-75 42.5z" />
<glyph unicode="&#x2081;" horiz-adv-x="522" d="M250 0h-195l88 506q-29 -4 -71 -4l22 151q27 2 78 43t59 78h156z" />
<glyph unicode="&#x2082;" horiz-adv-x="673" d="M469 0h-512q254 291 329.5 403.5t75.5 174.5q0 63 -53 63q-66 0 -124 -52t-81 -91l7 178q86 115 260 115q96 0 138 -50.5t42 -117.5q0 -74 -52.5 -171.5t-168.5 -248.5h176z" />
<glyph unicode="&#x2083;" horiz-adv-x="665" d="M166 -16q-63 0 -127 21.5t-72 39.5l82 184q14 -18 55 -31.5t82 -13.5q141 0 142 84q0 78 -62 78h-135l41 148h70q53 0 78.5 25.5t25.5 49.5q0 66 -80 66q-86 0 -123 -29l-6 133q27 23 84.5 37.5t100.5 14.5q121 0 171 -55.5t50 -127.5q0 -43 -16.5 -88t-30 -64.5 t-21.5 -27.5q2 -10 13.5 -33.5t18.5 -50.5t7 -59q0 -139 -105.5 -220t-242.5 -81z" />
<glyph unicode="&#x2084;" horiz-adv-x="751" d="M598 211h-96l-39 -211h-195l37 211h-344l467 563h172l-74 -418h97zM332 356l26 156l-127 -156h101z" />
<glyph unicode="&#x2085;" horiz-adv-x="673" d="M205 -12q-63 0 -115.5 17.5t-76 36.5t-27.5 32l80 180q8 -31 51 -54.5t112 -23.5q117 0 117 90q0 61 -115 62h-161l133 446h370l-57 -203h-205l-28 -88q240 -4 239 -188q0 -160 -94 -233.5t-223 -73.5z" />
<glyph unicode="&#x2086;" horiz-adv-x="688" d="M227 -16q-94 0 -147 58t-53 179q0 119 55 228.5t130 177t143.5 107.5t105.5 40l119 -76q-72 0 -194 -105.5t-124 -139.5q14 10 90 14q94 0 149.5 -48t55.5 -134q0 -117 -96.5 -209t-233.5 -92zM319 315q-59 0 -85.5 -20.5t-26.5 -73.5q0 -23 25.5 -41t41.5 -18 q37 0 73 29.5t36 68.5q0 20 -22 37.5t-42 17.5z" />
<glyph unicode="&#x2087;" horiz-adv-x="677" d="M659 774l-448 -774h-215l330 571h-240l37 203h536z" />
<glyph unicode="&#x2088;" horiz-adv-x="733" d="M244 -16q-113 0 -172.5 50t-59.5 132q0 106 119 252q-12 16 -12 98q0 274 284 275q205 0 205 -152q0 -27 -11 -63.5t-23 -63.5l-28 -54l-16 -32q53 -115 54 -170q0 -100 -90 -186t-250 -86zM375 655q-94 0 -94 -131q0 -39 57 -47q53 10 71.5 37t18.5 88q0 53 -53 53z M330 356q-37 0 -88.5 -43t-51.5 -104q0 -37 23 -60.5t61 -23.5q63 0 91 29.5t28 99.5q0 90 -63 102z" />
<glyph unicode="&#x2089;" horiz-adv-x="681" d="M377 791q96 0 149.5 -61.5t53.5 -178.5q0 -190 -148.5 -370.5t-304.5 -180.5l-92 76q66 0 194.5 92t145.5 168q-45 -27 -121 -27q-88 0 -147.5 49.5t-59.5 133.5q0 113 96.5 206t233.5 93zM299 461q55 0 84 20.5t29 75.5q0 59 -64 59q-41 0 -72.5 -32.5t-31.5 -67.5 q0 -27 17.5 -41t37.5 -14z" />
<glyph unicode="&#x20ac;" horiz-adv-x="1392" d="M825 35q-201 0 -335 104.5t-171 288.5h-284l92 176h178q2 43 21 141h-179l86 166h144q92 225 277.5 356.5t410.5 131.5q207 0 344 -76l-70 -231q-170 82 -313 82q-262 0 -383 -263h492l-91 -166h-458q-16 -111 -17 -141h473l-92 -176h-354q57 -168 268 -168q145 0 344 82 l-12 -231q-164 -76 -371 -76z" />
<glyph unicode="&#x2122;" horiz-adv-x="1470" d="M1038 870h-22l-98 254l-127 -434h-170l227 744h104l121 -304l227 304h107l-35 -744h-172l27 434zM772 1434l-49 -160h-182l-105 -584h-166l103 584h-189l29 160h559z" />
<glyph unicode="&#xe000;" horiz-adv-x="1025" d="M0 1025h1025v-1025h-1025v1025z" />
<glyph horiz-adv-x="1110" d="M1001 0h-260l-51 268h-375l-143 -268h-262l641 1190h229zM645 514l-53 268l-146 -268h199z" />
<glyph horiz-adv-x="1531" d="M1360 0h-760l49 276h-317l-182 -276h-267l803 1190h868l-43 -246h-499l-37 -203h385l-43 -243h-385l-43 -252h514zM692 518l74 422l-277 -422h203z" />
<glyph horiz-adv-x="1150" d="M537 0h-496l209 1190h356q102 0 172 -9.5t130.5 -35t90 -76.5t29.5 -127q0 -102 -44 -186t-110 -119q172 -66 173 -234q0 -109 -47.5 -189.5t-124 -125.5t-162.5 -66.5t-176 -21.5zM682 983h-217l-45 -262h223q51 0 100.5 39t49.5 114q0 109 -111 109zM604 537h-217 l-57 -330h243q102 0 160 50t58 146q-1 134 -187 134z" />
<glyph horiz-adv-x="1091" d="M561 -25q-225 0 -361.5 140.5t-136.5 371.5q0 313 209 520t508 207q205 0 340 -69l-71 -240q-147 66 -312 66q-188 0 -291.5 -130t-103.5 -333q0 -133 65.5 -211t194.5 -78q166 0 338 66l-14 -238q-154 -72 -365 -72z" />
<glyph horiz-adv-x="1284" d="M500 0h-459l209 1190h461q229 0 366 -130t137 -358q0 -315 -205.5 -508.5t-508.5 -193.5zM668 946h-209l-123 -702h207q193 0 293 117.5t100 316.5q0 129 -67.5 198.5t-200.5 69.5z" />
<glyph horiz-adv-x="1028" d="M856 0h-815l209 1190h799l-43 -246h-539l-35 -203h412l-43 -243h-412l-45 -252h557z" />
<glyph horiz-adv-x="950" d="M963 944h-504l-35 -203h387l-43 -243h-387l-88 -498h-252l209 1190h756z" />
<glyph horiz-adv-x="1183" d="M561 -25q-225 0 -361.5 140.5t-136.5 371.5q0 315 209 521t516 206q94 0 198 -19t159 -52l-72 -244q-147 72 -321 72q-199 0 -303.5 -128t-104.5 -323q0 -139 70.5 -220t206.5 -81q37 0 151 12l29 166h-105l35 199h356l-94 -530q-68 -37 -198 -64t-234 -27z" />
<glyph horiz-adv-x="1314" d="M1061 0h-254l88 498h-514l-88 -498h-252l209 1190h252l-78 -449h514l80 449h254z" />
<glyph horiz-adv-x="546" d="M293 0h-252l209 1190h252z" />
<glyph horiz-adv-x="546" d="M-37 -293h-80l19 201h65q57 0 76 104l207 1178h252l-215 -1223q-25 -129 -112 -194.5t-212 -65.5z" />
<glyph horiz-adv-x="1153" d="M1024 0h-289l-299 629l510 561h287l-510 -561zM293 0h-252l209 1190h252z" />
<glyph horiz-adv-x="892" d="M764 0h-723l209 1190h252l-166 -944h471z" />
<glyph horiz-adv-x="1499" d="M1303 0h-261l31 741l-391 -510l-211 508l-227 -739h-262l380 1190h203l197 -516l375 516h204z" />
<glyph horiz-adv-x="1265" d="M1012 0h-205l-383 750l-131 -750h-252l209 1190h239l359 -703l123 703h252z" />
<glyph horiz-adv-x="1355" d="M567 -25q-227 0 -365.5 140.5t-138.5 371.5q0 315 211 521t512 206q227 0 364.5 -140t137.5 -369q0 -315 -210 -522.5t-511 -207.5zM743 971q-188 0 -294.5 -130t-106.5 -329q0 -135 68.5 -214t199.5 -79q188 0 294 130t106 331q0 135 -68 213t-199 78z" />
<glyph horiz-adv-x="1871" d="M1700 0h-780l12 68q-150 -92 -359 -93q-231 0 -370.5 141.5t-139.5 372.5q0 313 212 519t516 206q211 0 325 -92l12 68h766l-43 -246h-503l-35 -203h387l-43 -243h-387l-45 -252h518zM748 971q-186 0 -295 -130t-109 -327q0 -135 69.5 -215t202.5 -80q186 0 295 130 t109 327q0 135 -69.5 215t-202.5 80z" />
<glyph horiz-adv-x="1097" d="M549 377h-193l-67 -377h-248l209 1190h323q279 0 396.5 -56.5t117.5 -232.5q0 -125 -37.5 -221t-93 -152.5t-131 -91.5t-142 -47t-134.5 -12zM645 987h-182l-66 -375h164q158 0 213 51.5t55 194.5q0 66 -41 97.5t-143 31.5z" />
<glyph horiz-adv-x="1355" d="M1210 150l-182 -179l-104 101q-152 -96 -357 -97q-227 0 -365.5 140.5t-138.5 371.5q0 315 211 521t512 206q227 0 364.5 -140t137.5 -369q0 -268 -174 -467zM743 971q-188 0 -294.5 -130t-106.5 -329q0 -135 68.5 -214t199.5 -79q47 0 131 25l-110 108l182 176l119 -108 q0 2 14.5 30.5t20.5 46t16 49.5t14 66.5t4 71.5q0 133 -65.5 210t-192.5 77z" />
<glyph horiz-adv-x="1144" d="M1001 0h-258l-168 430h-210l-76 -430h-248l209 1190h473q164 0 263 -66.5t99 -212.5q0 -86 -19 -151.5t-63.5 -114.5t-81 -77.5t-104.5 -71.5zM610 981h-147l-57 -322h112q178 0 238.5 53.5t60.5 153.5q0 57 -45 86t-162 29z" />
<glyph horiz-adv-x="1044" d="M395 -25q-270 0 -391 93l78 280q39 -53 134 -91t228 -38q106 0 153.5 25.5t47.5 93.5q0 35 -18.5 62.5t-59.5 50t-71.5 35t-87.5 30.5q-61 20 -102.5 39.5t-88.5 52.5t-71.5 82t-24.5 113q0 152 131 281.5t381 129.5q119 0 224.5 -30.5t148.5 -67.5l-70 -250 q-172 106 -342 107q-215 0 -215 -113q0 -37 33.5 -65.5t68.5 -42t109 -35.5q76 -23 121 -42.5t104 -57t89 -95t30 -135.5q0 -41 -6 -82t-38 -104.5t-85 -109.5t-160 -81t-250 -35z" />
<glyph horiz-adv-x="1019" d="M1036 944h-338l-166 -944h-253l165 944h-338l44 246h929z" />
<glyph horiz-adv-x="1271" d="M524 -25q-209 0 -313.5 102.5t-106.5 287.5q0 70 13 147l119 678h249l-106 -606q-16 -92 -17 -156q4 -209 205 -209q145 0 215 92t103 273l106 606h252l-119 -678q-43 -248 -196.5 -392.5t-403.5 -144.5z" />
<glyph horiz-adv-x="1167" d="M1257 1190l-616 -1190h-322l-215 1190h263l170 -848l464 848h256z" />
<glyph horiz-adv-x="1710" d="M1786 1190l-565 -1190h-203l-141 696l-379 -696h-224l-135 1190h262l95 -758l391 770h155l140 -737l346 725h258z" />
<glyph horiz-adv-x="1153" d="M1038 0h-301l-194 410l-344 -410h-297l544 594l-307 596h293l195 -393l286 393h297l-483 -572z" />
<glyph horiz-adv-x="1105" d="M1200 1190l-547 -676l-90 -514h-246l91 514l-308 676h269l202 -455l361 455h268z" />
<glyph horiz-adv-x="991" d="M1063 1190l-678 -944h432l-43 -246h-848l680 944h-434l43 246h848z" />
</font>
</defs>
</svg>
