<?xml version="1.0" standalone="no"?>
<!DOCTYPE svg PUBLIC "-//W3C//DTD SVG 1.1//EN" "http://www.w3.org/Graphics/SVG/1.1/DTD/svg11.dtd" >
<svg xmlns="http://www.w3.org/2000/svg">
<metadata>
This is a custom SVG webfont generated by Font Squirrel.
Copyright   : Copyright c 2011 by Pablo Impallari wwwimpallaricom Igino Marini wwwikerncom All rights reserved
Designer    : Pablo Impallari
Foundry     : Pablo Impallari wwwimpallaricom Igino Marini wwwikerncom
Foundry URL : wwwimpallaricom
</metadata>
<defs>
<font id="webfontsXI2vM7O" horiz-adv-x="1052" >
<font-face units-per-em="2048" ascent="1638" descent="-410" />
<missing-glyph horiz-adv-x="460" />
<glyph unicode=" "  horiz-adv-x="460" />
<glyph unicode="&#x09;" horiz-adv-x="460" />
<glyph unicode="&#xa0;" horiz-adv-x="460" />
<glyph unicode="!" horiz-adv-x="489" d="M524 1536l-248 -1126h-131l150 1126h229zM227 0h-178l31 176h178z" />
<glyph unicode="&#x22;" horiz-adv-x="765" d="M842 1536l-146 -614h-114l71 614h189zM438 1536l-145 -614h-117l72 614h190z" />
<glyph unicode="#" horiz-adv-x="1320" d="M1329 1038l-86 -174h-213l-121 -235h236l-113 -187h-223l-240 -465h-157l241 465h-233l-242 -465h-155l239 465h-221l111 187h210l119 235h-229l86 174h237l205 396h158l-207 -396h234l206 396h156l-205 -396h207zM872 864h-231l-123 -235h234z" />
<glyph unicode="$" horiz-adv-x="980" d="M471 168l-12 -234h-176l71 232q-213 12 -309 78l64 223q106 -119 323 -119q223 0 223 150q0 57 -52 96t-126 65.5t-147.5 56t-125.5 85t-52 135.5q0 74 34.5 145.5t130 134t236.5 76.5l12 240h176l-71 -240q193 -12 282 -75l-53 -197q-170 98 -293 98 q-100 0 -170.5 -31.5t-70.5 -103.5q0 -51 54 -86t131 -59.5t152.5 -56t130 -95t54.5 -156.5q0 -35 -5 -69.5t-30 -85.5t-67 -91t-122.5 -73t-191.5 -43z" />
<glyph unicode="%" horiz-adv-x="1581" d="M1108 -27q-102 0 -160.5 75t-58.5 210q0 213 109.5 348t252.5 135q100 0 159.5 -76.5t59.5 -209.5q0 -213 -104 -347.5t-258 -134.5zM1380 1434l-1032 -1459h-155l1034 1459h153zM365 682q-100 0 -159 73.5t-59 207.5q0 215 109 348t252 133q98 0 156.5 -75t58.5 -208 q0 -213 -103 -346t-255 -133zM1229 645q-88 0 -158 -107.5t-70 -267.5q0 -94 32 -145t91 -51q98 0 164 105.5t66 262.5q0 92 -35 147.5t-90 55.5zM487 1339q-82 0 -150.5 -103t-68.5 -251q0 -88 32 -142.5t85 -54.5q86 0 152.5 102.5t66.5 248.5q0 90 -33 145t-84 55z" />
<glyph unicode="&#x26;" horiz-adv-x="1146" d="M1020 0h-199l-57 94q-160 -141 -365 -141q-193 0 -283.5 85t-90.5 230q0 133 76.5 248t234.5 234q-82 170 -82 301q0 170 129 279.5t297 109.5q119 0 177 -57.5t58 -157.5q0 -258 -374 -496l252 -399q55 78 122 389h172q-66 -322 -200 -514zM637 1298q-84 0 -146.5 -66.5 t-62.5 -180.5q0 -111 53 -220q20 18 71.5 60.5t69 58t50.5 49t44 56t22.5 54.5t11.5 67q0 122 -113 122zM692 215l-289 426q-84 -61 -137 -153.5t-53 -190.5q0 -92 53 -148.5t164 -56.5q149 0 262 123z" />
<glyph unicode="'" horiz-adv-x="374" d="M449 1536l-144 -614h-129l74 614h199z" />
<glyph unicode="(" horiz-adv-x="528" d="M317 -279h-163q-88 219 -88 558q0 365 97 667.5t310 589.5h166q-195 -272 -305.5 -559t-110.5 -643q0 -345 94 -613z" />
<glyph unicode=")" horiz-adv-x="528" d="M66 -279h-166q195 272 304 559t109 644q0 354 -94 612h166q88 -227 88 -557q0 -362 -97 -666.5t-310 -591.5z" />
<glyph unicode="*" horiz-adv-x="823" d="M633 874l-129 273l-225 -279l-68 66l250 240l-268 133l71 84l234 -177l18 320h113l-97 -320l297 177l41 -86l-315 -129l172 -236z" />
<glyph unicode="+" horiz-adv-x="870" d="M756 487h-262l-50 -278h-155l47 278h-262l30 177h265l45 262h155l-45 -262h262z" />
<glyph unicode="," horiz-adv-x="440" d="M213 0l-195 -223l-38 26l94 179l-58 18l31 176h199z" />
<glyph unicode="-" horiz-adv-x="811" d="M670 487h-572l31 177h571z" />
<glyph unicode="." horiz-adv-x="425" d="M201 0h-187l31 176h186z" />
<glyph unicode="/" horiz-adv-x="1013" d="M1087 1434l-972 -1608h-205l973 1608h204z" />
<glyph unicode="0" horiz-adv-x="1366" d="M569 -29q-209 0 -320.5 149.5t-111.5 414.5q0 387 214 657t489 270q197 0 311.5 -154.5t114.5 -428.5q0 -377 -204 -642.5t-493 -265.5zM809 1286q-176 0 -322.5 -208t-146.5 -529q0 -401 260 -402q197 0 332 202t135 509q0 215 -70.5 321.5t-187.5 106.5z" />
<glyph unicode="1" horiz-adv-x="702" d="M391 0h-203l197 1118q-84 -61 -197 -90l7 182q70 23 159.5 89.5t139.5 134.5h149z" />
<glyph unicode="2" horiz-adv-x="1001" d="M778 0h-772q453 563 587 769t134 325q0 186 -178 186q-174 0 -330 -190l6 174q25 33 70 71.5t140 82.5t196 44q154 0 224.5 -91t70.5 -224q0 -158 -116 -363.5t-427 -607.5h426z" />
<glyph unicode="3" horiz-adv-x="1044" d="M328 -29q-115 0 -212.5 39t-119.5 70l80 180q133 -113 276 -113q135 0 231.5 84t96.5 250q0 104 -53.5 162.5t-190.5 58.5h-145l47 156h74q334 0 333 266q0 76 -36.5 119t-141.5 43q-150 0 -260 -84l-6 166q37 33 122 63.5t195 30.5q184 0 260 -88t76 -223 q0 -94 -45 -179t-168 -177q145 -70 146 -289q0 -244 -171 -389.5t-388 -145.5z" />
<glyph unicode="4" horiz-adv-x="1075" d="M911 389h-155l-70 -389h-201l70 389h-555l778 1045h162l-154 -869h158zM586 565l92 520l-359 -520h267z" />
<glyph unicode="5" horiz-adv-x="1040" d="M317 -29q-92 0 -189 27t-110 53l78 182q111 -86 250 -86t247.5 110t108.5 261q0 111 -73.5 160t-251.5 49h-170l203 707h587l-49 -177h-418l-98 -356q252 -4 365.5 -84t113.5 -258q0 -250 -183.5 -419t-410.5 -169z" />
<glyph unicode="6" horiz-adv-x="1089" d="M432 -29q-330 0 -330 396q0 201 83 403.5t201 343.5t242 230.5t210 89.5l116 -78q-82 -43 -116.5 -62.5t-117.5 -79t-132 -116t-110.5 -153.5t-100.5 -214q100 129 270 129q143 0 233.5 -85t90.5 -251q0 -223 -155 -388t-384 -165zM600 694q-119 0 -211 -96t-92 -240 q0 -109 53 -163t135 -54q123 0 206 109.5t83 241.5q0 84 -41 143t-133 59z" />
<glyph unicode="7" horiz-adv-x="962" d="M1069 1434l-805 -1434h-205l697 1257h-557l30 177h840z" />
<glyph unicode="8" horiz-adv-x="1161" d="M461 -29q-195 0 -286 102.5t-91 252.5q0 268 307 444q-106 121 -106 274q0 72 23.5 140.5t71.5 133t140 103.5t215 39q326 0 326 -293q0 -109 -53.5 -181.5t-210.5 -192.5q209 -96 209 -310q0 -119 -59.5 -233.5t-188.5 -196.5t-297 -82zM698 1286q-111 0 -173 -61.5 t-62 -153.5q0 -139 151 -209q125 41 188.5 120t63.5 163q0 141 -168 141zM600 692q-131 -27 -222 -119t-91 -229q0 -197 198 -197q133 0 224.5 85t91.5 210q0 92 -54.5 156.5t-146.5 93.5z" />
<glyph unicode="9" horiz-adv-x="1097" d="M702 1462q156 0 241 -93t85 -318q0 -215 -80 -419t-195.5 -337t-237.5 -214t-212 -81l-127 78q94 49 154.5 86t155 112.5t162 179t102.5 232.5q-102 -117 -285 -117q-139 0 -224 85t-85 249q0 229 156.5 393t389.5 164zM530 739q119 0 212.5 96.5t93.5 239.5 q0 106 -53.5 161.5t-137.5 55.5q-125 0 -207 -109.5t-82 -240.5q0 -84 41 -143.5t133 -59.5z" />
<glyph unicode=":" horiz-adv-x="425" d="M328 725h-187l33 176h184zM201 0h-187l31 176h186z" />
<glyph unicode=";" horiz-adv-x="448" d="M350 725h-207l31 176h207zM213 -2l-195 -221l-38 26l94 179l-58 18l31 176h199z" />
<glyph unicode="&#x3c;" horiz-adv-x="802" d="M598 160h-205l-321 422l471 422h205l-472 -422z" />
<glyph unicode="=" horiz-adv-x="960" d="M829 651h-682l27 156h682zM772 328h-682l27 155h682z" />
<glyph unicode="&#x3e;" horiz-adv-x="804" d="M727 582l-471 -422h-205l471 422l-321 422h205z" />
<glyph unicode="?" horiz-adv-x="856" d="M410 410h-123q6 80 10 92q14 76 58 148q43 72 97 132l105 122q51 62 86 138t35 158q0 98 -51.5 149.5t-129 51.5t-151.5 -45t-110 -94l-25 137q49 59 136 98t181 39q158 0 241 -101.5t83 -230.5q0 -80 -40 -164t-100 -156l-122 -142q-60 -68 -109 -142t-61 -135zM371 0 h-187l31 176h188z" />
<glyph unicode="@" horiz-adv-x="1366" d="M1055 776q-76 109 -205 109q-123 0 -259 -95.5t-227.5 -245t-91.5 -290.5q0 -76 32 -124t102 -48q86 0 192.5 63.5t181.5 173.5l-8 -25q-6 -18 -10 -39.5t-4 -45.5q0 -123 82 -123q51 0 130 40t132 91q-119 -178 -301.5 -286.5t-372.5 -108.5q-178 0 -277.5 108.5 t-99.5 302.5q0 240 124 450t319.5 330t402.5 120q182 0 281.5 -110t99.5 -300q0 -119 -36 -236.5t-119 -205.5t-193 -88q-33 0 -49.5 13t-16.5 56q0 55 22.5 119.5t78 185.5t90.5 209zM844 760q68 0 76 -45q-55 -166 -196.5 -332t-231.5 -166q-63 0 -64 94 q0 168 146.5 308.5t269.5 140.5z" />
<glyph unicode="A" horiz-adv-x="1163" d="M1044 0h-204l-52 387h-473l-186 -387h-205l715 1434h197zM756 563l-68 598l-278 -598h346z" />
<glyph unicode="B" horiz-adv-x="1157" d="M518 0h-461l252 1434h312q233 0 333.5 -59.5t100.5 -237.5q0 -123 -42 -205t-128 -168q90 -47 128 -111.5t38 -179.5t-34 -202t-86 -137t-126 -82t-142.5 -42t-144.5 -10zM653 1260h-180l-74 -422h222q47 0 80.5 7t72.5 30.5t60.5 79t21.5 139.5q0 100 -41 133t-162 33z M633 662h-264l-86 -486h196q186 0 276.5 54.5t90.5 222.5q0 109 -47 159t-166 50z" />
<glyph unicode="C" horiz-adv-x="1157" d="M625 -29q-244 0 -387.5 162t-143.5 449q0 375 232.5 627.5t556.5 252.5q203 0 348 -84l-53 -180q-8 4 -55.5 23.5t-64.5 25.5l-56 19q-39 12 -74 16t-72 4q-246 0 -396.5 -207t-150.5 -487q0 -203 89 -324t264 -121q29 0 61.5 4.5t56 9.5t61.5 16t53 16.5t59 20.5t55 19 l-13 -180q-173 -82 -370 -82z" />
<glyph unicode="D" horiz-adv-x="1376" d="M537 0h-480l252 1434h479q246 0 388.5 -154t142.5 -438q0 -369 -226 -605.5t-556 -236.5zM758 1257h-285l-190 -1081h284q248 0 392.5 190.5t144.5 464.5q0 203 -87 314.5t-259 111.5z" />
<glyph unicode="E" d="M874 0h-817l252 1434h801l-31 -177h-604l-74 -419h476l-31 -176h-475l-86 -486h620z" />
<glyph unicode="F" horiz-adv-x="997" d="M1069 1257h-596l-74 -419h459l-31 -176h-458l-117 -662h-195l252 1434h791z" />
<glyph unicode="G" horiz-adv-x="1271" d="M614 -29q-236 0 -377 163t-141 450q0 375 230.5 626.5t558.5 251.5q221 0 375 -82l-50 -170q-182 76 -346 76q-174 0 -304 -103.5t-190.5 -258t-60.5 -330.5q0 -209 94.5 -328t282.5 -119q121 0 211 39l64 357h-185l31 176h379l-113 -639q-84 -45 -217 -77t-242 -32z" />
<glyph unicode="H" horiz-adv-x="1409" d="M1137 0h-195l117 657h-690l-117 -657h-195l252 1434h195l-105 -592h693l104 592h195z" />
<glyph unicode="I" horiz-adv-x="522" d="M252 0h-195l252 1434h195z" />
<glyph unicode="J" horiz-adv-x="524" d="M-113 -352h-43l4 114h19q88 0 128 53.5t62 178.5l254 1440h195l-264 -1500q-52 -286 -355 -286z" />
<glyph unicode="K" horiz-adv-x="1120" d="M995 0h-211l-335 760l587 674h211l-588 -674zM252 0h-195l252 1434h195z" />
<glyph unicode="L" horiz-adv-x="956" d="M823 0h-766l252 1434h195l-221 -1258h573z" />
<glyph unicode="M" horiz-adv-x="1540" d="M1331 0h-205l70 1057l-471 -717l-223 717l-303 -1057h-205l428 1434h176l193 -711l442 711h176z" />
<glyph unicode="N" horiz-adv-x="1337" d="M1065 0h-164l-448 1133l-201 -1133h-195l252 1434h205l420 -1074l188 1074h197z" />
<glyph unicode="O" horiz-adv-x="1454" d="M621 -29q-244 0 -385.5 161t-141.5 446q0 377 228.5 630.5t549.5 253.5q244 0 385.5 -160.5t141.5 -445.5q0 -375 -229.5 -630t-548.5 -255zM840 1286q-158 0 -281 -100.5t-186.5 -258t-63.5 -337.5q0 -201 85 -322t259 -121q158 0 282 100.5t187.5 258.5t63.5 338 q0 201 -86 321.5t-260 120.5z" />
<glyph unicode="P" horiz-adv-x="1101" d="M610 502h-264l-88 -502h-201l252 1434h400q215 0 315 -71t100 -284q0 -152 -51 -268.5t-131 -181t-165 -96t-167 -31.5zM676 1260h-195l-104 -584h231q164 0 238 106.5t74 264.5q0 117 -51.5 165t-192.5 48z" />
<glyph unicode="Q" horiz-adv-x="1452" d="M1262 127l-129 -121l-103 111q-197 -145 -414 -146q-240 0 -381 162t-141 447q0 375 228.5 628.5t547.5 253.5q248 0 388.5 -161.5t140.5 -440.5q0 -317 -232 -633zM842 1286q-240 0 -386.5 -209t-146.5 -491q0 -201 85 -320t261 -119q154 0 258 82l-153 172l129 125 l153 -174q49 76 77 127t52.5 145.5t24.5 202.5q0 217 -89 338t-265 121z" />
<glyph unicode="R" horiz-adv-x="1157" d="M1006 0h-207l-181 559h-262l-98 -559h-201l252 1434h436q184 0 283.5 -75t99.5 -251q0 -168 -87 -298t-226 -200zM700 1276h-217l-94 -528h246q127 0 207 78.5t80 230.5q0 111 -51.5 165t-170.5 54z" />
<glyph unicode="S" horiz-adv-x="1101" d="M418 -29q-268 0 -406 92l66 228q57 -59 154.5 -101.5t216.5 -42.5q141 0 236 62.5t95 183.5q0 102 -65.5 154.5t-208.5 109.5q-84 33 -123 52.5t-102.5 61.5t-92 96.5t-28.5 125.5q0 74 30.5 152t91 150.5t171 119.5t252.5 47q119 0 227 -30.5t162 -67.5l-56 -207 q-111 66 -187.5 97.5t-160.5 31.5q-117 0 -216 -61.5t-99 -173.5q0 -80 55 -124t178 -91l81 -32q22 -9 76 -34t76.5 -42t60.5 -50t54.5 -64.5t29.5 -78t13 -99.5q0 -86 -29.5 -163.5t-93 -148.5t-181 -112t-277.5 -41z" />
<glyph unicode="T" horiz-adv-x="1071" d="M1118 1257h-373l-221 -1257h-194l221 1257h-373l31 177h940z" />
<glyph unicode="U" horiz-adv-x="1368" d="M573 -29q-221 0 -330.5 116t-109.5 331q0 89 19 190l145 826h195l-130 -732q-24 -132 -24 -226v-7q0 -322 266 -322q104 0 182 45.5t127.5 129.5t79 174t49.5 206l129 732h195l-145 -826q-53 -303 -217.5 -470t-430.5 -167z" />
<glyph unicode="V" horiz-adv-x="1218" d="M1337 1434l-735 -1434h-217l-231 1434h204l177 -1198l598 1198h204z" />
<glyph unicode="W" horiz-adv-x="1820" d="M1935 1434l-630 -1434h-197l-92 1176l-514 -1176h-203l-109 1434h205l60 -1192l522 1163h162l106 -1161l488 1190h202z" />
<glyph unicode="X" horiz-adv-x="1150" d="M1024 0h-211l-250 588l-430 -588h-213l555 731l-295 703h226l221 -570l430 570h211l-570 -705z" />
<glyph unicode="Y" horiz-adv-x="1118" d="M1237 1434l-573 -772l-117 -662h-201l117 662l-303 772h205l233 -596l434 596h205z" />
<glyph unicode="Z" horiz-adv-x="1024" d="M1151 1434l-885 -1258h580l-31 -176h-899l883 1257h-578l31 177h899z" />
<glyph unicode="[" horiz-adv-x="626" d="M465 -276h-473l319 1812h473l-24 -139h-303l-271 -1534h303z" />
<glyph unicode="\" horiz-adv-x="999" d="M819 -174h-196l-406 1608h197z" />
<glyph unicode="]" horiz-adv-x="634" d="M334 -276h-473l30 172h304l258 1468h-303l30 172h473z" />
<glyph unicode="^" horiz-adv-x="940" d="M1008 895l-303 442l-457 -442l39 217l456 442l301 -442z" />
<glyph unicode="_" horiz-adv-x="1046" d="M889 -250h-1032l30 176h1033z" />
<glyph unicode="`" horiz-adv-x="559" d="M668 1221l-322 131l27 147l309 -194z" />
<glyph unicode="a" horiz-adv-x="1105" d="M1008 1004l-121 -711q-8 -43 -8 -80q0 -49 21.5 -67.5t74.5 -18.5l-51 -147q-53 0 -83 3t-65 16t-55.5 45t-30.5 83q-59 -70 -144 -108.5t-169 -38.5q-150 0 -242 119.5t-92 301.5q0 244 152.5 433.5t375.5 189.5q168 0 234 -127l39 107h164zM551 860q-133 0 -224 -131 t-91 -309q0 -123 50 -200t152 -77q127 0 224.5 114t97.5 310q0 147 -57.5 220t-151.5 73z" />
<glyph unicode="b" horiz-adv-x="1064" d="M473 -20q-170 0 -248 147l-37 -127h-168l271 1536h186l-112 -641q111 129 280 129q164 0 253 -121t89 -301q0 -250 -155.5 -436t-358.5 -186zM594 860q-127 0 -223.5 -123t-96.5 -319q0 -274 197 -275q137 0 230.5 131.5t93.5 309.5q0 125 -51.5 200.5t-149.5 75.5z" />
<glyph unicode="c" horiz-adv-x="856" d="M430 -20q-197 0 -290 117.5t-93 310.5q0 256 149.5 436t415.5 180q166 0 254 -59l-53 -166q-106 61 -221 61q-170 0 -262 -123t-92 -311q0 -285 231 -285q115 0 242 62l-6 -148q-119 -75 -275 -75z" />
<glyph unicode="d" horiz-adv-x="1064" d="M834 0h-170l8 127q-129 -147 -295 -147q-150 0 -242 119.5t-92 303.5q0 242 152.5 431.5t375.5 189.5q168 0 234 -127l113 639h186zM551 860q-133 0 -224 -131t-91 -309q0 -123 50 -200t152 -77q127 0 224.5 114t97.5 310q0 147 -57.5 220t-151.5 73z" />
<glyph unicode="e" horiz-adv-x="937" d="M889 768q0 -135 -110.5 -236.5t-356.5 -101.5q-104 0 -180 16q0 -168 68.5 -235.5t191.5 -67.5q150 0 276 60l-8 -146q-168 -77 -313 -77h-4q-201 0 -305.5 120.5t-104.5 313.5q0 246 154.5 428t392.5 182q143 0 221 -69.5t78 -186.5zM571 860q-209 0 -309 -285 q14 -2 33.5 -8t44.5 -9t66 -3q166 0 239.5 57.5t73.5 132.5q0 57 -41 86t-107 29z" />
<glyph unicode="f" horiz-adv-x="620" d="M637 860h-229l-152 -860h-186l151 860h-147l45 144h127l45 253q49 279 297 279q84 0 155 -27l-51 -155q-47 18 -100 18q-61 0 -85 -44t-52 -202l-23 -122h232z" />
<glyph unicode="g" horiz-adv-x="940" d="M295 -512q-195 0 -288 80t-93 180q0 70 46 146.5t155 121.5q-68 43 -68 111q0 37 33 85t96 81q-100 106 -100 268q0 184 124 323.5t322 139.5q127 0 213 -74q96 57 221 58h29l-39 -123h-55q-43 0 -92 -15q39 -80 39 -180q0 -174 -125 -316.5t-318 -142.5q-68 0 -119 19 q-47 -33 -47 -68q0 -33 49.5 -51t196.5 -49q61 -12 105.5 -26.5t100.5 -42t87 -72.5t31 -107q0 -135 -140.5 -240.5t-363.5 -105.5zM498 877q-111 0 -179.5 -89.5t-68.5 -214.5q0 -96 44 -148t122 -52q109 0 178.5 93t69.5 218q0 94 -43 143.5t-123 49.5zM616 -195 q0 43 -42 73t-91 42t-122.5 26.5t-104.5 24.5q-70 -25 -121 -81t-51 -115q0 -61 62.5 -102.5t172.5 -41.5q131 0 214 53t83 121z" />
<glyph unicode="h" horiz-adv-x="1036" d="M815 0h-186q109 623 108 676q0 98 -37.5 141t-124.5 43q-143 0 -239 -131l-129 -729h-187l271 1536h188l-114 -641q113 129 270 129q291 0 291 -332q0 -67 -111 -692z" />
<glyph unicode="i" horiz-adv-x="438" d="M424 1229h-186l34 205h187zM207 0h-187l177 1004h186z" />
<glyph unicode="j" horiz-adv-x="438" d="M-109 -485l-65 -11l6 142q80 10 110.5 47t51.5 157l203 1154h186l-215 -1223q-41 -229 -277 -266zM424 1229h-186l36 205h187z" />
<glyph unicode="k" horiz-adv-x="876" d="M207 0h-187l271 1536h186l-174 -985l399 453h222l-443 -463l271 -541h-220l-235 510z" />
<glyph unicode="l" horiz-adv-x="479" d="M358 127l-49 -147h-63q-102 0 -149.5 52t-47.5 136q0 33 236 1368h186q-227 -1292 -227 -1327q0 -49 24 -65.5t90 -16.5z" />
<glyph unicode="m" horiz-adv-x="1640" d="M1419 0h-186q115 651 115 696q0 164 -160 164q-223 0 -273 -278l-102 -582h-186q111 627 110 684q0 98 -40 137t-117 39q-158 0 -244 -131l-129 -729h-187l177 1004h147v-107q129 127 279 127q211 0 266 -201q115 201 358 201q291 0 291 -287q0 -59 -119 -737z" />
<glyph unicode="n" horiz-adv-x="1054" d="M834 0h-187q111 625 111 678q0 94 -42 138t-130 44q-164 0 -250 -131l-129 -729h-187l177 1004h157l-6 -107q131 127 299 127q299 0 299 -322q1 -73 -112 -702z" />
<glyph unicode="o" d="M422 -20q-184 0 -281.5 117.5t-97.5 305.5q0 254 157.5 437.5t393.5 183.5q184 0 281.5 -119t97.5 -307q0 -252 -157.5 -435t-393.5 -183zM567 860q-150 0 -242 -126t-92 -314q0 -276 216 -277q150 0 241.5 126t91.5 315q0 276 -215 276z" />
<glyph unicode="p" horiz-adv-x="1069" d="M483 -20q-178 0 -256 147l-108 -623h-187l265 1500h151l-6 -144q141 164 303 164q166 0 254 -120t88 -304q0 -246 -143.5 -433t-360.5 -187zM598 860q-129 0 -226.5 -121t-97.5 -317q0 -143 54.5 -211t144.5 -68q137 0 229.5 133.5t92.5 311.5q0 125 -50.5 198.5 t-146.5 73.5z" />
<glyph unicode="q" horiz-adv-x="1067" d="M383 -20q-166 0 -253 112.5t-87 294.5q0 252 149.5 444.5t372.5 192.5q94 0 150.5 -40t101.5 -124l43 144h152l-264 -1500h-187l111 623q-59 -70 -139 -108.5t-150 -38.5zM555 860q-137 0 -227 -130t-90 -310q0 -125 49 -201t149 -76q127 0 224.5 118t97.5 314 q0 145 -55.5 215t-147.5 70z" />
<glyph unicode="r" horiz-adv-x="628" d="M696 1040l-73 -202h-68q-55 0 -119.5 -40t-97.5 -89l-125 -709h-193l177 1004h161l-14 -166q169 202 322 202h2h28z" />
<glyph unicode="s" horiz-adv-x="796" d="M283 -20q-193 0 -303 88l51 178q102 -102 268 -103q94 0 141 39t47 105q0 45 -25.5 76.5t-52 44t-71.5 26.5q-55 18 -87 31.5t-71 41.5t-57.5 69.5t-18.5 101.5q0 135 98.5 240.5t297.5 105.5q150 0 250 -66l-50 -167q-78 88 -213 88q-86 0 -141 -40t-55 -112 q0 -57 38 -84t144 -63q43 -14 71.5 -29.5t64.5 -43.5t54.5 -74t18.5 -105q0 -41 -8 -82t-35 -91.5t-68 -87t-115.5 -62t-172.5 -25.5z" />
<glyph unicode="t" horiz-adv-x="620" d="M498 127l-41 -147h-154q-104 0 -152.5 52t-48.5 134q0 35 117 694h-147l41 144h131l45 247l188 19l-47 -266h227l-26 -144h-228q-109 -618 -108 -653q0 -53 29.5 -66.5t124.5 -13.5h49z" />
<glyph unicode="u" horiz-adv-x="1011" d="M780 0h-170l6 111q-57 -68 -118.5 -99.5t-149.5 -31.5q-278 0 -278 292q0 70 116 732h187q-109 -618 -109 -672q0 -188 160 -189q133 0 215 115l131 746h186z" />
<glyph unicode="v" horiz-adv-x="899" d="M954 1004l-522 -1004h-190l-170 1004h196l105 -801l383 801h198z" />
<glyph unicode="w" horiz-adv-x="1355" d="M1397 1004l-449 -1004h-188l-58 741l-321 -741h-186l-95 1004h205l27 -801l321 770h178l52 -770l309 801h205z" />
<glyph unicode="x" horiz-adv-x="899" d="M768 0h-213l-156 391l-262 -391h-213l398 504l-216 500h213l136 -390l264 390h219l-416 -517z" />
<glyph unicode="y" horiz-adv-x="940" d="M997 1004l-825 -1500h-199l303 541l-210 959h206l138 -746l381 746h206z" />
<glyph unicode="z" horiz-adv-x="880" d="M903 1004l-608 -861h444l-26 -143h-772l608 860h-438l24 144h768z" />
<glyph unicode="{" horiz-adv-x="573" d="M59 -31q0 53 42 208t42 233q0 143 -96 219q84 53 128 122.5t65 182.5q8 49 19 151.5t17 143.5q27 145 130.5 222t322.5 85l-27 -141q-61 -2 -103 -9.5t-73.5 -28t-50 -41t-35 -66.5t-24.5 -87l-23 -119q-6 -29 -13 -88t-11 -88q-14 -76 -48 -128t-128 -111 q100 -82 100 -174q0 -49 -35 -172t-35 -232q0 -100 45 -141t166 -45l-24 -141q-184 6 -267.5 67t-83.5 178z" />
<glyph unicode="|" horiz-adv-x="460" d="M133 -428h-170l346 1964h170z" />
<glyph unicode="}" horiz-adv-x="567" d="M301 29q-25 -147 -131.5 -222t-319.5 -83l25 141q61 2 103 9t74 27.5t50.5 41t35 67.5t24.5 87t22 118l16 101l13 92q12 68 46 114.5t128 106.5q-100 82 -100 186q0 27 34.5 153t34.5 240q0 100 -45 141.5t-166 45.5l25 141q350 -10 350 -248q0 -53 -42 -206.5 t-42 -231.5q0 -145 94 -221q-86 -51 -129 -123t-61 -180q-8 -49 -20.5 -152.5t-18.5 -144.5z" />
<glyph unicode="~" horiz-adv-x="888" d="M526 367q-43 0 -118.5 52t-104.5 52q-88 0 -135 -100l-90 18q33 92 100.5 138t134.5 46q45 0 121 -50t107 -50q80 0 139 105l84 -19q-35 -90 -98.5 -141t-139.5 -51z" />
<glyph unicode="&#xa1;" horiz-adv-x="483" d="M-70 -512l248 1126h129l-147 -1126h-230zM225 1024h181l-33 -176h-178z" />
<glyph unicode="&#xa2;" horiz-adv-x="901" d="M483 178l-12 -241h-143l73 241q-156 25 -236.5 142.5t-80.5 285.5q0 238 137 422t373 217l16 287h142l-84 -287q154 -10 233 -65l-45 -160q-102 68 -223 67q-147 0 -243.5 -139t-96.5 -323q0 -125 54 -206t155 -81q121 0 246 65l-11 -159q-104 -56 -254 -66z" />
<glyph unicode="&#xa3;" horiz-adv-x="958" d="M967 1266l-78 -78q-8 35 -15.5 54.5t-21.5 40t-39 29.5t-61 9q-102 0 -148.5 -79t-77.5 -243l-37 -211h355l-47 -120h-336q-37 -158 -75 -259.5t-124 -261.5h494l-25 -147h-764q119 137 191.5 293t132.5 375h-172l47 120h153l46 256q14 88 35.5 150.5t61.5 124 t108.5 94.5t162.5 33q214 0 234 -180z" />
<glyph unicode="&#xa4;" horiz-adv-x="1193" d="M977 109l-80 -50l-106 211q-131 -78 -267 -77q-137 0 -239 77l-181 -211l-61 50l176 208q-80 133 -80 301q0 262 221 490l-104 209l80 49l104 -211q135 78 267 78q133 0 239 -80l182 213l62 -49l-178 -211q80 -127 80 -301q0 -256 -222 -490zM684 1106 q-158 0 -257 -145.5t-99 -342.5q0 -133 56 -216t163 -83q158 0 257 145.5t99 342.5q0 133 -56.5 216t-162.5 83z" />
<glyph unicode="&#xa5;" horiz-adv-x="1282" d="M1360 1434l-606 -787h297l-62 -102h-266l-23 -135h308l-62 -111h-266l-53 -299h-195l51 299h-319l59 111h281l24 135h-321l59 102h269l-330 787h194l273 -629l493 629h195z" />
<glyph unicode="&#xa6;" horiz-adv-x="460" d="M317 631h-163l159 905h162zM129 -430h-162l135 764h162z" />
<glyph unicode="&#xa7;" horiz-adv-x="874" d="M569 385q66 -78 66 -176q0 -90 -34 -172t-122 -145.5t-219 -63.5q-80 0 -150.5 22.5t-99.5 57.5l45 129q109 -84 226 -84q92 0 153.5 52t61.5 149q0 63 -42 103t-101.5 62.5t-119 51t-101.5 88t-42 151.5q0 131 62.5 230.5t185.5 140.5q-70 80 -70 178q0 61 18.5 122.5 t58.5 121t117 96.5t177 37q78 0 149.5 -24.5t104.5 -57.5l-43 -129q-115 88 -223 88q-84 0 -146.5 -60.5t-62.5 -140.5q0 -57 41 -96t98 -65.5t114.5 -59.5t98.5 -95t41 -153q0 -252 -242 -358zM440 897q-59 -2 -128.5 -56.5t-69.5 -166.5q0 -141 237 -225q70 25 123 94 t53 149q0 152 -215 205z" />
<glyph unicode="&#xa8;" horiz-adv-x="778" d="M834 1229h-146l37 205h145zM522 1229h-145l37 205h143z" />
<glyph unicode="&#xa9;" horiz-adv-x="1366" d="M592 76q-213 0 -341 147.5t-128 392.5q0 346 207 574.5t499 228.5q213 0 340 -146.5t127 -391.5q0 -348 -205.5 -576.5t-498.5 -228.5zM813 1327q-268 0 -424 -208t-156 -505q0 -203 94.5 -325.5t280.5 -122.5q180 0 314.5 101.5t199 261t64.5 350.5q0 203 -94.5 325.5 t-278.5 122.5zM666 403q-111 0 -176.5 74t-65.5 199q0 178 105.5 293.5t256.5 115.5q92 0 166 -38l-37 -123q-82 39 -151 39q-92 0 -146.5 -80t-54.5 -193q0 -74 32 -120t93 -46q70 0 166 41l-8 -121q-78 -41 -180 -41z" />
<glyph unicode="&#xaa;" horiz-adv-x="673" d="M668 1014l-33 -125h-70q-35 0 -65.5 18.5t-40.5 44.5q-63 -63 -180 -63q-57 0 -94.5 38t-37.5 103q0 68 39 118t99.5 73.5t110.5 35t96 13.5q0 45 -14.5 65.5t-59.5 20.5q-66 0 -164 -41l10 123q117 47 217 47q172 0 172 -160q0 -41 -35 -225q-6 -35 -6 -51q0 -35 33 -35 h23zM453 1038l22 129q-47 -2 -104.5 -32.5t-57.5 -83.5q0 -47 60 -47q33 -1 80 34z" />
<glyph unicode="&#xab;" horiz-adv-x="1095" d="M936 160h-215l-199 422l348 422h213l-348 -422zM455 160h-213l-199 422l348 422h213l-348 -422z" />
<glyph unicode="&#xac;" horiz-adv-x="1128" d="M928 309h-125l69 400h-722l22 122h848z" />
<glyph unicode="&#xad;" horiz-adv-x="813" d="M668 471h-572l35 193h571z" />
<glyph unicode="&#xae;" horiz-adv-x="1366" d="M592 76q-213 0 -341 147.5t-128 392.5q0 346 207 574.5t499 228.5q213 0 340 -146.5t127 -391.5q0 -348 -205.5 -576.5t-498.5 -228.5zM813 1329q-180 0 -314 -101.5t-200 -261t-66 -350.5q0 -203 94.5 -327.5t280.5 -124.5q266 0 423 210t157 505q0 203 -95.5 326.5 t-279.5 123.5zM903 430h-133l-76 240h-88l-41 -240h-131l117 657h223q178 0 178 -155q0 -135 -133 -227zM731 987h-67l-37 -203h65q123 0 123 129q0 74 -84 74z" />
<glyph unicode="&#xb0;" horiz-adv-x="636" d="M383 987q-94 0 -147.5 63.5t-53.5 161.5q0 135 85 234.5t214 99.5q96 0 148.5 -63.5t52.5 -163.5q0 -137 -84 -234.5t-215 -97.5zM471 1493q-80 0 -136 -88t-56 -191q0 -74 29.5 -124t82.5 -50q86 0 140.5 87t54.5 192q0 72 -30 123t-85 51z" />
<glyph unicode="&#xb1;" horiz-adv-x="946" d="M829 670h-272l-53 -295h-135l53 295h-275l25 137h272l52 283h135l-49 -283h272zM727 86h-682l25 137h682z" />
<glyph unicode="&#xb2;" horiz-adv-x="585" d="M524 655h-463q250 297 325 409t75 175q0 84 -76 84q-106 0 -192 -121v133q29 39 95 75t146 36q92 0 132 -50t40 -120q0 -82 -57 -185.5t-205 -291.5h207z" />
<glyph unicode="&#xb3;" horiz-adv-x="591" d="M250 639q-63 0 -121.5 21.5t-67.5 39.5l62 136q8 -20 54 -37t91 -17q160 0 160 142q0 96 -100 96h-105l33 113h53q145 0 146 116q0 72 -88 72q-84 0 -134 -35l-4 109q66 51 179 51q111 0 155.5 -51.5t44.5 -120.5q0 -119 -92 -189q59 -55 59 -149q0 -137 -99 -217 t-226 -80z" />
<glyph unicode="&#xb4;" horiz-adv-x="557" d="M690 1352l-368 -131l14 84l379 194z" />
<glyph unicode="&#xb5;" horiz-adv-x="1142" d="M973 127l-51 -147h-60q-145 0 -172 149q-135 -152 -268 -152q-57 0 -96 15.5t-82 62.5l-97 -551h-184l264 1500h185l-93 -529q-14 -74 -14 -143q0 -190 166 -191q66 0 116 28t105 91l131 744h183l-115 -656q-14 -90 -14 -131q0 -90 59 -90h37z" />
<glyph unicode="&#xb6;" horiz-adv-x="1171" d="M1202 1296h-135l-229 -1296h-111l227 1296h-161l-230 -1296h-92l88 498q-213 14 -321.5 130.5t-108.5 276.5q0 94 41 186.5t115.5 169t195.5 125t267 48.5h479z" />
<glyph unicode="&#xb7;" horiz-adv-x="471" d="M319 436h-229l47 266h230z" />
<glyph unicode="&#xb8;" horiz-adv-x="557" d="M506 -111l-217 -272l-103 -10l174 270z" />
<glyph unicode="&#xb9;" horiz-adv-x="430" d="M311 655h-151l100 566q-37 -27 -94 -35l14 123q33 6 82 45t68 76h116z" />
<glyph unicode="&#xba;" horiz-adv-x="714" d="M406 889q-113 0 -175.5 70.5t-62.5 179.5q0 139 97 242.5t245 103.5q113 0 176.5 -71t63.5 -177q0 -139 -97 -243.5t-247 -104.5zM489 1364q-72 0 -116.5 -63.5t-44.5 -155.5q0 -61 25.5 -97t74.5 -36q72 0 117 63.5t45 155.5q0 59 -27 96t-74 37z" />
<glyph unicode="&#xbb;" horiz-adv-x="1097" d="M1047 582l-349 -422h-213l349 422l-199 422h211zM567 582l-348 -422h-213l350 422l-200 422h213z" />
<glyph unicode="&#xbc;" horiz-adv-x="1355" d="M342 655h-152l101 566q-37 -27 -94 -35l14 123q33 6 82 45t67 76h117zM1165 1434l-972 -1608h-205l973 1608h204zM1214 211h-92l-37 -211h-149l39 211h-324l445 563h127l-80 -446h92zM995 328l39 225l-164 -225h125z" />
<glyph unicode="&#xbd;" horiz-adv-x="1372" d="M1163 1434l-973 -1608h-204l972 1608h205zM1190 0h-463q250 297 324.5 408.5t74.5 175.5q0 84 -75 84q-106 0 -193 -121v133q29 39 95.5 75t146.5 36q92 0 132 -50.5t40 -119.5q0 -82 -57.5 -185.5t-204.5 -292.5h207zM340 655h-152l101 566q-37 -27 -94 -35l14 123 q33 6 82 45t67 76h117z" />
<glyph unicode="&#xbe;" horiz-adv-x="1667" d="M1470 1434l-972 -1608h-205l973 1608h204zM274 639q-63 0 -121.5 21.5t-66.5 39.5l61 136q8 -20 54.5 -37t91.5 -17q160 0 160 142q0 96 -101 96h-104l33 113h53q145 0 145 116q0 72 -88 72q-84 0 -133 -35l-4 109q66 51 178 51q111 0 156 -51.5t45 -120.5 q0 -119 -92 -189q59 -55 59 -149q0 -137 -99.5 -217t-226.5 -80zM1522 211h-92l-37 -211h-150l39 211h-324l445 563h127l-80 -446h92zM1303 328l38 225l-163 -225h125z" />
<glyph unicode="&#xbf;" horiz-adv-x="854" d="M434 614h123q-6 -80 -10 -92q-14 -76 -59 -148q-44 -72 -97 -132l-104 -122q-51 -62 -86 -138t-35 -158q0 -98 51 -149.5t129 -51.5t151.5 45t110.5 94l25 -137q-49 -59 -137 -98t-183 -39q-156 0 -238.5 101.5t-82.5 230.5q0 80 40 164t100 156l121 142q60 68 109.5 142 t61.5 135zM471 1024h188l-30 -176h-189z" />
<glyph unicode="&#xc0;" horiz-adv-x="1163" d="M1044 0h-204l-52 387h-473l-186 -387h-205l715 1434h197zM756 563l-68 598l-278 -598h346zM948 1651l-321 131l26 147l310 -194z" />
<glyph unicode="&#xc1;" horiz-adv-x="1163" d="M1044 0h-204l-52 387h-473l-186 -387h-205l715 1434h197zM756 563l-68 598l-278 -598h346zM973 1782l-369 -131l14 84l379 194z" />
<glyph unicode="&#xc2;" horiz-adv-x="1163" d="M1044 0h-204l-52 387h-473l-186 -387h-205l715 1434h197zM756 563l-68 598l-278 -598h346zM1051 1665l-242 168l-301 -168l12 74l309 217l234 -217z" />
<glyph unicode="&#xc3;" horiz-adv-x="1163" d="M1044 0h-204l-52 387h-473l-186 -387h-205l715 1434h197zM756 563l-68 598l-278 -598h346zM903 1657q-43 0 -118.5 52t-104.5 52q-88 0 -135 -100l-90 18q33 92 100.5 138.5t134.5 46.5q45 0 121 -50.5t107 -50.5q80 0 139 105l84 -19q-35 -90 -98.5 -141t-139.5 -51z " />
<glyph unicode="&#xc4;" horiz-adv-x="1163" d="M1044 0h-204l-52 387h-473l-186 -387h-205l715 1434h197zM756 563l-68 598l-278 -598h346zM1006 1659h-146l37 205h145zM694 1659h-145l37 205h143z" />
<glyph unicode="&#xc5;" horiz-adv-x="1163" d="M1044 0h-204l-52 387h-473l-186 -387h-205l715 1434h197zM756 563l-68 598l-278 -598h346zM770 1610q-78 0 -121 45t-43 108q0 84 64.5 148.5t163.5 64.5q78 0 119.5 -45t41.5 -110q0 -84 -62.5 -147.5t-162.5 -63.5zM823 1913q-49 0 -87 -41t-38 -105q0 -45 23.5 -71.5 t58.5 -26.5q49 0 87 41t38 105q0 43 -23.5 70.5t-58.5 27.5z" />
<glyph unicode="&#xc6;" horiz-adv-x="1613" d="M1438 0h-803l63 369h-381l-229 -369h-194l882 1434h897l-33 -179h-565l-74 -417h437l-31 -176h-436l-86 -486h583zM733 557l121 694l-416 -694h295z" />
<glyph unicode="&#xc7;" horiz-adv-x="1157" d="M625 -29q-244 0 -387.5 162t-143.5 449q0 375 232.5 627.5t556.5 252.5q203 0 348 -84l-53 -180q-8 4 -56 24q-46 19 -64 25l-56 19q-38 12 -73.5 16t-72.5 4q-246 0 -396.5 -207t-150.5 -487q0 -203 89 -324t264 -121q29 0 61.5 4.5t56 9.5t61.5 16t53 16.5t59 20.5 t55 19l-13 -180q-173 -82 -370 -82zM596 -111l-217 -272l-103 -10l175 270z" />
<glyph unicode="&#xc8;" d="M874 0h-817l252 1434h801l-31 -177h-604l-74 -419h476l-31 -176h-475l-86 -486h620zM883 1651l-322 131l27 147l309 -194z" />
<glyph unicode="&#xc9;" d="M874 0h-817l252 1434h801l-31 -177h-604l-74 -419h476l-31 -176h-475l-86 -486h620zM907 1782l-368 -131l14 84l379 194z" />
<glyph unicode="&#xca;" d="M874 0h-817l252 1434h801l-31 -177h-604l-74 -419h476l-31 -176h-475l-86 -486h620zM985 1665l-242 168l-301 -168l13 74l309 217l233 -217z" />
<glyph unicode="&#xcb;" d="M874 0h-817l252 1434h801l-31 -177h-604l-74 -419h476l-31 -176h-475l-86 -486h620zM940 1659h-145l36 205h146zM629 1659h-146l37 205h144z" />
<glyph unicode="&#xcc;" horiz-adv-x="522" d="M252 0h-195l252 1434h195zM621 1651l-322 131l27 147l309 -194z" />
<glyph unicode="&#xcd;" horiz-adv-x="522" d="M252 0h-195l252 1434h195zM643 1782l-369 -131l15 84l379 194z" />
<glyph unicode="&#xce;" horiz-adv-x="522" d="M252 0h-195l252 1434h195zM721 1665l-242 168l-301 -168l12 74l310 217l233 -217z" />
<glyph unicode="&#xcf;" horiz-adv-x="522" d="M252 0h-195l252 1434h195zM676 1659h-146l37 205h146zM365 1659h-146l37 205h143z" />
<glyph unicode="&#xd0;" horiz-adv-x="1380" d="M545 0h-475l112 641h-176l23 131h176l117 662h475q242 0 384 -153t142 -419q0 -387 -223 -624.5t-555 -237.5zM766 1257h-287l-86 -485h240l-25 -131h-237l-82 -463h286q252 0 394.5 189.5t142.5 480.5q0 190 -88 299.5t-258 109.5z" />
<glyph unicode="&#xd1;" horiz-adv-x="1337" d="M1065 0h-164l-448 1133l-201 -1133h-195l252 1434h205l420 -1074l188 1074h197zM979 1657q-41 0 -117 52t-106 52q-88 0 -135 -100l-91 18q33 92 100.5 138.5t135.5 46.5q45 0 121 -50.5t106 -50.5q80 0 140 105l84 -19q-35 -90 -98.5 -141t-139.5 -51z" />
<glyph unicode="&#xd2;" horiz-adv-x="1454" d="M621 -29q-244 0 -385.5 161t-141.5 446q0 377 228.5 630.5t549.5 253.5q244 0 385.5 -160.5t141.5 -445.5q0 -375 -229.5 -630t-548.5 -255zM840 1286q-158 0 -281 -100.5t-186.5 -258t-63.5 -337.5q0 -201 85 -322t259 -121q158 0 282 100.5t187.5 258.5t63.5 338 q0 201 -86 321.5t-260 120.5zM1083 1651l-321 131l26 147l310 -194z" />
<glyph unicode="&#xd3;" horiz-adv-x="1454" d="M621 -29q-244 0 -385.5 161t-141.5 446q0 377 228.5 630.5t549.5 253.5q244 0 385.5 -160.5t141.5 -445.5q0 -375 -229.5 -630t-548.5 -255zM840 1286q-158 0 -281 -100.5t-186.5 -258t-63.5 -337.5q0 -201 85 -322t259 -121q158 0 282 100.5t187.5 258.5t63.5 338 q0 201 -86 321.5t-260 120.5zM1108 1782l-369 -131l15 84l379 194z" />
<glyph unicode="&#xd4;" horiz-adv-x="1454" d="M621 -29q-244 0 -385.5 161t-141.5 446q0 377 228.5 630.5t549.5 253.5q244 0 385.5 -160.5t141.5 -445.5q0 -375 -229.5 -630t-548.5 -255zM840 1286q-158 0 -281 -100.5t-186.5 -258t-63.5 -337.5q0 -201 85 -322t259 -121q158 0 282 100.5t187.5 258.5t63.5 338 q0 201 -86 321.5t-260 120.5zM1186 1665l-242 168l-301 -168l12 74l310 217l233 -217z" />
<glyph unicode="&#xd5;" horiz-adv-x="1454" d="M621 -29q-244 0 -385.5 161t-141.5 446q0 377 228.5 630.5t549.5 253.5q244 0 385.5 -160.5t141.5 -445.5q0 -375 -229.5 -630t-548.5 -255zM840 1286q-158 0 -281 -100.5t-186.5 -258t-63.5 -337.5q0 -201 85 -322t259 -121q158 0 282 100.5t187.5 258.5t63.5 338 q0 201 -86 321.5t-260 120.5zM1038 1657q-43 0 -118.5 52t-104.5 52q-88 0 -135 -100l-90 18q33 92 100.5 138.5t134.5 46.5q45 0 121 -50.5t107 -50.5q80 0 139 105l84 -19q-35 -90 -98.5 -141t-139.5 -51z" />
<glyph unicode="&#xd6;" horiz-adv-x="1454" d="M621 -29q-244 0 -385.5 161t-141.5 446q0 377 228.5 630.5t549.5 253.5q244 0 385.5 -160.5t141.5 -445.5q0 -375 -229.5 -630t-548.5 -255zM840 1286q-158 0 -281 -100.5t-186.5 -258t-63.5 -337.5q0 -201 85 -322t259 -121q158 0 282 100.5t187.5 258.5t63.5 338 q0 201 -86 321.5t-260 120.5zM1141 1659h-146l37 205h146zM829 1659h-145l37 205h143z" />
<glyph unicode="&#xd7;" horiz-adv-x="845" d="M670 317l-95 -73l-174 252l-260 -252l-67 73l262 250l-174 250l94 74l172 -252l262 252l68 -74l-262 -250z" />
<glyph unicode="&#xd8;" horiz-adv-x="1456" d="M616 -25q-170 0 -301 88l-94 -124h-196l178 215q-106 170 -107 417q0 387 228.5 639t554.5 252q164 0 292 -86l70 90h195l-150 -182q115 -168 115 -424q0 -385 -228.5 -635t-556.5 -250zM1143 1122l-690 -907q92 -59 196 -59q164 0 288 100t185.5 260t61.5 352 q0 164 -41 254zM846 1280q-242 0 -386.5 -205t-144.5 -487q0 -137 33 -269l688 904q-92 57 -190 57z" />
<glyph unicode="&#xd9;" horiz-adv-x="1368" d="M573 -29q-221 0 -330.5 116t-109.5 331q0 89 19 190l145 826h195l-130 -732q-25 -137 -24 -233q0 -322 266 -322q104 0 182 45.5t127.5 129.5t79 174t49.5 206l129 732h195l-145 -826q-53 -303 -217.5 -470t-430.5 -167zM1040 1651l-321 131l26 147l310 -194z" />
<glyph unicode="&#xda;" horiz-adv-x="1368" d="M573 -29q-221 0 -330.5 116t-109.5 331q0 89 19 190l145 826h195l-130 -732q-25 -137 -24 -233q0 -322 266 -322q104 0 182 45.5t127.5 129.5t79 174t49.5 206l129 732h195l-145 -826q-53 -303 -217.5 -470t-430.5 -167zM1065 1782l-369 -131l15 84l379 194z" />
<glyph unicode="&#xdb;" horiz-adv-x="1368" d="M573 -29q-221 0 -330.5 116t-109.5 331q0 89 19 190l145 826h195l-130 -732q-25 -137 -24 -233q0 -322 266 -322q104 0 182 45.5t127.5 129.5t79 174t49.5 206l129 732h195l-145 -826q-53 -303 -217.5 -470t-430.5 -167zM1143 1665l-242 168l-301 -168l12 74l310 217 l233 -217z" />
<glyph unicode="&#xdc;" horiz-adv-x="1368" d="M573 -29q-221 0 -330.5 116t-109.5 331q0 89 19 190l145 826h195l-130 -732q-25 -137 -24 -233q0 -322 266 -322q104 0 182 45.5t127.5 129.5t79 174t49.5 206l129 732h195l-145 -826q-53 -303 -217.5 -470t-430.5 -167zM1098 1659h-146l37 205h146zM786 1659h-145 l37 205h143z" />
<glyph unicode="&#xdd;" horiz-adv-x="1118" d="M1237 1434l-573 -772l-117 -662h-201l117 662l-303 772h205l233 -596l434 596h205zM948 1782l-368 -131l14 84l379 194z" />
<glyph unicode="&#xde;" horiz-adv-x="1075" d="M444 422h-112l-74 -422h-201l252 1434h201l-49 -287h112q266 0 383 -54.5t117 -213.5q0 -248 -142.5 -352.5t-486.5 -104.5zM616 1030h-176l-88 -495h176q184 0 265 79.5t81 231.5q0 98 -61.5 141t-196.5 43z" />
<glyph unicode="&#xdf;" horiz-adv-x="1044" d="M479 -31q-18 0 -34.5 1t-34 3t-27.5 2l20 123q190 4 279.5 53.5t89.5 182.5q0 86 -55 166t-110.5 140t-55.5 97q0 31 44 78t96 94t96 131t44 181q0 94 -47 138t-114 44q-84 0 -143.5 -65.5t-77.5 -163.5l-256 -1453h-181l207 1178h-133l37 125h119l24 139 q29 162 160 267.5t268 105.5q115 0 207 -78t92 -219q0 -98 -42 -187q-42 -90 -92 -140l-92 -94q-42 -44 -42 -62.5t35 -58.5t78 -84t77.5 -118.5t34.5 -154.5q0 -178 -139 -274.5t-332 -96.5z" />
<glyph unicode="&#xe0;" horiz-adv-x="1105" d="M1008 1004l-121 -711q-8 -43 -8 -80q0 -49 21.5 -67.5t74.5 -18.5l-51 -147q-53 0 -83 3t-65 16t-55.5 45t-30.5 83q-59 -70 -144 -108.5t-169 -38.5q-150 0 -242 119.5t-92 301.5q0 244 152.5 433.5t375.5 189.5q168 0 234 -127l39 107h164zM551 860q-133 0 -224 -131 t-91 -309q0 -123 50 -200t152 -77q127 0 224.5 114t97.5 310q0 147 -57.5 220t-151.5 73zM907 1221l-321 131l26 147l310 -194z" />
<glyph unicode="&#xe1;" horiz-adv-x="1105" d="M1008 1004l-121 -711q-8 -43 -8 -80q0 -49 21.5 -67.5t74.5 -18.5l-51 -147q-53 0 -83 3t-65 16t-55.5 45t-30.5 83q-59 -70 -144 -108.5t-169 -38.5q-150 0 -242 119.5t-92 301.5q0 244 152.5 433.5t375.5 189.5q168 0 234 -127l39 107h164zM551 860q-133 0 -224 -131 t-91 -309q0 -123 50 -200t152 -77q127 0 224.5 114t97.5 310q0 147 -57.5 220t-151.5 73zM932 1352l-369 -131l15 84l378 194z" />
<glyph unicode="&#xe2;" horiz-adv-x="1105" d="M1008 1004l-121 -711q-8 -43 -8 -80q0 -49 21.5 -67.5t74.5 -18.5l-51 -147q-53 0 -83 3t-65 16t-55.5 45t-30.5 83q-59 -70 -144 -108.5t-169 -38.5q-150 0 -242 119.5t-92 301.5q0 244 152.5 433.5t375.5 189.5q168 0 234 -127l39 107h164zM551 860q-133 0 -224 -131 t-91 -309q0 -123 50 -200t152 -77q127 0 224.5 114t97.5 310q0 147 -57.5 220t-151.5 73zM1010 1235l-242 168l-301 -168l12 74l309 217l234 -217z" />
<glyph unicode="&#xe3;" horiz-adv-x="1105" d="M1008 1004l-121 -711q-8 -43 -8 -80q0 -49 21.5 -67.5t74.5 -18.5l-51 -147q-53 0 -83 3t-65 16t-55.5 45t-30.5 83q-59 -70 -144 -108.5t-169 -38.5q-150 0 -242 119.5t-92 301.5q0 244 152.5 433.5t375.5 189.5q168 0 234 -127l39 107h164zM551 860q-133 0 -224 -131 t-91 -309q0 -123 50 -200t152 -77q127 0 224.5 114t97.5 310q0 147 -57.5 220t-151.5 73zM854 1227q-43 0 -119 52t-104 52q-88 0 -135 -100l-90 18q33 92 100 138.5t135 46.5q45 0 121 -50.5t106 -50.5q80 0 140 105l84 -19q-35 -90 -98.5 -141t-139.5 -51z" />
<glyph unicode="&#xe4;" horiz-adv-x="1105" d="M1008 1004l-121 -711q-8 -43 -8 -80q0 -49 21.5 -67.5t74.5 -18.5l-51 -147q-53 0 -83 3t-65 16t-55.5 45t-30.5 83q-59 -70 -144 -108.5t-169 -38.5q-150 0 -242 119.5t-92 301.5q0 244 152.5 433.5t375.5 189.5q168 0 234 -127l39 107h164zM551 860q-133 0 -224 -131 t-91 -309q0 -123 50 -200t152 -77q127 0 224.5 114t97.5 310q0 147 -57.5 220t-151.5 73zM965 1229h-146l37 205h145zM653 1229h-145l37 205h143z" />
<glyph unicode="&#xe5;" horiz-adv-x="1105" d="M1008 1004l-121 -711q-8 -43 -8 -80q0 -49 21.5 -67.5t74.5 -18.5l-51 -147q-53 0 -83 3t-65 16t-55.5 45t-30.5 83q-59 -70 -144 -108.5t-169 -38.5q-150 0 -242 119.5t-92 301.5q0 244 152.5 433.5t375.5 189.5q168 0 234 -127l39 107h164zM551 860q-133 0 -224 -131 t-91 -309q0 -123 50 -200t152 -77q127 0 224.5 114t97.5 310q0 147 -57.5 220t-151.5 73zM729 1180q-78 0 -121 45t-43 108q0 84 64.5 148.5t163.5 64.5q78 0 119.5 -45t41.5 -110q0 -84 -62.5 -147.5t-162.5 -63.5zM782 1483q-49 0 -87 -41t-38 -105q0 -45 24 -71.5 t58 -26.5q49 0 87 41t38 104q0 43 -23.5 71t-58.5 28z" />
<glyph unicode="&#xe6;" horiz-adv-x="1490" d="M1401 502h-608q-8 -70 -9 -96q0 -135 63.5 -207t170.5 -72q111 0 272 76v-142q-168 -82 -317 -81q-279 0 -330 231q-143 -240 -416 -240q-121 0 -182 58.5t-61 160.5q0 125 61 214.5t164.5 134.5t196 64.5t196.5 25.5q0 129 -32.5 180t-129.5 51q-102 0 -243 -59l8 143 q172 80 317 80q98 0 171 -53t73 -193q55 129 156.5 187.5t224.5 58.5q137 0 215 -84t78 -238q0 -83 -39 -200zM1110 860q-197 0 -283 -231h433q8 41 8 84q-2 147 -158 147zM594 502q-94 0 -183 -24.5t-160 -89t-71 -159.5q0 -102 115 -102q94 0 177 68.5t108 210.5 q12 86 14 96z" />
<glyph unicode="&#xe7;" horiz-adv-x="856" d="M430 -20q-197 0 -290 117.5t-93 310.5q0 256 149.5 436t415.5 180q166 0 254 -59l-53 -166q-106 61 -221 61q-170 0 -262 -123t-92 -311q0 -285 231 -285q115 0 242 62l-6 -148q-119 -75 -275 -75zM500 -111l-217 -272l-103 -10l174 270z" />
<glyph unicode="&#xe8;" horiz-adv-x="937" d="M889 768q0 -135 -110.5 -236.5t-356.5 -101.5q-104 0 -180 16q0 -168 68.5 -235.5t191.5 -67.5q150 0 276 60l-8 -146q-170 -78 -317 -77q-201 0 -305.5 120.5t-104.5 313.5q0 246 154.5 428t392.5 182q143 0 221 -69.5t78 -186.5zM571 860q-209 0 -309 -285 q14 -2 33.5 -8t44.5 -9t66 -3q166 0 239.5 57.5t73.5 132.5q0 57 -41 86t-107 29zM768 1221l-322 131l27 147l309 -194z" />
<glyph unicode="&#xe9;" horiz-adv-x="937" d="M889 768q0 -135 -110.5 -236.5t-356.5 -101.5q-104 0 -180 16q0 -168 68.5 -235.5t191.5 -67.5q150 0 276 60l-8 -146q-170 -78 -317 -77q-201 0 -305.5 120.5t-104.5 313.5q0 246 154.5 428t392.5 182q143 0 221 -69.5t78 -186.5zM571 860q-209 0 -309 -285 q14 -2 33.5 -8t44.5 -9t66 -3q166 0 239.5 57.5t73.5 132.5q0 57 -41 86t-107 29zM793 1352l-369 -131l14 84l379 194z" />
<glyph unicode="&#xea;" horiz-adv-x="937" d="M889 768q0 -135 -110.5 -236.5t-356.5 -101.5q-104 0 -180 16q0 -168 68.5 -235.5t191.5 -67.5q150 0 276 60l-8 -146q-170 -78 -317 -77q-201 0 -305.5 120.5t-104.5 313.5q0 246 154.5 428t392.5 182q143 0 221 -69.5t78 -186.5zM571 860q-209 0 -309 -285 q14 -2 33.5 -8t44.5 -9t66 -3q166 0 239.5 57.5t73.5 132.5q0 57 -41 86t-107 29zM868 1235l-241 168l-301 -168l12 74l309 217l234 -217z" />
<glyph unicode="&#xeb;" horiz-adv-x="937" d="M889 768q0 -135 -110.5 -236.5t-356.5 -101.5q-104 0 -180 16q0 -168 68.5 -235.5t191.5 -67.5q150 0 276 60l-8 -146q-170 -78 -317 -77q-201 0 -305.5 120.5t-104.5 313.5q0 246 154.5 428t392.5 182q143 0 221 -69.5t78 -186.5zM571 860q-209 0 -309 -285 q14 -2 33.5 -8t44.5 -9t66 -3q166 0 239.5 57.5t73.5 132.5q0 57 -41 86t-107 29zM823 1229h-145l37 205h145zM512 1229h-145l36 205h144z" />
<glyph unicode="&#xec;" horiz-adv-x="438" d="M207 0h-187l177 1004h186zM502 1221l-322 131l27 147l309 -194z" />
<glyph unicode="&#xed;" horiz-adv-x="438" d="M207 0h-187l177 1004h186zM524 1352l-368 -131l14 84l379 194z" />
<glyph unicode="&#xee;" horiz-adv-x="438" d="M207 0h-187l177 1004h186zM602 1235l-242 168l-301 -168l13 74l309 217l233 -217z" />
<glyph unicode="&#xef;" horiz-adv-x="438" d="M207 0h-187l177 1004h186zM557 1229h-145l37 205h145zM246 1229h-146l37 205h144z" />
<glyph unicode="&#xf0;" horiz-adv-x="997" d="M362 -25q-154 0 -248 102.5t-94 262.5q0 117 54.5 236.5t168 207.5t257.5 88q137 0 217 -112q0 295 -80 387q-147 -109 -279 -127l-41 113q123 18 250 106q-88 111 -202 111l79 86q135 0 254 -113q92 86 129 131l93 -24q-51 -61 -158 -173q70 -88 107.5 -240.5 t37.5 -316.5q0 -166 -35.5 -297t-92 -209.5t-131.5 -130t-144.5 -70t-141.5 -18.5zM496 702q-119 0 -198 -100t-79 -231q0 -98 46 -162t132 -64q109 0 190 100.5t81 241.5q0 98 -45 156.5t-127 58.5z" />
<glyph unicode="&#xf1;" horiz-adv-x="1054" d="M834 0h-187q111 625 111 678q0 94 -42 138t-130 44q-164 0 -250 -131l-129 -729h-187l177 1004h157l-6 -107q131 127 299 127q299 0 299 -322q1 -73 -112 -702zM764 1227q-43 0 -119 52t-104 52q-88 0 -135 -100l-91 18q33 92 100.5 138.5t135.5 46.5q45 0 121 -50.5 t106 -50.5q80 0 140 105l83 -19q-35 -90 -98 -141t-139 -51z" />
<glyph unicode="&#xf2;" d="M422 -20q-184 0 -281.5 117.5t-97.5 305.5q0 254 157.5 437.5t393.5 183.5q184 0 281.5 -119t97.5 -307q0 -252 -157.5 -435t-393.5 -183zM567 860q-150 0 -242 -126t-92 -314q0 -276 216 -277q150 0 241.5 126t91.5 315q0 276 -215 276zM807 1221l-322 131l27 147 l309 -194z" />
<glyph unicode="&#xf3;" d="M422 -20q-184 0 -281.5 117.5t-97.5 305.5q0 254 157.5 437.5t393.5 183.5q184 0 281.5 -119t97.5 -307q0 -252 -157.5 -435t-393.5 -183zM567 860q-150 0 -242 -126t-92 -314q0 -276 216 -277q150 0 241.5 126t91.5 315q0 276 -215 276zM829 1352l-368 -131l14 84 l379 194z" />
<glyph unicode="&#xf4;" d="M422 -20q-184 0 -281.5 117.5t-97.5 305.5q0 254 157.5 437.5t393.5 183.5q184 0 281.5 -119t97.5 -307q0 -252 -157.5 -435t-393.5 -183zM567 860q-150 0 -242 -126t-92 -314q0 -276 216 -277q150 0 241.5 126t91.5 315q0 276 -215 276zM909 1235l-241 168l-301 -168 l12 74l309 217l234 -217z" />
<glyph unicode="&#xf5;" d="M422 -20q-184 0 -281.5 117.5t-97.5 305.5q0 254 157.5 437.5t393.5 183.5q184 0 281.5 -119t97.5 -307q0 -252 -157.5 -435t-393.5 -183zM567 860q-150 0 -242 -126t-92 -314q0 -276 216 -277q150 0 241.5 126t91.5 315q0 276 -215 276zM760 1227q-43 0 -119 52t-104 52 q-88 0 -136 -100l-90 18q33 92 100.5 138.5t135.5 46.5q45 0 120.5 -50.5t106.5 -50.5q80 0 139 105l84 -19q-35 -90 -98 -141t-139 -51z" />
<glyph unicode="&#xf6;" d="M422 -20q-184 0 -281.5 117.5t-97.5 305.5q0 254 157.5 437.5t393.5 183.5q184 0 281.5 -119t97.5 -307q0 -252 -157.5 -435t-393.5 -183zM567 860q-150 0 -242 -126t-92 -314q0 -276 216 -277q150 0 241.5 126t91.5 315q0 276 -215 276zM864 1229h-145l37 205h145z M553 1229h-145l36 205h144z" />
<glyph unicode="&#xf7;" horiz-adv-x="1126" d="M698 901h-186l35 193h184zM967 502h-848l26 151h848zM547 41h-187l35 192h185z" />
<glyph unicode="&#xf8;" horiz-adv-x="1079" d="M432 -16q-70 0 -145 22l-47 -78h-152l84 135q-125 127 -125 351q0 250 162 436t407 186q68 0 140 -24l49 82h156l-89 -136q129 -135 129 -354q0 -252 -160.5 -436t-408.5 -184zM774 815l-397 -676q57 -12 82 -12q154 0 251 146.5t97 361.5q0 141 -33 180zM590 893 q-150 0 -248 -140.5t-98 -330.5q0 -104 28 -217l394 674q-53 14 -76 14z" />
<glyph unicode="&#xf9;" horiz-adv-x="1011" d="M780 0h-170l6 111q-57 -68 -118.5 -99.5t-149.5 -31.5q-279 0 -278 294q0 68 116 730h187q-109 -618 -109 -672q0 -188 160 -189q133 0 215 115l131 746h186zM807 1221l-322 131l27 147l309 -194z" />
<glyph unicode="&#xfa;" horiz-adv-x="1011" d="M780 0h-170l6 111q-57 -68 -118.5 -99.5t-149.5 -31.5q-279 0 -278 294q0 68 116 730h187q-109 -618 -109 -672q0 -188 160 -189q133 0 215 115l131 746h186zM831 1352l-368 -131l14 84l379 194z" />
<glyph unicode="&#xfb;" horiz-adv-x="1011" d="M780 0h-170l6 111q-57 -68 -118.5 -99.5t-149.5 -31.5q-279 0 -278 294q0 68 116 730h187q-109 -618 -109 -672q0 -188 160 -189q133 0 215 115l131 746h186zM909 1235l-241 168l-301 -168l12 74l309 217l234 -217z" />
<glyph unicode="&#xfc;" horiz-adv-x="1011" d="M780 0h-170l6 111q-57 -68 -118.5 -99.5t-149.5 -31.5q-279 0 -278 294q0 68 116 730h187q-109 -618 -109 -672q0 -188 160 -189q133 0 215 115l131 746h186zM866 1229h-145l37 205h145zM555 1229h-145l36 205h144z" />
<glyph unicode="&#xfd;" horiz-adv-x="940" d="M997 1004l-825 -1500h-199l303 541l-210 959h206l138 -746l381 746h206zM766 1352l-369 -131l15 84l379 194z" />
<glyph unicode="&#xfe;" horiz-adv-x="1097" d="M461 -20q-168 0 -236 135l-106 -609h-187l359 2030h186l-112 -639q127 127 288 127q174 0 269.5 -120t95.5 -302q0 -250 -155.5 -436t-401.5 -186zM602 860q-115 0 -191.5 -69.5t-108.5 -169t-32 -222.5t49.5 -197.5t153.5 -74.5q160 0 257 134t97 325q0 127 -58 200.5 t-167 73.5z" />
<glyph unicode="&#xff;" horiz-adv-x="940" d="M997 1004l-825 -1500h-199l303 541l-210 959h206l138 -746l381 746h206zM797 1229h-146l37 205h146zM485 1229h-145l37 205h143z" />
<glyph unicode="&#x131;" horiz-adv-x="438" d="M207 0h-187l177 1004h186z" />
<glyph unicode="&#x152;" horiz-adv-x="1996" d="M1819 0h-770l28 170q-240 -199 -469 -199q-233 0 -372.5 162t-139.5 434q0 389 226.5 642t549.5 253q229 0 398 -198l30 168h754l-31 -175h-563l-74 -419h433l-31 -176h-432l-86 -486h579zM840 1286q-246 0 -390.5 -208t-144.5 -498q0 -195 84 -314t250 -119 q246 0 390.5 208t144.5 499q0 195 -85 313.5t-249 118.5z" />
<glyph unicode="&#x153;" horiz-adv-x="1683" d="M1593 502h-620q-10 -68 -10 -111q0 -150 67.5 -207t161.5 -57q152 0 299 76l-12 -158q-139 -66 -301 -65q-299 0 -359 219q-63 -104 -170.5 -161.5t-228.5 -57.5q-178 0 -276.5 120.5t-98.5 309.5q0 256 156.5 435t406.5 179q113 0 200 -53t116 -156q70 102 171 155.5 t203 53.5q152 0 242 -90t90 -248q0 -41 -4 -74.5t-9 -48t-13.5 -36t-10.5 -25.5zM1270 860q-190 0 -271 -231h437q4 37 4 51q0 86 -43 133t-127 47zM580 860q-162 0 -254.5 -125t-92.5 -325q0 -127 56.5 -197t163.5 -70q156 0 247 132.5t91 314.5q0 123 -54.5 196.5 t-156.5 73.5z" />
<glyph unicode="&#x160;" horiz-adv-x="1101" d="M418 -29q-268 0 -406 92l66 228q57 -59 154.5 -101.5t216.5 -42.5q141 0 236 62.5t95 183.5q0 102 -65.5 154.5t-208.5 109.5q-84 33 -123 52.5t-102.5 61.5t-92 96.5t-28.5 125.5q0 74 30.5 152t91 150.5t171 119.5t252.5 47q119 0 227 -30.5t162 -67.5l-56 -207 q-111 66 -187.5 97.5t-160.5 31.5q-117 0 -216 -61.5t-99 -173.5q0 -80 55 -124t178 -91l81 -32q22 -9 76 -34t76.5 -42t60.5 -50t54.5 -64.5t29.5 -78t13 -99.5q0 -86 -29.5 -163.5t-93 -148.5t-181 -112t-277.5 -41zM1047 1862l-308 -203l-235 203l14 84l244 -156l299 156 z" />
<glyph unicode="&#x161;" horiz-adv-x="796" d="M283 -20q-193 0 -303 88l51 178q102 -102 268 -103q94 0 141 39t47 105q0 45 -25.5 76.5t-52 44t-71.5 26.5q-55 18 -87 31.5t-71 41.5t-57.5 69.5t-18.5 101.5q0 135 98.5 240.5t297.5 105.5q150 0 250 -66l-50 -167q-78 88 -213 88q-86 0 -141 -40t-55 -112 q0 -57 38 -84t144 -63q43 -14 71.5 -29.5t64.5 -43.5t54.5 -74t18.5 -105q0 -41 -8 -82t-35 -91.5t-68 -87t-115.5 -62t-172.5 -25.5zM805 1432l-307 -203l-236 203l14 84l244 -156l299 156z" />
<glyph unicode="&#x178;" horiz-adv-x="1118" d="M1237 1434l-573 -772l-117 -662h-201l117 662l-303 772h205l233 -596l434 596h205zM983 1659h-145l36 205h146zM672 1659h-146l37 205h144z" />
<glyph unicode="&#x17d;" horiz-adv-x="1024" d="M1151 1434l-885 -1258h580l-31 -176h-899l883 1257h-578l31 177h899zM1018 1862l-307 -203l-236 203l14 84l244 -156l299 156z" />
<glyph unicode="&#x17e;" horiz-adv-x="880" d="M903 1004l-608 -861h444l-26 -143h-772l608 860h-438l24 144h768zM860 1432l-307 -203l-236 203l15 84l243 -156l299 156z" />
<glyph unicode="&#x192;" horiz-adv-x="669" d="M846 1440l-35 -113q-27 16 -66 16q-102 0 -160.5 -75.5t-117.5 -263.5h262l-33 -115h-270l-344 -1077q-53 -164 -131 -235t-135 -71h-33l-6 129q111 25 166 207l325 1047h-164l35 115h168l37 124q47 158 156.5 246t242.5 88q40 1 103 -22z" />
<glyph unicode="&#x237;" horiz-adv-x="438" d="M-109 -485l-65 -11l6 142q80 10 110.5 47t51.5 157l203 1154h186l-215 -1223q-41 -229 -277 -266z" />
<glyph unicode="&#x2c6;" horiz-adv-x="823" d="M901 1235l-242 168l-301 -168l13 74l309 217l233 -217z" />
<glyph unicode="&#x2c7;" horiz-adv-x="823" d="M936 1432l-307 -203l-236 203l15 84l243 -156l299 156z" />
<glyph unicode="&#x2da;" horiz-adv-x="536" d="M477 1180q-78 0 -121 45t-43 108q0 84 64.5 148.5t163.5 64.5q78 0 119.5 -45t41.5 -110q0 -84 -62.5 -147.5t-162.5 -63.5zM530 1483q-49 0 -86.5 -41t-37.5 -105q0 -45 23.5 -71.5t57.5 -26.5q49 0 87 41t38 104q0 43 -23.5 71t-58.5 28z" />
<glyph unicode="&#x2dc;" horiz-adv-x="974" d="M829 1227q-43 0 -118.5 52t-104.5 52q-88 0 -135 -100l-90 18q33 92 100.5 138.5t134.5 46.5q45 0 121 -50.5t107 -50.5q80 0 139 105l84 -19q-35 -90 -98.5 -141t-139.5 -51z" />
<glyph unicode="&#x2000;" horiz-adv-x="988" />
<glyph unicode="&#x2001;" horiz-adv-x="1976" />
<glyph unicode="&#x2002;" horiz-adv-x="988" />
<glyph unicode="&#x2003;" horiz-adv-x="1976" />
<glyph unicode="&#x2004;" horiz-adv-x="658" />
<glyph unicode="&#x2005;" horiz-adv-x="494" />
<glyph unicode="&#x2006;" horiz-adv-x="329" />
<glyph unicode="&#x2007;" horiz-adv-x="329" />
<glyph unicode="&#x2008;" horiz-adv-x="247" />
<glyph unicode="&#x2009;" horiz-adv-x="395" />
<glyph unicode="&#x200a;" horiz-adv-x="109" />
<glyph unicode="&#x2010;" horiz-adv-x="811" d="M670 487h-572l31 177h571z" />
<glyph unicode="&#x2011;" horiz-adv-x="811" d="M670 487h-572l31 177h571z" />
<glyph unicode="&#x2012;" horiz-adv-x="811" d="M670 487h-572l31 177h571z" />
<glyph unicode="&#x2013;" horiz-adv-x="954" d="M813 487h-715l31 177h715z" />
<glyph unicode="&#x2014;" horiz-adv-x="1124" d="M983 487h-885l31 177h885z" />
<glyph unicode="&#x2018;" horiz-adv-x="380" d="M215 1313l195 223l41 -27l-97 -178l60 -18l-31 -176h-199z" />
<glyph unicode="&#x2019;" horiz-adv-x="346" d="M418 1360l-195 -223l-39 26l95 178l-58 19l31 176h199z" />
<glyph unicode="&#x201a;" horiz-adv-x="440" d="M213 0l-195 -223l-38 26l94 179l-58 18l31 176h199z" />
<glyph unicode="&#x201c;" horiz-adv-x="768" d="M215 1313l195 223l41 -27l-97 -178l60 -18l-31 -176h-199zM602 1313l195 223l41 -27l-97 -178l60 -18l-31 -176h-199z" />
<glyph unicode="&#x201d;" horiz-adv-x="733" d="M805 1360l-195 -223l-39 26l95 178l-58 19l31 176h199zM418 1360l-195 -223l-39 26l95 178l-58 19l31 176h199z" />
<glyph unicode="&#x201e;" horiz-adv-x="864" d="M213 0l-195 -223l-38 26l94 179l-58 18l31 176h199zM637 0l-195 -223l-39 26l95 179l-58 18l31 176h199z" />
<glyph unicode="&#x2020;" horiz-adv-x="821" d="M764 764l-266 61l14 -309l-147 -516h-125l34 516l123 309l-286 -61l30 174l262 -64v369h232l-125 -369l285 64z" />
<glyph unicode="&#x2021;" horiz-adv-x="870" d="M688 180l-262 62v-363h-231l122 363l-282 -62l31 172l266 -61l-23 270l119 273l-289 -62l31 172l262 -61v360h230l-123 -360l282 61l-28 -172l-269 62l23 -273l-119 -270l289 61z" />
<glyph unicode="&#x2022;" horiz-adv-x="587" d="M248 346q-72 0 -119 54.5t-47 134.5q0 102 74.5 180t169.5 78q72 0 119 -54.5t47 -134.5q0 -102 -75 -180t-169 -78z" />
<glyph unicode="&#x2026;" horiz-adv-x="1296" d="M201 0h-187l31 176h186zM635 0h-186l32 176h185zM1071 0h-186l30 176h187z" />
<glyph unicode="&#x202f;" horiz-adv-x="395" />
<glyph unicode="&#x2030;" horiz-adv-x="2244" d="M1110 -27q-102 0 -160.5 75t-58.5 210q0 213 109.5 348t252.5 135q100 0 160 -76.5t60 -209.5q0 -213 -104.5 -347.5t-258.5 -134.5zM1382 1434l-1032 -1459h-155l1034 1459h153zM367 682q-100 0 -158.5 73.5t-58.5 207.5q0 215 108.5 348t251.5 133q98 0 156.5 -75 t58.5 -208q0 -213 -103 -346t-255 -133zM1231 645q-88 0 -157.5 -107.5t-69.5 -267.5q0 -94 31.5 -145t90.5 -51q98 0 164 105.5t66 262.5q0 92 -35 147.5t-90 55.5zM489 1339q-82 0 -150.5 -103t-68.5 -251q0 -88 32 -142.5t85 -54.5q86 0 152.5 102.5t66.5 248.5 q0 90 -33 145t-84 55zM1774 -27q-102 0 -160 75t-58 210q0 213 110 348t253 135q98 0 157.5 -76.5t59.5 -209.5q0 -213 -104 -347.5t-258 -134.5zM1896 645q-88 0 -158.5 -107.5t-70.5 -267.5q0 -94 32 -145t91 -51q98 0 163.5 105.5t65.5 262.5q0 92 -34 147.5t-89 55.5z " />
<glyph unicode="&#x2039;" horiz-adv-x="632" d="M473 160h-223l-215 422l362 422h224l-363 -422z" />
<glyph unicode="&#x203a;" horiz-adv-x="634" d="M592 582l-363 -422h-223l363 422l-213 422h223z" />
<glyph unicode="&#x205f;" horiz-adv-x="494" />
<glyph unicode="&#x2070;" horiz-adv-x="776" d="M387 639q-115 0 -181.5 84t-66.5 223q0 209 121 354.5t283 145.5q113 0 180.5 -87t67.5 -229q0 -209 -116 -350t-288 -141zM518 1315q-86 0 -157.5 -97.5t-71.5 -263.5q0 -92 33.5 -137t91.5 -45q96 0 161.5 91t65.5 257q0 94 -35 144.5t-88 50.5z" />
<glyph unicode="&#x2074;" horiz-adv-x="641" d="M627 866h-92l-37 -211h-150l39 211h-324l445 564h127l-80 -447h92zM408 983l38 225l-163 -225h125z" />
<glyph unicode="&#x2075;" horiz-adv-x="589" d="M264 641q-72 0 -129 23.5t-61 42.5l59 133q41 -59 152 -60q63 0 108 35t45 117q0 86 -147 86h-123l119 412h346l-43 -144h-217l-41 -145q252 -2 252 -185q0 -147 -97.5 -231t-222.5 -84z" />
<glyph unicode="&#x2076;" horiz-adv-x="618" d="M311 639q-86 0 -137 54.5t-51 166.5q0 117 49 227.5t118.5 182t137.5 116t111 44.5l90 -58q-61 0 -177 -101.5t-139 -189.5q35 39 123 39q84 0 135.5 -47t51.5 -133q0 -119 -90.5 -210t-221.5 -91zM403 1001q-61 0 -100 -35.5t-39 -101.5q0 -43 26.5 -67.5t59.5 -24.5 q53 0 93 44t40 99q0 35 -20.5 60.5t-59.5 25.5z" />
<glyph unicode="&#x2077;" horiz-adv-x="557" d="M692 1430l-444 -775h-158l356 631h-274l25 144h495z" />
<glyph unicode="&#x2078;" horiz-adv-x="657" d="M324 639q-106 0 -160.5 53t-54.5 133q0 137 145 248q-37 39 -37 131q0 100 63.5 171t200.5 71q190 0 191 -148q0 -115 -115 -217q86 -55 86 -168q0 -102 -84.5 -188t-234.5 -86zM457 1331q-109 0 -109 -125q0 -61 68 -80q113 29 112 136q1 69 -71 69zM408 1022 q-57 -10 -106.5 -56t-49.5 -116q0 -45 25.5 -69.5t72.5 -24.5q72 0 109 40t37 105q0 47 -24.5 79t-63.5 42z" />
<glyph unicode="&#x2079;" horiz-adv-x="618" d="M459 1446q88 0 139 -55.5t51 -165.5q0 -217 -143.5 -393.5t-278.5 -176.5l-80 58q66 0 182.5 92t139.5 199q-41 -39 -131 -39q-82 0 -136.5 48t-54.5 134q0 119 90.5 209t221.5 90zM373 1083q61 0 101 37t40 105q0 49 -25.5 68.5t-58.5 19.5q-57 0 -95 -45t-38 -99 q0 -37 19.5 -61.5t56.5 -24.5z" />
<glyph unicode="&#x2080;" horiz-adv-x="827" d="M297 -16q-115 0 -181.5 84t-66.5 223q0 209 121 354.5t283 145.5q113 0 180 -87.5t67 -228.5q0 -209 -115.5 -350t-287.5 -141zM428 659q-86 0 -157.5 -97t-71.5 -263q0 -92 33.5 -137t91.5 -45q96 0 161.5 91t65.5 257q0 94 -35 144t-88 50z" />
<glyph unicode="&#x2081;" horiz-adv-x="503" d="M225 0h-151l100 565q-37 -27 -94 -35l14 123q33 6 82 45t68 76h116z" />
<glyph unicode="&#x2082;" horiz-adv-x="645" d="M438 0h-463q250 297 325 408.5t75 175.5q0 84 -76 84q-106 0 -193 -121v133q29 39 95.5 75t146.5 36q92 0 132 -50.5t40 -119.5q0 -82 -57 -185.5t-205 -292.5h207z" />
<glyph unicode="&#x2083;" horiz-adv-x="649" d="M164 -16q-63 0 -121.5 21.5t-67.5 39.5l62 135q8 -20 54 -36.5t91 -16.5q160 0 160 141q0 96 -100 97h-105l33 112h53q145 0 146 117q0 72 -88 72q-84 0 -134 -35l-4 108q66 51 179 52q111 0 155.5 -51.5t44.5 -121.5q0 -119 -92 -188q59 -55 59 -149q0 -137 -99 -217 t-226 -80z" />
<glyph unicode="&#x2084;" horiz-adv-x="694" d="M535 211h-93l-36 -211h-150l39 211h-324l445 563h127l-80 -446h92zM315 328l39 225l-164 -225h125z" />
<glyph unicode="&#x2085;" horiz-adv-x="636" d="M166 -14q-70 0 -127 23.5t-64 41.5l60 133q41 -59 151 -59q63 0 108.5 35t45.5 116q0 86 -147 86h-123l118 412h347l-43 -143h-218l-41 -146q252 -2 252 -184q0 -147 -97 -231t-222 -84z" />
<glyph unicode="&#x2086;" horiz-adv-x="667" d="M221 -16q-86 0 -137 54t-51 167q0 117 50 227.5t118.5 182t137.5 115.5t110 44l90 -57q-66 0 -178.5 -100.5t-137.5 -190.5q35 39 121 39t137 -47t51 -133q0 -119 -90 -210t-221 -91zM313 346q-61 0 -100 -36t-39 -101q0 -43 26.5 -67.5t59.5 -24.5q53 0 93 44t40 99 q0 35 -20.5 60.5t-59.5 25.5z" />
<glyph unicode="&#x2087;" horiz-adv-x="643" d="M616 774l-444 -774h-158l357 631h-275l25 143h495z" />
<glyph unicode="&#x2088;" horiz-adv-x="712" d="M236 -16q-106 0 -161 53t-55 133q0 137 146 248q-37 39 -37 131q0 100 62.5 171t201.5 71q98 0 144.5 -41t46.5 -107q0 -115 -115 -217q86 -55 86 -168q0 -102 -84.5 -188t-234.5 -86zM369 676q-109 0 -109 -125q0 -61 68 -80q113 29 112 135q1 70 -71 70zM319 367 q-57 -10 -106 -56.5t-49 -115.5q0 -94 98 -95q72 0 109 40t37 106q0 47 -25 79t-64 42z" />
<glyph unicode="&#x2089;" horiz-adv-x="669" d="M369 791q88 0 139 -55.5t51 -166.5q0 -217 -144.5 -393t-279.5 -176l-80 57q63 0 181 92.5t143 198.5q-43 -39 -133 -39q-86 0 -138.5 46t-52.5 132q0 121 90.5 212.5t223.5 91.5zM281 428q61 0 101 37t40 106q0 47 -25.5 66.5t-58.5 19.5q-55 0 -93 -45t-38 -98 q0 -37 18.5 -61.5t55.5 -24.5z" />
<glyph unicode="&#x20ac;" horiz-adv-x="1318" d="M774 35q-186 0 -311 106.5t-160 298.5h-262l72 142h180q4 57 16 135l8 49h-163l67 131h137q92 236 269.5 369t388.5 133q188 0 315 -70l-59 -201q-152 78 -291 78q-262 0 -397 -309h471l-70 -131h-444l-9 -49q-14 -74 -16 -135h447l-72 -142h-356q61 -213 274 -213 q137 0 317 78l-12 -201q-147 -69 -340 -69z" />
<glyph unicode="&#x2122;" horiz-adv-x="1374" d="M969 907h-15l-100 334l-156 -551h-112l219 744h65l121 -367l248 367h68l-43 -744h-117l43 549zM700 1434l-30 -103h-181l-114 -641h-111l113 641h-184l18 103h489z" />
<glyph unicode="&#xe000;" horiz-adv-x="1004" d="M0 1005h1005v-1005h-1005v1005z" />
<glyph horiz-adv-x="1015" d="M895 0h-197l-47 289h-383l-147 -289h-199l598 1147h185zM618 469l-59 387l-194 -387h253z" />
<glyph horiz-adv-x="1409" d="M1225 0h-690l51 283h-318l-182 -283h-195l744 1147h778l-33 -182h-475l-49 -277h367l-31 -180h-367l-57 -328h489zM616 467l89 494l-316 -494h227z" />
<glyph horiz-adv-x="1038" d="M459 0h-416l203 1147h286q190 0 284.5 -47t94.5 -182q0 -113 -35.5 -180.5t-107.5 -125.5q150 -63 150 -219q0 -113 -41 -193.5t-112 -121.5t-145.5 -59.5t-160.5 -18.5zM575 983h-169l-54 -303h195q178 0 178 188q0 68 -38 91.5t-112 23.5zM541 524h-217l-62 -358h189 q135 0 201.5 46t66.5 169q0 143 -178 143z" />
<glyph horiz-adv-x="1019" d="M526 -23q-207 0 -331.5 132.5t-124.5 353.5q0 307 194.5 506.5t470.5 199.5q182 0 301 -67l-51 -178q-162 66 -280 65q-197 0 -311.5 -147.5t-114.5 -360.5q0 -145 71.5 -234t208.5 -89q121 0 301 65l-10 -180q-148 -66 -324 -66z" />
<glyph horiz-adv-x="1200" d="M457 0h-414l203 1147h413q209 0 334 -124t125 -341q0 -307 -189 -494.5t-472 -187.5zM627 967h-224l-139 -787h225q199 0 309.5 134.5t110.5 349.5q0 141 -71.5 222t-210.5 81z" />
<glyph horiz-adv-x="944" d="M760 0h-717l203 1147h700l-31 -180h-507l-50 -279h398l-33 -180h-397l-58 -328h525z" />
<glyph horiz-adv-x="884" d="M895 967h-492l-49 -279h379l-31 -180h-380l-91 -508h-188l203 1147h680z" />
<glyph horiz-adv-x="1114" d="M520 -23q-203 0 -325.5 133.5t-122.5 354.5q0 307 193.5 505.5t477.5 198.5q195 0 320 -65l-51 -178q-150 63 -297 63q-207 0 -320.5 -146.5t-113.5 -357.5q0 -150 75.5 -238.5t225.5 -88.5q86 0 163 22l43 234h-135l29 161h324l-91 -512q-68 -35 -184.5 -60.5 t-210.5 -25.5z" />
<glyph horiz-adv-x="1228" d="M971 0h-189l88 508h-548l-91 -508h-188l203 1147h188l-80 -457h549l82 457h189z" />
<glyph horiz-adv-x="489" d="M231 0h-188l203 1147h188z" />
<glyph horiz-adv-x="487" d="M-76 -283h-49l8 136h33q57 0 85 34.5t42 114.5l203 1145h188l-211 -1192q-41 -238 -299 -238z" />
<glyph horiz-adv-x="1024" d="M881 0h-209l-287 606l487 541h211l-487 -541zM231 0h-188l203 1147h188z" />
<glyph horiz-adv-x="831" d="M702 0h-659l203 1147h188l-170 -967h471z" />
<glyph horiz-adv-x="1363" d="M1159 0h-198l45 803l-385 -551l-195 551l-238 -803h-198l354 1147h158l182 -539l369 539h155z" />
<glyph horiz-adv-x="1173" d="M915 0h-157l-379 829l-148 -829h-188l203 1147h188l357 -782l137 782h190z" />
<glyph horiz-adv-x="1269" d="M524 -23q-207 0 -330.5 132.5t-123.5 353.5q0 307 193.5 506.5t469.5 199.5q207 0 331 -132t124 -353q0 -307 -194 -507t-470 -200zM702 989q-195 0 -309 -147.5t-114 -360.5q0 -145 70.5 -234t205.5 -89q195 0 308.5 147.5t113.5 360.5q0 145 -70 234t-205 89z" />
<glyph horiz-adv-x="1738" d="M1556 0h-682l19 106q-176 -129 -373 -129q-205 0 -327.5 132.5t-122.5 353.5q0 307 192.5 506.5t468.5 199.5q193 0 328 -129l18 107h666l-31 -180h-475l-49 -279h366l-32 -180h-365l-57 -328h487zM698 989q-195 0 -308.5 -147.5t-113.5 -362.5q0 -145 70 -233t207 -88 q195 0 308.5 147.5t113.5 362.5q0 145 -71 233t-206 88z" />
<glyph horiz-adv-x="989" d="M512 385h-209l-67 -385h-193l203 1147h323q205 0 302.5 -55.5t97.5 -214.5q0 -139 -45 -240.5t-119 -153t-146.5 -75t-146.5 -23.5zM575 985h-165l-76 -424h182q143 0 199.5 69.5t56.5 209.5q0 76 -45.5 110.5t-151.5 34.5z" />
<glyph horiz-adv-x="1269" d="M1090 119l-132 -127l-92 90q-154 -104 -342 -105q-207 0 -330.5 132.5t-123.5 353.5q0 307 193.5 506.5t469.5 199.5q207 0 331 -132t124 -353q0 -254 -182 -481zM702 989q-195 0 -309 -147.5t-114 -362.5q0 -145 70.5 -233t205.5 -88q109 0 186 47l-118 123l131 131 l123 -133q35 51 53 85.5t34.5 102.5t16.5 152q0 147 -71 235t-208 88z" />
<glyph horiz-adv-x="1038" d="M881 0h-199l-158 434h-213l-75 -434h-193l203 1147h393q332 0 332 -264q0 -262 -258 -400zM575 989h-165l-66 -375h170q143 0 198.5 60.5t55.5 173.5q0 141 -193 141z" />
<glyph horiz-adv-x="978" d="M362 -23q-240 0 -352 80l62 219q106 -119 327 -118q242 0 242 166q0 49 -36 87t-76 56t-117 47q-70 25 -107 42t-86 50t-71.5 77t-22.5 103q0 139 118.5 261t348.5 122q104 0 198.5 -26.5t137.5 -57.5l-54 -196q-174 102 -305 102q-94 0 -167.5 -38t-73.5 -117 q0 -57 50 -90t148 -68q61 -20 94 -32.5t85.5 -41.5t80 -58.5t49 -77.5t21.5 -108q0 -74 -25.5 -138t-79 -120.5t-154 -90.5t-235.5 -34z" />
<glyph horiz-adv-x="937" d="M946 967h-317l-170 -967h-191l170 967h-315l33 180h821z" />
<glyph horiz-adv-x="1193" d="M487 -23q-190 0 -286.5 96.5t-96.5 272.5q0 53 15 143l117 658h186l-103 -586q-16 -92 -16 -164q0 -240 217 -239q156 0 230.5 107.5t109.5 295.5l103 586h190l-117 -658q-43 -242 -181.5 -377t-367.5 -135z" />
<glyph horiz-adv-x="1071" d="M1137 1147l-602 -1147h-224l-205 1147h199l160 -905l473 905h199z" />
<glyph horiz-adv-x="1581" d="M1642 1147l-528 -1147h-176l-102 827l-400 -827h-184l-111 1147h199l74 -871l405 863h139l115 -848l371 856h198z" />
<glyph horiz-adv-x="1046" d="M909 0h-217l-203 438l-346 -438h-215l488 571l-273 576h219l191 -420l328 420h213l-469 -553z" />
<glyph horiz-adv-x="991" d="M1063 1147l-494 -631l-90 -516h-192l92 516l-270 631h200l195 -461l358 461h201z" />
<glyph horiz-adv-x="923" d="M979 1147l-703 -967h461l-30 -180h-775l703 967h-461l33 180h772z" />
</font>
</defs>
</svg>
