<?xml version="1.0" standalone="no"?>
<!DOCTYPE svg PUBLIC "-//W3C//DTD SVG 1.1//EN" "http://www.w3.org/Graphics/SVG/1.1/DTD/svg11.dtd" >
<svg xmlns="http://www.w3.org/2000/svg">
<metadata>
This is a custom SVG webfont generated by Font Squirrel.
Copyright   : Copyright c 2011 by Pablo Impallari wwwimpallaricom Igino Marini wwwikerncom All rights reserved
Designer    : Pablo Impallari
Foundry     : Pablo Impallari wwwimpallaricom Igino Marini wwwikerncom
Foundry URL : wwwimpallaricom
</metadata>
<defs>
<font id="webfontqgHEtAjm" horiz-adv-x="1054" >
<font-face units-per-em="2048" ascent="1638" descent="-410" />
<missing-glyph horiz-adv-x="460" />
<glyph unicode=" "  horiz-adv-x="460" />
<glyph unicode="&#x09;" horiz-adv-x="460" />
<glyph unicode="&#xa0;" horiz-adv-x="460" />
<glyph unicode="!" horiz-adv-x="499" d="M377 1536l-55 -1126h-144l-55 1126h254zM350 0h-200v203h200v-203z" />
<glyph unicode="&#x22;" horiz-adv-x="821" d="M741 1536l-41 -614h-129l-41 614h211zM293 1536l-41 -614h-131l-41 614h213z" />
<glyph unicode="#" horiz-adv-x="1443" d="M1380 1042l-63 -184h-236l-88 -223h260l-88 -197h-245l-177 -461h-176l176 461h-258l-176 -461h-174l174 461h-243l86 197h233l86 223h-254l62 184h262l151 392h174l-151 -392h260l151 392h174l-151 -392h231zM905 858h-258l-88 -223h258z" />
<glyph unicode="$" horiz-adv-x="1056" d="M592 166l33 -232h-197l35 230q-240 12 -361 80l29 235q147 -123 383 -123q219 0 219 123q0 53 -48 93t-119.5 61.5t-156.5 50.5t-157 59.5t-120 90t-48 139.5q0 117 90 210t289 111l-35 238h197l-33 -238q213 -12 328 -77l-19 -209q-213 102 -346 102q-242 0 -242 -113 q0 -49 50.5 -84.5t124 -54t161.5 -47.5t162 -62.5t124 -102t50 -165.5q0 -49 -15.5 -94t-53 -94t-121.5 -83t-203 -44z" />
<glyph unicode="%" horiz-adv-x="1718" d="M1335 -25q-137 0 -220 100.5t-83 274.5q0 178 90 283.5t223.5 105.5t219.5 -100t86 -272q0 -180 -87.5 -286t-228.5 -106zM1354 1434l-860 -1459h-175l863 1459h172zM371 684q-135 0 -218 99.5t-83 271.5q0 178 89 283.5t222 105.5t217 -99.5t84 -271.5 q0 -180 -86 -284.5t-225 -104.5zM1339.5 627q-77.5 0 -131 -74t-53.5 -203q0 -125 48 -190.5t130 -65.5q88 0 138.5 69.5t50.5 203.5q0 121 -52.5 190.5t-130 69.5zM379 1323q-74 0 -126 -72.5t-52 -195.5q0 -117 49 -183.5t123 -66.5q80 0 130 71.5t50 196.5 q0 113 -51 181.5t-123 68.5z" />
<glyph unicode="&#x26;" horiz-adv-x="1259" d="M1235 0h-225l-80 86q-160 -133 -383 -133q-240 0 -358.5 107.5t-118.5 275.5q0 233 256 414q-154 188 -154 350q0 154 118 247t285 93q150 0 228 -75t78 -196q0 -131 -87 -231t-235 -199l354 -374q53 96 60 354h192q-6 -303 -121 -500zM555 1278q-80 0 -134 -48t-54 -136 q0 -117 106 -244q70 53 97.5 75.5t66.5 61.5t52 74t13 76q0 70 -38.5 105.5t-108.5 35.5zM823 215l-401 418q-145 -117 -146 -281q0 -104 70 -172.5t215 -68.5q168 0 262 104z" />
<glyph unicode="'" horiz-adv-x="385" d="M303 1536l-39 -614h-143l-39 614h221z" />
<glyph unicode="(" horiz-adv-x="544" d="M496 -279h-187q-113 180 -170 390.5t-57 517.5t57.5 517t169.5 390h187q-246 -408 -246 -907.5t246 -907.5z" />
<glyph unicode=")" horiz-adv-x="544" d="M236 -279h-187q246 408 246 907.5t-246 907.5h187q113 -180 170 -390t57 -517t-57 -517.5t-170 -390.5z" />
<glyph unicode="*" horiz-adv-x="884" d="M639 864l-195 275l-194 -281l-92 88l231 221l-323 125l63 113l293 -191l-43 320h129l-47 -320l295 191l63 -115l-323 -119l235 -219z" />
<glyph unicode="+" horiz-adv-x="944" d="M850 481h-293v-272h-172v272h-293v183h293v262h172v-262h293v-183z" />
<glyph unicode="," horiz-adv-x="452" d="M338 0l-174 -223l-49 26l69 179l-67 18v207h221v-207z" />
<glyph unicode="-" horiz-adv-x="864" d="M750 481h-635v183h635v-183z" />
<glyph unicode="." horiz-adv-x="438" d="M324 0h-209v207h209v-207z" />
<glyph unicode="/" horiz-adv-x="1097" d="M1030 1434l-766 -1608h-227l764 1608h229z" />
<glyph unicode="0" horiz-adv-x="1454" d="M715 -29q-266 0 -428 197t-162 524q0 342 176 556t438 214q256 0 423 -203.5t167 -527.5q0 -346 -169 -553t-445 -207zM735 1268q-160 0 -272.5 -150.5t-112.5 -425.5q0 -258 100.5 -391t268.5 -133q178 0 283.5 140.5t105.5 422.5q0 256 -107.5 396.5t-265.5 140.5z" />
<glyph unicode="1" horiz-adv-x="735" d="M532 0h-223v1122q-106 -82 -203 -108l-28 196q80 25 165 89.5t124 134.5h165v-1434z" />
<glyph unicode="2" horiz-adv-x="1077" d="M965 0h-859q367 524 478.5 735t111.5 309q0 106 -62.5 165t-168.5 59q-182 0 -334 -201l-27 195q35 63 142.5 131.5t267.5 68.5q109 0 188.5 -34.5t123.5 -94t64.5 -125t20.5 -137.5q0 -141 -96 -340t-321 -528h471v-203z" />
<glyph unicode="3" horiz-adv-x="1116" d="M467 -29q-123 0 -239.5 39t-147.5 70l53 203q172 -109 332 -109q125 0 210 59.5t85 200.5q0 117 -67.5 188.5t-243.5 71.5h-162l20 172h82q172 0 245 56.5t73 162.5q0 184 -232 185q-176 0 -268 -78l-37 176q35 35 122 64.5t208 29.5q129 0 220 -34.5t135 -94t63.5 -119 t19.5 -124.5q0 -176 -170 -295q221 -90 221 -355q0 -223 -153.5 -346t-368.5 -123z" />
<glyph unicode="4" horiz-adv-x="1161" d="M1042 389h-174v-389h-225v389h-616l659 1045h182v-856h174v-189zM643 578v489l-295 -489h295z" />
<glyph unicode="5" horiz-adv-x="1107" d="M459 -29q-106 0 -221 33t-134 59l52 201q139 -92 299 -92q133 0 226 81t93 218q0 119 -92 179.5t-311 60.5h-191l88 723h654l-23 -203h-461l-39 -330q319 -2 460.5 -103.5t141.5 -318.5q0 -229 -160.5 -368.5t-381.5 -139.5z" />
<glyph unicode="6" horiz-adv-x="1159" d="M573 -29q-203 0 -325.5 127t-122.5 402q0 190 65.5 370.5t160.5 299t199.5 191.5t188.5 73l148 -86q-72 -25 -145.5 -71t-150.5 -118t-137.5 -178.5t-86.5 -230.5q86 111 270 110q188 0 311 -106.5t123 -307t-137.5 -338t-360.5 -137.5zM621 678q-117 0 -196 -71.5 t-79 -192.5t75 -185.5t177 -64.5q121 0 190.5 83t69.5 195q0 94 -56 165t-181 71z" />
<glyph unicode="7" horiz-adv-x="1034" d="M1014 1434l-613 -1434h-229l526 1231h-616v203h932z" />
<glyph unicode="8" horiz-adv-x="1241" d="M602 -29q-240 0 -361.5 123t-121.5 291q0 236 256 385q-174 139 -174 334q0 152 100 254t328 102q217 0 315 -93t98 -232q0 -106 -49 -181t-168 -161q297 -113 297 -383q0 -170 -134 -304.5t-386 -134.5zM618.5 1276q-106.5 0 -164 -51t-57.5 -138q0 -70 54.5 -128 t156.5 -95q115 33 169 97.5t54 144.5q0 78 -53 124t-159.5 46zM625 688q-123 -23 -202 -98.5t-79 -198.5q0 -113 70.5 -172t197.5 -59q125 0 205 68.5t80 179.5q0 106 -76.5 178.5t-195.5 101.5z" />
<glyph unicode="9" horiz-adv-x="1163" d="M588 1462q199 0 323.5 -125t124.5 -401q0 -207 -62.5 -390.5t-154.5 -299t-194.5 -181t-190.5 -65.5l-155 86q74 25 150.5 71t157.5 116.5t138 175t72 225.5q-39 -49 -119 -76t-154 -27q-201 0 -317.5 104.5t-116.5 307.5q0 205 137.5 342t360.5 137zM545 756 q115 0 193.5 71.5t78.5 194.5t-73.5 185.5t-176.5 62.5q-121 0 -189.5 -82t-68.5 -195q0 -96 55.5 -166.5t180.5 -70.5z" />
<glyph unicode=":" horiz-adv-x="438" d="M324 694h-209v207h209v-207zM324 0h-209v207h209v-207z" />
<glyph unicode=";" horiz-adv-x="460" d="M346 694h-229v207h229v-207zM338 -2l-174 -221l-49 26l69 179l-67 18v207h221v-209z" />
<glyph unicode="&#x3c;" horiz-adv-x="851" d="M733 160h-231l-441 422l441 422h231l-440 -422z" />
<glyph unicode="=" horiz-adv-x="1024" d="M891 645h-758v168h758v-168zM891 322h-758v167h758v-167z" />
<glyph unicode="&#x3e;" horiz-adv-x="854" d="M793 582l-441 -422h-231l440 422l-440 422h231z" />
<glyph unicode="?" horiz-adv-x="901" d="M475 410h-139q-2 27 -3 51t-2 33.5t-1 13.5q0 84 45 172t99 150.5t99 148.5t45 168q0 113 -70.5 172t-170.5 59q-88 0 -162 -43t-102 -94l-54 156q41 63 130.5 101t195.5 38q197 0 312.5 -122t115.5 -263q0 -86 -53 -182.5t-115.5 -170t-116 -167.5t-53.5 -176v-45z M512 0h-209v203h209v-203z" />
<glyph unicode="@" horiz-adv-x="1472" d="M1112 776q-104 109 -250 109q-190 0 -355 -181.5t-165 -394.5q0 -98 46 -162.5t149 -64.5q88 0 194.5 65.5t165.5 171.5q0 -4 -3 -30.5t-3 -32.5q0 -66 26.5 -118t86 -52t140.5 40t132 91q-98 -178 -279.5 -286.5t-392.5 -108.5q-236 0 -372 139t-136 387 q0 330 228.5 557.5t543.5 227.5q240 0 375 -140.5t135 -380.5q0 -150 -51 -286q-39 -61 -115.5 -97t-136.5 -36q-76 0 -76 108q0 49 15.5 113.5t46.5 172t51 189.5zM864 760q94 0 111 -45q-29 -168 -153 -333t-226 -165q-45 0 -67.5 37t-22.5 94q0 162 122.5 287t235.5 125z " />
<glyph unicode="A" horiz-adv-x="1269" d="M1257 0h-229l-131 373h-524l-133 -373h-228l512 1434h219zM825 575l-190 537l-191 -537h381z" />
<glyph unicode="B" horiz-adv-x="1243" d="M674 0h-512v1434h346q137 0 227 -13.5t167 -50.5t113 -109.5t36 -185.5q0 -102 -23.5 -171.5t-95.5 -139.5q131 -49 187.5 -131t56.5 -209q0 -424 -502 -424zM580 1243h-201v-399h248q45 0 76.5 7t64.5 26.5t50.5 62.5t17.5 111q0 117 -64.5 154.5t-191.5 37.5zM672 657 h-293v-464h221q178 0 264 45t86 182q0 237 -278 237z" />
<glyph unicode="C" horiz-adv-x="1257" d="M791 -29q-313 0 -514 205t-201 541t199.5 540.5t512.5 204.5q229 0 402 -84l-23 -204q-229 86 -379 86q-225 0 -350 -152t-125 -391.5t125 -391t355 -151.5q152 0 374 84l23 -205q-182 -82 -399 -82z" />
<glyph unicode="D" horiz-adv-x="1484" d="M694 0h-532v1434h532q317 0 514 -191.5t197 -525.5t-197 -525.5t-514 -191.5zM694 1231h-315v-1028h315q229 0 351 138t122 375.5t-122 376t-351 138.5z" />
<glyph unicode="E" horiz-adv-x="1144" d="M1071 0h-909v1434h889v-203h-670v-381h528v-203h-528v-444h690v-203z" />
<glyph unicode="F" horiz-adv-x="1071" d="M1038 1231h-659v-381h510v-203h-510v-647h-217v1434h876v-203z" />
<glyph unicode="G" horiz-adv-x="1372" d="M780 -29q-305 0 -503.5 206t-198.5 542t200.5 539.5t516.5 203.5q244 0 428 -82l-23 -198q-207 78 -399 78q-238 0 -362 -151t-124 -390q0 -246 131.5 -395.5t380.5 -149.5q127 0 226 33v321h-203v191h420v-639q-84 -45 -226.5 -77t-263.5 -32z" />
<glyph unicode="H" horiz-adv-x="1523" d="M1362 0h-217v645h-766v-645h-217v1434h217v-580h766v580h217v-1434z" />
<glyph unicode="I" horiz-adv-x="542" d="M381 0h-219v1434h219v-1434z" />
<glyph unicode="J" horiz-adv-x="540" d="M43 -352h-47l-21 143h23q94 0 129 47t35 160v1436h217v-1493q0 -293 -336 -293z" />
<glyph unicode="K" horiz-adv-x="1212" d="M1204 0h-235l-520 760l520 674h235l-520 -674zM379 0h-217v1434h217v-1434z" />
<glyph unicode="L" horiz-adv-x="1026" d="M1014 0h-852v1434h217v-1231h635v-203z" />
<glyph unicode="M" horiz-adv-x="1675" d="M1581 0h-229l-131 1040l-381 -714l-387 714l-131 -1040h-228l195 1434h182l367 -691l364 691h184z" />
<glyph unicode="N" horiz-adv-x="1443" d="M1282 0h-182l-721 1081v-1081h-217v1434h227l674 -1022v1022h219v-1434z" />
<glyph unicode="O" horiz-adv-x="1568" d="M784.5 -29q-311.5 0 -509 205t-197.5 541t197.5 540.5t509 204.5t509 -204.5t197.5 -540.5t-197.5 -541t-509 -205zM784.5 1260q-225.5 0 -347.5 -152t-122 -391.5t122 -391t347.5 -151.5t347 151.5t121.5 391t-121.5 391.5t-347 152z" />
<glyph unicode="P" horiz-adv-x="1189" d="M680 492h-293v-492h-225v1434h442q102 0 177 -9.5t146.5 -37t115.5 -76.5t72 -131t28 -195q0 -137 -44 -238.5t-116 -154.5t-147.5 -76.5t-155.5 -23.5zM604 1243h-217v-553h256q145 0 210 70.5t65 218.5q0 145 -69 204.5t-245 59.5z" />
<glyph unicode="Q" horiz-adv-x="1568" d="M1473 139l-119 -141l-137 113q-190 -139 -433 -140q-311 0 -508.5 205t-197.5 541t197.5 540.5t509 204.5t509 -204.5t197.5 -540.5q0 -262 -143 -475zM784.5 1260q-227.5 0 -348.5 -151t-121 -392.5t121 -392t348 -150.5q172 0 273 70l-197 162l119 145l203 -176 q84 139 84 342q0 240 -127 391.5t-354.5 151.5z" />
<glyph unicode="R" horiz-adv-x="1249" d="M1217 0h-232l-311 551h-289v-551h-223v1434h485q236 0 365 -96.5t129 -321.5q0 -276 -256 -408zM625 1255h-240v-497h270q119 0 188.5 62.5t69.5 191.5q0 243 -288 243z" />
<glyph unicode="S" horiz-adv-x="1196" d="M575 -29q-303 0 -471 97l27 251q182 -145 449 -145q139 0 226 47t87 152q0 45 -20.5 83t-48 63.5t-82 51t-94.5 40t-113 38.5q-78 25 -114 38t-101.5 41t-98.5 53.5t-70.5 64.5t-53 88t-15.5 108q0 74 26.5 143.5t83 134t162 103.5t244.5 39q133 0 260 -31.5t193 -70.5 l-23 -227q-250 129 -414 129q-119 0 -210 -47.5t-91 -143.5q0 -86 76 -134t227 -95l107 -33q31 -10 99.5 -37t100 -46t81 -57t72 -77t40 -94.5t17.5 -120.5q0 -70 -19.5 -131.5t-73 -128t-172.5 -106.5t-293 -40z" />
<glyph unicode="T" horiz-adv-x="1122" d="M1083 1231h-413v-1231h-219v1231h-412v203h1044v-203z" />
<glyph unicode="U" horiz-adv-x="1478" d="M739 -29q-295 0 -444.5 169t-149.5 470v824h217v-732q0 -115 15.5 -200.5t53.5 -164.5t116 -121t192.5 -42t192.5 42t115.5 121t53 165t15.5 200v732h217v-824q0 -301 -149.5 -470t-444.5 -169z" />
<glyph unicode="V" horiz-adv-x="1329" d="M1321 1434l-535 -1434h-243l-537 1434h227l433 -1168l428 1168h227z" />
<glyph unicode="W" horiz-adv-x="1982" d="M1966 1434l-420 -1434h-221l-332 1100l-338 -1100h-227l-401 1434h227l307 -1145l346 1126h178l353 -1116l301 1135h227z" />
<glyph unicode="X" horiz-adv-x="1247" d="M1243 0h-239l-392 565l-360 -565h-240l490 715l-482 719h252l357 -541l364 541h238l-498 -693z" />
<glyph unicode="Y" horiz-adv-x="1181" d="M1190 1434l-488 -781v-653h-223v653l-489 781h231l369 -586l368 586h232z" />
<glyph unicode="Z" horiz-adv-x="1126" d="M1110 1434l-733 -1231h641v-203h-1000l732 1231h-639v203h999z" />
<glyph unicode="[" horiz-adv-x="675" d="M668 -276h-527v1812h527v-168h-336v-1477h336v-167z" />
<glyph unicode="\" horiz-adv-x="1089" d="M1053 -174h-219l-766 1608h219z" />
<glyph unicode="]" horiz-adv-x="688" d="M547 -276h-527v198h336v1413h-336v201h527v-1812z" />
<glyph unicode="^" horiz-adv-x="1046" d="M944 868l-422 441l-422 -441v246l422 440l422 -440v-246z" />
<glyph unicode="_" horiz-adv-x="1155" d="M1151 -256h-1147v182h1147v-182z" />
<glyph unicode="`" horiz-adv-x="620" d="M502 1212l-383 129v170l383 -190v-109z" />
<glyph unicode="a" horiz-adv-x="997" d="M979 147l-27 -167h-41q-111 0 -163 32.5t-86 104.5q-117 -137 -310 -137q-135 0 -219 81.5t-84 214.5q0 100 57.5 174t151.5 112t188.5 55.5t192.5 19.5q-2 121 -50 165t-157 44q-131 0 -270 -84l-25 168q154 100 352 100q188 0 273.5 -104.5t85.5 -354.5v-229 q0 -115 19.5 -155t86.5 -40h25zM641 258v238q-377 -16 -377 -209q0 -143 150 -144q135 0 227 115z" />
<glyph unicode="b" horiz-adv-x="1150" d="M616 -20q-76 0 -155.5 32.5t-132.5 89.5l-17 -102h-188v1536h209v-614q99 108 283 108h3q215 0 342 -153.5t127 -372.5q0 -221 -132 -372.5t-339 -151.5zM598 850q-121 0 -200 -91t-79 -255q0 -166 79 -255t200 -89q127 0 201.5 97t74.5 247q0 154 -74.5 250t-201.5 96z " />
<glyph unicode="c" horiz-adv-x="925" d="M563 -20q-238 0 -369 150.5t-131 375.5q0 229 129.5 376.5t368.5 147.5q195 0 309 -65l-26 -185q-127 70 -262 70q-150 0 -228 -91t-78 -253t78 -255t228 -93q139 0 262 69l24 -172q-119 -75 -305 -75z" />
<glyph unicode="d" horiz-adv-x="1148" d="M1026 0h-188l-17 102q-53 -57 -132 -89.5t-154 -32.5q-207 0 -339.5 151.5t-132.5 372.5q0 219 128 372.5t344 153.5q180 0 284 -106v612h207v-1536zM549 850q-125 0 -199 -96.5t-74 -249.5q0 -150 74 -247t199 -97q123 0 205 88t82 252q0 162 -83 256t-204 94z" />
<glyph unicode="e" d="M983 485h-704q35 -325 350 -325h2q158 0 297 67l20 -170q-162 -77 -334 -77h-4q-258 0 -402.5 151.5t-144.5 378.5q0 221 133.5 370.5t358.5 149.5q195 0 316.5 -116.5t121.5 -315.5q0 -62 -10 -113zM555 850q-211 0 -264 -221h489q0 100 -56 160.5t-169 60.5z" />
<glyph unicode="f" horiz-adv-x="686" d="M651 844h-254v-844h-209v844h-163l22 166h141v252q0 119 61.5 196.5t176.5 77.5q131 0 217 -23l-27 -174q-59 16 -118 17q-66 0 -83.5 -40t-17.5 -177v-129h254v-166z" />
<glyph unicode="g" horiz-adv-x="1021" d="M526 -512q-238 0 -355.5 91t-117.5 212q0 156 174 227q-98 51 -98 134q0 92 113 145q-168 123 -168 330q0 172 109.5 287.5t301.5 115.5q139 0 248 -69q102 53 236 53h32l-20 -135h-61q-37 0 -99 -11q82 -102 82 -235q0 -166 -109.5 -284t-297.5 -118q-68 0 -134 17 q-39 -20 -38 -51q0 -37 58 -54.5t234 -44.5q59 -10 103.5 -19t106 -31.5t101.5 -51.5t69.5 -78t29.5 -111q0 -137 -132 -228t-368 -91zM487 868q-104 0 -161.5 -65.5t-57.5 -171.5q0 -113 59.5 -177.5t161.5 -64.5q104 0 162 67.5t58 178t-60 172t-162 61.5zM557 -55 q-49 0 -162 22q-68 -23 -110.5 -67.5t-42.5 -98.5q0 -70 75.5 -113.5t211 -43.5t216 45t80.5 108q0 105 -268 148z" />
<glyph unicode="h" horiz-adv-x="1116" d="M1006 0h-209v541q0 168 -51.5 238.5t-176.5 70.5q-160 0 -237 -117v-733h-209v1536h209v-614q101 108 261 108h3q410 0 410 -489v-541z" />
<glyph unicode="i" horiz-adv-x="454" d="M332 1212h-209v222h209v-222zM332 0h-209v1010h209v-1010z" />
<glyph unicode="j" horiz-adv-x="454" d="M76 -489l-72 -7l-20 164q90 6 114.5 39t24.5 152v1151h209v-1231q0 -125 -73.5 -191.5t-182.5 -76.5zM332 1212h-209v222h209v-222z" />
<glyph unicode="k" horiz-adv-x="946" d="M332 0h-209v1536h209v-967l354 441h246l-402 -471l408 -539h-246l-360 492v-492z" />
<glyph unicode="l" horiz-adv-x="501" d="M477 147l-26 -167h-70q-133 0 -196.5 71.5t-63.5 177.5v1307h207v-1200q0 -125 26.5 -157t122.5 -32z" />
<glyph unicode="m" horiz-adv-x="1787" d="M1675 0h-207v575q0 143 -52 209t-169 66q-244 0 -243 -250v-600h-209v553q0 168 -55.5 232.5t-168.5 64.5q-168 0 -239 -115v-735h-209v1010h166l18 -97q133 117 287 117q223 0 332 -186q98 186 356 186q195 0 294 -115.5t99 -336.5v-578z" />
<glyph unicode="n" horiz-adv-x="1140" d="M1028 0h-209v553q0 156 -56 226.5t-185 70.5q-174 0 -246 -117v-733h-209v1010h176l14 -90q128 110 292 110h3q420 0 420 -477v-553z" />
<glyph unicode="o" horiz-adv-x="1136" d="M567 -20q-231 0 -367.5 149.5t-136.5 374.5t135.5 375.5t369 150.5t369.5 -150.5t136 -375.5t-136.5 -374.5t-369.5 -149.5zM567.5 850q-139.5 0 -215.5 -92t-76 -254t76 -253t215.5 -91t216 91t76.5 253t-76.5 254t-216 92z" />
<glyph unicode="p" horiz-adv-x="1148" d="M618 -20q-76 0 -155.5 31.5t-132.5 88.5v-596h-207v1506h170l20 -113q66 68 135.5 100.5t172.5 32.5q215 0 339.5 -153.5t124.5 -372.5q0 -229 -122 -376.5t-345 -147.5zM600 850q-121 0 -201 -92t-80 -254q0 -166 80 -255t201 -89q125 0 198.5 97t73.5 247 q0 154 -72.5 250t-199.5 96z" />
<glyph unicode="q" horiz-adv-x="1148" d="M528 -20q-221 0 -343 147t-122 377q0 219 125 372.5t340 153.5q102 0 172 -32.5t136 -100.5l20 113h170v-1506h-207v596q-53 -57 -134 -88.5t-157 -31.5zM549 850q-127 0 -200 -96.5t-73 -249.5q0 -150 74 -247t199 -97q121 0 200.5 89t79.5 255q0 162 -79.5 254 t-200.5 92z" />
<glyph unicode="r" horiz-adv-x="671" d="M672 1040l-43 -215h-74q-61 0 -125.5 -36.5t-89.5 -83.5v-705h-217v1010h182l17 -146q160 176 317 176h33z" />
<glyph unicode="s" horiz-adv-x="858" d="M412 -20q-221 0 -344 83l22 191q45 -37 132 -69.5t181 -32.5q92 0 138.5 32.5t46.5 87.5q0 66 -54.5 101t-142.5 59q-70 20 -109.5 34.5t-93 47.5t-79 84t-25.5 123q0 129 91 219t286 90q162 0 289 -69l-23 -185q-113 96 -258 96q-84 0 -135 -31.5t-51 -97.5q0 -23 5 -41 t23.5 -33.5t30.5 -24.5t49 -22l55 -18q19 -6 70 -20q55 -16 94 -34t88.5 -51.5t76 -90t26.5 -129.5q0 -55 -16.5 -102.5t-56.5 -94.5t-120.5 -74.5t-195.5 -27.5z" />
<glyph unicode="t" horiz-adv-x="698" d="M653 147l-16 -167h-172q-133 0 -199.5 72.5t-66.5 176.5v615h-164l18 166h146v241l209 21v-262h249v-166h-249v-506q0 -133 28.5 -162t161.5 -29h55z" />
<glyph unicode="u" horiz-adv-x="1093" d="M971 0h-191l-14 94q-95 -114 -257 -114h-3q-393 0 -393 458v572h209v-539q0 -158 53 -234.5t170 -76.5q143 0 217 104v746h209v-1010z" />
<glyph unicode="v" horiz-adv-x="1005" d="M993 1010l-385 -1010h-209l-387 1010h221l271 -768l268 768h221z" />
<glyph unicode="w" horiz-adv-x="1480" d="M1460 1010l-301 -1010h-209l-211 717l-211 -717h-209l-299 1010h228l186 -770l207 743h197l206 -743l189 770h227z" />
<glyph unicode="x" horiz-adv-x="980" d="M961 0h-240l-232 358l-229 -358h-240l345 504l-338 506h239l230 -359l211 359h245l-329 -496z" />
<glyph unicode="y" d="M1044 1010l-624 -1506h-221l229 549l-420 957h232l297 -715l276 715h231z" />
<glyph unicode="z" horiz-adv-x="964" d="M918 1010l-506 -838h491v-172h-858l506 840h-485v170h852z" />
<glyph unicode="{" horiz-adv-x="626" d="M174 39q0 39 7 139.5t7 151.5q0 111 -33.5 179.5t-119.5 119.5q84 51 118.5 118.5t34.5 182.5q0 49 -7 149.5t-7 139.5q0 154 99.5 233.5t340.5 83.5v-170q-100 -2 -154 -14.5t-82 -56.5t-33 -94t-5 -163q0 -27 3 -86t3 -88q0 -76 -28.5 -129t-118.5 -106 q90 -51 118.5 -99.5t28.5 -117.5q0 -29 -3 -91.5t-3 -99.5q0 -113 5 -163t33 -94t82 -57t154 -16v-167q-238 4 -339 81.5t-101 233.5z" />
<glyph unicode="|" horiz-adv-x="473" d="M332 -428h-191v1964h191v-1964z" />
<glyph unicode="}" horiz-adv-x="626" d="M453 39q0 -156 -101.5 -233.5t-339.5 -81.5v167q100 2 154.5 15.5t82 57.5t33 94.5t5.5 162.5q0 37 -3 99.5t-3 91.5q0 70 28.5 118t118.5 99q-90 53 -118.5 106t-28.5 129q0 29 3 88.5t3 85.5q0 113 -5.5 163t-33 94t-81.5 56.5t-155 14.5v170q242 -4 341.5 -84 t99.5 -233q0 -39 -7.5 -139.5t-7.5 -149.5q0 -115 35 -182.5t119 -118.5q-86 -51 -120 -120t-34 -179q0 -51 7.5 -151.5t7.5 -139.5z" />
<glyph unicode="~" horiz-adv-x="942" d="M610 365q-47 0 -140 49t-126 49q-98 0 -129 -98l-109 24q18 94 86 143.5t142 49.5q51 0 143 -47.5t127 -47.5q90 0 133 103l101 -27q-20 -88 -82 -143t-146 -55z" />
<glyph unicode="&#xa1;" horiz-adv-x="491" d="M119 -512l55 1126h143l56 -1126h-254zM145 1024h201v-203h-201v203z" />
<glyph unicode="&#xa2;" horiz-adv-x="974" d="M606 180l33 -243h-160l35 243q-215 29 -329.5 176.5t-114.5 354.5q0 209 115.5 357.5t332.5 174.5l-39 289h160l-37 -289q172 -8 270 -67l-18 -181q-129 74 -260 74q-137 0 -215 -100.5t-78 -257.5q0 -154 78 -254.5t215 -100.5q135 0 260 72l18 -180q-98 -58 -266 -68z " />
<glyph unicode="&#xa3;" horiz-adv-x="1044" d="M936 1255l-74 -94q-23 51 -38 77t-51 47.5t-89 21.5q-78 0 -120 -43t-53 -105.5t-11 -165.5v-196h393l-31 -140h-370q-12 -150 -35 -250t-84 -237h547v-170h-850q104 137 156.5 293t72.5 364h-190l28 140h170v241q0 86 11.5 149.5t44 127t102.5 97.5t176 34 q234 -1 295 -191z" />
<glyph unicode="&#xa4;" horiz-adv-x="1284" d="M1161 121l-82 -68l-157 207q-131 -72 -280.5 -72t-281.5 72l-157 -207l-80 68l153 205q-152 164 -151 387q0 225 154 387l-156 205l80 67l157 -207q137 72 281 72q145 0 281 -74l159 209l80 -67l-155 -207q152 -164 152 -385t-154 -389zM641 1081q-145 0 -226 -103.5 t-81 -265t81 -265t226 -103.5t226 103.5t81 265t-81 265t-226 103.5z" />
<glyph unicode="&#xa5;" horiz-adv-x="1398" d="M1343 1434l-520 -772h330l-49 -115h-295v-133h344l-49 -121h-295v-293h-219v293h-354l45 121h309v133h-354l45 115h297l-521 772h219l424 -607l424 607h219z" />
<glyph unicode="&#xa6;" horiz-adv-x="466" d="M324 614h-181v922h181v-922zM324 -430h-181v782h181v-782z" />
<glyph unicode="&#xa7;" horiz-adv-x="937" d="M659 383q70 -53 90.5 -103.5t20.5 -129.5q0 -129 -83 -225.5t-263 -96.5q-86 0 -171 23.5t-122 56.5l23 160q137 -90 268 -91q90 0 145.5 37t55.5 115q0 74 -56.5 118t-136.5 70.5t-160 59.5t-136 107.5t-56 193.5q0 233 207 303q-117 86 -117 219q0 141 82 238.5 t260 97.5q88 0 170 -24.5t129 -57.5l-25 -160q-139 94 -264 95q-86 0 -140 -43t-54 -115q0 -68 55 -111t134 -71.5t157 -64.5t133 -112.5t55 -191.5q0 -211 -201 -297zM414 877q-55 -2 -116.5 -45.5t-61.5 -122.5q0 -162 311 -240q61 12 104 66.5t43 119.5q1 154 -280 222z " />
<glyph unicode="&#xa8;" horiz-adv-x="864" d="M686 1225h-162v209h162v-209zM340 1225h-162v209h162v-209z" />
<glyph unicode="&#xa9;" horiz-adv-x="1435" d="M718.5 76q-278.5 0 -457.5 185t-179 487q0 303 178 487t459 184q279 0 457 -184t178 -487q0 -301 -178.5 -486.5t-457 -185.5zM719 1309q-250 0 -381 -156t-131 -405.5t132 -406.5t380 -157t379 157t131 406.5t-131 405.5t-379 156zM737 399q-143 0 -235 94.5t-92 249.5 q0 158 91 252.5t236 94.5q104 0 193 -41l-17 -142q-104 43 -176 43q-86 0 -130 -56t-44 -151q0 -92 45 -149t129 -57q76 0 176 45l17 -140q-80 -43 -193 -43z" />
<glyph unicode="&#xaa;" horiz-adv-x="727" d="M651 1030l-12 -141h-78q-37 0 -74.5 16.5t-54.5 38.5q-59 -55 -190 -55q-74 0 -124 47t-50 131q0 57 37.5 101t96 64.5t108.5 31t96 12.5q-8 70 -101 70q-63 0 -174 -37l-10 137q113 43 231 43q104 0 167 -50t63 -153v-182q0 -47 9 -60.5t36 -13.5h24zM408 1034v129 q-43 -2 -99.5 -27.5t-56.5 -62.5q0 -57 76 -57q45 0 80 18z" />
<glyph unicode="&#xab;" horiz-adv-x="1185" d="M1106 160h-240l-305 422l305 422h240l-305 -422zM571 160h-237l-305 422l305 422h237l-303 -422z" />
<glyph unicode="&#xac;" horiz-adv-x="1216" d="M1073 309h-139v375h-803v147h942v-522z" />
<glyph unicode="&#xad;" horiz-adv-x="864" d="M750 471h-635v193h635v-193z" />
<glyph unicode="&#xae;" horiz-adv-x="1435" d="M718.5 76q-278.5 0 -457.5 185t-179 487q0 303 178 487t459 184q279 0 457 -184t178 -487q0 -301 -178.5 -486.5t-457 -185.5zM719 1311q-250 0 -382 -157t-132 -406.5t133 -407.5t381 -158t380 158t132 407.5t-132 406.5t-380 157zM995 426h-149l-131 236h-94v-236h-146 v666h248q111 0 171 -47.5t60 -163.5q0 -106 -106 -179zM694 973h-73v-180h69q113 0 113 92q0 45 -24 66.5t-85 21.5z" />
<glyph unicode="&#xb0;" horiz-adv-x="677" d="M338 987q-123 0 -196.5 80t-73.5 198.5t73.5 199.5t196.5 81q125 0 198.5 -81t73.5 -199.5t-73.5 -198.5t-198.5 -80zM338 1475q-76 0 -120 -60.5t-44 -148.5q0 -86 44 -146.5t120 -60.5q80 0 122 59.5t42 147.5t-43 148.5t-121 60.5z" />
<glyph unicode="&#xb1;" horiz-adv-x="1011" d="M885 657h-303v-282h-152v282h-303v156h303v277h152v-277h303v-156zM885 78h-758v155h758v-155z" />
<glyph unicode="&#xb2;" horiz-adv-x="628" d="M561 655h-514q143 193 220 316t93.5 166t16.5 75q0 47 -26.5 75t-76.5 28q-104 0 -190 -129l-21 147q23 43 87.5 78t156.5 35q119 0 173.5 -62.5t54.5 -144.5q0 -133 -201 -420h227v-164z" />
<glyph unicode="&#xb3;" horiz-adv-x="632" d="M260 639q-70 0 -138.5 21.5t-82.5 39.5l41 152q14 -18 68.5 -33.5t103.5 -15.5q152 0 151 84q0 59 -27.5 93t-103.5 34h-114l12 125h59q139 0 140 86q0 84 -113 84q-104 0 -139 -31l-25 117q20 20 73.5 35.5t110.5 15.5q145 0 203 -64.5t58 -146.5q0 -109 -66 -150 q96 -78 96 -188q0 -123 -91 -190.5t-216 -67.5z" />
<glyph unicode="&#xb4;" horiz-adv-x="620" d="M502 1341l-383 -129v109l383 190v-170z" />
<glyph unicode="&#xb5;" horiz-adv-x="1232" d="M1153 147l-31 -167h-65q-160 0 -219 135q-125 -135 -269 -135q-117 0 -213 61v-537h-204v1506h206v-535q0 -162 52.5 -238.5t181.5 -76.5t221 106v744h205v-660q0 -115 18.5 -159t75.5 -44h41z" />
<glyph unicode="&#xb6;" horiz-adv-x="1275" d="M1188 1268h-150v-1268h-127v1268h-178v-1268h-104v487q-272 16 -416.5 154.5t-144.5 323.5q0 190 152.5 329.5t436.5 139.5h531v-166z" />
<glyph unicode="&#xb7;" horiz-adv-x="483" d="M369 436h-254v266h254v-266z" />
<glyph unicode="&#xb8;" horiz-adv-x="620" d="M588 -109l-191 -272l-112 -14l141 272z" />
<glyph unicode="&#xb9;" horiz-adv-x="448" d="M326 655h-168v543q-6 -2 -22.5 -7t-36 -9t-38.5 -6l-10 133q35 4 83 43t61 78h131v-775z" />
<glyph unicode="&#xba;" horiz-adv-x="765" d="M383 889q-145 0 -231 88t-86 213t86 212t231 87t231 -87t86 -212t-86 -213t-231 -88zM382.5 1356q-63.5 0 -101 -47t-37.5 -119t37.5 -119t101 -47t101.5 47t38 119t-38 119t-101.5 47z" />
<glyph unicode="&#xbb;" horiz-adv-x="1185" d="M1157 582l-303 -422h-240l306 422l-306 422h240zM627 582l-305 -422h-240l307 422l-307 422h240z" />
<glyph unicode="&#xbc;" horiz-adv-x="1478" d="M354 655h-168v543q-6 -2 -22.5 -7t-35.5 -9t-38 -6l-10 133q35 4 83 43t60 78h131v-775zM1116 1434l-766 -1608h-227l764 1608h229zM1411 211h-100v-211h-168v211h-359l383 563h144v-436h100v-127zM1143 338v201l-137 -201h137z" />
<glyph unicode="&#xbd;" horiz-adv-x="1495" d="M1112 1434l-766 -1608h-227l764 1608h229zM1423 0h-514q143 193 220 315.5t93.5 165.5t16.5 76q0 47 -26.5 74.5t-75.5 27.5q-104 0 -191 -129l-20 148q23 43 87 78t156 35q119 0 173.5 -62.5t54.5 -144.5q0 -133 -201 -420h227v-164zM350 655h-168v543q-6 -2 -22.5 -7 t-36 -9t-37.5 -6l-10 133q35 4 83 43t60 78h131v-775z" />
<glyph unicode="&#xbe;" horiz-adv-x="1824" d="M1460 1434l-766 -1608h-227l764 1608h229zM287 639q-70 0 -138.5 21.5t-82.5 39.5l40 152q14 -18 68.5 -33.5t104.5 -15.5q152 0 151 84q0 59 -27.5 93t-103.5 34h-115l13 125h59q139 0 139 86q0 84 -112 84q-104 0 -140 -31l-24 117q20 20 73.5 35.5t110.5 15.5 q145 0 202.5 -64.5t57.5 -146.5q0 -109 -65 -150q96 -78 96 -188q0 -123 -90 -190.5t-217 -67.5zM1755 211h-100v-211h-168v211h-359l383 563h144v-436h100v-127zM1487 338v201l-137 -201h137z" />
<glyph unicode="&#xbf;" horiz-adv-x="905" d="M449 614h139q2 -27 3 -51t2 -33.5t1 -13.5q0 -84 -45 -172t-99.5 -150.5t-99.5 -148.5t-45 -168q0 -113 70.5 -172t171.5 -59q88 0 160.5 43t103.5 94l53 -156q-41 -63 -130 -101t-195 -38q-197 0 -312.5 122t-115.5 263q0 86 53 182.5t115.5 170t116 167.5t53.5 176v45z M412 1024h209v-203h-209v203z" />
<glyph unicode="&#xc0;" horiz-adv-x="1269" d="M1257 0h-229l-131 373h-524l-133 -373h-228l512 1434h219zM825 575l-190 537l-191 -537h381zM827 1636l-383 129v170l383 -190v-109z" />
<glyph unicode="&#xc1;" horiz-adv-x="1269" d="M1257 0h-229l-131 373h-524l-133 -373h-228l512 1434h219zM825 575l-190 537l-191 -537h381zM827 1765l-383 -129v109l383 190v-170z" />
<glyph unicode="&#xc2;" horiz-adv-x="1269" d="M1257 0h-229l-131 373h-524l-133 -373h-228l512 1434h219zM825 575l-190 537l-191 -537h381zM936 1647l-301 159l-301 -159v100l301 207l301 -207v-100z" />
<glyph unicode="&#xc3;" horiz-adv-x="1269" d="M1257 0h-229l-131 373h-524l-133 -373h-228l512 1434h219zM825 575l-190 537l-191 -537h381zM774 1651q-47 0 -140 49t-126 49q-98 0 -129 -98l-109 24q18 94 86 144.5t142 50.5q51 0 143 -48t127 -48q90 0 133 102l100 -27q-20 -86 -81.5 -142t-145.5 -56z" />
<glyph unicode="&#xc4;" horiz-adv-x="1269" d="M1257 0h-229l-131 373h-524l-133 -373h-228l512 1434h219zM825 575l-190 537l-191 -537h381zM889 1649h-162v209h162v-209zM543 1649h-162v209h162v-209z" />
<glyph unicode="&#xc5;" horiz-adv-x="1269" d="M1257 0h-229l-131 373h-524l-133 -373h-228l512 1434h219zM825 575l-190 537l-191 -537h381zM635 1604q-98 0 -155.5 53t-57.5 129t57.5 130t155.5 54q100 0 156.5 -54t56.5 -130t-56.5 -129t-156.5 -53zM635 1894q-47 0 -79 -30.5t-32 -77.5q0 -49 32 -79t79 -30 t78.5 30t31.5 79q0 47 -31.5 77.5t-78.5 30.5z" />
<glyph unicode="&#xc6;" horiz-adv-x="1773" d="M1700 0h-893v360h-424l-180 -360h-219l700 1434h995v-205h-626v-379h483v-203h-483v-444h647v-203zM807 571v654l-326 -654h326z" />
<glyph unicode="&#xc7;" horiz-adv-x="1257" d="M791 -29q-313 0 -514 205t-201 541t199.5 540.5t512.5 204.5q229 0 402 -84l-23 -204q-229 86 -379 86q-225 0 -350 -152t-125 -391.5t125 -391t355 -151.5q152 0 374 84l23 -205q-182 -82 -399 -82zM778 -109l-190 -272l-113 -14l141 272z" />
<glyph unicode="&#xc8;" horiz-adv-x="1144" d="M1071 0h-909v1434h889v-203h-670v-381h528v-203h-528v-444h690v-203zM756 1636l-383 129v170l383 -190v-109z" />
<glyph unicode="&#xc9;" horiz-adv-x="1144" d="M1071 0h-909v1434h889v-203h-670v-381h528v-203h-528v-444h690v-203zM756 1765l-383 -129v109l383 190v-170z" />
<glyph unicode="&#xca;" horiz-adv-x="1144" d="M1071 0h-909v1434h889v-203h-670v-381h528v-203h-528v-444h690v-203zM864 1647l-301 159l-301 -159v100l301 207l301 -207v-100z" />
<glyph unicode="&#xcb;" horiz-adv-x="1144" d="M1071 0h-909v1434h889v-203h-670v-381h528v-203h-528v-444h690v-203zM817 1649h-162v209h162v-209zM471 1649h-162v209h162v-209z" />
<glyph unicode="&#xcc;" horiz-adv-x="542" d="M381 0h-219v1434h219v-1434zM465 1636l-383 129v170l383 -190v-109z" />
<glyph unicode="&#xcd;" horiz-adv-x="542" d="M381 0h-219v1434h219v-1434zM465 1765l-383 -129v109l383 190v-170z" />
<glyph unicode="&#xce;" horiz-adv-x="542" d="M381 0h-219v1434h219v-1434zM573 1647l-301 159l-301 -159v100l301 207l301 -207v-100z" />
<glyph unicode="&#xcf;" horiz-adv-x="542" d="M381 0h-219v1434h219v-1434zM526 1649h-161v209h161v-209zM180 1649h-162v209h162v-209z" />
<glyph unicode="&#xd0;" horiz-adv-x="1495" d="M709 0h-529v631h-194v153h194v650h529q315 0 510.5 -191.5t195.5 -525.5t-195.5 -525.5t-510.5 -191.5zM709 1231h-318v-447h264v-153h-264v-428h318q229 0 350 137t121 376.5t-121 377t-350 137.5z" />
<glyph unicode="&#xd1;" horiz-adv-x="1443" d="M1282 0h-182l-721 1081v-1081h-217v1434h227l674 -1022v1022h219v-1434zM860 1651q-47 0 -140 49t-126 49q-98 0 -129 -98l-109 24q18 94 86 144.5t142 50.5q51 0 143 -48t127 -48q90 0 133 102l100 -27q-20 -86 -81.5 -142t-145.5 -56z" />
<glyph unicode="&#xd2;" horiz-adv-x="1568" d="M784.5 -29q-311.5 0 -509 205t-197.5 541t197.5 540.5t509 204.5t509 -204.5t197.5 -540.5t-197.5 -541t-509 -205zM784.5 1260q-225.5 0 -347.5 -152t-122 -391.5t122 -391t347.5 -151.5t347 151.5t121.5 391t-121.5 391.5t-347 152zM975 1636l-383 129v170l383 -190 v-109z" />
<glyph unicode="&#xd3;" horiz-adv-x="1568" d="M784.5 -29q-311.5 0 -509 205t-197.5 541t197.5 540.5t509 204.5t509 -204.5t197.5 -540.5t-197.5 -541t-509 -205zM784.5 1260q-225.5 0 -347.5 -152t-122 -391.5t122 -391t347.5 -151.5t347 151.5t121.5 391t-121.5 391.5t-347 152zM975 1765l-383 -129v109l383 190 v-170z" />
<glyph unicode="&#xd4;" horiz-adv-x="1568" d="M784.5 -29q-311.5 0 -509 205t-197.5 541t197.5 540.5t509 204.5t509 -204.5t197.5 -540.5t-197.5 -541t-509 -205zM784.5 1260q-225.5 0 -347.5 -152t-122 -391.5t122 -391t347.5 -151.5t347 151.5t121.5 391t-121.5 391.5t-347 152zM1085 1647l-301 159l-301 -159v100 l301 207l301 -207v-100z" />
<glyph unicode="&#xd5;" horiz-adv-x="1568" d="M784.5 -29q-311.5 0 -509 205t-197.5 541t197.5 540.5t509 204.5t509 -204.5t197.5 -540.5t-197.5 -541t-509 -205zM784.5 1260q-225.5 0 -347.5 -152t-122 -391.5t122 -391t347.5 -151.5t347 151.5t121.5 391t-121.5 391.5t-347 152zM922 1651q-47 0 -140.5 49 t-126.5 49q-98 0 -129 -98l-108 24q18 94 85.5 144.5t141.5 50.5q51 0 143.5 -48t126.5 -48q90 0 134 102l100 -27q-20 -86 -81.5 -142t-145.5 -56z" />
<glyph unicode="&#xd6;" horiz-adv-x="1568" d="M784.5 -29q-311.5 0 -509 205t-197.5 541t197.5 540.5t509 204.5t509 -204.5t197.5 -540.5t-197.5 -541t-509 -205zM784.5 1260q-225.5 0 -347.5 -152t-122 -391.5t122 -391t347.5 -151.5t347 151.5t121.5 391t-121.5 391.5t-347 152zM1038 1649h-161v209h161v-209z M692 1649h-162v209h162v-209z" />
<glyph unicode="&#xd7;" horiz-adv-x="903" d="M782 328l-92 -90l-239 239l-240 -239l-90 90l239 239l-239 240l90 90l240 -240l239 240l92 -90l-241 -240z" />
<glyph unicode="&#xd8;" horiz-adv-x="1566" d="M782 -27q-180 0 -348 84l-82 -118h-221l156 223q-209 225 -209 555q0 336 197.5 540.5t508.5 204.5q178 0 340 -80l60 84h219l-131 -190q219 -223 219 -561q0 -334 -199 -538t-510 -204zM1143 1090l-588 -861q119 -51 229 -51q223 0 343 150.5t120 390.5q0 234 -104 371z M782 1255q-223 0 -341.5 -149.5t-118.5 -390.5q0 -190 98 -363l584 854q-113 49 -222 49z" />
<glyph unicode="&#xd9;" horiz-adv-x="1478" d="M739 -29q-295 0 -444.5 169t-149.5 470v824h217v-732q0 -115 15.5 -200.5t53.5 -164.5t116 -121t192.5 -42t192.5 42t115.5 121t53 165t15.5 200v732h217v-824q0 -301 -149.5 -470t-444.5 -169zM930 1636l-383 129v170l383 -190v-109z" />
<glyph unicode="&#xda;" horiz-adv-x="1478" d="M739 -29q-295 0 -444.5 169t-149.5 470v824h217v-732q0 -115 15.5 -200.5t53.5 -164.5t116 -121t192.5 -42t192.5 42t115.5 121t53 165t15.5 200v732h217v-824q0 -301 -149.5 -470t-444.5 -169zM930 1765l-383 -129v109l383 190v-170z" />
<glyph unicode="&#xdb;" horiz-adv-x="1478" d="M739 -29q-295 0 -444.5 169t-149.5 470v824h217v-732q0 -115 15.5 -200.5t53.5 -164.5t116 -121t192.5 -42t192.5 42t115.5 121t53 165t15.5 200v732h217v-824q0 -301 -149.5 -470t-444.5 -169zM1040 1647l-301 159l-301 -159v100l301 207l301 -207v-100z" />
<glyph unicode="&#xdc;" horiz-adv-x="1478" d="M739 -29q-295 0 -444.5 169t-149.5 470v824h217v-732q0 -115 15.5 -200.5t53.5 -164.5t116 -121t192.5 -42t192.5 42t115.5 121t53 165t15.5 200v732h217v-824q0 -301 -149.5 -470t-444.5 -169zM993 1649h-162v209h162v-209zM647 1649h-162v209h162v-209z" />
<glyph unicode="&#xdd;" horiz-adv-x="1181" d="M1190 1434l-488 -781v-653h-223v653l-489 781h231l369 -586l368 586h232zM799 1765l-383 -129v109l383 190v-170z" />
<glyph unicode="&#xde;" horiz-adv-x="1163" d="M510 414h-123v-414h-225v1434h225v-281h123q168 0 272.5 -13.5t187.5 -50t118.5 -107.5t35.5 -181q0 -215 -143 -301t-471 -86zM582 1008h-195v-453h195q324 0 323 231q0 119 -74.5 170.5t-248.5 51.5z" />
<glyph unicode="&#xdf;" horiz-adv-x="1140" d="M647 -31q-33 0 -110 8v146q188 2 276 38t88 138q0 78 -51 149.5t-111.5 114.5t-112 92.5t-51.5 87.5q0 27 23 59t54.5 65.5t64.5 73.5t55.5 97.5t22.5 118.5q0 113 -65.5 165t-151.5 52q-94 0 -147.5 -59.5t-53.5 -149.5v-1444h-201v1149h-149l16 154h133v131 q0 166 125 273.5t279 107.5q88 0 175 -36t153.5 -123t66.5 -206q0 -82 -33 -157q-32 -74 -70 -118l-71 -83q-33 -39 -33 -55q0 -23 52 -66t114.5 -90t115 -131t52.5 -178q0 -160 -130 -242t-325 -82z" />
<glyph unicode="&#xe0;" horiz-adv-x="997" d="M979 147l-27 -167h-41q-111 0 -163 32.5t-86 104.5q-117 -137 -310 -137q-135 0 -219 81.5t-84 214.5q0 100 57.5 174t151.5 112t188.5 55.5t192.5 19.5q-2 121 -50 165t-157 44q-131 0 -270 -84l-25 168q154 100 352 100q188 0 273.5 -104.5t85.5 -354.5v-229 q0 -115 19.5 -155t86.5 -40h25zM641 258v238q-377 -16 -377 -209q0 -143 150 -144q135 0 227 115zM690 1212l-383 129v170l383 -190v-109z" />
<glyph unicode="&#xe1;" horiz-adv-x="997" d="M979 147l-27 -167h-41q-111 0 -163 32.5t-86 104.5q-117 -137 -310 -137q-135 0 -219 81.5t-84 214.5q0 100 57.5 174t151.5 112t188.5 55.5t192.5 19.5q-2 121 -50 165t-157 44q-131 0 -270 -84l-25 168q154 100 352 100q188 0 273.5 -104.5t85.5 -354.5v-229 q0 -115 19.5 -155t86.5 -40h25zM641 258v238q-377 -16 -377 -209q0 -143 150 -144q135 0 227 115zM690 1341l-383 -129v109l383 190v-170z" />
<glyph unicode="&#xe2;" horiz-adv-x="997" d="M979 147l-27 -167h-41q-111 0 -163 32.5t-86 104.5q-117 -137 -310 -137q-135 0 -219 81.5t-84 214.5q0 100 57.5 174t151.5 112t188.5 55.5t192.5 19.5q-2 121 -50 165t-157 44q-131 0 -270 -84l-25 168q154 100 352 100q188 0 273.5 -104.5t85.5 -354.5v-229 q0 -115 19.5 -155t86.5 -40h25zM641 258v238q-377 -16 -377 -209q0 -143 150 -144q135 0 227 115zM801 1223l-301 159l-301 -159v100l301 207l301 -207v-100z" />
<glyph unicode="&#xe3;" horiz-adv-x="997" d="M979 147l-27 -167h-41q-111 0 -163 32.5t-86 104.5q-117 -137 -310 -137q-135 0 -219 81.5t-84 214.5q0 100 57.5 174t151.5 112t188.5 55.5t192.5 19.5q-2 121 -50 165t-157 44q-131 0 -270 -84l-25 168q154 100 352 100q188 0 273.5 -104.5t85.5 -354.5v-229 q0 -115 19.5 -155t86.5 -40h25zM641 258v238q-377 -16 -377 -209q0 -143 150 -144q135 0 227 115zM631 1227q-47 0 -140.5 49t-125.5 49q-98 0 -129 -98l-109 24q18 94 86 144.5t141 50.5q51 0 143.5 -48t127.5 -48q90 0 133 102l100 -27q-20 -86 -81.5 -142t-145.5 -56z " />
<glyph unicode="&#xe4;" horiz-adv-x="997" d="M979 147l-27 -167h-41q-111 0 -163 32.5t-86 104.5q-117 -137 -310 -137q-135 0 -219 81.5t-84 214.5q0 100 57.5 174t151.5 112t188.5 55.5t192.5 19.5q-2 121 -50 165t-157 44q-131 0 -270 -84l-25 168q154 100 352 100q188 0 273.5 -104.5t85.5 -354.5v-229 q0 -115 19.5 -155t86.5 -40h25zM641 258v238q-377 -16 -377 -209q0 -143 150 -144q135 0 227 115zM754 1225h-162v209h162v-209zM408 1225h-162v209h162v-209z" />
<glyph unicode="&#xe5;" horiz-adv-x="997" d="M979 147l-27 -167h-41q-111 0 -163 32.5t-86 104.5q-117 -137 -310 -137q-135 0 -219 81.5t-84 214.5q0 100 57.5 174t151.5 112t188.5 55.5t192.5 19.5q-2 121 -50 165t-157 44q-131 0 -270 -84l-25 168q154 100 352 100q188 0 273.5 -104.5t85.5 -354.5v-229 q0 -115 19.5 -155t86.5 -40h25zM641 258v238q-377 -16 -377 -209q0 -143 150 -144q135 0 227 115zM500 1180q-98 0 -155.5 53t-57.5 129t57 130t156 54q100 0 156.5 -54t56.5 -130t-56.5 -129t-156.5 -53zM500 1470q-47 0 -79 -30.5t-32 -77.5q0 -49 32 -79t79 -30t78.5 30 t31.5 79q0 47 -31.5 77.5t-78.5 30.5z" />
<glyph unicode="&#xe6;" horiz-adv-x="1634" d="M1563 485h-676q8 -166 96 -252t227 -86q117 0 287 80l29 -168q-174 -80 -336 -79q-305 0 -412 217q-59 -109 -166.5 -167.5t-249.5 -58.5q-156 0 -236.5 74t-80.5 203q0 90 42 158.5t102.5 109.5t146.5 67.5t158.5 36t152.5 13.5q-12 115 -62 164t-159 49 q-121 0 -260 -66l-19 166q178 84 336 84q68 0 126.5 -16.5t116.5 -69.5t77 -139q37 109 141.5 167t233.5 58q178 0 286.5 -112.5t108.5 -307.5q0 -59 -10 -125zM1169 850q-215 0 -270 -221h479q0 104 -52.5 162.5t-156.5 58.5zM664 492q-96 -2 -182.5 -21.5t-154 -73 t-67.5 -131.5q0 -63 41 -94t107 -31q100 0 180 67.5t80 199.5q0 51 -4 84z" />
<glyph unicode="&#xe7;" horiz-adv-x="925" d="M563 -20q-238 0 -369 150.5t-131 375.5q0 229 129.5 376.5t368.5 147.5q195 0 309 -65l-26 -185q-127 70 -262 70q-150 0 -228 -91t-78 -253t78 -255t228 -93q139 0 262 69l24 -172q-119 -75 -305 -75zM678 -109l-191 -272l-112 -14l141 272z" />
<glyph unicode="&#xe8;" d="M983 485h-704q35 -326 352 -325q158 0 297 67l20 -170q-164 -78 -338 -77q-258 0 -402.5 151.5t-144.5 378.5q0 221 133.5 370.5t358.5 149.5q195 0 316.5 -116.5t121.5 -315.5q0 -62 -10 -113zM555 850q-211 0 -264 -221h489q0 100 -56 160.5t-169 60.5zM719 1212 l-383 129v170l383 -190v-109z" />
<glyph unicode="&#xe9;" d="M983 485h-704q35 -326 352 -325q158 0 297 67l20 -170q-164 -78 -338 -77q-258 0 -402.5 151.5t-144.5 378.5q0 221 133.5 370.5t358.5 149.5q195 0 316.5 -116.5t121.5 -315.5q0 -62 -10 -113zM555 850q-211 0 -264 -221h489q0 100 -56 160.5t-169 60.5zM719 1341 l-383 -129v109l383 190v-170z" />
<glyph unicode="&#xea;" d="M983 485h-704q35 -326 352 -325q158 0 297 67l20 -170q-164 -78 -338 -77q-258 0 -402.5 151.5t-144.5 378.5q0 221 133.5 370.5t358.5 149.5q195 0 316.5 -116.5t121.5 -315.5q0 -62 -10 -113zM555 850q-211 0 -264 -221h489q0 100 -56 160.5t-169 60.5zM827 1223 l-301 159l-301 -159v100l301 207l301 -207v-100z" />
<glyph unicode="&#xeb;" d="M983 485h-704q35 -326 352 -325q158 0 297 67l20 -170q-164 -78 -338 -77q-258 0 -402.5 151.5t-144.5 378.5q0 221 133.5 370.5t358.5 149.5q195 0 316.5 -116.5t121.5 -315.5q0 -62 -10 -113zM555 850q-211 0 -264 -221h489q0 100 -56 160.5t-169 60.5zM780 1225h-162 v209h162v-209zM434 1225h-162v209h162v-209z" />
<glyph unicode="&#xec;" horiz-adv-x="454" d="M332 0h-209v1010h209v-1010zM420 1212l-383 129v170l383 -190v-109z" />
<glyph unicode="&#xed;" horiz-adv-x="454" d="M332 0h-209v1010h209v-1010zM420 1341l-383 -129v109l383 190v-170z" />
<glyph unicode="&#xee;" horiz-adv-x="454" d="M332 0h-209v1010h209v-1010zM528 1223l-301 159l-301 -159v100l301 207l301 -207v-100z" />
<glyph unicode="&#xef;" horiz-adv-x="454" d="M332 0h-209v1010h209v-1010zM481 1225h-162v209h162v-209zM135 1225h-162v209h162v-209z" />
<glyph unicode="&#xf0;" horiz-adv-x="1062" d="M502 -25q-197 0 -327 124t-130 315q0 178 113.5 318t320.5 140q158 0 262 -100q-10 88 -57 201.5t-104 156.5q-150 -104 -287 -122l-68 125q125 14 256 102q-123 106 -245 106l71 95q147 0 303 -111q74 66 119 129l109 -27q-63 -94 -142 -178q127 -125 205 -319.5 t78 -403.5q0 -127 -30.5 -225t-78 -158.5t-113 -99.5t-127.5 -53.5t-128 -14.5zM508 692q-113 0 -178.5 -75.5t-65.5 -180.5q0 -117 65.5 -197.5t178.5 -80.5q104 0 170.5 72.5t66.5 195.5q0 121 -63 193.5t-174 72.5z" />
<glyph unicode="&#xf1;" horiz-adv-x="1140" d="M1028 0h-209v553q0 156 -56 226.5t-185 70.5q-174 0 -246 -117v-733h-209v1010h176l14 -90q129 111 295 110q420 0 420 -477v-553zM707 1227q-47 0 -140.5 49t-126.5 49q-98 0 -129 -98l-108 24q18 94 85.5 144.5t141.5 50.5q53 0 145.5 -48t124.5 -48q90 0 134 102 l100 -27q-20 -86 -81.5 -142t-145.5 -56z" />
<glyph unicode="&#xf2;" horiz-adv-x="1136" d="M567 -20q-231 0 -367.5 149.5t-136.5 374.5t135.5 375.5t369 150.5t369.5 -150.5t136 -375.5t-136.5 -374.5t-369.5 -149.5zM567.5 850q-139.5 0 -215.5 -92t-76 -254t76 -253t215.5 -91t216 91t76.5 253t-76.5 254t-216 92zM758 1212l-383 129v170l383 -190v-109z" />
<glyph unicode="&#xf3;" horiz-adv-x="1136" d="M567 -20q-231 0 -367.5 149.5t-136.5 374.5t135.5 375.5t369 150.5t369.5 -150.5t136 -375.5t-136.5 -374.5t-369.5 -149.5zM567.5 850q-139.5 0 -215.5 -92t-76 -254t76 -253t215.5 -91t216 91t76.5 253t-76.5 254t-216 92zM758 1341l-383 -129v109l383 190v-170z" />
<glyph unicode="&#xf4;" horiz-adv-x="1136" d="M567 -20q-231 0 -367.5 149.5t-136.5 374.5t135.5 375.5t369 150.5t369.5 -150.5t136 -375.5t-136.5 -374.5t-369.5 -149.5zM567.5 850q-139.5 0 -215.5 -92t-76 -254t76 -253t215.5 -91t216 91t76.5 253t-76.5 254t-216 92zM868 1223l-301 159l-301 -159v100l301 207 l301 -207v-100z" />
<glyph unicode="&#xf5;" horiz-adv-x="1136" d="M567 -20q-231 0 -367.5 149.5t-136.5 374.5t135.5 375.5t369 150.5t369.5 -150.5t136 -375.5t-136.5 -374.5t-369.5 -149.5zM567.5 850q-139.5 0 -215.5 -92t-76 -254t76 -253t215.5 -91t216 91t76.5 253t-76.5 254t-216 92zM707 1227q-47 0 -140.5 49t-126.5 49 q-98 0 -129 -98l-108 24q18 94 85.5 144.5t141.5 50.5q53 0 145.5 -48t124.5 -48q90 0 134 102l100 -27q-20 -86 -81.5 -142t-145.5 -56z" />
<glyph unicode="&#xf6;" horiz-adv-x="1136" d="M567 -20q-231 0 -367.5 149.5t-136.5 374.5t135.5 375.5t369 150.5t369.5 -150.5t136 -375.5t-136.5 -374.5t-369.5 -149.5zM567.5 850q-139.5 0 -215.5 -92t-76 -254t76 -253t215.5 -91t216 91t76.5 253t-76.5 254t-216 92zM821 1225h-162v209h162v-209zM475 1225h-162 v209h162v-209z" />
<glyph unicode="&#xf7;" horiz-adv-x="1200" d="M694 877h-207v217h207v-217zM1071 492h-942v165h942v-165zM694 41h-207v217h207v-217z" />
<glyph unicode="&#xf8;" horiz-adv-x="1161" d="M582 -18q-74 0 -164 20l-37 -74h-172l70 142q-215 160 -216 440q0 223 140.5 375.5t376.5 152.5q76 0 159 -22l37 78h178l-73 -142q219 -166 219 -444q0 -223 -140 -374.5t-378 -151.5zM801 780l-307 -622q63 -10 90 -11q139 0 218 101.5t79 259.5q0 78 -20.5 156.5 t-59.5 115.5zM580 872q-139 0 -218 -101t-79 -263q0 -129 77 -268l304 620q-59 12 -84 12z" />
<glyph unicode="&#xf9;" horiz-adv-x="1093" d="M971 0h-191l-14 94q-96 -115 -260 -114q-393 0 -393 458v572h209v-539q0 -158 53 -234.5t170 -76.5q143 0 217 104v746h209v-1010zM760 1212l-383 129v170l383 -190v-109z" />
<glyph unicode="&#xfa;" horiz-adv-x="1093" d="M971 0h-191l-14 94q-96 -115 -260 -114q-393 0 -393 458v572h209v-539q0 -158 53 -234.5t170 -76.5q143 0 217 104v746h209v-1010zM760 1341l-383 -129v109l383 190v-170z" />
<glyph unicode="&#xfb;" horiz-adv-x="1093" d="M971 0h-191l-14 94q-96 -115 -260 -114q-393 0 -393 458v572h209v-539q0 -158 53 -234.5t170 -76.5q143 0 217 104v746h209v-1010zM870 1223l-301 159l-301 -159v100l301 207l301 -207v-100z" />
<glyph unicode="&#xfc;" horiz-adv-x="1093" d="M971 0h-191l-14 94q-96 -115 -260 -114q-393 0 -393 458v572h209v-539q0 -158 53 -234.5t170 -76.5q143 0 217 104v746h209v-1010zM823 1225h-161v209h161v-209zM477 1225h-162v209h162v-209z" />
<glyph unicode="&#xfd;" d="M1044 1010l-624 -1506h-221l229 549l-420 957h232l297 -715l276 715h231zM717 1341l-383 -129v109l383 190v-170z" />
<glyph unicode="&#xfe;" horiz-adv-x="1183" d="M618 -20q-184 0 -286 112v-586h-209v2030h209v-612q119 106 295 106q227 0 360 -151.5t133 -374.5t-133 -373.5t-369 -150.5zM602.5 850q-145.5 0 -215.5 -93t-70 -253q0 -162 70 -259.5t215.5 -97.5t226 99.5t80.5 257.5t-80.5 252t-226 94z" />
<glyph unicode="&#xff;" d="M1044 1010l-624 -1506h-221l229 549l-420 957h232l297 -715l276 715h231zM778 1225h-162v209h162v-209zM432 1225h-162v209h162v-209z" />
<glyph unicode="&#x131;" horiz-adv-x="454" d="M332 0h-209v1010h209v-1010z" />
<glyph unicode="&#x152;" horiz-adv-x="2187" d="M2114 0h-859v150q-236 -178 -481 -179q-305 0 -500.5 205t-195.5 541t195.5 540.5t500.5 204.5q246 0 481 -178v148h840v-201h-625v-381h480v-203h-480v-444h644v-203zM774 1260q-223 0 -343 -151t-120 -392.5t120 -392t343 -150.5t343 150.5t120 392t-120 392.5 t-343 151z" />
<glyph unicode="&#x153;" horiz-adv-x="1843" d="M1772 485h-689q2 -98 34 -168.5t82 -104.5t99.5 -49.5t100.5 -15.5q168 0 317 80l19 -178q-147 -70 -324 -69q-330 0 -440 200q-51 -94 -161 -147t-241 -53q-233 0 -370.5 152.5t-137.5 379.5q0 223 138.5 370.5t375.5 147.5q123 0 230.5 -50t159.5 -142q57 92 160.5 142 t215.5 50q197 0 319 -115.5t122 -312.5q0 -49 -10 -117zM1341 850q-209 0 -254 -221h482q-6 100 -66 160.5t-162 60.5zM575 850q-145 0 -223 -91t-78 -255q0 -162 78 -253t221 -91q141 0 217 96t76 252q0 154 -77 248t-214 94z" />
<glyph unicode="&#x160;" horiz-adv-x="1196" d="M575 -29q-303 0 -471 97l27 251q182 -145 449 -145q139 0 226 47t87 152q0 45 -20.5 83t-48 63.5t-82 51t-94.5 40t-113 38.5q-78 25 -114 38t-101.5 41t-98.5 53.5t-70.5 64.5t-53 88t-15.5 108q0 74 26.5 143.5t83 134t162 103.5t244.5 39q133 0 260 -31.5t193 -70.5 l-23 -227q-250 129 -414 129q-119 0 -210 -47.5t-91 -143.5q0 -86 76 -134t227 -95l107 -33q31 -10 99.5 -37t100 -46t81 -57t72 -77t40 -94.5t17.5 -120.5q0 -70 -19.5 -131.5t-73 -128t-172.5 -106.5t-293 -40zM899 1839l-301 -197l-301 197v107l301 -152l301 152v-107z " />
<glyph unicode="&#x161;" horiz-adv-x="858" d="M412 -20q-221 0 -344 83l22 191q45 -37 132 -69.5t181 -32.5q92 0 138.5 32.5t46.5 87.5q0 66 -54.5 101t-142.5 59q-70 20 -109.5 34.5t-93 47.5t-79 84t-25.5 123q0 129 91 219t286 90q162 0 289 -69l-23 -185q-113 96 -258 96q-84 0 -135 -31.5t-51 -97.5q0 -23 5 -41 t23.5 -33.5t30.5 -24.5q12 -10 49 -22l55 -18q18 -6 70 -20q55 -16 94 -34t88.5 -51.5t76 -90t26.5 -129.5q0 -55 -16.5 -102.5t-56.5 -94.5t-120.5 -74.5t-195.5 -27.5zM717 1415l-301 -196l-301 196v107l301 -152l301 152v-107z" />
<glyph unicode="&#x178;" horiz-adv-x="1181" d="M1190 1434l-488 -781v-653h-223v653l-489 781h231l369 -586l368 586h232zM862 1649h-162v209h162v-209zM516 1649h-162v209h162v-209z" />
<glyph unicode="&#x17d;" horiz-adv-x="1126" d="M1110 1434l-733 -1231h641v-203h-1000l732 1231h-639v203h999zM877 1839l-302 -197l-301 197v107l301 -152l302 152v-107z" />
<glyph unicode="&#x17e;" horiz-adv-x="964" d="M918 1010l-506 -838h491v-172h-858l506 840h-485v170h852zM786 1415l-301 -196l-301 196v107l301 -152l301 152v-107z" />
<glyph unicode="&#x192;" horiz-adv-x="722" d="M766 1440l-18 -142q-33 16 -76 17q-113 0 -162 -66.5t-78 -238.5h287l-12 -133h-299l-170 -1057q-27 -164 -101 -239t-135 -75h-41l-31 156q61 8 95 51t49 142l157 1022h-182l17 133h186l16 110q25 160 128.5 251t248.5 91q45 1 121 -22z" />
<glyph unicode="&#x237;" horiz-adv-x="454" d="M76 -489l-72 -7l-20 164q90 6 114.5 39t24.5 152v1151h209v-1231q0 -125 -73.5 -191.5t-182.5 -76.5z" />
<glyph unicode="&#x2c6;" horiz-adv-x="913" d="M758 1223l-301 159l-301 -159v100l301 207l301 -207v-100z" />
<glyph unicode="&#x2c7;" horiz-adv-x="913" d="M758 1415l-301 -196l-301 196v107l301 -152l301 152v-107z" />
<glyph unicode="&#x2da;" horiz-adv-x="598" d="M299 1180q-98 0 -155.5 53t-57.5 129t57.5 130t155.5 54q100 0 156.5 -54t56.5 -130t-56.5 -129t-156.5 -53zM299 1470q-47 0 -79 -30.5t-32 -77.5q0 -49 32 -79t79 -30t79 30t32 79q0 47 -32 77.5t-79 30.5z" />
<glyph unicode="&#x2dc;" horiz-adv-x="1081" d="M680 1227q-47 0 -140.5 49t-125.5 49q-98 0 -129 -98l-109 24q18 94 86 144.5t141 50.5q51 0 143.5 -48t127.5 -48q90 0 133 102l100 -27q-20 -86 -81.5 -142t-145.5 -56z" />
<glyph unicode="&#x2000;" horiz-adv-x="985" />
<glyph unicode="&#x2001;" horiz-adv-x="1970" />
<glyph unicode="&#x2002;" horiz-adv-x="985" />
<glyph unicode="&#x2003;" horiz-adv-x="1970" />
<glyph unicode="&#x2004;" horiz-adv-x="656" />
<glyph unicode="&#x2005;" horiz-adv-x="492" />
<glyph unicode="&#x2006;" horiz-adv-x="328" />
<glyph unicode="&#x2007;" horiz-adv-x="328" />
<glyph unicode="&#x2008;" horiz-adv-x="246" />
<glyph unicode="&#x2009;" horiz-adv-x="394" />
<glyph unicode="&#x200a;" horiz-adv-x="109" />
<glyph unicode="&#x2010;" horiz-adv-x="864" d="M750 481h-635v183h635v-183z" />
<glyph unicode="&#x2011;" horiz-adv-x="864" d="M750 481h-635v183h635v-183z" />
<glyph unicode="&#x2012;" horiz-adv-x="864" d="M750 481h-635v183h635v-183z" />
<glyph unicode="&#x2013;" horiz-adv-x="1024" d="M909 481h-794v183h794v-183z" />
<glyph unicode="&#x2014;" horiz-adv-x="1212" d="M1098 481h-983v183h983v-183z" />
<glyph unicode="&#x2018;" horiz-adv-x="399" d="M88 1313l174 223l49 -27l-71 -178l69 -18v-207h-221v207z" />
<glyph unicode="&#x2019;" horiz-adv-x="362" d="M307 1329l-174 -223l-49 27l70 178l-68 18v207h221v-207z" />
<glyph unicode="&#x201a;" horiz-adv-x="452" d="M338 0l-174 -223l-49 26l69 179l-67 18v207h221v-207z" />
<glyph unicode="&#x201c;" horiz-adv-x="829" d="M88 1313l174 223l49 -27l-71 -178l69 -18v-207h-221v207zM518 1313l174 223l49 -27l-71 -178l69 -18v-207h-221v207z" />
<glyph unicode="&#x201d;" horiz-adv-x="792" d="M737 1329l-174 -223l-49 27l70 178l-68 18v207h221v-207zM307 1329l-174 -223l-49 27l70 178l-68 18v207h221v-207z" />
<glyph unicode="&#x201e;" horiz-adv-x="923" d="M338 0l-174 -223l-49 26l69 179l-67 18v207h221v-207zM809 0l-174 -223l-49 26l69 179l-67 18v207h221v-207z" />
<glyph unicode="&#x2020;" horiz-adv-x="868" d="M797 748l-305 57l75 -285l-61 -520h-144l-61 520l76 285l-305 -57v206l301 -61l-66 350h254l-65 -350l301 61v-206z" />
<glyph unicode="&#x2021;" horiz-adv-x="942" d="M834 166l-302 59l66 -346h-254l66 346l-301 -59v205l307 -58l-78 248l78 250l-307 -59v206l301 -59l-66 344h254l-66 -344l302 59v-206l-308 59l78 -250l-78 -248l308 58v-205z" />
<glyph unicode="&#x2022;" horiz-adv-x="622" d="M311 346q-92 0 -157.5 65.5t-65.5 158t65.5 158t157.5 65.5t158 -65.5t66 -158t-66 -158t-158 -65.5z" />
<glyph unicode="&#x2026;" horiz-adv-x="1404" d="M324 0h-209v207h209v-207zM807 0h-209v207h209v-207zM1290 0h-209v207h209v-207z" />
<glyph unicode="&#x202f;" horiz-adv-x="394" />
<glyph unicode="&#x2030;" horiz-adv-x="2457" d="M1337 -25q-137 0 -220 100.5t-83 274.5q0 178 90 283.5t223.5 105.5t219.5 -100t86 -272q0 -180 -87.5 -286t-228.5 -106zM1356 1434l-860 -1459h-174l862 1459h172zM373 684q-135 0 -218 99.5t-83 271.5q0 178 89 283.5t222 105.5t217 -99.5t84 -271.5 q0 -180 -86 -284.5t-225 -104.5zM1341.5 627q-77.5 0 -131 -74t-53.5 -203q0 -125 48 -190.5t130 -65.5q88 0 138.5 69.5t50.5 203.5q0 121 -52.5 190.5t-130 69.5zM381 1323q-74 0 -126 -72.5t-52 -195.5q0 -117 49 -183.5t123 -66.5q80 0 130 71.5t50 196.5 q0 113 -51 181.5t-123 68.5zM2077 -25q-137 0 -221 101.5t-84 273.5q0 178 91 283.5t224 105.5t218 -100t85 -272q0 -180 -86 -286t-227 -106zM2081 627q-80 0 -133.5 -74t-53.5 -203q0 -125 49.5 -190.5t131.5 -65.5q86 0 136 69.5t50 203.5q0 121 -51 190.5t-129 69.5z " />
<glyph unicode="&#x2039;" horiz-adv-x="679" d="M598 160h-250l-321 422l321 422h250l-322 -422z" />
<glyph unicode="&#x203a;" horiz-adv-x="679" d="M653 582l-321 -422h-250l321 422l-321 422h250z" />
<glyph unicode="&#x205f;" horiz-adv-x="492" />
<glyph unicode="&#x2070;" horiz-adv-x="825" d="M406 639q-154 0 -248.5 108.5t-94.5 282.5q0 182 101.5 299t255.5 117q150 0 246 -111.5t96 -285.5q0 -182 -97 -296t-259 -114zM418 1300q-76 0 -132.5 -69.5t-56.5 -200.5q0 -123 49.5 -182.5t129.5 -59.5q86 0 138 62.5t52 198.5q0 123 -53 187t-127 64z" />
<glyph unicode="&#x2074;" horiz-adv-x="690" d="M635 866h-100v-211h-168v211h-359l383 564h144v-437h100v-127zM367 993v201l-138 -201h138z" />
<glyph unicode="&#x2075;" horiz-adv-x="628" d="M274 641q-53 0 -108 14.5t-86 32t-29 27.5l39 149q61 -66 180 -65q43 0 70 5t49.5 28.5t22.5 68.5q0 29 -9.5 48.5t-51.5 38t-120 18.5h-139l53 424h383l-16 -164h-242l-18 -125q164 -2 241.5 -57.5t77.5 -176.5q0 -133 -87 -199.5t-210 -66.5z" />
<glyph unicode="&#x2076;" horiz-adv-x="655" d="M322 639q-117 0 -188 74.5t-71 230.5q0 195 128 339t229 147l110 -64q-61 0 -171.5 -105.5t-120.5 -170.5q31 31 127 30q109 0 178 -58t69 -165q0 -104 -80.5 -181t-209.5 -77zM354 989q-129 0 -129 -108q0 -41 36 -67t77 -26q51 0 86 34t35 83q0 33 -29 58.5t-76 25.5z " />
<glyph unicode="&#x2077;" horiz-adv-x="598" d="M600 1430l-342 -775h-176l270 611h-303v164h551z" />
<glyph unicode="&#x2078;" horiz-adv-x="704" d="M340 639q-135 0 -207 62.5t-72 156.5q0 123 115 215q-70 49 -70 174q0 88 59.5 143.5t190.5 55.5q242 0 242 -182q0 -113 -84 -183q51 -27 90 -82t39 -114q0 -96 -78 -171t-225 -75zM352 1325q-98 0 -98 -94q0 -27 3 -41t25.5 -33.5t63.5 -28.5q100 23 100 103 q0 94 -94 94zM356 1018q-51 -6 -95 -45t-44 -99q0 -51 35 -80.5t94 -29.5q133 0 133 113q0 61 -36 97t-87 44z" />
<glyph unicode="&#x2079;" horiz-adv-x="657" d="M334 1446q119 0 189.5 -77t70.5 -228q0 -186 -118 -336t-245 -150l-100 64q70 0 182.5 93t116.5 187q-39 -35 -137 -34q-102 0 -176 58t-74 159q0 109 81 186.5t210 77.5zM309 1096q129 0 129 104q0 98 -112 98q-53 0 -85 -33.5t-32 -76.5q0 -41 25.5 -66.5t74.5 -25.5z " />
<glyph unicode="&#x2080;" horiz-adv-x="878" d="M432 -16q-154 0 -248 108.5t-94 282.5q0 182 101.5 299t254.5 117q150 0 246 -112t96 -286q0 -182 -97 -295.5t-259 -113.5zM444 645q-76 0 -132 -69.5t-56 -200.5q0 -123 49 -182.5t129 -59.5q86 0 138.5 62.5t52.5 197.5q0 123 -53.5 187.5t-127.5 64.5z" />
<glyph unicode="&#x2081;" horiz-adv-x="520" d="M354 0h-168v543l-22 -7q-16 -6 -35.5 -10t-38.5 -6l-10 133q35 4 83 43t60 78h131v-774z" />
<glyph unicode="&#x2082;" horiz-adv-x="684" d="M588 0h-514q143 193 220 315.5t93 165.5t16 76q0 47 -26.5 74.5t-75.5 27.5q-104 0 -190 -129l-21 148q23 43 87.5 78t156.5 35q119 0 173 -62.5t54 -144.5q0 -133 -201 -420h228v-164z" />
<glyph unicode="&#x2083;" horiz-adv-x="686" d="M287 -16q-70 0 -138.5 21.5t-82.5 39.5l40 152q14 -18 68.5 -34t104.5 -16q152 0 151 84q0 59 -27.5 93t-103.5 34h-115l13 125h59q139 0 139 86q0 84 -112 84q-104 0 -140 -30l-24 116q20 20 73.5 36t110.5 16q145 0 202.5 -64.5t57.5 -146.5q0 -109 -65 -150 q96 -78 96 -188q0 -123 -90 -190.5t-217 -67.5z" />
<glyph unicode="&#x2084;" horiz-adv-x="743" d="M659 211h-100v-211h-168v211h-358l383 563h143v-436h100v-127zM391 338v201l-137 -201h137z" />
<glyph unicode="&#x2085;" horiz-adv-x="667" d="M287 -14q-53 0 -108.5 14t-86.5 31.5t-29 27.5l39 150q61 -66 181 -66q43 0 69.5 5.5t49 29t22.5 68.5q0 29 -9 48t-51 37.5t-120 18.5h-140l54 424h383l-17 -164h-241l-19 -125q164 -2 242 -57t78 -176q0 -133 -87 -199.5t-210 -66.5z" />
<glyph unicode="&#x2086;" horiz-adv-x="706" d="M348 -16q-117 0 -187.5 74.5t-70.5 230.5q0 195 129 340t227 145l111 -63q-68 0 -175.5 -102.5t-117.5 -174.5q31 31 125 31q111 0 180.5 -58.5t69.5 -164.5q0 -104 -81 -181t-210 -77zM381 336q-129 0 -129 -111q0 -41 36 -66.5t77 -25.5q51 0 85.5 34t34.5 83 q0 33 -28.5 59.5t-75.5 26.5z" />
<glyph unicode="&#x2087;" horiz-adv-x="684" d="M639 774l-342 -774h-176l270 610h-303v164h551z" />
<glyph unicode="&#x2088;" horiz-adv-x="757" d="M367 -16q-135 0 -207 62.5t-72 156.5q0 123 115 215q-70 49 -70 174q0 88 59.5 143.5t190.5 55.5q242 0 242 -183q0 -113 -84 -182q51 -27 90 -82t39 -115q0 -96 -78 -170.5t-225 -74.5zM379 670q-98 0 -98 -95q0 -27 3 -41t25.5 -33.5t63.5 -27.5q100 23 100 102 q0 95 -94 95zM383 362q-51 -6 -95 -44.5t-44 -98.5q0 -51 34.5 -80.5t94.5 -29.5q133 0 133 112q0 61 -36 97t-87 44z" />
<glyph unicode="&#x2089;" horiz-adv-x="706" d="M356 791q119 0 189.5 -77t70.5 -229q0 -186 -117.5 -335.5t-244.5 -149.5l-100 63q68 0 181.5 92.5t119.5 188.5q-39 -35 -140 -35q-111 0 -180 57.5t-69 159.5q0 109 80.5 187t209.5 78zM332 440q129 0 129 105q0 98 -111 98q-55 0 -87 -34t-32 -77q0 -41 26 -66.5 t75 -25.5z" />
<glyph unicode="&#x20ac;" horiz-adv-x="1435" d="M958 35q-209 0 -368.5 105.5t-235.5 295.5h-291l54 154h196q-6 74 -6 127v43h-184l49 141h154q57 231 227 364.5t405 133.5q213 0 363 -72l-25 -211q-188 78 -338 78q-293 0 -380 -293h522l-53 -141h-492v-43q0 -63 8 -127h498l-53 -154h-396q113 -197 346 -196 q150 0 338 77l25 -211q-150 -71 -363 -71z" />
<glyph unicode="&#x2122;" horiz-adv-x="1492" d="M1008 895h-15l-176 305l-63 -510h-129l98 744h74l204 -344l205 344h74l98 -744h-131l-59 510zM608 1434l-14 -123h-201v-621h-125v621h-205v123h545z" />
<glyph unicode="&#xe000;" horiz-adv-x="1010" d="M0 1010h1010v-1010h-1010v1010z" />
<glyph horiz-adv-x="1107" d="M1096 0h-222l-108 283h-424l-109 -283h-221l439 1161h206zM694 485l-141 346l-139 -346h280z" />
<glyph horiz-adv-x="1540" d="M1466 0h-768v281h-350l-147 -281h-219l602 1161h866v-203h-528v-251h407v-203h-407v-301h544v-203zM698 485v469l-254 -469h254z" />
<glyph horiz-adv-x="1116" d="M610 0h-463v1161h320q92 0 158.5 -6t129 -24.5t100.5 -51t60.5 -87t22.5 -130.5q0 -166 -102 -241q111 -39 161 -104.5t50 -174.5q0 -78 -26 -139.5t-68 -98t-101 -61.5t-117.5 -34t-124.5 -9zM549 983h-191v-289h217q162 0 162 137q0 86 -48 119t-140 33zM598 528h-240 v-348h213q127 0 191.5 39t64.5 133q0 176 -229 176z" />
<glyph horiz-adv-x="1107" d="M688 -23q-268 0 -439 166t-171 439q0 270 172 437t438 167q205 0 348 -70l-22 -198q-182 66 -326 65q-182 0 -279.5 -110.5t-97.5 -290.5q0 -182 98.5 -293t280.5 -111q141 0 324 66l22 -199q-145 -68 -348 -68z" />
<glyph horiz-adv-x="1296" d="M608 0h-461v1161h461q270 0 439.5 -155.5t169.5 -423.5q0 -270 -169.5 -426t-439.5 -156zM608 961h-250v-758h250q184 0 280.5 100t96.5 278.5t-96.5 279t-280.5 100.5z" />
<glyph horiz-adv-x="1019" d="M946 0h-799v1161h781v-203h-563v-251h440v-203h-440v-301h581v-203z" />
<glyph horiz-adv-x="946" d="M905 958h-547v-251h424v-203h-424v-504h-211v1161h758v-203z" />
<glyph horiz-adv-x="1198" d="M680 -23q-264 0 -434 167t-170 438q0 272 172 438t444 166q219 0 369 -68l-23 -200q-172 66 -342 65q-193 0 -290 -108.5t-97 -288.5q0 -186 102.5 -297t301.5 -111q92 0 176 21v209h-150v174h363v-519q-70 -35 -194 -60.5t-228 -25.5z" />
<glyph horiz-adv-x="1327" d="M1180 0h-211v504h-611v-504h-211v1161h211v-452h611v452h211v-1161z" />
<glyph horiz-adv-x="505" d="M358 0h-211v1161h211v-1161z" />
<glyph horiz-adv-x="507" d="M74 -287h-56l-18 158h39q61 0 84.5 31.5t23.5 103.5v1155h213v-1202q1 -246 -286 -246z" />
<glyph horiz-adv-x="1101" d="M1081 0h-235l-436 614l436 547h235l-436 -547zM358 0h-211v1161h211v-1161z" />
<glyph horiz-adv-x="903" d="M881 0h-734v1161h211v-958h523v-203z" />
<glyph horiz-adv-x="1484" d="M1393 0h-222l-108 782l-320 -536l-321 534l-109 -780h-221l170 1161h174l307 -530l306 530h174z" />
<glyph horiz-adv-x="1265" d="M1118 0h-176l-584 803v-803h-211v1161h213l545 -753v753h213v-1161z" />
<glyph horiz-adv-x="1372" d="M686 -23q-266 0 -437 166t-171 439q0 270 171 437t437 167t437 -167t171 -437q0 -272 -171 -438.5t-437 -166.5zM686 983q-182 0 -278.5 -110.5t-96.5 -290.5q0 -182 96.5 -293t278.5 -111t278.5 110.5t96.5 293.5q0 180 -96.5 290.5t-278.5 110.5z" />
<glyph horiz-adv-x="1904" d="M1831 0h-760v92q-182 -115 -387 -115q-266 0 -436 166t-170 439q0 270 170 437t436 167q203 0 387 -117v92h744v-203h-529v-251h408v-203h-408v-301h545v-203zM684 983q-182 0 -278.5 -109.5t-96.5 -292t96.5 -293t278.5 -110.5q180 0 276.5 110.5t96.5 293t-96.5 292 t-276.5 109.5z" />
<glyph horiz-adv-x="1062" d="M592 383h-230v-383h-215v1161h359q131 0 215 -13t154.5 -51t103.5 -112t33 -190q0 -119 -40 -204t-106.5 -128t-134 -61.5t-139.5 -18.5zM547 985h-185v-405h199q127 0 180.5 47t53.5 164q0 104 -53.5 149t-194.5 45z" />
<glyph horiz-adv-x="1372" d="M1288 129l-121 -143l-120 92q-154 -100 -361 -101q-266 0 -437 166t-171 439q0 270 171 437t437 167t437 -167t171 -437q0 -213 -114 -367zM686 983q-182 0 -278.5 -109.5t-96.5 -292t96.5 -293t278.5 -110.5q111 0 197 41l-156 117l121 147l162 -125q55 82 55 224 q0 180 -98.5 290.5t-280.5 110.5z" />
<glyph horiz-adv-x="1120" d="M1079 0h-223l-260 432h-234v-432h-215v1161h439q424 0 424 -334q0 -127 -55.5 -204.5t-157.5 -135.5zM545 987h-183v-356h187q240 0 239 180q0 88 -54 132t-189 44z" />
<glyph horiz-adv-x="1052" d="M508 -23q-268 0 -408 84l27 240q139 -123 387 -123q236 0 236 129q0 35 -17.5 63.5t-39 47t-67.5 38t-77 30t-92 28.5q-74 23 -111 36t-97.5 43t-90 59.5t-53 77.5t-23.5 108q0 61 23.5 119.5t73.5 111.5t140.5 85t208.5 32q115 0 224.5 -28t167.5 -62l-21 -215 q-199 104 -360 104q-96 0 -167 -28.5t-71 -96.5q0 -63 63.5 -98t190.5 -70q80 -23 123 -37t111.5 -45.5t104.5 -67.5t64.5 -95.5t28.5 -133.5q0 -59 -17.5 -109t-63.5 -105.5t-148.5 -88.5t-249.5 -33z" />
<glyph horiz-adv-x="985" d="M950 958h-352v-958h-213v958h-350v203h915v-203z" />
<glyph horiz-adv-x="1292" d="M645 -23q-254 0 -382 138.5t-128 382.5v663h211v-592q0 -186 63.5 -288.5t235.5 -102.5q174 0 236.5 102.5t62.5 288.5v592h213v-663q0 -244 -129 -382.5t-383 -138.5z" />
<glyph horiz-adv-x="1165" d="M1153 1161l-442 -1161h-252l-451 1161h221l355 -885l348 885h221z" />
<glyph horiz-adv-x="1720" d="M1698 1161l-361 -1161h-196l-277 782l-282 -782h-205l-348 1161h223l252 -831l280 831h156l293 -811l244 811h221z" />
<glyph horiz-adv-x="1124" d="M1110 0h-242l-313 428l-297 -428h-242l430 580l-413 581h246l290 -409l281 409h240l-414 -559z" />
<glyph horiz-adv-x="1048" d="M1055 1161l-424 -645v-516h-213v516l-426 645h227l305 -459l305 459h226z" />
<glyph horiz-adv-x="995" d="M969 1161l-590 -958h510v-203h-860l589 958h-509v203h860z" />
</font>
</defs>
</svg>
