<?xml version="1.0" standalone="no"?>
<!DOCTYPE svg PUBLIC "-//W3C//DTD SVG 1.1//EN" "http://www.w3.org/Graphics/SVG/1.1/DTD/svg11.dtd" >
<svg xmlns="http://www.w3.org/2000/svg">
<metadata>
This is a custom SVG webfont generated by Font Squirrel.
Copyright   : Copyright c 2011 by Pablo Impallari wwwimpallaricom Igino Marini wwwikerncom All rights reserved
Designer    : Pablo Impallari
Foundry     : Pablo Impallari wwwimpallaricom Igino Marini wwwikerncom
Foundry URL : wwwimpallaricom
</metadata>
<defs>
<font id="webfonthM1zECXG" horiz-adv-x="1476" >
<font-face units-per-em="2048" ascent="1638" descent="-410" />
<missing-glyph horiz-adv-x="460" />
<glyph unicode=" "  horiz-adv-x="460" />
<glyph unicode="&#x09;" horiz-adv-x="460" />
<glyph unicode="&#xa0;" horiz-adv-x="460" />
<glyph unicode="!" horiz-adv-x="495" d="M528 1536l-241 -1126h-146l154 1126h233zM244 0h-205l35 203h205z" />
<glyph unicode="&#x22;" horiz-adv-x="778" d="M856 1536l-145 -614h-138l72 614h211zM459 1536l-146 -614h-137l72 614h211z" />
<glyph unicode="#" horiz-adv-x="1349" d="M1360 1042l-92 -184h-217l-117 -223h240l-121 -197h-224l-241 -461h-170l241 461h-225l-246 -461h-165l239 461h-223l117 197h213l114 223h-231l90 184h242l207 392h170l-209 -392h229l207 392h168l-207 -392h211zM883 858h-228l-118 -223h229z" />
<glyph unicode="$" horiz-adv-x="1001" d="M487 166l-10 -232h-190l71 230q-219 12 -317 80l70 235q111 -123 331 -123q223 0 224 142q0 55 -53.5 94t-129 64.5t-151.5 55t-129 86t-53 136.5q0 55 21.5 110.5t66.5 108.5t128 92t191 49l12 238h189l-72 -238q190 -12 289 -77l-57 -209q-174 102 -304 102 q-98 0 -168.5 -29.5t-70.5 -97.5q0 -49 55 -84t134 -58.5t157 -55t133 -95t55 -158.5q0 -37 -6 -72.5t-31.5 -86.5t-67.5 -91t-124 -73t-193 -43z" />
<glyph unicode="%" horiz-adv-x="1609" d="M1133 -25q-104 0 -165 77t-61 210q0 209 110.5 343t258.5 134q104 0 165.5 -76.5t61.5 -209.5q0 -209 -106 -343.5t-264 -134.5zM1415 1434l-1053 -1459h-174l1051 1459h176zM371 684q-104 0 -165 76t-61 207q0 211 111 344t258 133q102 0 162.5 -77t60.5 -210 q0 -209 -105 -341t-261 -132zM1251 627q-80 0 -146.5 -99.5t-66.5 -253.5q0 -86 31 -133t84 -47q94 0 155.5 96.5t61.5 247.5q0 88 -33 138.5t-86 50.5zM489 1323q-78 0 -142 -95t-64 -241q0 -84 30.5 -133t79.5 -49q86 0 147.5 94t61.5 238q0 88 -31 137t-82 49z" />
<glyph unicode="&#x26;" horiz-adv-x="1177" d="M1061 0h-234l-53 86q-156 -133 -368 -133q-195 0 -289 88t-94 233q0 137 79.5 250t233.5 226q-86 172 -86 301q0 172 134 280.5t306 108.5q123 0 185.5 -60.5t62.5 -165.5q0 -143 -101.5 -257.5t-263.5 -217.5l236 -374q51 92 100 354h199q-57 -303 -193 -500zM647 1278 q-80 0 -137 -59.5t-57 -163.5q0 -98 53 -205l49 40q37 30 48 40t40 34q29 26 38 38l27 36q18 24 23.5 41t12 39.5t6.5 46.5q-1 113 -103 113zM692 215l-278 418q-174 -145 -174 -328q0 -88 49 -141t160 -53q139 0 243 104z" />
<glyph unicode="'" horiz-adv-x="387" d="M465 1536l-146 -614h-143l72 614h217z" />
<glyph unicode="(" horiz-adv-x="540" d="M334 -279h-189q-84 213 -84 553q0 360 95.5 665.5t308.5 596.5h188q-195 -272 -304 -559t-109 -645q0 -347 94 -611z" />
<glyph unicode=")" horiz-adv-x="542" d="M86 -279h-188q195 272 304 559t109 646q0 346 -94 610h189q84 -221 83 -553q0 -358 -95 -664.5t-308 -597.5z" />
<glyph unicode="*" horiz-adv-x="849" d="M639 864l-123 275l-221 -281l-84 88l258 221l-281 125l93 113l227 -191v320h149l-108 -320l297 191l49 -115l-320 -119l183 -219z" />
<glyph unicode="+" horiz-adv-x="884" d="M768 481h-264l-49 -272h-166l45 272h-264l32 183h267l45 262h168l-47 -262h266z" />
<glyph unicode="," horiz-adv-x="452" d="M229 0l-211 -223l-41 26l95 179l-58 18l35 207h217z" />
<glyph unicode="-" horiz-adv-x="819" d="M680 481h-584l31 183h586z" />
<glyph unicode="." horiz-adv-x="444" d="M221 0h-209l37 207h209z" />
<glyph unicode="/" horiz-adv-x="1040" d="M1116 1434l-981 -1608h-227l981 1608h227z" />
<glyph unicode="0" horiz-adv-x="1384" d="M578 -29q-215 0 -330 150.5t-115 417.5q0 383 218 653t497 270q203 0 320.5 -156.5t117.5 -431.5q0 -375 -206.5 -639t-501.5 -264zM815 1268q-172 0 -315.5 -200t-143.5 -513q0 -387 256 -387q190 0 322.5 192.5t132.5 491.5q0 211 -69.5 313.5t-182.5 102.5z" />
<glyph unicode="1" horiz-adv-x="718" d="M410 0h-224l195 1100q-84 -61 -193 -86l11 196q70 18 161 87t134 137h168z" />
<glyph unicode="2" horiz-adv-x="1024" d="M801 0h-799q457 561 592 767t135 323q0 178 -170 178q-174 0 -336 -201v195q45 63 161 131.5t261 68.5q160 0 231.5 -92t71.5 -223q0 -156 -114.5 -358.5t-413.5 -585.5h416z" />
<glyph unicode="3" horiz-adv-x="1056" d="M334 -29q-117 0 -218.5 39t-121.5 70l90 203q109 -109 278 -109q133 0 225.5 77t92.5 232q0 98 -51 154.5t-180 56.5h-158l51 172h80q317 0 317 250q0 74 -37.5 114t-138.5 40q-154 0 -256 -78l-6 176q41 35 128 64.5t196 29.5q188 0 266 -90t78 -223q0 -203 -203 -354 q137 -78 137 -287q0 -166 -87 -291t-214 -185.5t-268 -60.5z" />
<glyph unicode="4" horiz-adv-x="1105" d="M944 389h-160l-69 -389h-221l69 389h-567l790 1045h183l-152 -856h160zM596 578l86 489l-344 -489h258z" />
<glyph unicode="5" horiz-adv-x="1056" d="M332 -29q-100 0 -202.5 33t-111.5 59l86 201q102 -92 258 -92q135 0 237.5 96.5t102.5 241.5q0 102 -69.5 151.5t-243.5 49.5h-186l209 723h602l-58 -203h-413l-94 -330q252 -4 365.5 -85t113.5 -261q0 -170 -90 -306t-225.5 -207t-280.5 -71z" />
<glyph unicode="6" horiz-adv-x="1101" d="M438 -29q-338 0 -338 402q0 205 86 407.5t206 341t245 225.5t209 87l129 -86q-66 -27 -139.5 -72t-161.5 -117t-164 -179.5t-115 -229.5q90 111 260 110q147 0 239.5 -86t92.5 -250q0 -221 -159 -387t-390 -166zM600 678q-115 0 -202 -87t-87 -220q0 -104 53.5 -155.5 t131.5 -51.5q115 0 196.5 100.5t81.5 222.5q0 78 -41 134.5t-133 56.5z" />
<glyph unicode="7" horiz-adv-x="985" d="M1096 1434l-811 -1434h-230l688 1231h-546l36 203h863z" />
<glyph unicode="8" horiz-adv-x="1173" d="M467 -29q-199 0 -293 101.5t-94 249.5q0 266 297 448q-96 111 -96 268q0 76 23.5 145.5t73.5 134t144 103.5t219 39q334 0 334 -286q0 -111 -55 -192t-195 -189q197 -94 197 -312q0 -188 -150.5 -349t-404.5 -161zM702 1276q-113 0 -170 -62.5t-57 -152.5 q0 -135 146 -197q127 39 184 114t57 159q0 139 -160 139zM606 688q-125 -25 -216 -114t-91 -224q0 -190 199 -190q129 0 215 82t86 202q0 187 -193 244z" />
<glyph unicode="9" horiz-adv-x="1114" d="M713 1462q334 0 334 -413q0 -211 -80 -412t-196 -336t-243 -218t-223 -83l-133 86q70 27 145.5 71t166.5 115.5t164 177t104 224.5q-47 -49 -127 -76t-144 -27q-147 0 -236 85t-89 249q0 227 159.5 392t397.5 165zM547 756q115 0 203 88t88 223q0 102 -52.5 152.5 t-128.5 50.5q-121 0 -200.5 -102.5t-79.5 -223.5q0 -78 40 -133t130 -55z" />
<glyph unicode=":" horiz-adv-x="444" d="M344 694h-211l39 207h209zM221 0h-209l37 207h209z" />
<glyph unicode=";" horiz-adv-x="468" d="M369 694h-234l37 207h231zM229 -2l-211 -221l-41 26l95 179l-58 18l35 207h217z" />
<glyph unicode="&#x3c;" horiz-adv-x="829" d="M631 160h-240l-328 422l478 422h239l-477 -422z" />
<glyph unicode="=" horiz-adv-x="968" d="M840 645h-697l29 168h698zM782 322h-696l29 167h698z" />
<glyph unicode="&#x3e;" horiz-adv-x="831" d="M762 582l-477 -422h-240l477 422l-327 422h239z" />
<glyph unicode="?" horiz-adv-x="862" d="M424 410h-139q8 90 10 98q16 90 78.5 184t127 160t116 158t51.5 184q0 90 -49.5 137t-124.5 47q-78 0 -149 -42t-116 -95l-22 156q53 63 141 101t182 38q164 0 249 -102.5t85 -231.5q0 -80 -40 -162t-99 -152l-119 -140q-60 -68 -111 -145t-63 -148zM387 0h-209l35 203 h211z" />
<glyph unicode="@" horiz-adv-x="1384" d="M1073 776q-80 109 -211 109q-125 0 -263 -95.5t-231.5 -244t-93.5 -289.5q0 -76 34 -125t104 -49q88 0 196.5 63.5t186.5 173.5l-9 -25q-6 -18 -10 -39.5t-4 -45.5q0 -123 84 -123q51 0 133 40t135 91q-121 -178 -307 -286.5t-381 -108.5q-184 0 -285.5 109.5 t-101.5 304.5q0 180 75 348t195.5 286.5t276.5 190.5t313 72q188 0 289.5 -110t101.5 -302.5t-94 -360t-260 -167.5q-33 0 -49 13t-16 56q0 55 22.5 118.5t78.5 186.5t91 209zM858 760q68 0 76 -45q-55 -166 -198.5 -332t-235.5 -166q-66 0 -66 94q0 168 148.5 308.5 t275.5 140.5z" />
<glyph unicode="A" horiz-adv-x="1189" d="M1075 0h-229l-51 373h-465l-183 -373h-227l723 1434h213zM758 575l-66 537l-254 -537h320z" />
<glyph unicode="B" horiz-adv-x="1191" d="M543 0h-488l252 1434h336q236 0 341.5 -59.5t105.5 -237.5q0 -213 -172 -373q94 -45 134 -110.5t40 -180.5q0 -137 -50.5 -234.5t-136.5 -146.5t-174 -70.5t-188 -21.5zM688 1243h-196l-70 -399h229q223 0 223 241q0 94 -40 126t-146 32zM651 657h-262l-82 -464h217 q168 0 254 56t86 208q0 104 -48 152t-165 48z" />
<glyph unicode="C" horiz-adv-x="1179" d="M637 -29q-252 0 -398.5 163t-146.5 450q0 375 235.5 626.5t567.5 251.5q209 0 356 -84l-59 -204q-193 86 -326 86q-244 0 -389 -195t-145 -467q0 -197 86 -310.5t260 -113.5q121 0 352 84l-14 -205q-178 -82 -379 -82z" />
<glyph unicode="D" horiz-adv-x="1394" d="M547 0h-492l252 1434h492q250 0 396 -155t146 -439q0 -367 -230 -603.5t-564 -236.5zM764 1231h-275l-182 -1028h275q242 0 381 179t139 443q0 195 -85 300.5t-253 105.5z" />
<glyph unicode="E" horiz-adv-x="1081" d="M903 0h-848l252 1434h832l-37 -203h-608l-68 -381h475l-35 -203h-475l-80 -444h627z" />
<glyph unicode="F" horiz-adv-x="1013" d="M1081 1231h-592l-67 -381h457l-35 -203h-457l-115 -647h-217l252 1434h811z" />
<glyph unicode="G" horiz-adv-x="1290" d="M625 -29q-244 0 -388.5 164t-144.5 451q0 375 233.5 625.5t569.5 250.5q100 0 208.5 -23.5t174.5 -58.5l-57 -198q-174 78 -351 78q-172 0 -296.5 -97.5t-183 -244t-58.5 -314.5q0 -201 92 -315.5t272 -114.5q109 0 201 33l57 321h-168l33 191h387l-112 -639 q-84 -45 -221 -77t-248 -32z" />
<glyph unicode="H" horiz-adv-x="1427" d="M1159 0h-217l113 645h-668l-115 -645h-217l252 1434h217l-102 -580h670l102 580h219z" />
<glyph unicode="I" horiz-adv-x="542" d="M274 0h-219l252 1434h219z" />
<glyph unicode="J" horiz-adv-x="540" d="M-96 -352h-56l7 143h34q74 0 110 47t56 160l254 1436h217l-264 -1493q-25 -143 -116.5 -218t-241.5 -75z" />
<glyph unicode="K" horiz-adv-x="1165" d="M1042 0h-241l-338 760l590 674h241l-592 -674zM272 0h-217l252 1434h217z" />
<glyph unicode="L" horiz-adv-x="972" d="M838 0h-783l252 1434h217l-217 -1231h567z" />
<glyph unicode="M" horiz-adv-x="1581" d="M1376 0h-229l65 1020l-469 -694l-227 694l-297 -1020h-227l432 1434h194l197 -691l438 691h195z" />
<glyph unicode="N" horiz-adv-x="1357" d="M1090 0h-181l-444 1081l-193 -1081h-217l252 1434h221l418 -1022l178 1022h219z" />
<glyph unicode="O" d="M635 -29q-252 0 -397.5 162t-145.5 449q0 375 232.5 627.5t560.5 252.5q250 0 395 -161.5t145 -448.5q0 -375 -233 -628t-557 -253zM848 1260q-231 0 -373.5 -198t-142.5 -466q0 -193 84 -307.5t254 -114.5q231 0 373.5 197.5t142.5 466.5q0 195 -84 308.5t-254 113.5z " />
<glyph unicode="P" horiz-adv-x="1136" d="M618 492h-253l-89 -492h-221l252 1434h393q121 0 199 -13.5t140.5 -50.5t91 -108.5t28.5 -186.5q0 -125 -36 -228.5t-93 -168t-131 -107.5t-143.5 -61t-137.5 -18zM696 1243h-198l-99 -553h222q311 0 311 348q0 111 -48.5 158t-187.5 47z" />
<glyph unicode="Q" d="M1298 139l-149 -141l-107 113q-190 -139 -413 -140q-246 0 -391.5 163t-145.5 448q0 373 232.5 626.5t558.5 253.5q254 0 398 -162.5t144 -441.5q0 -313 -225 -616zM850 1260q-233 0 -375.5 -198t-142.5 -468q0 -195 84 -307.5t254 -112.5q137 0 233 70l-147 162l149 145 l150 -166q66 109 101.5 208t35.5 236q0 203 -85 317t-257 114z" />
<glyph unicode="R" horiz-adv-x="1191" d="M1044 0h-229l-182 551h-258l-99 -551h-221l252 1434h463q393 0 393 -332q0 -170 -87 -295t-228 -199zM705 1255h-205l-90 -497h219q143 0 222 74.5t79 220.5q0 102 -49 152t-176 50z" />
<glyph unicode="S" horiz-adv-x="1124" d="M430 -29q-281 0 -418 97l72 251q53 -59 153.5 -102t229.5 -43q137 0 222 55.5t85 165.5q0 96 -64.5 147.5t-207.5 106.5l-98 39q-31 12 -88.5 44t-84 62.5t-50 81t-23.5 111.5q0 76 31.5 155t94 152.5t175 120.5t256.5 47q125 0 236.5 -31.5t162.5 -70.5l-61 -227 q-215 129 -359 129q-113 0 -207 -54.5t-94 -158.5q0 -76 56.5 -119t179.5 -88q80 -29 115.5 -43.5t100 -50t95.5 -72.5t56.5 -97.5t25.5 -136.5q0 -88 -30.5 -166.5t-95.5 -149.5t-184.5 -113t-281.5 -42z" />
<glyph unicode="T" horiz-adv-x="1114" d="M1149 1231h-377l-217 -1231h-217l217 1231h-379l37 203h973z" />
<glyph unicode="U" horiz-adv-x="1386" d="M584 -29q-225 0 -339 118t-114 335q0 84 19 186l145 824h217l-129 -732q-25 -137 -25 -221q2 -145 61.5 -226t198.5 -81q100 0 175 42t122.5 121t76 165t48.5 200l129 732h217l-145 -824q-53 -301 -220 -470t-437 -169z" />
<glyph unicode="V" horiz-adv-x="1247" d="M1370 1434l-733 -1434h-254l-233 1434h227l180 -1174l586 1174h227z" />
<glyph unicode="W" horiz-adv-x="1851" d="M1970 1434l-639 -1434h-207l-106 1100l-500 -1100h-215l-119 1434h230l69 -1133l508 1114h166l119 -1104l467 1123h227z" />
<glyph unicode="X" horiz-adv-x="1187" d="M1069 0h-246l-243 567l-422 -567h-246l575 733l-307 701h252l217 -551l412 551h244l-570 -705z" />
<glyph unicode="Y" horiz-adv-x="1155" d="M1280 1434l-590 -781l-115 -653h-221l115 653l-315 781h231l233 -588l433 588h229z" />
<glyph unicode="Z" horiz-adv-x="1052" d="M1176 1434l-863 -1231h561l-36 -203h-920l862 1231h-559l35 203h920z" />
<glyph unicode="[" horiz-adv-x="641" d="M473 -276h-485l319 1812h486l-31 -168h-293l-260 -1477h293z" />
<glyph unicode="\" horiz-adv-x="1026" d="M850 -174h-223l-414 1608h223z" />
<glyph unicode="]" horiz-adv-x="653" d="M354 -276h-485l35 198h293l249 1413h-292l34 201h486z" />
<glyph unicode="^" horiz-adv-x="962" d="M1024 868l-313 441l-465 -441l43 246l467 440l309 -440z" />
<glyph unicode="_" horiz-adv-x="1064" d="M909 -256h-1056l32 182h1055z" />
<glyph unicode="`" horiz-adv-x="571" d="M676 1212l-330 129l31 170l319 -190z" />
<glyph unicode="a" horiz-adv-x="1134" d="M1038 1010l-120 -707q-8 -43 -9 -78q0 -47 20.5 -62.5t78.5 -15.5l-54 -167q-123 0 -176 24.5t-80 112.5q-123 -137 -305 -137q-160 0 -256 120.5t-96 307.5q0 246 155.5 434t393.5 188q156 0 225 -106l35 86h188zM569 850q-133 0 -222 -125t-89 -299q0 -121 50 -193.5 t151 -72.5q133 0 220 119.5t87 298.5q0 272 -197 272z" />
<glyph unicode="b" horiz-adv-x="1093" d="M475 -20q-154 0 -237 122l-29 -102h-193l271 1536h211l-109 -614q105 108 261 108h3q176 0 270.5 -121t94.5 -307q0 -250 -158 -436t-385 -186zM600 850q-133 0 -219 -125t-86 -305q0 -260 188 -260q137 0 227.5 125t90.5 297q0 123 -50.5 195.5t-150.5 72.5z" />
<glyph unicode="c" horiz-adv-x="866" d="M436 -20q-203 0 -298 117.5t-95 312.5q0 256 153.5 438t421.5 182q166 0 259 -65l-56 -185q-104 70 -223 70q-160 0 -250 -119t-90 -301q0 -272 221 -272q119 0 246 69l-8 -172q-123 -75 -281 -75z" />
<glyph unicode="d" horiz-adv-x="1093" d="M864 0h-194l8 102q-126 -122 -275 -122h-2q-166 0 -263 119.5t-97 308.5q0 246 156.5 434t394.5 188q156 0 225 -106l109 612h209zM571 850q-135 0 -224 -125t-89 -299q0 -121 50 -193.5t153 -72.5q133 0 219 119.5t86 298.5q0 272 -195 272z" />
<glyph unicode="e" horiz-adv-x="960" d="M909 760q0 -147 -120.5 -242.5t-352.5 -95.5q-100 0 -172 16q2 -278 250 -278h2q152 0 291 67l-14 -170q-162 -77 -322 -77h-4q-209 0 -317.5 121.5t-108.5 314.5q0 246 157.5 430t399.5 184q150 0 230.5 -73.5t80.5 -196.5zM584 850q-102 0 -180 -74t-119 -198 q98 -16 125 -17q168 0 241.5 53.5t73.5 126.5q0 57 -42 83t-99 26z" />
<glyph unicode="f" horiz-adv-x="643" d="M651 844h-223l-149 -844h-209l149 844h-143l49 166h123l43 252q49 274 309 274q51 0 164 -23l-53 -174q-55 16 -95 17q-63 0 -87.5 -40t-49.5 -177l-22 -129h225z" />
<glyph unicode="g" horiz-adv-x="958" d="M305 -512q-201 0 -298 79t-97 183q0 74 50 147.5t153 120.5q-66 43 -66 115q0 100 127 164q-100 102 -100 266q0 186 127 326.5t329 140.5q131 0 213 -69q92 53 220 53h43l-41 -135h-70q-29 0 -76 -11q33 -72 33 -172q0 -182 -127 -323.5t-326 -141.5q-57 0 -112 17 q-39 -25 -39 -57.5t51 -50t186 -42.5q51 -10 85 -18t85.5 -28.5t83 -46t55 -68.5t23.5 -97q0 -143 -141.5 -247.5t-370.5 -104.5zM502 868q-106 0 -171 -85t-65 -205q0 -188 158 -189q104 0 169.5 88t65.5 209q0 182 -157 182zM618 -190q0 43 -41.5 71.5t-90 39.5t-122 24.5 t-100.5 21.5q-70 -25 -119 -75t-49 -109q0 -61 60.5 -100t169.5 -39q125 0 208.5 50t83.5 116z" />
<glyph unicode="h" horiz-adv-x="1056" d="M838 0h-209q109 625 108 672q0 94 -37.5 136t-119.5 42q-133 0 -224 -117l-129 -733h-211l271 1536h211l-109 -614q114 108 251 108h3q156 0 230.5 -89t74.5 -249q1 -76 -110 -692z" />
<glyph unicode="i" horiz-adv-x="456" d="M442 1212h-211l39 222h209zM227 0h-209l177 1010h211z" />
<glyph unicode="j" horiz-adv-x="454" d="M-98 -489l-74 -7l8 164q80 6 107.5 40t48.5 151l203 1151h208l-217 -1231q-42 -248 -284 -268zM440 1212h-209l39 222h209z" />
<glyph unicode="k" horiz-adv-x="909" d="M227 0h-211l271 1536h211l-172 -967l393 441h244l-443 -471l266 -539h-241l-232 492z" />
<glyph unicode="l" horiz-adv-x="501" d="M379 147l-51 -167h-74q-104 0 -153.5 53t-49.5 139q0 33 236 1364h209q-225 -1284 -226 -1313q0 -47 24 -61.5t85 -14.5z" />
<glyph unicode="m" horiz-adv-x="1662" d="M1444 0h-209q113 641 113 684q0 88 -37 127t-115 39q-121 0 -180.5 -72.5t-75.5 -177.5l-104 -600h-209q111 625 110 684q0 166 -157 166q-139 0 -224 -115l-129 -735h-211l179 1010h167v-97q123 117 275 117q207 0 266 -186q49 84 141.5 135t215.5 51q150 0 225.5 -79 t75.5 -228q0 -59 -117 -723z" />
<glyph unicode="n" horiz-adv-x="1069" d="M850 0h-211q109 612 109 672q0 92 -39 135t-123 43q-145 0 -230 -117l-129 -733h-211l179 1010h180v-90q120 110 273 110h3q309 0 310 -330q0 -71 -111 -700z" />
<glyph unicode="o" horiz-adv-x="1079" d="M436 -20q-193 0 -294 119.5t-101 310.5q0 250 162 435t405 185q193 0 294.5 -121t101.5 -311q0 -250 -163 -434t-405 -184zM580 850q-143 0 -233.5 -122t-90.5 -302q0 -266 209 -266q143 0 232 121.5t89 305.5q0 263 -206 263z" />
<glyph unicode="p" horiz-adv-x="1093" d="M481 -20q-160 0 -239 120l-105 -596h-209l267 1506h174v-113q133 133 282 133q176 0 270.5 -121t94.5 -307q0 -250 -151 -436t-384 -186zM600 850q-135 0 -221 -124t-86 -304q0 -262 190 -262q137 0 226.5 126t89.5 300q0 123 -49.5 193.5t-149.5 70.5z" />
<glyph unicode="q" horiz-adv-x="1095" d="M406 -20q-178 0 -271.5 115.5t-93.5 301.5q0 252 154.5 442.5t390.5 190.5q88 0 142 -32.5t99 -100.5l39 113h176l-264 -1506h-211l107 596q-121 -120 -268 -120zM575 850q-137 0 -226 -124t-89 -300q0 -123 49 -194.5t150 -71.5q135 0 221 121.5t86 302.5 q-1 266 -191 266z" />
<glyph unicode="r" horiz-adv-x="651" d="M719 1040l-78 -215h-78q-57 0 -116.5 -36.5t-90.5 -83.5l-125 -705h-213l177 1010h190l-16 -146q154 176 307 176h43z" />
<glyph unicode="s" horiz-adv-x="817" d="M287 -20q-201 0 -310 83l56 191q39 -37 114.5 -69.5t159.5 -32.5q92 0 136 39.5t44 99.5q0 41 -25.5 71.5t-51 42t-74.5 27.5q-55 18 -88 31.5t-72 41t-57.5 69.5t-18.5 100q0 135 99.5 245.5t304.5 110.5q170 0 270 -69l-53 -185q-33 39 -95.5 67.5t-133.5 28.5 q-80 0 -134.5 -36.5t-54.5 -106.5q0 -59 41 -86t145 -59q45 -14 77 -30.5t67 -44.5t52 -73t17 -106q0 -59 -18 -114.5t-60 -112t-129 -90t-208 -33.5z" />
<glyph unicode="t" horiz-adv-x="649" d="M524 147l-49 -167h-162q-106 0 -156.5 55t-50.5 141q0 33 113 668h-143l47 166h125l43 241l213 21l-47 -262h221l-29 -166h-221q-104 -592 -104 -621q0 -49 28.5 -62.5t114.5 -13.5h57z" />
<glyph unicode="u" horiz-adv-x="1042" d="M813 0h-192l6 94q-114 -114 -259 -114h-3q-145 0 -220 79.5t-75 233.5q0 68 114 717h209q-109 -623 -108 -666q0 -184 157 -184q123 0 207 104l133 746h209z" />
<glyph unicode="v" horiz-adv-x="925" d="M983 1010l-534 -1010h-197l-180 1010h215l106 -768l377 768h213z" />
<glyph unicode="w" horiz-adv-x="1382" d="M1425 1010l-454 -1010h-195l-65 717l-322 -717h-192l-99 1010h217l31 -770l318 743h186l53 -743l305 770h217z" />
<glyph unicode="x" horiz-adv-x="927" d="M797 0h-246l-139 360l-246 -360h-244l400 506l-218 504h244l125 -369l248 369h250l-414 -514z" />
<glyph unicode="y" horiz-adv-x="983" d="M1042 1010l-845 -1506h-217l307 549l-221 957h233l133 -715l377 715h233z" />
<glyph unicode="z" horiz-adv-x="903" d="M928 1010l-594 -838h430l-33 -172h-790l594 840h-426l28 170h791z" />
<glyph unicode="{" horiz-adv-x="598" d="M63 -25q0 55 42 208t42 229q0 141 -106 217q90 51 135 118.5t66 182.5q8 47 19 148.5t18 140.5q27 154 134 233.5t330 83.5l-30 -170q-168 -2 -215 -60.5t-84 -267.5q-6 -29 -14 -87l-11 -87q-14 -76 -47 -129t-113 -106q86 -72 86 -166q0 -51 -34.5 -173t-34.5 -227 q0 -96 44 -131.5t165 -40.5l-31 -167q-188 2 -274.5 65t-86.5 186z" />
<glyph unicode="|" horiz-adv-x="464" d="M141 -428h-180l346 1964h180z" />
<glyph unicode="}" horiz-adv-x="595" d="M326 39q-29 -156 -137.5 -233.5t-327.5 -81.5l30 167q61 2 101.5 7.5t72 25t48 36.5t32 63.5t23.5 82t22 115.5q6 37 14 99l13 92q12 70 45 118t115 99q-86 70 -86 178q0 31 33.5 153.5t33.5 235.5q0 96 -43 131t-163 39l28 170q193 -4 277 -68.5t84 -185.5 q0 -55 -41 -206.5t-41 -227.5q0 -145 104 -219q-92 -51 -136 -120t-65 -179q-8 -49 -19 -150.5t-17 -140.5z" />
<glyph unicode="~" horiz-adv-x="911" d="M545 365q-47 0 -121 49t-105 49q-84 0 -124 -98l-119 24q31 94 104.5 143.5t149.5 49.5q55 0 122.5 -47.5t98.5 -47.5q88 0 135 103l109 -27q-31 -88 -98.5 -143t-151.5 -55z" />
<glyph unicode="&#xa1;" horiz-adv-x="487" d="M-70 -512l244 1126h143l-153 -1126h-234zM215 1024h207l-37 -203h-207z" />
<glyph unicode="&#xa2;" horiz-adv-x="917" d="M502 180l-13 -243h-163l75 243q-156 25 -236.5 142.5t-80.5 285.5q0 238 137 421t371 214l16 289h162l-84 -289q145 -8 232 -67l-52 -181q-102 74 -229 74q-141 0 -234.5 -131t-93.5 -309q0 -121 53.5 -197t151.5 -76q125 0 252 72l-10 -180q-104 -58 -254 -68z" />
<glyph unicode="&#xa3;" horiz-adv-x="989" d="M995 1255l-94 -94q-14 76 -38.5 111t-92.5 35q-96 0 -140 -77t-73 -237l-35 -196h355l-56 -140h-329q-35 -143 -74 -244.5t-115 -242.5h485l-28 -170h-797q221 244 332 657h-172l55 140h150l43 241q14 86 36.5 149.5t63.5 127t112.5 97.5t170.5 34q221 -1 241 -191z" />
<glyph unicode="&#xa4;" horiz-adv-x="1216" d="M1006 121l-103 -68l-108 207q-121 -72 -260 -72q-141 0 -236 72l-180 -207l-78 68l174 205q-76 127 -76 292q0 266 215 482l-104 205l102 67l107 -207q125 72 260 72t235 -74l183 209l77 -67l-178 -207q78 -119 78 -293q0 -260 -215 -481zM690 1081q-147 0 -241.5 -135 t-94.5 -321q0 -125 53.5 -203t155.5 -78q147 0 241.5 135t94.5 322q0 125 -54.5 202.5t-154.5 77.5z" />
<glyph unicode="&#xa5;" horiz-adv-x="1325" d="M1405 1434l-606 -772h291l-68 -115h-266l-23 -133h311l-65 -121h-268l-52 -293h-217l50 293h-320l66 121h276l25 133h-322l64 115h256l-334 772h221l272 -607l486 607h223z" />
<glyph unicode="&#xa6;" horiz-adv-x="458" d="M315 614h-168l162 922h166zM129 -430h-166l139 782h166z" />
<glyph unicode="&#xa7;" horiz-adv-x="894" d="M594 383q59 -74 59 -170q0 -63 -19.5 -126.5t-61.5 -123t-120.5 -97.5t-183.5 -38q-80 0 -153.5 23.5t-102.5 56.5l49 160q109 -90 228 -91q90 0 149.5 44.5t59.5 134.5q0 59 -42 98t-101.5 62.5t-119 53t-101.5 90t-42 152.5q0 129 60.5 227.5t179.5 141.5 q-63 72 -64 170q0 61 19.5 124.5t60.5 124t121 98.5t184 38q78 0 153 -25.5t105 -56.5l-47 -160q-117 94 -229 95q-82 0 -142.5 -51.5t-60.5 -129.5q0 -55 41 -93t99.5 -64.5t117 -59.5t99 -95t40.5 -153q0 -109 -54 -207t-181 -153zM440 877q-53 -2 -114.5 -51.5 t-61.5 -141.5q0 -137 230 -215q57 14 110 77.5t53 133.5q0 142 -217 197z" />
<glyph unicode="&#xa8;" horiz-adv-x="796" d="M848 1225h-164l37 209h164zM543 1225h-164l39 209h162z" />
<glyph unicode="&#xa9;" horiz-adv-x="1386" d="M600 76q-219 0 -350 148.5t-131 393.5q0 346 210 573.5t509 227.5q219 0 350 -147.5t131 -392.5q0 -346 -210 -574.5t-509 -228.5zM819 1309q-266 0 -419.5 -200t-153.5 -488q0 -197 95 -317t280 -120q264 0 416.5 201t152.5 487q0 197 -94.5 317t-276.5 120zM674 399 q-115 0 -183.5 75t-68.5 202q0 180 108.5 297t266.5 117q98 0 176 -41l-43 -142q-86 43 -160 43q-86 0 -138 -74.5t-52 -181.5q0 -158 118 -157q72 0 176 45l-10 -140q-79 -43 -190 -43z" />
<glyph unicode="&#xaa;" horiz-adv-x="694" d="M690 1030l-35 -141h-82q-33 0 -66.5 16.5t-43.5 38.5q-57 -55 -184 -55q-55 0 -93.5 38t-38.5 105.5t41 118.5t103.5 75.5t112 36t90.5 13.5q-4 37 -18.5 53.5t-53.5 16.5q-66 0 -170 -37l12 137q123 43 232 43q78 0 129 -38t51 -110q0 -39 -37 -237q-4 -37 -4 -43 q0 -31 29 -31h26zM453 1034l22 129q-20 -2 -49 -10t-60.5 -33.5t-31.5 -62.5q0 -45 55 -45q29 -1 64 22z" />
<glyph unicode="&#xab;" horiz-adv-x="1138" d="M979 160h-244l-209 422l359 422h243l-358 -422zM489 160h-245l-207 422l356 422h244l-356 -422z" />
<glyph unicode="&#xac;" horiz-adv-x="1138" d="M940 309h-149l65 375h-717l27 147h866z" />
<glyph unicode="&#xad;" horiz-adv-x="821" d="M680 471h-586l35 193h586z" />
<glyph unicode="&#xae;" horiz-adv-x="1386" d="M600 76q-219 0 -350 148.5t-131 393.5q0 346 210 573.5t509 227.5q219 0 350 -147.5t131 -392.5q0 -346 -210 -574.5t-509 -228.5zM819 1311q-264 0 -417.5 -201t-153.5 -487q0 -199 94 -320t279 -121q176 0 308 98.5t196.5 253t64.5 340.5q0 197 -94.5 317t-276.5 120z M928 426h-154l-78 236h-75l-41 -236h-148l117 666h235q186 0 187 -162q0 -141 -133 -228zM737 973h-59l-33 -180h57q113 0 113 116q0 64 -78 64z" />
<glyph unicode="&#xb0;" horiz-adv-x="645" d="M387 987q-98 0 -151.5 63.5t-53.5 163.5q0 135 86 233.5t217 98.5q98 0 152.5 -64.5t54.5 -164.5q0 -135 -86 -232.5t-219 -97.5zM473 1475q-76 0 -128 -80t-52 -178q0 -70 27.5 -114t78.5 -44q80 0 130.5 77.5t50.5 180.5q0 68 -27 113t-80 45z" />
<glyph unicode="&#xb1;" horiz-adv-x="956" d="M842 657h-273l-49 -282h-155l51 282h-273l27 156h270l52 277h155l-49 -277h270zM739 78h-698l29 155h696z" />
<glyph unicode="&#xb2;" horiz-adv-x="600" d="M539 655h-482q252 295 327 407t75 175q0 78 -68 78q-61 0 -115.5 -44t-80.5 -85v147q33 43 100 78t149 35q94 0 135.5 -49t41.5 -121q0 -78 -56.5 -179.5t-193.5 -277.5h196z" />
<glyph unicode="&#xb3;" horiz-adv-x="600" d="M252 639q-63 0 -123.5 21.5t-69.5 39.5l68 152q0 -18 49 -33.5t94 -15.5q154 0 154 121q0 90 -86 90h-117l37 125h59q72 0 102 30.5t30 71.5q0 68 -87 68q-88 0 -129 -31l-4 117q25 18 78 34.5t101 16.5q115 0 161.5 -52.5t46.5 -123.5q0 -59 -25.5 -109.5t-55.5 -75.5 q51 -80 51 -147q0 -139 -101.5 -219t-232.5 -80z" />
<glyph unicode="&#xb4;" horiz-adv-x="571" d="M698 1341l-374 -129l18 109l387 190z" />
<glyph unicode="&#xb5;" horiz-adv-x="1171" d="M1004 147l-54 -167h-71q-145 0 -181 135q-125 -135 -264 -135q-109 0 -172 61l-94 -537h-209l266 1506h207l-92 -535q-14 -74 -14 -137q2 -90 39.5 -134t119.5 -44q119 0 211 106l133 744h207l-116 -660q-12 -80 -13 -127q0 -76 62 -76h35z" />
<glyph unicode="&#xb6;" horiz-adv-x="1196" d="M1219 1268h-134l-225 -1268h-137l223 1268h-143l-223 -1268h-111l86 487q-211 14 -319.5 132t-108.5 280q0 207 171 371t460 164h491z" />
<glyph unicode="&#xb7;" horiz-adv-x="471" d="M324 436h-236l47 266h236z" />
<glyph unicode="&#xb8;" horiz-adv-x="569" d="M532 -109l-227 -272l-121 -14l178 272z" />
<glyph unicode="&#xb9;" horiz-adv-x="438" d="M322 655h-166l96 543q-35 -18 -86 -22l16 133q31 4 81 44t65 77h131z" />
<glyph unicode="&#xba;" horiz-adv-x="731" d="M414 889q-117 0 -182.5 72.5t-65.5 181.5q0 137 100.5 241.5t253.5 104.5q119 0 183.5 -71.5t64.5 -180.5q0 -137 -100 -242.5t-254 -105.5zM496 1356q-66 0 -109 -60.5t-43 -144.5q0 -57 24.5 -92t69.5 -35q66 0 109 60.5t43 144.5q0 55 -24.5 91t-69.5 36z" />
<glyph unicode="&#xbb;" horiz-adv-x="1140" d="M1098 582l-357 -422h-243l356 422l-209 422h244zM608 582l-358 -422h-244l359 422l-209 422h243z" />
<glyph unicode="&#xbc;" horiz-adv-x="1394" d="M350 655h-166l97 543q-35 -18 -86 -22l16 133q31 4 81 44t64 77h131zM1198 1434l-981 -1608h-227l981 1608h227zM1255 211h-94l-37 -211h-166l39 211h-329l450 563h144l-78 -436h94zM1020 338l35 201l-152 -201h117z" />
<glyph unicode="&#xbd;" horiz-adv-x="1398" d="M1194 1434l-981 -1608h-227l981 1608h227zM1221 0h-482q252 295 327 406.5t75 175.5q0 78 -68 77q-61 0 -115.5 -44t-80.5 -85v148q33 43 100 78t149 35q94 0 135.5 -49.5t41.5 -120.5q0 -78 -56.5 -179.5t-193.5 -277.5h196zM346 655h-166l96 543q-35 -18 -86 -22 l17 133q31 4 81 44t64 77h131z" />
<glyph unicode="&#xbe;" horiz-adv-x="1708" d="M1505 1434l-981 -1608h-227l981 1608h227zM276 639q-63 0 -123.5 21.5t-68.5 39.5l68 152q0 -18 49 -33.5t94 -15.5q154 0 154 121q0 90 -87 90h-116l37 125h59q72 0 101.5 30.5t29.5 71.5q0 68 -86 68q-88 0 -129 -31l-4 117q25 18 78 34.5t100 16.5q115 0 162 -52.5 t47 -123.5q0 -59 -25.5 -109.5t-56.5 -75.5q51 -80 51 -147q0 -139 -101.5 -219t-232.5 -80zM1567 211h-94l-37 -211h-166l39 211h-330l451 563h143l-78 -436h94zM1331 338l35 201l-152 -201h117z" />
<glyph unicode="&#xbf;" horiz-adv-x="860" d="M420 614h139q-8 -90 -10 -98q-16 -90 -78.5 -184t-127 -160t-116 -158t-51.5 -184q0 -90 49 -137t125 -47q78 0 148.5 42t115.5 95l23 -156q-53 -63 -142 -101t-184 -38q-162 0 -246.5 102.5t-84.5 231.5q0 80 40 162q38 82 98 152l120 140q60 68 110.5 145t63.5 148z M455 1024h211l-35 -203h-211z" />
<glyph unicode="&#xc0;" horiz-adv-x="1189" d="M1075 0h-229l-51 373h-465l-183 -373h-227l723 1434h213zM758 575l-66 537l-254 -537h320zM961 1636l-330 129l31 170l319 -190z" />
<glyph unicode="&#xc1;" horiz-adv-x="1189" d="M1075 0h-229l-51 373h-465l-183 -373h-227l723 1434h213zM758 575l-66 537l-254 -537h320zM985 1765l-375 -129l19 109l387 190z" />
<glyph unicode="&#xc2;" horiz-adv-x="1189" d="M1075 0h-229l-51 373h-465l-183 -373h-227l723 1434h213zM758 575l-66 537l-254 -537h320zM1065 1647l-248 159l-307 -159l18 100l314 207l241 -207z" />
<glyph unicode="&#xc3;" horiz-adv-x="1189" d="M1075 0h-229l-51 373h-465l-183 -373h-227l723 1434h213zM758 575l-66 537l-254 -537h320zM920 1651q-49 0 -123 49t-105 49q-80 0 -125 -98l-116 24q31 96 104.5 145.5t149.5 49.5q53 0 121.5 -48t99.5 -48q86 0 133 102l108 -27q-31 -88 -97 -143t-150 -55z" />
<glyph unicode="&#xc4;" horiz-adv-x="1189" d="M1075 0h-229l-51 373h-465l-183 -373h-227l723 1434h213zM758 575l-66 537l-254 -537h320zM1022 1649h-164l37 209h164zM717 1649h-164l39 209h162z" />
<glyph unicode="&#xc5;" horiz-adv-x="1189" d="M1075 0h-229l-51 373h-465l-183 -373h-227l723 1434h213zM758 575l-66 537l-254 -537h320zM780 1604q-80 0 -124 44t-44 109q0 84 65.5 148.5t166.5 64.5q80 0 124 -45t44 -110q0 -86 -65 -148.5t-167 -62.5zM831 1894q-47 0 -80.5 -36.5t-33.5 -92.5q0 -41 20.5 -64.5 t55.5 -23.5q47 0 81.5 36t34.5 93q0 39 -21.5 63.5t-56.5 24.5z" />
<glyph unicode="&#xc6;" horiz-adv-x="1654" d="M1477 0h-822l64 360h-379l-225 -360h-224l897 1434h924l-37 -205h-569l-66 -379h439l-37 -203h-438l-78 -444h587zM756 571l114 654l-395 -654h281z" />
<glyph unicode="&#xc7;" horiz-adv-x="1179" d="M637 -29q-252 0 -398.5 163t-146.5 450q0 375 235.5 626.5t567.5 251.5q209 0 356 -84l-59 -204q-193 86 -326 86q-244 0 -389 -195t-145 -467q0 -197 86 -310.5t260 -113.5q121 0 352 84l-14 -205q-178 -82 -379 -82zM618 -109l-227 -272l-121 -14l179 272z" />
<glyph unicode="&#xc8;" horiz-adv-x="1081" d="M903 0h-848l252 1434h832l-37 -203h-608l-68 -381h475l-35 -203h-475l-80 -444h627zM889 1636l-330 129l31 170l319 -190z" />
<glyph unicode="&#xc9;" horiz-adv-x="1081" d="M903 0h-848l252 1434h832l-37 -203h-608l-68 -381h475l-35 -203h-475l-80 -444h627zM913 1765l-374 -129l18 109l387 190z" />
<glyph unicode="&#xca;" horiz-adv-x="1081" d="M903 0h-848l252 1434h832l-37 -203h-608l-68 -381h475l-35 -203h-475l-80 -444h627zM991 1647l-248 159l-307 -159l19 100l313 207l242 -207z" />
<glyph unicode="&#xcb;" horiz-adv-x="1081" d="M903 0h-848l252 1434h832l-37 -203h-608l-68 -381h475l-35 -203h-475l-80 -444h627zM950 1649h-164l37 209h164zM645 1649h-164l39 209h162z" />
<glyph unicode="&#xcc;" horiz-adv-x="542" d="M274 0h-219l252 1434h219zM631 1636l-330 129l31 170l319 -190z" />
<glyph unicode="&#xcd;" horiz-adv-x="542" d="M274 0h-219l252 1434h219zM653 1765l-374 -129l18 109l387 190z" />
<glyph unicode="&#xce;" horiz-adv-x="542" d="M274 0h-219l252 1434h219zM733 1647l-248 159l-307 -159l19 100l313 207l242 -207z" />
<glyph unicode="&#xcf;" horiz-adv-x="542" d="M274 0h-219l252 1434h219zM690 1649h-164l37 209h164zM385 1649h-164l39 209h162z" />
<glyph unicode="&#xd0;" horiz-adv-x="1413" d="M567 0h-489l112 631h-178l27 153h176l115 650h491q246 0 392.5 -154t146.5 -422q0 -385 -227.5 -621.5t-565.5 -236.5zM784 1231h-274l-80 -447h238l-27 -153h-238l-75 -428h276q244 0 381 179t137 460q0 182 -86 285.5t-252 103.5z" />
<glyph unicode="&#xd1;" horiz-adv-x="1357" d="M1090 0h-181l-444 1081l-193 -1081h-217l252 1434h221l418 -1022l178 1022h219zM993 1651q-49 0 -122.5 49t-104.5 49q-80 0 -125 -98l-117 24q31 96 104.5 145.5t149.5 49.5q53 0 122 -48t99 -48q86 0 134 102l108 -27q-31 -88 -97.5 -143t-150.5 -55z" />
<glyph unicode="&#xd2;" d="M635 -29q-252 0 -397.5 162t-145.5 449q0 375 232.5 627.5t560.5 252.5q250 0 395 -161.5t145 -448.5q0 -375 -233 -628t-557 -253zM848 1260q-231 0 -373.5 -198t-142.5 -466q0 -193 84 -307.5t254 -114.5q231 0 373.5 197.5t142.5 466.5q0 195 -84 308.5t-254 113.5z M1096 1636l-330 129l31 170l319 -190z" />
<glyph unicode="&#xd3;" d="M635 -29q-252 0 -397.5 162t-145.5 449q0 375 232.5 627.5t560.5 252.5q250 0 395 -161.5t145 -448.5q0 -375 -233 -628t-557 -253zM848 1260q-231 0 -373.5 -198t-142.5 -466q0 -193 84 -307.5t254 -114.5q231 0 373.5 197.5t142.5 466.5q0 195 -84 308.5t-254 113.5z M1120 1765l-375 -129l19 109l387 190z" />
<glyph unicode="&#xd4;" d="M635 -29q-252 0 -397.5 162t-145.5 449q0 375 232.5 627.5t560.5 252.5q250 0 395 -161.5t145 -448.5q0 -375 -233 -628t-557 -253zM848 1260q-231 0 -373.5 -198t-142.5 -466q0 -193 84 -307.5t254 -114.5q231 0 373.5 197.5t142.5 466.5q0 195 -84 308.5t-254 113.5z M1200 1647l-248 159l-307 -159l19 100l313 207l242 -207z" />
<glyph unicode="&#xd5;" d="M635 -29q-252 0 -397.5 162t-145.5 449q0 375 232.5 627.5t560.5 252.5q250 0 395 -161.5t145 -448.5q0 -375 -233 -628t-557 -253zM848 1260q-231 0 -373.5 -198t-142.5 -466q0 -193 84 -307.5t254 -114.5q231 0 373.5 197.5t142.5 466.5q0 195 -84 308.5t-254 113.5z M1055 1651q-49 0 -123 49t-105 49q-80 0 -125 -98l-116 24q31 96 104.5 145.5t149.5 49.5q53 0 121.5 -48t99.5 -48q86 0 133 102l109 -27q-31 -88 -97.5 -143t-150.5 -55z" />
<glyph unicode="&#xd6;" d="M635 -29q-252 0 -397.5 162t-145.5 449q0 375 232.5 627.5t560.5 252.5q250 0 395 -161.5t145 -448.5q0 -375 -233 -628t-557 -253zM848 1260q-231 0 -373.5 -198t-142.5 -466q0 -193 84 -307.5t254 -114.5q231 0 373.5 197.5t142.5 466.5q0 195 -84 308.5t-254 113.5z M1157 1649h-164l37 209h164zM852 1649h-164l39 209h162z" />
<glyph unicode="&#xd7;" horiz-adv-x="864" d="M692 328l-112 -90l-172 239l-254 -239l-82 90l256 239l-170 240l112 90l170 -240l256 240l80 -90l-256 -240z" />
<glyph unicode="&#xd8;" d="M627 -27q-170 0 -299 84l-92 -118h-226l189 223q-106 164 -107 411q0 385 232.5 637t564.5 252q166 0 293 -80l65 84h223l-157 -190q113 -164 112 -418q0 -383 -232 -634t-566 -251zM1149 1090l-668 -861q80 -51 183 -51q240 0 380 197.5t140 480.5q0 152 -35 234z M854 1255q-240 0 -380 -194.5t-140 -470.5q0 -123 28 -238l666 854q-76 49 -174 49z" />
<glyph unicode="&#xd9;" horiz-adv-x="1386" d="M584 -29q-225 0 -339 118t-114 335q0 84 19 186l145 824h217l-129 -732q-25 -137 -25 -221q2 -145 61.5 -226t198.5 -81q100 0 175 42t122.5 121t76 165t48.5 200l129 732h217l-145 -824q-53 -301 -220 -470t-437 -169zM1051 1636l-330 129l31 170l319 -190z" />
<glyph unicode="&#xda;" horiz-adv-x="1386" d="M584 -29q-225 0 -339 118t-114 335q0 84 19 186l145 824h217l-129 -732q-25 -137 -25 -221q2 -145 61.5 -226t198.5 -81q100 0 175 42t122.5 121t76 165t48.5 200l129 732h217l-145 -824q-53 -301 -220 -470t-437 -169zM1073 1765l-375 -129l19 109l387 190z" />
<glyph unicode="&#xdb;" horiz-adv-x="1386" d="M584 -29q-225 0 -339 118t-114 335q0 84 19 186l145 824h217l-129 -732q-25 -137 -25 -221q2 -145 61.5 -226t198.5 -81q100 0 175 42t122.5 121t76 165t48.5 200l129 732h217l-145 -824q-53 -301 -220 -470t-437 -169zM1153 1647l-248 159l-307 -159l18 100l314 207 l241 -207z" />
<glyph unicode="&#xdc;" horiz-adv-x="1386" d="M584 -29q-225 0 -339 118t-114 335q0 84 19 186l145 824h217l-129 -732q-25 -137 -25 -221q2 -145 61.5 -226t198.5 -81q100 0 175 42t122.5 121t76 165t48.5 200l129 732h217l-145 -824q-53 -301 -220 -470t-437 -169zM1112 1649h-164l37 209h164zM807 1649h-164l39 209 h162z" />
<glyph unicode="&#xdd;" horiz-adv-x="1155" d="M1280 1434l-590 -781l-115 -653h-221l115 653l-315 781h231l233 -588l433 588h229zM961 1765l-375 -129l18 109l387 190z" />
<glyph unicode="&#xde;" horiz-adv-x="1091" d="M451 414h-103l-72 -414h-221l252 1434h221l-49 -281h103q133 0 219 -10t155.5 -40t101.5 -85t32 -141q0 -252 -147.5 -357.5t-491.5 -105.5zM621 1008h-166l-82 -453h168q178 0 251.5 73.5t73.5 211.5q0 90 -57 129t-188 39z" />
<glyph unicode="&#xdf;" horiz-adv-x="1075" d="M498 -31q-31 0 -105 8l27 146q188 2 269 45t81 170q0 66 -32.5 128t-72.5 102t-73 84t-33 79q0 37 42 85t92 94t92 126t42 172q0 86 -43 126t-104 40q-78 0 -133 -59.5t-72 -149.5l-254 -1444h-205l203 1149h-135l45 154h117l24 131q31 166 164 273.5t277 107.5 q117 0 213 -79t96 -226q0 -96 -39 -183q-39 -88 -86 -138l-86 -94q-39 -44 -39 -64q0 -18 33 -57.5t71.5 -81.5t71.5 -113.5t33 -149.5q0 -188 -139 -284.5t-342 -96.5z" />
<glyph unicode="&#xe0;" horiz-adv-x="1134" d="M1038 1010l-120 -707q-8 -43 -9 -78q0 -47 20.5 -62.5t78.5 -15.5l-54 -167q-123 0 -176 24.5t-80 112.5q-123 -137 -305 -137q-160 0 -256 120.5t-96 307.5q0 246 155.5 434t393.5 188q156 0 225 -106l35 86h188zM569 850q-133 0 -222 -125t-89 -299q0 -121 50 -193.5 t151 -72.5q133 0 220 119.5t87 298.5q0 272 -197 272zM926 1212l-330 129l31 170l319 -190z" />
<glyph unicode="&#xe1;" horiz-adv-x="1134" d="M1038 1010l-120 -707q-8 -43 -9 -78q0 -47 20.5 -62.5t78.5 -15.5l-54 -167q-123 0 -176 24.5t-80 112.5q-123 -137 -305 -137q-160 0 -256 120.5t-96 307.5q0 246 155.5 434t393.5 188q156 0 225 -106l35 86h188zM569 850q-133 0 -222 -125t-89 -299q0 -121 50 -193.5 t151 -72.5q133 0 220 119.5t87 298.5q0 272 -197 272zM950 1341l-375 -129l19 109l387 190z" />
<glyph unicode="&#xe2;" horiz-adv-x="1134" d="M1038 1010l-120 -707q-8 -43 -9 -78q0 -47 20.5 -62.5t78.5 -15.5l-54 -167q-123 0 -176 24.5t-80 112.5q-123 -137 -305 -137q-160 0 -256 120.5t-96 307.5q0 246 155.5 434t393.5 188q156 0 225 -106l35 86h188zM569 850q-133 0 -222 -125t-89 -299q0 -121 50 -193.5 t151 -72.5q133 0 220 119.5t87 298.5q0 272 -197 272zM1030 1223l-248 159l-307 -159l19 100l313 207l242 -207z" />
<glyph unicode="&#xe3;" horiz-adv-x="1134" d="M1038 1010l-120 -707q-8 -43 -9 -78q0 -47 20.5 -62.5t78.5 -15.5l-54 -167q-123 0 -176 24.5t-80 112.5q-123 -137 -305 -137q-160 0 -256 120.5t-96 307.5q0 246 155.5 434t393.5 188q156 0 225 -106l35 86h188zM569 850q-133 0 -222 -125t-89 -299q0 -121 50 -193.5 t151 -72.5q133 0 220 119.5t87 298.5q0 272 -197 272zM877 1227q-49 0 -123 49t-105 49q-80 0 -125 -98l-116 24q31 96 104.5 145.5t149.5 49.5q53 0 121.5 -48t99.5 -48q86 0 133 102l108 -27q-31 -88 -97 -143t-150 -55z" />
<glyph unicode="&#xe4;" horiz-adv-x="1134" d="M1038 1010l-120 -707q-8 -43 -9 -78q0 -47 20.5 -62.5t78.5 -15.5l-54 -167q-123 0 -176 24.5t-80 112.5q-123 -137 -305 -137q-160 0 -256 120.5t-96 307.5q0 246 155.5 434t393.5 188q156 0 225 -106l35 86h188zM569 850q-133 0 -222 -125t-89 -299q0 -121 50 -193.5 t151 -72.5q133 0 220 119.5t87 298.5q0 272 -197 272zM987 1225h-164l37 209h164zM682 1225h-164l39 209h162z" />
<glyph unicode="&#xe5;" horiz-adv-x="1134" d="M1038 1010l-120 -707q-8 -43 -9 -78q0 -47 20.5 -62.5t78.5 -15.5l-54 -167q-123 0 -176 24.5t-80 112.5q-123 -137 -305 -137q-160 0 -256 120.5t-96 307.5q0 246 155.5 434t393.5 188q156 0 225 -106l35 86h188zM569 850q-133 0 -222 -125t-89 -299q0 -121 50 -193.5 t151 -72.5q133 0 220 119.5t87 298.5q0 272 -197 272zM745 1180q-80 0 -123.5 44t-43.5 109q0 84 65.5 148.5t165.5 64.5q80 0 124 -45t44 -110q0 -86 -65 -148.5t-167 -62.5zM797 1470q-47 0 -81 -36.5t-34 -92.5q0 -41 20.5 -64.5t55.5 -23.5q47 0 81.5 36t34.5 93 q0 39 -21 63.5t-56 24.5z" />
<glyph unicode="&#xe6;" horiz-adv-x="1521" d="M1425 485h-610q-6 -35 -6 -63q0 -133 64.5 -204t166.5 -71q127 0 291 80l-10 -168q-164 -80 -326 -79q-287 0 -340 217q-162 -225 -415 -226q-125 0 -190.5 60.5t-65.5 165.5q0 74 23.5 135t60 104t90 78t107.5 55.5t119 33.5t116 20.5t104 9.5q0 119 -30.5 166 t-122.5 47q-115 0 -261 -66l11 166q180 84 338 84q242 0 249 -225q49 109 151.5 167t225.5 58q141 0 222 -88t81 -246q0 -98 -43 -211zM1126 850q-92 0 -164.5 -56.5t-111.5 -164.5h422q6 27 6 73q0 148 -152 148zM592 492q-86 -2 -169 -24t-149.5 -81t-66.5 -145 q0 -100 108 -101q100 0 182.5 88.5t94.5 262.5z" />
<glyph unicode="&#xe7;" horiz-adv-x="866" d="M436 -20q-203 0 -298 117.5t-95 312.5q0 256 153.5 438t421.5 182q166 0 259 -65l-56 -185q-104 70 -223 70q-160 0 -250 -119t-90 -301q0 -272 221 -272q119 0 246 69l-8 -172q-123 -75 -281 -75zM518 -109l-227 -272l-121 -14l178 272z" />
<glyph unicode="&#xe8;" horiz-adv-x="960" d="M909 760q0 -147 -120.5 -242.5t-352.5 -95.5q-100 0 -172 16q2 -279 252 -278q152 0 291 67l-14 -170q-164 -78 -326 -77q-209 0 -317.5 121.5t-108.5 314.5q0 246 157.5 430t399.5 184q150 0 230.5 -73.5t80.5 -196.5zM584 850q-102 0 -180 -74t-119 -198 q98 -16 125 -17q168 0 241.5 53.5t73.5 126.5q0 57 -42 83t-99 26zM780 1212l-329 129l30 170l320 -190z" />
<glyph unicode="&#xe9;" horiz-adv-x="960" d="M909 760q0 -147 -120.5 -242.5t-352.5 -95.5q-100 0 -172 16q2 -279 252 -278q152 0 291 67l-14 -170q-164 -78 -326 -77q-209 0 -317.5 121.5t-108.5 314.5q0 246 157.5 430t399.5 184q150 0 230.5 -73.5t80.5 -196.5zM584 850q-102 0 -180 -74t-119 -198 q98 -16 125 -17q168 0 241.5 53.5t73.5 126.5q0 57 -42 83t-99 26zM805 1341l-375 -129l19 109l387 190z" />
<glyph unicode="&#xea;" horiz-adv-x="960" d="M909 760q0 -147 -120.5 -242.5t-352.5 -95.5q-100 0 -172 16q2 -279 252 -278q152 0 291 67l-14 -170q-164 -78 -326 -77q-209 0 -317.5 121.5t-108.5 314.5q0 246 157.5 430t399.5 184q150 0 230.5 -73.5t80.5 -196.5zM584 850q-102 0 -180 -74t-119 -198 q98 -16 125 -17q168 0 241.5 53.5t73.5 126.5q0 57 -42 83t-99 26zM883 1223l-248 159l-307 -159l18 100l313 207l242 -207z" />
<glyph unicode="&#xeb;" horiz-adv-x="960" d="M909 760q0 -147 -120.5 -242.5t-352.5 -95.5q-100 0 -172 16q2 -279 252 -278q152 0 291 67l-14 -170q-164 -78 -326 -77q-209 0 -317.5 121.5t-108.5 314.5q0 246 157.5 430t399.5 184q150 0 230.5 -73.5t80.5 -196.5zM584 850q-102 0 -180 -74t-119 -198 q98 -16 125 -17q168 0 241.5 53.5t73.5 126.5q0 57 -42 83t-99 26zM840 1225h-164l37 209h164zM535 1225h-164l39 209h161z" />
<glyph unicode="&#xec;" horiz-adv-x="456" d="M227 0h-209l177 1010h211zM512 1212l-330 129l31 170l319 -190z" />
<glyph unicode="&#xed;" horiz-adv-x="456" d="M227 0h-209l177 1010h211zM535 1341l-375 -129l18 109l387 190z" />
<glyph unicode="&#xee;" horiz-adv-x="456" d="M227 0h-209l177 1010h211zM614 1223l-247 159l-308 -159l19 100l313 207l242 -207z" />
<glyph unicode="&#xef;" horiz-adv-x="456" d="M227 0h-209l177 1010h211zM571 1225h-163l36 209h164zM266 1225h-164l39 209h162z" />
<glyph unicode="&#xf0;" horiz-adv-x="999" d="M365 -25q-160 0 -257.5 102.5t-97.5 264.5q0 190 136.5 360t351.5 170q129 0 215 -100q0 100 -18.5 207.5t-59.5 150.5q-145 -104 -283 -122l-45 125q123 14 250 102q-90 106 -205 106l86 95q141 0 260 -111q86 76 129 129l107 -27q-82 -98 -162 -178 q66 -90 104.5 -240.5t38.5 -310.5q0 -205 -53 -354t-139 -225t-175 -110t-183 -34zM492 692q-117 0 -192 -95t-75 -220q0 -94 45 -156.5t131 -62.5q104 0 185.5 92t81.5 235q0 96 -45 151.5t-131 55.5z" />
<glyph unicode="&#xf1;" horiz-adv-x="1069" d="M850 0h-211q109 612 109 672q0 92 -39 135t-123 43q-145 0 -230 -117l-129 -733h-211l179 1010h180v-90q121 111 276 110q309 0 310 -330q0 -71 -111 -700zM774 1227q-49 0 -122.5 49t-104.5 49q-80 0 -125 -98l-117 24q31 96 104.5 145.5t149.5 49.5q53 0 122 -48 t99 -48q86 0 133 102l109 -27q-31 -88 -97.5 -143t-150.5 -55z" />
<glyph unicode="&#xf2;" horiz-adv-x="1079" d="M436 -20q-193 0 -294 119.5t-101 310.5q0 250 162 435t405 185q193 0 294.5 -121t101.5 -311q0 -250 -163 -434t-405 -184zM580 850q-143 0 -233.5 -122t-90.5 -302q0 -266 209 -266q143 0 232 121.5t89 302.5q1 266 -206 266zM821 1212l-329 129l30 170l320 -190z" />
<glyph unicode="&#xf3;" horiz-adv-x="1079" d="M436 -20q-193 0 -294 119.5t-101 310.5q0 250 162 435t405 185q193 0 294.5 -121t101.5 -311q0 -250 -163 -434t-405 -184zM580 850q-143 0 -233.5 -122t-90.5 -302q0 -266 209 -266q143 0 232 121.5t89 302.5q1 266 -206 266zM844 1341l-375 -129l18 109l387 190z" />
<glyph unicode="&#xf4;" horiz-adv-x="1079" d="M436 -20q-193 0 -294 119.5t-101 310.5q0 250 162 435t405 185q193 0 294.5 -121t101.5 -311q0 -250 -163 -434t-405 -184zM580 850q-143 0 -233.5 -122t-90.5 -302q0 -266 209 -266q143 0 232 121.5t89 302.5q1 266 -206 266zM926 1223l-248 159l-307 -159l18 100 l313 207l242 -207z" />
<glyph unicode="&#xf5;" horiz-adv-x="1079" d="M436 -20q-193 0 -294 119.5t-101 310.5q0 250 162 435t405 185q193 0 294.5 -121t101.5 -311q0 -250 -163 -434t-405 -184zM580 850q-143 0 -233.5 -122t-90.5 -302q0 -266 209 -266q143 0 232 121.5t89 302.5q1 266 -206 266zM778 1227q-49 0 -122.5 49t-104.5 49 q-80 0 -125 -98l-117 24q31 96 104.5 145.5t149.5 49.5q53 0 122 -48t99 -48q86 0 134 102l108 -27q-31 -88 -97.5 -143t-150.5 -55z" />
<glyph unicode="&#xf6;" horiz-adv-x="1079" d="M436 -20q-193 0 -294 119.5t-101 310.5q0 250 162 435t405 185q193 0 294.5 -121t101.5 -311q0 -250 -163 -434t-405 -184zM580 850q-143 0 -233.5 -122t-90.5 -302q0 -266 209 -266q143 0 232 121.5t89 302.5q1 266 -206 266zM883 1225h-164l37 209h164zM578 1225h-164 l39 209h161z" />
<glyph unicode="&#xf7;" horiz-adv-x="1126" d="M705 877h-209l39 217h208zM975 492h-869l29 165h869zM557 41h-209l39 217h209z" />
<glyph unicode="&#xf8;" horiz-adv-x="1089" d="M438 -18q-72 0 -141 20l-45 -74h-174l88 142q-123 123 -123 344q0 252 164 438t416 186q72 0 133 -22l47 78h180l-92 -142q127 -131 127 -350q0 -252 -164 -436t-416 -184zM774 780l-373 -622q41 -10 66 -11q147 0 240.5 136.5t93.5 334.5q0 117 -27 162zM592 872 q-143 0 -237.5 -133t-94.5 -315q0 -84 23 -184l370 620q-38 12 -61 12z" />
<glyph unicode="&#xf9;" horiz-adv-x="1042" d="M813 0h-192l6 94q-115 -115 -262 -114q-145 0 -220 79.5t-75 233.5q0 68 114 717h209q-109 -623 -108 -666q0 -184 157 -184q123 0 207 104l133 746h209zM815 1212l-330 129l31 170l320 -190z" />
<glyph unicode="&#xfa;" horiz-adv-x="1042" d="M813 0h-192l6 94q-115 -115 -262 -114q-145 0 -220 79.5t-75 233.5q0 68 114 717h209q-109 -623 -108 -666q0 -184 157 -184q123 0 207 104l133 746h209zM838 1341l-375 -129l18 109l387 190z" />
<glyph unicode="&#xfb;" horiz-adv-x="1042" d="M813 0h-192l6 94q-115 -115 -262 -114q-145 0 -220 79.5t-75 233.5q0 68 114 717h209q-109 -623 -108 -666q0 -184 157 -184q123 0 207 104l133 746h209zM918 1223l-248 159l-308 -159l19 100l313 207l242 -207z" />
<glyph unicode="&#xfc;" horiz-adv-x="1042" d="M813 0h-192l6 94q-115 -115 -262 -114q-145 0 -220 79.5t-75 233.5q0 68 114 717h209q-109 -623 -108 -666q0 -184 157 -184q123 0 207 104l133 746h209zM877 1225h-164l37 209h163zM571 1225h-163l38 209h162z" />
<glyph unicode="&#xfd;" horiz-adv-x="983" d="M1042 1010l-845 -1506h-217l307 549l-221 957h233l133 -715l377 715h233zM788 1341l-374 -129l18 109l387 190z" />
<glyph unicode="&#xfe;" horiz-adv-x="1112" d="M469 -20q-150 0 -225 112l-105 -586h-209l359 2030h209l-107 -612q119 106 268 106q180 0 278.5 -121t98.5 -305q0 -252 -157.5 -438t-409.5 -186zM608 850q-156 0 -235.5 -130t-79.5 -314q0 -117 47 -188t143 -71q152 0 245 128t93 311q0 121 -55.5 192.5t-157.5 71.5z " />
<glyph unicode="&#xff;" horiz-adv-x="983" d="M1042 1010l-845 -1506h-217l307 549l-221 957h233l133 -715l377 715h233zM823 1225h-164l37 209h164zM518 1225h-164l39 209h162z" />
<glyph unicode="&#x131;" horiz-adv-x="456" d="M227 0h-209l177 1010h211z" />
<glyph unicode="&#x152;" horiz-adv-x="2033" d="M1855 0h-802l26 150q-221 -178 -456 -179q-242 0 -386.5 164t-144.5 436q0 387 231.5 639t563.5 252q236 0 391 -178l29 148h784l-35 -201h-567l-68 -381h437l-35 -203h-437l-79 -444h585zM850 1260q-240 0 -380 -196t-140 -476q0 -188 83 -301t244 -113 q240 0 380.5 196.5t140.5 475.5q0 188 -83 301t-245 113z" />
<glyph unicode="&#x153;" horiz-adv-x="1714" d="M1618 485h-623q-6 -39 -6 -71q0 -145 67.5 -206t166.5 -61q154 0 305 80l-17 -178q-147 -70 -317 -69q-285 0 -365 200q-72 -96 -177 -148t-222 -52q-184 0 -286.5 121.5t-102.5 310.5q0 256 160.5 437t414.5 181q115 0 201 -50t123 -142q150 193 377 192q156 0 250 -93 t94 -255q0 -31 -2 -56.5t-8 -47t-9.5 -32.5t-12.5 -33t-11 -28zM1288 850q-186 0 -264 -221h418q6 49 6 53q0 76 -40 122t-120 46zM586 850q-152 0 -242 -121t-90 -311q0 -121 54 -189.5t155 -68.5q147 0 237.5 126t90.5 302q0 119 -53.5 190.5t-151.5 71.5z" />
<glyph unicode="&#x160;" horiz-adv-x="1124" d="M430 -29q-281 0 -418 97l72 251q53 -59 153.5 -102t229.5 -43q137 0 222 55.5t85 165.5q0 96 -64.5 147.5t-207.5 106.5l-98 39q-30 12 -88 44t-84.5 62.5t-50 81t-23.5 111.5q0 76 31.5 155t94 152.5t175 120.5t256.5 47q125 0 236.5 -31.5t162.5 -70.5l-61 -227 q-215 129 -359 129q-113 0 -207 -54.5t-94 -158.5q0 -76 56.5 -119t179.5 -88q80 -29 115.5 -43.5t100 -50t95.5 -72.5t56.5 -97.5t25.5 -136.5q0 -88 -30.5 -166.5t-95.5 -149.5t-184.5 -113t-281.5 -42zM1059 1839l-314 -197l-241 197l18 107l252 -152l303 152z" />
<glyph unicode="&#x161;" horiz-adv-x="817" d="M287 -20q-201 0 -310 83l56 191q39 -37 114.5 -69.5t159.5 -32.5q92 0 136 39.5t44 99.5q0 41 -25.5 71.5t-51 42t-74.5 27.5q-55 18 -88 31.5t-72 41t-57.5 69.5t-18.5 100q0 135 99.5 245.5t304.5 110.5q170 0 270 -69l-53 -185q-33 39 -95.5 67.5t-133.5 28.5 q-80 0 -134.5 -36.5t-54.5 -106.5q0 -59 41 -86t145 -59q45 -14 77 -30.5t67 -44.5t52 -73t17 -106q0 -59 -18 -114.5t-60 -112t-129 -90t-208 -33.5zM819 1415l-313 -196l-242 196l19 107l252 -152l303 152z" />
<glyph unicode="&#x178;" horiz-adv-x="1155" d="M1280 1434l-590 -781l-115 -653h-221l115 653l-315 781h231l233 -588l433 588h229zM999 1649h-163l36 209h164zM694 1649h-164l39 209h162z" />
<glyph unicode="&#x17d;" horiz-adv-x="1052" d="M1176 1434l-863 -1231h561l-36 -203h-920l862 1231h-559l35 203h920zM1028 1839l-313 -197l-242 197l19 107l251 -152l304 152z" />
<glyph unicode="&#x17e;" horiz-adv-x="903" d="M928 1010l-594 -838h430l-33 -172h-790l594 840h-426l28 170h791zM874 1415l-313 -196l-242 196l19 107l252 -152l303 152z" />
<glyph unicode="&#x192;" horiz-adv-x="684" d="M864 1440l-43 -142q-35 16 -76 17q-94 0 -147 -67.5t-106 -237.5h253l-36 -133h-265l-340 -1057q-53 -166 -134 -240t-142 -74h-45l-6 156q57 8 96 50t70 143l319 1022h-158l39 133h162l35 110q47 160 159.5 251t248.5 91q44 1 116 -22z" />
<glyph unicode="&#x237;" horiz-adv-x="454" d="M-98 -489l-74 -7l8 164q80 6 107.5 39t48.5 152l203 1151h208l-217 -1231q-42 -248 -284 -268z" />
<glyph unicode="&#x2c6;" horiz-adv-x="841" d="M913 1223l-247 159l-308 -159l19 100l313 207l242 -207z" />
<glyph unicode="&#x2c7;" horiz-adv-x="841" d="M948 1415l-313 -196l-242 196l19 107l252 -152l303 152z" />
<glyph unicode="&#x2da;" horiz-adv-x="550" d="M483 1180q-80 0 -124 44t-44 109q0 84 65.5 148.5t166.5 64.5q80 0 124 -45t44 -110q0 -86 -65 -148.5t-167 -62.5zM535 1470q-47 0 -81 -36.5t-34 -92.5q0 -41 20.5 -64.5t55.5 -23.5q47 0 81.5 36t34.5 93q0 39 -21 63.5t-56 24.5z" />
<glyph unicode="&#x2dc;" horiz-adv-x="997" d="M846 1227q-49 0 -123 49t-105 49q-80 0 -124 -98l-117 24q31 96 104.5 145.5t149.5 49.5q53 0 121.5 -48t99.5 -48q86 0 133 102l109 -27q-31 -88 -97.5 -143t-150.5 -55z" />
<glyph unicode="&#x2000;" horiz-adv-x="985" />
<glyph unicode="&#x2001;" horiz-adv-x="1970" />
<glyph unicode="&#x2002;" horiz-adv-x="985" />
<glyph unicode="&#x2003;" horiz-adv-x="1970" />
<glyph unicode="&#x2004;" horiz-adv-x="656" />
<glyph unicode="&#x2005;" horiz-adv-x="492" />
<glyph unicode="&#x2006;" horiz-adv-x="328" />
<glyph unicode="&#x2007;" horiz-adv-x="328" />
<glyph unicode="&#x2008;" horiz-adv-x="246" />
<glyph unicode="&#x2009;" horiz-adv-x="394" />
<glyph unicode="&#x200a;" horiz-adv-x="109" />
<glyph unicode="&#x2010;" horiz-adv-x="819" d="M680 481h-584l31 183h586z" />
<glyph unicode="&#x2011;" horiz-adv-x="819" d="M680 481h-584l31 183h586z" />
<glyph unicode="&#x2012;" horiz-adv-x="819" d="M680 481h-584l31 183h586z" />
<glyph unicode="&#x2013;" horiz-adv-x="968" d="M827 481h-731l31 183h731z" />
<glyph unicode="&#x2014;" horiz-adv-x="1142" d="M1001 481h-905l31 183h905z" />
<glyph unicode="&#x2018;" horiz-adv-x="399" d="M215 1313l211 223l41 -27l-94 -178l59 -18l-37 -207h-217z" />
<glyph unicode="&#x2019;" horiz-adv-x="364" d="M430 1329l-209 -223l-43 27l96 178l-59 18l37 207h215z" />
<glyph unicode="&#x201a;" horiz-adv-x="452" d="M229 0l-211 -223l-41 26l95 179l-58 18l35 207h217z" />
<glyph unicode="&#x201c;" horiz-adv-x="794" d="M215 1313l211 223l41 -27l-94 -178l59 -18l-37 -207h-217zM610 1313l211 223l43 -27l-96 -178l59 -18l-36 -207h-216z" />
<glyph unicode="&#x201d;" horiz-adv-x="759" d="M825 1329l-209 -223l-41 27l95 178l-60 18l37 207h217zM430 1329l-209 -223l-43 27l96 178l-59 18l37 207h215z" />
<glyph unicode="&#x201e;" horiz-adv-x="888" d="M229 0l-211 -223l-41 26l95 179l-58 18l35 207h217zM662 0l-209 -223l-41 26l94 179l-60 18l37 207h217z" />
<glyph unicode="&#x2020;" horiz-adv-x="825" d="M772 748l-258 57l12 -285l-147 -520h-148l35 520l113 285l-277 -57l37 206l254 -61v350h258l-121 -350l277 61z" />
<glyph unicode="&#x2021;" horiz-adv-x="888" d="M702 166l-253 59v-346h-259l119 346l-274 -59l35 205l258 -58l-21 248l109 250l-279 -59l37 206l254 -59v344h256l-119 -344l277 59l-35 -206l-260 59l20 -250l-108 -248l278 58z" />
<glyph unicode="&#x2022;" horiz-adv-x="595" d="M252 346q-74 0 -122 54.5t-48 134.5q0 102 77 180t171 78q74 0 123 -54.5t49 -134.5q0 -102 -77 -180t-173 -78z" />
<glyph unicode="&#x2026;" horiz-adv-x="1335" d="M221 0h-209l37 207h209zM666 0h-209l37 207h208zM1112 0h-209l35 207h211z" />
<glyph unicode="&#x202f;" horiz-adv-x="394" />
<glyph unicode="&#x2030;" horiz-adv-x="2287" d="M1135 -25q-104 0 -165 77t-61 210q0 209 110.5 343t258.5 134q104 0 165.5 -76.5t61.5 -209.5q0 -209 -106 -343.5t-264 -134.5zM1417 1434l-1052 -1459h-175l1051 1459h176zM373 684q-104 0 -165 76t-61 207q0 211 111 344t258 133q102 0 162.5 -77t60.5 -210 q0 -209 -105 -341t-261 -132zM1253 627q-80 0 -146.5 -99.5t-66.5 -253.5q0 -86 31 -133t84 -47q94 0 155.5 96.5t61.5 247.5q0 88 -33 138.5t-86 50.5zM492 1323q-78 0 -142.5 -95t-64.5 -241q0 -84 30.5 -133t79.5 -49q86 0 147.5 94t61.5 238q0 88 -30.5 137t-81.5 49z M1815 -25q-104 0 -165 77t-61 210q0 211 111.5 344t259.5 133q102 0 162.5 -76.5t60.5 -209.5q0 -209 -105 -343.5t-263 -134.5zM1935 627q-82 0 -148.5 -98.5t-66.5 -254.5q0 -86 31 -133t84 -47q94 0 155.5 96.5t61.5 247.5q0 88 -33 138.5t-84 50.5z" />
<glyph unicode="&#x2039;" horiz-adv-x="657" d="M498 160h-250l-217 422l364 422h250l-364 -422z" />
<glyph unicode="&#x203a;" horiz-adv-x="659" d="M621 582l-367 -422h-250l365 422l-215 422h249z" />
<glyph unicode="&#x205f;" horiz-adv-x="492" />
<glyph unicode="&#x2070;" horiz-adv-x="784" d="M391 639q-119 0 -187.5 85t-68.5 224q0 207 123 352.5t289 145.5q115 0 184.5 -88t69.5 -230q0 -207 -117 -348t-293 -141zM518 1300q-80 0 -148.5 -91t-68.5 -251q0 -170 119 -170q92 0 154.5 84t62.5 244q0 90 -34 137t-85 47z" />
<glyph unicode="&#x2074;" horiz-adv-x="659" d="M647 866h-94l-37 -211h-166l39 211h-330l451 564h143l-78 -437h95zM412 993l34 201l-151 -201h117z" />
<glyph unicode="&#x2075;" horiz-adv-x="600" d="M272 641q-53 0 -101 14.5t-71.5 30.5t-25.5 29l65 149q35 -68 156 -67q141 0 141 131q0 78 -137 78h-135l123 424h354l-47 -164h-213l-37 -125q248 -4 248 -187q0 -152 -96.5 -232.5t-223.5 -80.5z" />
<glyph unicode="&#x2076;" horiz-adv-x="622" d="M313 639q-193 0 -192 227q0 117 51 226.5t122 180t139.5 114t109.5 43.5l100 -64q-59 0 -180 -105.5t-137 -170.5q31 31 114 30q86 0 138.5 -47t52.5 -133q0 -119 -92.5 -210t-225.5 -91zM406 989q-131 0 -132 -121q0 -35 26 -57.5t54 -22.5q47 0 86 39t39 88 q0 29 -20 51.5t-53 22.5z" />
<glyph unicode="&#x2077;" horiz-adv-x="573" d="M711 1430l-445 -775h-178l346 611h-262l29 164h510z" />
<glyph unicode="&#x2078;" horiz-adv-x="667" d="M328 639q-109 0 -165.5 52t-56.5 132q0 131 138 250q-29 31 -29 119q0 111 63.5 182.5t206.5 71.5q197 0 197 -150q0 -109 -102 -215q29 -23 51 -70.5t22 -97.5q0 -102 -85.5 -188t-239.5 -86zM459 1325q-102 0 -103 -127q0 -55 64 -70q104 25 104 132q1 65 -65 65z M412 1018q-51 -8 -100.5 -52t-49.5 -112q0 -41 24.5 -65.5t67.5 -24.5q137 0 138 139q0 95 -80 115z" />
<glyph unicode="&#x2079;" horiz-adv-x="624" d="M461 1446q92 0 144 -57.5t52 -169.5q0 -209 -145 -386.5t-289 -177.5l-84 64q66 0 188 93t140 187q-43 -35 -127 -34q-78 0 -136.5 49t-58.5 135q0 117 91.5 207t224.5 90zM379 1096q131 0 131 125q0 78 -78 77q-51 0 -87 -40.5t-36 -88.5q0 -33 18.5 -53t51.5 -20z" />
<glyph unicode="&#x2080;" horiz-adv-x="833" d="M299 -16q-119 0 -186.5 84t-67.5 225q0 207 123 352.5t287 145.5q117 0 185.5 -88.5t68.5 -229.5q0 -207 -117 -348t-293 -141zM428 645q-80 0 -149.5 -91t-69.5 -251q0 -86 32.5 -128t86.5 -42q92 0 154.5 84t62.5 244q0 88 -34 136t-83 48z" />
<glyph unicode="&#x2081;" horiz-adv-x="507" d="M233 0h-165l96 543q-59 -20 -86 -23l16 133q31 4 81 44t65 77h129z" />
<glyph unicode="&#x2082;" horiz-adv-x="655" d="M451 0h-482q252 295 327 406.5t75 175.5q0 78 -68 77q-61 0 -115.5 -44t-81.5 -85v148q33 43 100.5 78t149.5 35q94 0 135 -49.5t41 -120.5q0 -78 -56 -179.5t-193 -277.5h196z" />
<glyph unicode="&#x2083;" horiz-adv-x="655" d="M166 -16q-63 0 -123.5 21.5t-69.5 39.5l68 152q10 -20 54 -35t89 -15q154 0 154 121q0 90 -86 90h-117l37 125h59q72 0 101.5 31t29.5 72q0 70 -86 69q-84 0 -129 -32l-6 116q27 18 80 35t101 17q115 0 161.5 -52.5t46.5 -124.5q0 -59 -26.5 -109t-57.5 -75 q53 -70 54 -147q0 -139 -101.5 -219t-232.5 -80z" />
<glyph unicode="&#x2084;" horiz-adv-x="712" d="M557 211h-94l-37 -211h-166l39 211h-330l451 563h143l-78 -436h95zM322 338l34 201l-151 -201h117z" />
<glyph unicode="&#x2085;" horiz-adv-x="638" d="M170 -14q-78 0 -136.5 26.5t-64.5 46.5l66 150q35 -66 155 -66q29 0 49.5 3.5t44 15.5t36 39.5t12.5 70.5q0 78 -135 78h-138l123 424h357l-50 -164h-213l-36 -125q248 -4 247 -186q0 -152 -96 -232.5t-221 -80.5z" />
<glyph unicode="&#x2086;" horiz-adv-x="673" d="M223 -16q-193 0 -192 227q0 117 51 227.5t122.5 181t140.5 112.5t108 42l100 -63q-68 0 -184.5 -102.5t-132.5 -174.5q31 31 110 31q90 0 142.5 -46t52.5 -134q0 -119 -92.5 -210t-225.5 -91zM315 336q-131 0 -131 -123q0 -35 27 -57.5t53 -22.5q47 0 86 39t39 88 q0 29 -20.5 52.5t-53.5 23.5z" />
<glyph unicode="&#x2087;" horiz-adv-x="657" d="M633 774l-445 -774h-178l346 610h-262l29 164h510z" />
<glyph unicode="&#x2088;" horiz-adv-x="720" d="M240 -16q-109 0 -165.5 52t-56.5 132q0 131 138 250q-29 31 -29 119q0 111 63.5 182.5t206.5 71.5q197 0 197 -150q0 -109 -102 -215q29 -23 51 -71t22 -97q0 -102 -85.5 -188t-239.5 -86zM371 670q-102 0 -103 -127q0 -55 64 -70q104 25 104 131q1 66 -65 66zM324 362 q-51 -8 -100.5 -52t-49.5 -111q0 -90 92 -90q137 0 137 139q1 94 -79 114z" />
<glyph unicode="&#x2089;" horiz-adv-x="675" d="M373 791q90 0 142 -57.5t52 -170.5q0 -209 -145.5 -386t-288.5 -177l-84 63q66 0 186.5 92.5t143.5 188.5q-45 -35 -129 -35q-86 0 -141.5 48.5t-55.5 131.5q0 119 93.5 210.5t226.5 91.5zM289 440q131 0 131 127q0 76 -78 76q-49 0 -85 -41t-36 -88q0 -33 18.5 -53.5 t49.5 -20.5z" />
<glyph unicode="&#x20ac;" horiz-adv-x="1341" d="M788 35q-190 0 -318 105.5t-165 295.5h-268l78 154h180q2 49 14 127l8 43h-167l73 141h139q92 231 271.5 364.5t396.5 133.5q197 0 326 -72l-64 -211q-160 78 -299 78q-260 0 -391 -293h477l-75 -141h-451l-6 -43q-14 -76 -15 -127h455l-78 -154h-356q61 -197 272 -196 q141 0 326 77l-12 -211q-150 -71 -351 -71z" />
<glyph unicode="&#x2122;" horiz-adv-x="1406" d="M991 895h-16l-101 305l-145 -510h-133l223 744h78l121 -344l242 344h79l-39 -744h-135l37 510zM725 1434l-37 -123h-182l-111 -621h-129l109 621h-187l23 123h514z" />
<glyph unicode="&#xe000;" horiz-adv-x="1010" d="M0 1010h1010v-1010h-1010v1010z" />
<glyph horiz-adv-x="1048" d="M932 0h-219l-47 283h-381l-146 -283h-221l612 1161h201zM629 485l-58 346l-178 -346h236z" />
<glyph horiz-adv-x="1447" d="M1268 0h-713l49 281h-317l-183 -281h-219l764 1161h809l-35 -203h-483l-45 -251h373l-35 -203h-373l-53 -301h498zM639 485l84 469l-301 -469h217z" />
<glyph horiz-adv-x="1079" d="M485 0h-442l205 1161h309q199 0 297 -48t98 -187q0 -199 -147 -305q158 -66 158 -224q0 -111 -43 -192.5t-116 -123.5t-152 -61.5t-167 -19.5zM612 983h-186l-51 -289h205q68 0 118 39t50 137q0 63 -34 88t-102 25zM563 528h-217l-61 -348h209q123 0 186 48t63 161 q0 139 -180 139z" />
<glyph horiz-adv-x="1046" d="M541 -23q-213 0 -342 135.5t-129 358.5q0 309 199.5 512t484.5 203q190 0 313 -70l-57 -198q-160 66 -291 65q-195 0 -305.5 -141.5t-110.5 -352.5q0 -141 69.5 -226t203 -85t315.5 66l-12 -199q-152 -68 -338 -68z" />
<glyph horiz-adv-x="1232" d="M473 0h-430l205 1161h430q217 0 346 -126t129 -347q0 -309 -195.5 -498.5t-484.5 -189.5zM641 961h-217l-135 -758h219q197 0 304.5 128t107.5 337q0 139 -71 216t-208 77z" />
<glyph horiz-adv-x="972" d="M795 0h-752l205 1161h735l-35 -203h-520l-43 -251h401l-34 -203h-404l-53 -301h536z" />
<glyph horiz-adv-x="907" d="M920 958h-496l-45 -251h383l-37 -203h-383l-88 -504h-211l205 1161h706z" />
<glyph horiz-adv-x="1136" d="M535 -23q-209 0 -337 135.5t-128 360.5q0 309 199.5 511t490.5 202q86 0 182 -18.5t150 -49.5l-58 -200q-150 66 -305 65q-205 0 -315.5 -140.5t-110.5 -344.5q0 -147 74 -233.5t219 -86.5q78 0 160 21l39 209h-125l30 174h334l-90 -519q-70 -35 -190.5 -60.5 t-218.5 -25.5z" />
<glyph horiz-adv-x="1259" d="M1004 0h-211l88 504h-539l-88 -504h-211l205 1161h211l-80 -452h536l82 452h211z" />
<glyph horiz-adv-x="509" d="M254 0h-211l205 1161h211z" />
<glyph horiz-adv-x="509" d="M-61 -287h-60l10 158h45q47 0 72 31.5t37 103.5l205 1155h211l-213 -1202q-20 -121 -101 -183.5t-206 -62.5z" />
<glyph horiz-adv-x="1067" d="M930 0h-236l-293 614l496 547h238l-496 -547zM252 0h-209l205 1161h209z" />
<glyph horiz-adv-x="849" d="M725 0h-682l205 1161h211l-170 -958h471z" />
<glyph horiz-adv-x="1411" d="M1208 0h-219l41 782l-387 -536l-201 534l-233 -780h-221l362 1161h174l187 -530l370 530h172z" />
<glyph horiz-adv-x="1206" d="M950 0h-174l-381 803l-141 -803h-211l205 1161h207l356 -753l133 753h211z" />
<glyph horiz-adv-x="1302" d="M541 -23q-213 0 -342 135.5t-129 358.5q0 311 199.5 513t484.5 202q215 0 343 -135.5t128 -360.5q0 -309 -198.5 -511t-485.5 -202zM719 983q-193 0 -304.5 -141.5t-111.5 -349.5q0 -141 69.5 -227.5t202.5 -86.5q195 0 305.5 141.5t110.5 350.5q0 141 -69.5 227 t-202.5 86z" />
<glyph horiz-adv-x="1785" d="M1608 0h-715l16 92q-166 -115 -368 -115q-213 0 -342 135.5t-129 358.5q0 311 199.5 513t484.5 202q199 0 327 -117l17 92h700l-37 -203h-483l-45 -251h375l-37 -203h-373l-53 -301h497zM717 983q-190 0 -303 -141.5t-113 -349.5q0 -141 70.5 -227.5t206.5 -86.5 q190 0 302.5 141.5t112.5 350.5q0 141 -70.5 227t-205.5 86z" />
<glyph horiz-adv-x="1028" d="M526 383h-202l-68 -383h-213l205 1161h323q231 0 336 -55t105 -221q0 -117 -33 -208t-84 -144.5t-118.5 -89t-128.5 -48t-122 -12.5zM600 985h-170l-74 -405h176q147 0 204 63.5t57 202.5q0 72 -44.5 105.5t-148.5 33.5z" />
<glyph horiz-adv-x="1302" d="M1133 129l-148 -143l-96 92q-154 -100 -348 -101q-213 0 -342 135.5t-129 358.5q0 311 199.5 513t484.5 202q215 0 343 -135.5t128 -360.5q0 -258 -181 -475zM719 983q-193 0 -304.5 -141.5t-111.5 -349.5q0 -143 69.5 -228.5t202.5 -85.5q92 0 168 41l-116 117l149 147 l121 -125q94 147 94 314q0 141 -69.5 226t-202.5 85z" />
<glyph horiz-adv-x="1077" d="M924 0h-219l-162 432h-213l-76 -432h-211l205 1161h420q344 0 344 -268q0 -150 -69 -243t-193 -163zM588 987h-160l-61 -356h149q156 0 213 58.5t57 164.5q0 66 -44.5 99.5t-153.5 33.5z" />
<glyph horiz-adv-x="999" d="M373 -23q-252 0 -365 84l66 240q43 -51 131 -87t209 -36q227 0 227 150q0 37 -17.5 65.5t-55.5 51t-69.5 36t-88.5 33.5q-68 25 -106 42t-87 51t-71.5 79t-22.5 107q0 63 27.5 128.5t82 127t152.5 99.5t221 38q109 0 207 -29t141 -61l-59 -215q-170 104 -317 104 q-55 0 -104.5 -10t-89.5 -44t-40 -87q0 -55 51 -87t152 -65q63 -20 95 -32.5t86 -42t82 -59.5t50.5 -79t22.5 -110q0 -66 -21.5 -127.5t-74 -125t-158.5 -101.5t-256 -38z" />
<glyph horiz-adv-x="962" d="M975 958h-324l-170 -958h-211l168 958h-323l37 203h858z" />
<glyph horiz-adv-x="1222" d="M502 -23q-199 0 -297.5 98.5t-100.5 276.5q0 55 15 146l117 663h208l-104 -592q-16 -92 -16 -161q4 -229 213 -230q154 0 227.5 102.5t105.5 288.5l103 592h213l-119 -663q-43 -244 -186 -382.5t-379 -138.5z" />
<glyph horiz-adv-x="1103" d="M1178 1161l-609 -1161h-256l-209 1161h222l161 -885l471 885h220z" />
<glyph horiz-adv-x="1626" d="M1692 1161l-541 -1161h-186l-115 782l-393 -782h-197l-121 1161h221l82 -831l400 831h145l123 -811l363 811h219z" />
<glyph horiz-adv-x="1079" d="M952 0h-245l-201 428l-346 -428h-244l508 580l-285 581h246l190 -409l314 409h244l-476 -559z" />
<glyph horiz-adv-x="1028" d="M1110 1161l-512 -645l-90 -516h-211l90 516l-283 645h226l196 -459l359 459h225z" />
<glyph horiz-adv-x="940" d="M1006 1161l-695 -958h451l-35 -203h-799l695 958h-451l35 203h799z" />
</font>
</defs>
</svg>
