<?xml version="1.0" standalone="no"?>
<!DOCTYPE svg PUBLIC "-//W3C//DTD SVG 1.1//EN" "http://www.w3.org/Graphics/SVG/1.1/DTD/svg11.dtd" >
<svg xmlns="http://www.w3.org/2000/svg">
<metadata>
This is a custom SVG webfont generated by Font Squirrel.
Copyright   : Copyright c 2010 by Pablo Impallari wwwimpallaricom Igino Marini wwwikerncom All rights reserved
Designer    : Pablo Impallari
Foundry     : Pablo Impallari wwwimpallaricom Igino Marini wwwikerncom
Foundry URL : wwwimpallaricom
</metadata>
<defs>
<font id="webfontXRbSjhY8" horiz-adv-x="1261" >
<font-face units-per-em="2048" ascent="1638" descent="-410" />
<missing-glyph horiz-adv-x="460" />
<glyph unicode=" "  horiz-adv-x="460" />
<glyph unicode="&#x09;" horiz-adv-x="460" />
<glyph unicode="&#xa0;" horiz-adv-x="460" />
<glyph unicode="!" horiz-adv-x="495" d="M375 1536l-62 -1126h-131l-61 1126h254zM334 0h-172v176h172v-176z" />
<glyph unicode="&#x22;" horiz-adv-x="823" d="M741 1536l-41 -614h-106l-41 614h188zM274 1536l-41 -614h-110l-41 614h192z" />
<glyph unicode="#" horiz-adv-x="1441" d="M1376 1038l-59 -174h-238l-92 -235h262l-84 -187h-250l-176 -465h-166l179 465h-273l-178 -465h-164l176 465h-245l82 187h235l92 235h-258l60 174h264l151 396h166l-153 -396h272l154 396h163l-151 -396h231zM913 864h-270l-92 -235h270z" />
<glyph unicode="$" horiz-adv-x="1052" d="M584 168l30 -234h-182l35 232q-240 12 -361 78l25 223q145 -119 381 -119q225 0 225 129q0 55 -48 96t-120.5 63.5t-156.5 51.5t-157 59.5t-121 89t-48 138.5q0 117 90 208t291 109l-35 240h184l-32 -240q219 -12 329 -75l-18 -197q-209 98 -342 98q-248 0 -248 -119 q0 -51 50.5 -88t125 -56t161.5 -48t162 -62.5t125 -102.5t50 -163q0 -49 -15.5 -93t-53.5 -92t-121.5 -82t-204.5 -44z" />
<glyph unicode="%" horiz-adv-x="1720" d="M1337 -27q-137 0 -220 100.5t-83 276.5q0 180 91.5 285.5t222.5 105.5q133 0 218 -100t85 -274q0 -184 -86.5 -289t-227.5 -105zM1346 1434l-861 -1459h-153l862 1459h152zM371 682q-133 0 -216 98.5t-83 274.5q0 180 89 284.5t220 104.5t215 -98.5t84 -272.5 q0 -184 -86 -287.5t-223 -103.5zM1339 645q-86 0 -144 -80t-58 -215q0 -131 53 -203.5t143 -72.5q96 0 150.5 76.5t54.5 216.5q0 127 -56.5 202.5t-142.5 75.5zM379 1339q-80 0 -136.5 -78.5t-56.5 -205.5q0 -119 54.5 -193t132.5 -74q84 0 139 79t55 206q0 117 -56 191.5 t-132 74.5z" />
<glyph unicode="&#x26;" horiz-adv-x="1251" d="M1214 0h-188l-90 94q-90 -78 -178 -109.5t-207 -31.5q-244 0 -360.5 105.5t-116.5 273.5q0 236 258 418q-154 188 -154 348q0 156 115 249t285 93q145 0 218.5 -72t73.5 -186q0 -244 -335 -453l389 -399q66 82 80 389h165q-10 -319 -133 -514zM553 1298q-88 0 -148.5 -53 t-60.5 -151q0 -125 113 -263l55 43l52 42q14 10 43.5 35.5t38.5 37.5t27.5 33.5t25 38t11.5 39t5 45.5q0 74 -44 113.5t-118 39.5zM844 215l-426 426q-166 -117 -166 -295q0 -113 77 -183.5t226 -70.5q183 0 289 123z" />
<glyph unicode="'" horiz-adv-x="372" d="M289 1536l-37 -614h-131l-37 614h205z" />
<glyph unicode="(" horiz-adv-x="534" d="M485 -279h-161q-119 180 -178.5 390.5t-59.5 517.5t59.5 517t178.5 390h161q-252 -410 -252 -907.5t252 -907.5z" />
<glyph unicode=")" horiz-adv-x="534" d="M211 -279h-162q252 410 252 907.5t-252 907.5h162q119 -180 178.5 -390t59.5 -517t-59.5 -517.5t-178.5 -390.5z" />
<glyph unicode="*" horiz-adv-x="872" d="M645 874l-209 273l-205 -279l-65 66l221 240l-319 133l47 84l303 -177l-27 320h94l-32 -320l305 177l47 -86l-324 -129l232 -236z" />
<glyph unicode="+" horiz-adv-x="948" d="M852 487h-297v-278h-164v278h-297v177h297v262h164v-262h297v-177z" />
<glyph unicode="," horiz-adv-x="442" d="M324 0l-160 -223l-47 26l71 179l-69 18v176h205v-176z" />
<glyph unicode="-" horiz-adv-x="868" d="M752 487h-635v177h635v-177z" />
<glyph unicode="." horiz-adv-x="417" d="M301 0h-184v176h184v-176z" />
<glyph unicode="/" horiz-adv-x="1089" d="M1018 1434l-774 -1608h-205l774 1608h205z" />
<glyph unicode="0" horiz-adv-x="1462" d="M719 -29q-264 0 -427 197t-163 524q0 342 176 556t438 214q256 0 423 -202.5t167 -528.5q0 -346 -169 -553t-445 -207zM739 1286q-170 0 -286.5 -155.5t-116.5 -438.5q0 -268 105.5 -406.5t281.5 -138.5q186 0 296.5 147.5t110.5 436.5q0 264 -111.5 409.5t-279.5 145.5z " />
<glyph unicode="1" horiz-adv-x="727" d="M520 0h-205v1153q-115 -94 -213 -125l-32 182q86 29 171 91.5t130 132.5h149v-1434z" />
<glyph unicode="2" horiz-adv-x="1073" d="M963 0h-848q369 526 482.5 738t113.5 311q0 111 -68 171t-182 60q-188 0 -334 -190l-25 174q31 57 138.5 127.5t269.5 70.5q109 0 188.5 -34.5t123.5 -94t64.5 -126t20.5 -138.5q0 -143 -100 -348t-340 -545h496v-176z" />
<glyph unicode="3" horiz-adv-x="1120" d="M471 -29q-125 0 -241.5 39t-147.5 70l47 180q111 -59 182.5 -86t161.5 -27q125 0 215 67t90 222q0 121 -73.5 193.5t-266.5 72.5h-149l20 156h76q186 0 264 59.5t78 176.5q0 193 -244 192q-176 0 -276 -84l-35 166q33 33 119 63.5t213 30.5q102 0 182 -23.5t127 -60.5 t77 -87t40 -98t10 -99q0 -86 -41 -157t-145 -142q238 -80 237 -357q0 -223 -152.5 -345t-367.5 -122z" />
<glyph unicode="4" horiz-adv-x="1144" d="M1024 389h-174v-389h-205v389h-616l659 1045h162v-869h174v-176zM645 565v520l-313 -520h313z" />
<glyph unicode="5" horiz-adv-x="1107" d="M451 -29q-98 0 -210 27t-137 53l48 182q147 -86 297 -86q141 0 240 93.5t99 234.5q0 129 -101 190.5t-331 61.5h-174l86 707h652l-19 -177h-477l-41 -356q332 -2 475 -102.5t143 -315.5q0 -227 -163.5 -369.5t-386.5 -142.5z" />
<glyph unicode="6" horiz-adv-x="1163" d="M575 -29q-203 0 -325.5 125t-122.5 396q0 193 63.5 372.5t157.5 300.5t199.5 194t193.5 75l133 -78q-72 -33 -122 -60.5t-117.5 -81t-115.5 -115t-94 -156.5t-75 -212q96 129 289 129q186 0 310 -106.5t124 -307.5q0 -203 -137.5 -339t-360.5 -136zM621 694 q-121 0 -205 -78.5t-84 -203.5q0 -133 77.5 -202t190.5 -69q131 0 202.5 88t71.5 209q0 102 -58 179t-195 77z" />
<glyph unicode="7" horiz-adv-x="1028" d="M1008 1434l-621 -1434h-205l543 1257h-645v177h928z" />
<glyph unicode="8" horiz-adv-x="1247" d="M606 -29q-242 0 -363.5 124t-121.5 292q0 238 274 383q-190 147 -190 336q0 150 99 252t327 102q217 0 315 -94t98 -229q0 -109 -50 -178.5t-189 -165.5q166 -57 242.5 -149.5t76.5 -237.5q0 -168 -134 -301.5t-384 -133.5zM620.5 1286q-110.5 0 -174 -51t-63.5 -141 q0 -70 61.5 -131.5t165.5 -100.5q119 35 179.5 103.5t60.5 150.5q0 80 -59.5 125t-170 45zM627 692q-135 -27 -214 -102.5t-79 -202.5q0 -119 72.5 -179.5t207.5 -60.5q129 0 216.5 73t87.5 188q0 104 -82 178.5t-209 105.5z" />
<glyph unicode="9" horiz-adv-x="1167" d="M590 1462q92 0 169 -25.5t141.5 -82t101 -160.5t36.5 -248q0 -217 -63.5 -404.5t-157.5 -301t-193.5 -177t-181.5 -63.5l-149 78q90 41 159.5 84t151.5 115.5t135.5 177t71.5 233.5q-41 -55 -119 -86t-166 -31q-205 0 -319.5 104.5t-114.5 309.5t136.5 341t361.5 136z M545 739q121 0 205 79t84 208q0 127 -79 196.5t-190 69.5q-131 0 -202.5 -88t-71.5 -209q0 -102 58.5 -179t195.5 -77z" />
<glyph unicode=":" horiz-adv-x="417" d="M301 725h-184v176h184v-176zM301 0h-184v176h184v-176z" />
<glyph unicode=";" horiz-adv-x="442" d="M324 725h-205v176h205v-176zM324 -2l-160 -221l-47 26l71 179l-69 18v176h205v-178z" />
<glyph unicode="&#x3c;" horiz-adv-x="829" d="M705 160h-195l-442 422l442 422h195l-443 -422z" />
<glyph unicode="=" horiz-adv-x="1028" d="M893 651h-758v156h758v-156zM893 328h-758v155h758v-155z" />
<glyph unicode="&#x3e;" horiz-adv-x="827" d="M760 582l-443 -422h-194l442 422l-442 422h194z" />
<glyph unicode="?" horiz-adv-x="903" d="M463 410h-121q-6 83 -6 92q0 84 48 171t105.5 149.5t105.5 150.5t48 176q0 123 -78 187.5t-184 64.5q-92 0 -169 -46t-99 -93l-52 137q39 59 128.5 98t197.5 39q195 0 310.5 -121t115.5 -262q0 -72 -36 -149.5t-87 -143.5l-103 -132q-52 -66 -88 -135t-36 -128v-55z M500 0h-187v176h187v-176z" />
<glyph unicode="@" horiz-adv-x="1478" d="M1116 776q-104 109 -250 109q-190 0 -355 -181.5t-165 -394.5q0 -98 46 -162.5t149 -64.5q88 0 194.5 65.5t165.5 171.5q0 -4 -3 -30.5t-3 -32.5q0 -66 26.5 -118t86 -52t140.5 40t132 91q-98 -178 -279.5 -286.5t-392.5 -108.5q-236 0 -372 139t-136 387 q0 330 228.5 557.5t543.5 227.5q240 0 375 -140.5t135 -380.5q0 -150 -51 -286q-39 -61 -115.5 -97t-136.5 -36q-76 0 -75 108q0 49 15 113.5t46 172t51 189.5zM868 760q94 0 111 -45q-29 -168 -153 -333t-226 -165q-45 0 -67.5 37t-22.5 94q0 162 122.5 287t235.5 125z" />
<glyph unicode="A" d="M1247 0h-205l-137 387h-549l-137 -387h-205l514 1434h205zM844 563l-213 598l-213 -598h426z" />
<glyph unicode="B" horiz-adv-x="1222" d="M655 0h-491v1434h323q137 0 228.5 -13.5t166 -50.5t110.5 -108.5t36 -182.5q0 -106 -20.5 -170.5t-96.5 -144.5q133 -51 186.5 -133t53.5 -205q0 -106 -29.5 -185t-76 -124t-115 -72t-133 -36t-142.5 -9zM543 1260h-185v-422h242q53 0 86 6t70 26.5t54 68.5t17 126 q0 53 -15 90t-38.5 56.5t-63.5 30.5t-76 14.5t-91 3.5zM662 662h-304v-486h201q78 0 131 4t106.5 17.5t84 39t49 67.5t18.5 104q0 143 -77.5 198.5t-208.5 55.5z" />
<glyph unicode="C" d="M799 -29q-315 0 -517 205t-202 541t200.5 540.5t516.5 204.5q221 0 397 -84l-20 -180q-10 4 -56 20l-62 21q-16 6 -55.5 17.5t-66.5 16.5t-65 9t-72 4q-240 0 -372 -160.5t-132 -408.5t133 -409t375 -161q31 0 59.5 2.5t59.5 8.5l50 10q21 4 56 16l48 15q13 4 52 18 t48 16l20 -180q-182 -82 -395 -82z" />
<glyph unicode="D" horiz-adv-x="1488" d="M694 0h-530v1434h530q317 0 515 -191.5t198 -525.5t-198 -525.5t-515 -191.5zM694 1257h-336v-1081h336q240 0 370 146.5t130 394.5t-130 394t-370 146z" />
<glyph unicode="E" horiz-adv-x="1134" d="M1057 0h-893v1434h874v-177h-680v-419h541v-176h-541v-486h699v-176z" />
<glyph unicode="F" horiz-adv-x="1071" d="M1038 1257h-680v-419h525v-176h-525v-662h-194v1434h874v-177z" />
<glyph unicode="G" horiz-adv-x="1376" d="M782 -29q-303 0 -502.5 206t-199.5 542t200.5 539.5t518.5 203.5q238 0 426 -82l-19 -170q-219 76 -401 76q-252 0 -382 -158.5t-130 -410.5q0 -258 138 -414t407 -156q143 0 239 39v357h-225v176h420v-639q-86 -45 -227.5 -77t-262.5 -32z" />
<glyph unicode="H" horiz-adv-x="1527" d="M1364 0h-195v657h-811v-657h-194v1434h194v-592h811v592h195v-1434z" />
<glyph unicode="I" horiz-adv-x="522" d="M358 0h-194v1434h194v-1434z" />
<glyph unicode="J" horiz-adv-x="522" d="M18 -352h-32l-21 114h8q113 0 152 52.5t39 179.5v1440h194v-1500q0 -286 -340 -286z" />
<glyph unicode="K" horiz-adv-x="1181" d="M1174 0h-205l-531 760l531 674h205l-531 -674zM358 0h-194v1434h194v-1434z" />
<glyph unicode="L" horiz-adv-x="1026" d="M1016 0h-852v1434h194v-1258h658v-176z" />
<glyph unicode="M" horiz-adv-x="1662" d="M1565 0h-205l-135 1083l-389 -743l-398 743l-135 -1083h-205l193 1434h166l377 -711l372 711h168z" />
<glyph unicode="N" horiz-adv-x="1441" d="M1278 0h-166l-754 1133v-1133h-194v1434h211l706 -1074v1074h197v-1434z" />
<glyph unicode="O" horiz-adv-x="1572" d="M786.5 -29q-311.5 0 -509 204t-197.5 542t197.5 541.5t509 203.5t509 -203.5t197.5 -541.5t-197.5 -542t-509 -204zM786.5 1286q-237.5 0 -365.5 -159.5t-128 -409.5t128 -410t365.5 -160t365.5 160t128 410t-128 409.5t-365.5 159.5z" />
<glyph unicode="P" horiz-adv-x="1171" d="M680 502h-311v-502h-205v1434h459q113 0 192.5 -16.5t154 -61.5t113.5 -137.5t39 -231.5q0 -106 -27.5 -192t-72.5 -139.5t-104.5 -89.5t-118 -50t-119.5 -14zM586 1260h-217v-584h274q276 0 277 303q0 156 -74 218.5t-260 62.5z" />
<glyph unicode="Q" horiz-adv-x="1572" d="M1464 127l-102 -121l-133 111q-203 -145 -443 -146q-311 0 -508.5 204t-197.5 542t197.5 541.5t509 203.5t509 -203.5t197.5 -541.5q0 -264 -152 -490zM786 1286q-240 0 -366.5 -158.5t-126.5 -410.5t127 -411t366 -159q197 0 310 82l-211 172l102 125l215 -190 q98 154 98 381q0 248 -136 408.5t-378 160.5z" />
<glyph unicode="R" horiz-adv-x="1234" d="M1196 0h-209l-317 559h-301v-559h-205v1434h465q240 0 367.5 -95.5t127.5 -324.5q0 -133 -68.5 -239.5t-193.5 -164.5zM627 1276h-258v-528h309q96 0 170 64.5t74 201.5q0 125 -75 193.5t-220 68.5z" />
<glyph unicode="S" horiz-adv-x="1196" d="M573 -29q-297 0 -469 92l27 228q195 -143 447 -144q147 0 244.5 54.5t97.5 167.5q0 57 -27 102t-84 79t-112.5 56.5t-147.5 50.5q-98 31 -143.5 47.5t-121 52.5t-110.5 70.5t-63.5 92t-28.5 129t26.5 140t83 132t162 102.5t244.5 39q129 0 255 -29.5t196 -68.5l-21 -207 q-258 129 -412 129q-127 0 -224 -53t-97 -158q0 -90 77 -140t232 -99q72 -23 86.5 -27t80 -26.5t84.5 -33t71.5 -37t71.5 -46.5l52 -52q33 -34 46.5 -68t25 -79t11.5 -96q0 -53 -10.5 -100.5t-45.5 -104.5t-92 -98t-164 -69t-248 -28z" />
<glyph unicode="T" horiz-adv-x="1091" d="M1061 1257h-418v-1257h-194v1257h-418v177h1030v-177z" />
<glyph unicode="U" horiz-adv-x="1482" d="M741 -29q-297 0 -445.5 167t-148.5 470v826h195v-732q0 -92 8 -166.5t35 -149.5t69 -125t115.5 -82t172 -32t172 32t115.5 82t68.5 126t35 149.5t8.5 165.5v732h194v-826q0 -303 -148.5 -470t-445.5 -167z" />
<glyph unicode="V" horiz-adv-x="1318" d="M1311 1434l-549 -1434h-205l-549 1434h205l449 -1211l444 1211h205z" />
<glyph unicode="W" horiz-adv-x="1988" d="M1968 1434l-420 -1434h-215l-338 1176l-350 -1176h-215l-401 1434h204l318 -1213l358 1184h176l363 -1182l315 1211h205z" />
<glyph unicode="X" horiz-adv-x="1226" d="M1217 0h-205l-414 586l-375 -586h-205l482 715l-482 719h226l368 -560l398 560h204l-512 -695z" />
<glyph unicode="Y" horiz-adv-x="1161" d="M1165 1434l-483 -772v-662h-203v662l-485 772h205l381 -596l381 596h204z" />
<glyph unicode="Z" horiz-adv-x="1124" d="M1110 1434l-772 -1258h680v-176h-1000l770 1257h-677v177h999z" />
<glyph unicode="[" horiz-adv-x="669" d="M670 -276h-527v1812h527v-139h-357v-1534h357v-139z" />
<glyph unicode="\" horiz-adv-x="1075" d="M1036 -174h-190l-774 1608h190z" />
<glyph unicode="]" horiz-adv-x="681" d="M539 -276h-527v172h357v1468h-357v172h527v-1812z" />
<glyph unicode="^" horiz-adv-x="1046" d="M944 895l-422 442l-422 -442v217l422 442l422 -442v-217z" />
<glyph unicode="_" horiz-adv-x="1159" d="M1153 -250h-1147v176h1147v-176z" />
<glyph unicode="`" horiz-adv-x="620" d="M502 1221l-383 131v147l383 -194v-84z" />
<glyph unicode="a" horiz-adv-x="983" d="M967 127l-29 -147h-14q-123 0 -173.5 33.5t-84.5 113.5q-127 -147 -308 -147q-139 0 -224 81.5t-85 208.5q0 100 56.5 174t149.5 111t190.5 54.5t203.5 19.5q0 135 -52 183t-167 48q-133 0 -264 -90l-27 150q135 104 340 104q193 0 274 -106.5t81 -374.5v-205 q0 -119 20 -165t94 -46h19zM649 262v240q-221 -8 -316 -58.5t-95 -162.5q0 -154 155 -154q74 0 142.5 37t113.5 98z" />
<glyph unicode="b" horiz-adv-x="1136" d="M616 -20q-76 0 -166 38.5t-143 108.5l-20 -127h-164v1536h184v-641q106 129 311 129q203 0 328 -153.5t125 -368.5q0 -219 -131 -370.5t-324 -151.5zM596 860q-121 0 -210 -94t-89 -264q0 -176 88 -267.5t211 -91.5q129 0 208 103.5t79 255.5q0 156 -79 257t-208 101z " />
<glyph unicode="c" horiz-adv-x="929" d="M567 -20q-240 0 -369.5 150.5t-129.5 373.5q0 229 128 374.5t369 145.5q201 0 309 -59l-28 -166q-127 61 -260 61q-164 0 -247 -93t-83 -263t83 -266.5t247 -96.5q135 0 262 62l24 -148q-115 -75 -305 -75z" />
<glyph unicode="d" horiz-adv-x="1136" d="M1014 0h-164l-21 127q-53 -70 -142 -108.5t-165 -38.5q-193 0 -324.5 151.5t-131.5 370.5q0 215 126.5 368.5t329.5 153.5t307 -127v639h185v-1536zM537 860q-129 0 -206 -100.5t-77 -257.5q0 -152 77 -255.5t206 -103.5q125 0 219 89.5t94 263.5q0 170 -95 267t-218 97z " />
<glyph unicode="e" horiz-adv-x="1048" d="M979 502h-727q35 -358 377 -359q158 0 289 60l24 -146q-172 -77 -332 -77h-4q-256 0 -399.5 151.5t-143.5 378.5q0 219 133.5 366.5t358.5 147.5q193 0 312.5 -112.5t119.5 -311.5q0 -51 -8 -98zM551 860q-223 0 -283 -231h529q0 109 -61.5 170t-184.5 61z" />
<glyph unicode="f" horiz-adv-x="677" d="M649 860h-270v-860h-184v860h-175l25 144h150v253q0 125 60 202t173 77q129 0 209 -27l-29 -155q-57 18 -123 18q-70 0 -88 -44t-18 -202v-122h270v-144z" />
<glyph unicode="g" horiz-adv-x="1019" d="M522 -512q-238 0 -353.5 92t-115.5 211q0 162 178 225q-102 49 -102 127q0 35 27.5 77t91.5 73q-174 127 -174 328q0 174 108.5 288.5t300.5 114.5q137 0 256 -74q109 57 244 58h16l-22 -123h-47q-59 0 -119 -15q92 -111 92 -239q0 -162 -109.5 -281t-295.5 -119 q-80 0 -144 19q-49 -29 -49 -62q0 -37 58.5 -55t252.5 -51q59 -10 104.5 -20.5t107 -33t101.5 -50t68.5 -73.5t28.5 -102q0 -129 -134 -222t-370 -93zM485 877q-113 0 -174 -69t-61 -181q0 -117 66.5 -185.5t172.5 -68.5q111 0 174.5 73.5t63.5 186.5q0 115 -66.5 179.5 t-175.5 64.5zM571 -53q-35 0 -182 24q-70 -20 -115 -71.5t-45 -104.5q0 -72 80 -118t221 -46q145 0 227.5 48.5t82.5 111.5q-1 107 -269 156z" />
<glyph unicode="h" horiz-adv-x="1110" d="M995 0h-184v537q0 178 -53 250.5t-187 72.5q-178 0 -262 -131v-729h-186v1536h186v-641q102 129 291 129q395 0 395 -487v-537z" />
<glyph unicode="i" horiz-adv-x="434" d="M309 1229h-184v205h184v-205zM309 0h-184v1004h184v-1004z" />
<glyph unicode="j" horiz-adv-x="434" d="M57 -485l-61 -11l-21 142q92 10 121 48t29 156v1154h184v-1223q0 -129 -75 -189.5t-177 -76.5zM309 1229h-184v205h184v-205z" />
<glyph unicode="k" horiz-adv-x="917" d="M307 0h-184v1536h184v-985l369 453h225l-414 -463l424 -541h-225l-379 510v-510z" />
<glyph unicode="l" horiz-adv-x="483" d="M469 127l-27 -147h-59q-135 0 -197.5 69.5t-62.5 171.5v1315h184v-1208q0 -129 29 -165t133 -36z" />
<glyph unicode="m" horiz-adv-x="1796" d="M1681 0h-184v590q0 141 -55.5 205.5t-179.5 64.5q-266 0 -267 -278v-582h-184v553q0 172 -60.5 239.5t-175.5 67.5q-193 0 -266 -131v-729h-184v1004h143l21 -107q82 74 149.5 100.5t151.5 26.5q229 0 340 -201q104 201 366 201q385 0 385 -432v-592z" />
<glyph unicode="n" horiz-adv-x="1144" d="M1030 0h-184v553q0 162 -60.5 234.5t-201.5 72.5q-201 0 -275 -131v-729h-184v1004h143l21 -107q141 127 332 127q410 0 409 -471v-553z" />
<glyph unicode="o" horiz-adv-x="1126" d="M563.5 -20q-229.5 0 -363.5 148t-134 373.5t134 374t363.5 148.5t363.5 -148.5t134 -374t-134 -373.5t-363.5 -148zM563.5 860q-147.5 0 -228.5 -94t-81 -264t81 -264.5t228.5 -94.5t228 94.5t80.5 264.5t-80.5 264t-228 94z" />
<glyph unicode="p" horiz-adv-x="1140" d="M625 -20q-76 0 -169.5 39.5t-146.5 107.5v-623h-184v1500h143l21 -144q70 84 145.5 124t192.5 40q203 0 324.5 -153.5t121.5 -368.5q0 -229 -116.5 -375.5t-331.5 -146.5zM604 860q-121 0 -213 -94t-92 -264q0 -176 91 -267.5t214 -91.5q129 0 205 102.5t76 256.5 q0 158 -76 258t-205 100z" />
<glyph unicode="q" horiz-adv-x="1140" d="M516 -20q-215 0 -331.5 146t-116.5 376q0 215 121.5 368.5t324.5 153.5q117 0 192.5 -40t145.5 -124l20 144h144v-1500h-185v623q-53 -68 -146 -107.5t-169 -39.5zM537 860q-129 0 -205 -100.5t-76 -257.5q0 -154 76 -256.5t205 -102.5q123 0 214 91.5t91 267.5 q0 170 -92 264t-213 94z" />
<glyph unicode="r" horiz-adv-x="657" d="M655 1040l-41 -202h-63q-61 0 -132 -40t-97 -89v-709h-197v1004h151l23 -166q94 106 172 154t168 48h16z" />
<glyph unicode="s" horiz-adv-x="847" d="M410 -20q-217 0 -344 88l22 178q41 -37 126 -70t187 -33q201 0 201 125q0 111 -201 166q-55 14 -86.5 24.5t-82 35t-77 51t-48 74t-21.5 104.5q0 129 92 215t285 86q141 0 272 -66l-22 -167q-106 88 -246 88q-195 0 -195 -136q0 -66 49.5 -95.5t184.5 -69.5 q51 -14 88 -31t89 -50.5t81 -89t29 -128.5q0 -55 -17.5 -103.5t-57.5 -94.5t-119.5 -73.5t-188.5 -27.5z" />
<glyph unicode="t" horiz-adv-x="690" d="M651 127l-14 -147h-166q-133 0 -197.5 69.5t-64.5 169.5v641h-172l16 144h156v247l184 19v-266h264v-144h-264v-528q0 -145 31 -175t180 -30h47z" />
<glyph unicode="u" horiz-adv-x="1073" d="M948 0h-164l-20 111q-94 -131 -279 -131q-371 0 -370 440v584h184v-533q0 -328 233 -328q162 0 232 115v746h184v-1004z" />
<glyph unicode="v" horiz-adv-x="1007" d="M989 1004l-381 -1004h-207l-383 1004h205l281 -801l278 801h207z" />
<glyph unicode="w" horiz-adv-x="1484" d="M1462 1004l-303 -1004h-207l-209 741l-211 -741h-206l-301 1004h217l192 -801l213 770h191l215 -770l192 801h217z" />
<glyph unicode="x" horiz-adv-x="970" d="M948 0h-207l-254 395l-258 -395h-206l350 500l-342 504h207l251 -398l232 398h215l-330 -488z" />
<glyph unicode="y" horiz-adv-x="1034" d="M1020 1004l-614 -1500h-205l231 541l-418 959h205l313 -746l283 746h205z" />
<glyph unicode="z" horiz-adv-x="964" d="M913 1004l-534 -861h524v-143h-858l535 860h-514v144h847z" />
<glyph unicode="{" horiz-adv-x="612" d="M170 29q0 39 8 142t8 155q0 109 -32.5 180.5t-114.5 122.5q78 53 112.5 123.5t34.5 181.5q0 49 -8 152.5t-8 142.5q0 145 99.5 222t338.5 85v-141q-84 -2 -136 -15.5t-84 -34t-46 -67.5t-18.5 -94t-4.5 -140q0 -27 3.5 -87t3.5 -89q0 -76 -32 -128t-138 -111 q106 -59 138 -105.5t32 -115.5q0 -29 -3.5 -92.5t-3.5 -100.5q0 -92 4.5 -139t18.5 -94.5t46 -67.5t84 -33.5t136 -15.5v-141q-236 8 -337 83t-101 222z" />
<glyph unicode="|" horiz-adv-x="468" d="M326 -428h-183v1964h183v-1964z" />
<glyph unicode="}" horiz-adv-x="612" d="M442 29q0 -147 -101 -222t-337 -83v141q84 2 136.5 15.5t84 33.5t46 67.5t18.5 94.5t4 139q0 37 -3 100.5t-3 92.5q0 70 31.5 115.5t138.5 105.5q-106 59 -138 111.5t-32 127.5q0 29 3 89.5t3 86.5q0 92 -4 139.5t-18.5 94.5t-46 67.5t-84 34t-136.5 15.5v141 q240 -8 339 -85t99 -222q0 -39 -8 -142.5t-8 -152.5q0 -111 35 -181.5t112 -123.5q-82 -51 -114.5 -123t-32.5 -180q0 -51 8 -154.5t8 -142.5z" />
<glyph unicode="~" horiz-adv-x="931" d="M600 367q-39 0 -139.5 52t-130.5 52q-109 0 -146 -100l-73 18q23 92 85 138t126 46q43 0 147 -50t139 -50q86 0 142 105l69 -19q-23 -88 -82 -140t-137 -52z" />
<glyph unicode="&#xa1;" horiz-adv-x="458" d="M102 -512l62 1126h131l61 -1126h-254zM143 1024h172v-176h-172v176z" />
<glyph unicode="&#xa2;" horiz-adv-x="976" d="M598 178l33 -241h-139l34 241q-223 29 -339.5 177.5t-116.5 355.5q0 209 118.5 357.5t341.5 176.5l-38 287h139l-37 -287q180 -10 278 -65l-16 -160q-129 68 -260 67q-145 0 -227 -107.5t-82 -268.5q0 -160 82 -266.5t227 -106.5q135 0 260 65l16 -159q-100 -56 -274 -66 z" />
<glyph unicode="&#xa3;" horiz-adv-x="1024" d="M915 1266l-59 -78q-35 70 -71.5 101.5t-114.5 31.5q-121 0 -163 -80t-42 -242v-211h403l-24 -120h-387q-12 -164 -36 -264.5t-93 -256.5h573v-147h-831q100 137 149 294t72 374h-195l23 120h180v256q0 86 11.5 149.5t43 125t100 94.5t171.5 33q229 0 290 -180z" />
<glyph unicode="&#xa4;" horiz-adv-x="1282" d="M1155 109l-59 -50l-162 211q-145 -78 -292.5 -77.5t-293.5 77.5l-162 -211l-57 50l158 208q-162 170 -162 395.5t164 395.5l-160 209l57 49l160 -211q154 78 295 78q145 0 293 -80l164 213l57 -49l-160 -211q162 -170 162 -393q0 -221 -164 -398zM641 1106 q-158 0 -245 -110.5t-87 -282.5t87 -283t245 -111.5t245 111t87 283.5t-87 282.5t-245 110.5z" />
<glyph unicode="&#xa5;" horiz-adv-x="1380" d="M1323 1434l-530 -787h344l-45 -102h-301v-135h346l-45 -111h-301v-299h-197v299h-365l43 111h322v135h-365l43 102h320l-531 787h191l440 -629l441 629h190z" />
<glyph unicode="&#xa6;" horiz-adv-x="475" d="M328 631h-181v905h181v-905zM328 -430h-181v764h181v-764z" />
<glyph unicode="&#xa7;" horiz-adv-x="933" d="M645 385q82 -63 101.5 -112.5t19.5 -131.5q0 -127 -83 -220t-261 -93q-88 0 -170 22.5t-123 57.5l27 129q139 -84 268 -84q96 0 153.5 43t57.5 127q0 59 -31 99t-80 62.5t-108.5 41t-119.5 43t-109.5 58.5t-80 97.5t-30.5 151.5q0 238 223 305q-80 57 -105.5 109.5 t-25.5 111.5q0 143 81 238.5t257 95.5t301 -82l-27 -129q-141 88 -266 88q-90 0 -144.5 -51t-54.5 -125q0 -70 56.5 -115t135.5 -73.5t158.5 -64.5t136 -112.5t56.5 -193.5q0 -205 -213 -293zM418 897q-61 -2 -132 -49t-71 -148q0 -166 332 -251q74 20 117 79.5t43 135.5 q0 165 -289 233z" />
<glyph unicode="&#xa8;" horiz-adv-x="864" d="M686 1229h-143v205h143v-205zM322 1229h-144v205h144v-205z" />
<glyph unicode="&#xa9;" horiz-adv-x="1474" d="M737.5 76q-278.5 0 -458 185t-179.5 487q0 303 178.5 487t458.5 184q279 0 457 -184t178 -487q0 -301 -178 -486.5t-456.5 -185.5zM737 1327q-258 0 -394 -160.5t-136 -419t136 -420t394 -161.5q256 0 392.5 161.5t136.5 420t-136.5 419t-392.5 160.5zM756 403 q-143 0 -233.5 93.5t-90.5 246.5q0 156 90 249t234 93q96 0 184 -38l-14 -123q-96 39 -170 39q-90 0 -138.5 -60.5t-48.5 -159.5q0 -96 48.5 -157.5t138.5 -61.5q78 0 170 41l14 -121q-78 -41 -184 -41z" />
<glyph unicode="&#xaa;" horiz-adv-x="714" d="M641 1014l-14 -125h-56q-98 0 -137 63q-63 -63 -188 -63q-76 0 -127 47t-51 127q0 57 36.5 100t94 63.5t109.5 31t104 12.5q-2 86 -109 86q-70 0 -170 -41l-12 123q106 47 223 47q223 0 223 -221v-164q0 -61 9.5 -73.5t44.5 -12.5h20zM414 1038v129q-72 -2 -128.5 -27.5 t-56.5 -70.5q0 -66 82 -65q56 -1 103 34z" />
<glyph unicode="&#xab;" horiz-adv-x="1153" d="M1071 160h-207l-301 422l301 422h207l-303 -422zM537 160h-205l-301 422l301 422h205l-301 -422z" />
<glyph unicode="&#xac;" horiz-adv-x="1220" d="M1077 309h-112v400h-830v122h942v-522z" />
<glyph unicode="&#xad;" horiz-adv-x="868" d="M752 471h-635v193h635v-193z" />
<glyph unicode="&#xae;" horiz-adv-x="1474" d="M737.5 76q-278.5 0 -458 185t-179.5 487q0 303 178.5 487t458.5 184q279 0 457 -184t178 -487q0 -301 -178 -486.5t-456.5 -185.5zM737 1329q-258 0 -395 -161.5t-137 -420t137 -421t395 -162.5q256 0 393.5 162.5t137.5 421t-137.5 420t-393.5 161.5zM1001 430h-129 l-133 240h-112v-240h-127v657h241q111 0 168.5 -46t57.5 -158q0 -104 -111 -178zM713 987h-86v-203h82q125 0 125 103q0 49 -26.5 74.5t-94.5 25.5z" />
<glyph unicode="&#xb0;" horiz-adv-x="681" d="M340 987q-125 0 -197.5 79t-72.5 199.5t72.5 200.5t197.5 80t198.5 -80t73.5 -200.5t-73.5 -199.5t-198.5 -79zM340 1493q-84 0 -132 -67.5t-48 -159.5t48 -159t132 -67q86 0 133 67t47 159t-47 159.5t-133 67.5z" />
<glyph unicode="&#xb1;" horiz-adv-x="1019" d="M889 670h-314v-295h-131v295h-313v137h313v283h131v-283h314v-137zM889 86h-758v137h758v-137z" />
<glyph unicode="&#xb2;" horiz-adv-x="622" d="M559 655h-508q145 195 223 317t95.5 166t17.5 76q0 51 -30.5 80t-86.5 29q-104 0 -190 -121l-19 133q23 39 86.5 75t153.5 36q121 0 175 -62.5t54 -146.5q0 -137 -217 -438h246v-144z" />
<glyph unicode="&#xb3;" horiz-adv-x="634" d="M262 639q-72 0 -140.5 21.5t-82.5 39.5l37 136q66 -53 180 -54q160 0 160 107q0 61 -32 96t-120 35h-106l12 113h55q158 0 158 98q0 90 -123 90q-102 0 -145 -35l-23 109q55 51 187 51q143 0 200.5 -63.5t57.5 -143.5q0 -109 -80 -154q111 -63 110 -190 q0 -121 -90 -188.5t-215 -67.5z" />
<glyph unicode="&#xb4;" horiz-adv-x="620" d="M502 1352l-383 -131v84l383 194v-147z" />
<glyph unicode="&#xb5;" horiz-adv-x="1210" d="M1139 127l-33 -147h-53q-162 0 -219 149q-68 -78 -126.5 -115t-148.5 -37q-66 0 -114 15.5t-115 62.5v-551h-180v1500h182v-529q0 -170 54 -252t196 -82q78 0 129 27t108 92v744h178v-656q0 -115 19.5 -168t77.5 -53h45z" />
<glyph unicode="&#xb6;" horiz-adv-x="1273" d="M1188 1296h-154v-1296h-98v1296h-207v-1296h-84v498q-285 16 -431 153t-146 320q0 186 152.5 324.5t436.5 138.5h531v-138z" />
<glyph unicode="&#xb7;" horiz-adv-x="487" d="M371 436h-254v266h254v-266z" />
<glyph unicode="&#xb8;" horiz-adv-x="620" d="M569 -111l-180 -272l-94 -10l139 270z" />
<glyph unicode="&#xb9;" horiz-adv-x="442" d="M317 655h-153v566q-61 -29 -105 -35l-12 123q39 6 88 44t66 77h116v-775z" />
<glyph unicode="&#xba;" horiz-adv-x="757" d="M379 889q-141 0 -226 87t-85 212t84 211t227 86t227 -86t84 -211t-85 -212t-226 -87zM379 1364q-72 0 -113 -49t-41 -127t41 -127t113 -49t112.5 49t40.5 127t-40.5 127t-112.5 49z" />
<glyph unicode="&#xbb;" horiz-adv-x="1153" d="M1122 582l-301 -422h-205l302 422l-302 422h205zM592 582l-301 -422h-207l303 422l-303 422h207z" />
<glyph unicode="&#xbc;" horiz-adv-x="1468" d="M350 655h-153v566q-61 -29 -105 -35l-12 123q39 6 88 44t65 77h117v-775zM1104 1434l-774 -1608h-205l774 1608h205zM1399 211h-101v-211h-151v211h-359l383 563h127v-446h101v-117zM1147 328v225l-152 -225h152z" />
<glyph unicode="&#xbd;" horiz-adv-x="1492" d="M1098 1434l-774 -1608h-205l774 1608h205zM1421 0h-508q145 195 223 316.5t95.5 165.5t17.5 77q0 51 -30.5 80t-85.5 29q-104 0 -191 -121l-18 133q23 39 86 75t153 36q121 0 175.5 -62.5t54.5 -146.5q0 -137 -217 -439h245v-143zM344 655h-154v566q-61 -29 -104 -35 l-12 123q39 6 88 44t65 77h117v-775z" />
<glyph unicode="&#xbe;" horiz-adv-x="1812" d="M1450 1434l-774 -1608h-205l774 1608h205zM289 639q-72 0 -140.5 21.5t-82.5 39.5l36 136q66 -53 181 -54q160 0 159 107q0 61 -31.5 96t-119.5 35h-107l13 113h55q158 0 158 98q0 90 -123 90q-102 0 -146 -35l-22 109q55 51 186 51q143 0 200.5 -63.5t57.5 -143.5 q0 -109 -80 -154q111 -63 111 -190q0 -121 -90 -188.5t-215 -67.5zM1741 211h-101v-211h-151v211h-359l383 563h127v-446h101v-117zM1489 328v225l-152 -225h152z" />
<glyph unicode="&#xbf;" horiz-adv-x="919" d="M477 614h121q6 -83 6 -92q0 -84 -48 -171t-105.5 -149.5t-105.5 -150.5t-48 -176q0 -123 78 -187.5t184 -64.5q92 0 169 46t99 93l52 -137q-39 -59 -128 -98t-198 -39q-195 0 -310.5 121t-115.5 262q0 72 36 149.5t87 143.5l104 132q52 66 87.5 135t35.5 128v55z M440 1024h187v-176h-187v176z" />
<glyph unicode="&#xc0;" d="M1247 0h-205l-137 387h-549l-137 -387h-205l514 1434h205zM844 563l-213 598l-213 -598h426zM823 1651l-383 131v147l383 -194v-84z" />
<glyph unicode="&#xc1;" d="M1247 0h-205l-137 387h-549l-137 -387h-205l514 1434h205zM844 563l-213 598l-213 -598h426zM823 1782l-383 -131v84l383 194v-147z" />
<glyph unicode="&#xc2;" d="M1247 0h-205l-137 387h-549l-137 -387h-205l514 1434h205zM844 563l-213 598l-213 -598h426zM934 1665l-301 168l-301 -168v74l301 217l301 -217v-74z" />
<glyph unicode="&#xc3;" d="M1247 0h-205l-137 387h-549l-137 -387h-205l514 1434h205zM844 563l-213 598l-213 -598h426zM768 1657q-39 0 -139.5 52t-130.5 52q-109 0 -146 -100l-73 18q23 92 85 138.5t125 46.5q43 0 147.5 -50.5t139.5 -50.5q86 0 142 105l69 -19q-23 -88 -82 -140t-137 -52z" />
<glyph unicode="&#xc4;" d="M1247 0h-205l-137 387h-549l-137 -387h-205l514 1434h205zM844 563l-213 598l-213 -598h426zM887 1659h-144v205h144v-205zM522 1659h-143v205h143v-205z" />
<glyph unicode="&#xc5;" d="M1247 0h-205l-137 387h-549l-137 -387h-205l514 1434h205zM844 563l-213 598l-213 -598h426zM633 1610q-100 0 -156.5 53t-56.5 129t56 130t156.5 54t157 -54t56.5 -130t-55.5 -129t-157.5 -53zM633 1913q-51 0 -87 -34t-36 -87q0 -55 37 -89t86 -34t86 34t37 89 q0 53 -36 87t-87 34z" />
<glyph unicode="&#xc6;" horiz-adv-x="1771" d="M1696 0h-893v369h-438l-189 -369h-190l700 1434h989v-179h-639v-417h494v-176h-494v-486h660v-176zM803 557v694l-350 -694h350z" />
<glyph unicode="&#xc7;" d="M799 -29q-315 0 -517 205t-202 541t200.5 540.5t516.5 204.5q221 0 397 -84l-20 -180q-10 4 -56 20l-62 21q-16 6 -55.5 17.5t-66.5 16.5t-65 9t-72 4q-240 0 -372 -160.5t-132 -408.5t133 -409t375 -161q31 0 59 3q30 2 60 8l50 10q20 4 56 16l48 15q13 4 52 18t48 16 l20 -180q-182 -82 -395 -82zM768 -111l-180 -272l-94 -10l139 270z" />
<glyph unicode="&#xc8;" horiz-adv-x="1134" d="M1057 0h-893v1434h874v-177h-680v-419h541v-176h-541v-486h699v-176zM758 1651l-383 131v147l383 -194v-84z" />
<glyph unicode="&#xc9;" horiz-adv-x="1134" d="M1057 0h-893v1434h874v-177h-680v-419h541v-176h-541v-486h699v-176zM758 1782l-383 -131v84l383 194v-147z" />
<glyph unicode="&#xca;" horiz-adv-x="1134" d="M1057 0h-893v1434h874v-177h-680v-419h541v-176h-541v-486h699v-176zM866 1665l-301 168l-301 -168v74l301 217l301 -217v-74z" />
<glyph unicode="&#xcb;" horiz-adv-x="1134" d="M1057 0h-893v1434h874v-177h-680v-419h541v-176h-541v-486h699v-176zM819 1659h-143v205h143v-205zM455 1659h-144v205h144v-205z" />
<glyph unicode="&#xcc;" horiz-adv-x="522" d="M358 0h-194v1434h194v-1434zM455 1651l-383 131v147l383 -194v-84z" />
<glyph unicode="&#xcd;" horiz-adv-x="522" d="M358 0h-194v1434h194v-1434zM455 1782l-383 -131v84l383 194v-147z" />
<glyph unicode="&#xce;" horiz-adv-x="522" d="M358 0h-194v1434h194v-1434zM563 1665l-301 168l-301 -168v74l301 217l301 -217v-74z" />
<glyph unicode="&#xcf;" horiz-adv-x="522" d="M358 0h-194v1434h194v-1434zM516 1659h-143v205h143v-205zM152 1659h-144v205h144v-205z" />
<glyph unicode="&#xd0;" horiz-adv-x="1495" d="M707 0h-525v641h-198v131h198v662h525q315 0 510.5 -191.5t195.5 -525.5t-195.5 -525.5t-510.5 -191.5zM707 1257h-340v-485h272v-131h-272v-463h340q242 0 369.5 144.5t127.5 394.5t-127.5 395t-369.5 145z" />
<glyph unicode="&#xd1;" horiz-adv-x="1441" d="M1278 0h-166l-754 1133v-1133h-194v1434h211l706 -1074v1074h197v-1434zM856 1657q-39 0 -139.5 52t-130.5 52q-109 0 -146 -100l-73 18q23 92 85 138.5t126 46.5q43 0 147 -50.5t139 -50.5q86 0 142 105l69 -19q-23 -88 -82 -140t-137 -52z" />
<glyph unicode="&#xd2;" horiz-adv-x="1572" d="M786.5 -29q-311.5 0 -509 204t-197.5 542t197.5 541.5t509 203.5t509 -203.5t197.5 -541.5t-197.5 -542t-509 -204zM786.5 1286q-237.5 0 -365.5 -159.5t-128 -409.5t128 -410t365.5 -160t365.5 160t128 410t-128 409.5t-365.5 159.5zM977 1651l-383 131v147l383 -194 v-84z" />
<glyph unicode="&#xd3;" horiz-adv-x="1572" d="M786.5 -29q-311.5 0 -509 204t-197.5 542t197.5 541.5t509 203.5t509 -203.5t197.5 -541.5t-197.5 -542t-509 -204zM786.5 1286q-237.5 0 -365.5 -159.5t-128 -409.5t128 -410t365.5 -160t365.5 160t128 410t-128 409.5t-365.5 159.5zM977 1782l-383 -131v84l383 194 v-147z" />
<glyph unicode="&#xd4;" horiz-adv-x="1572" d="M786.5 -29q-311.5 0 -509 204t-197.5 542t197.5 541.5t509 203.5t509 -203.5t197.5 -541.5t-197.5 -542t-509 -204zM786.5 1286q-237.5 0 -365.5 -159.5t-128 -409.5t128 -410t365.5 -160t365.5 160t128 410t-128 409.5t-365.5 159.5zM1087 1665l-301 168l-301 -168v74 l301 217l301 -217v-74z" />
<glyph unicode="&#xd5;" horiz-adv-x="1572" d="M786.5 -29q-311.5 0 -509 204t-197.5 542t197.5 541.5t509 203.5t509 -203.5t197.5 -541.5t-197.5 -542t-509 -204zM786.5 1286q-237.5 0 -365.5 -159.5t-128 -409.5t128 -410t365.5 -160t365.5 160t128 410t-128 409.5t-365.5 159.5zM922 1657q-39 0 -139.5 52 t-131.5 52q-109 0 -145 -100l-74 18q23 92 85.5 138.5t125.5 46.5q43 0 147.5 -50.5t139.5 -50.5q86 0 141 105l70 -19q-23 -88 -82 -140t-137 -52z" />
<glyph unicode="&#xd6;" horiz-adv-x="1572" d="M786.5 -29q-311.5 0 -509 204t-197.5 542t197.5 541.5t509 203.5t509 -203.5t197.5 -541.5t-197.5 -542t-509 -204zM786.5 1286q-237.5 0 -365.5 -159.5t-128 -409.5t128 -410t365.5 -160t365.5 160t128 410t-128 409.5t-365.5 159.5zM1040 1659h-143v205h143v-205z M676 1659h-144v205h144v-205z" />
<glyph unicode="&#xd7;" horiz-adv-x="899" d="M774 317l-74 -73l-251 252l-250 -252l-74 73l252 250l-252 250l74 74l250 -252l251 252l74 -74l-254 -250z" />
<glyph unicode="&#xd8;" horiz-adv-x="1570" d="M784 -25q-184 0 -360 88l-86 -124h-191l150 215q-217 233 -217 563q0 338 197.5 541.5t508.5 203.5q178 0 353 -86l63 90h189l-125 -182q227 -227 227 -569q0 -334 -198 -537t-511 -203zM1153 1122l-621 -907q137 -59 254 -59q236 0 361 157.5t125 407.5q0 256 -119 401z M784 1280q-233 0 -358 -157.5t-125 -407.5q0 -199 113 -396l616 904q-137 57 -246 57z" />
<glyph unicode="&#xd9;" horiz-adv-x="1486" d="M743 -29q-297 0 -445 167t-148 470v826h194v-732q0 -92 8 -166.5t35 -149.5t69 -125t115.5 -82t172 -32t172 32t115.5 82t68.5 126t35 149.5t8.5 165.5v732h194v-826q0 -303 -148.5 -470t-445.5 -167zM934 1651l-383 131v147l383 -194v-84z" />
<glyph unicode="&#xda;" horiz-adv-x="1486" d="M743 -29q-297 0 -445 167t-148 470v826h194v-732q0 -92 8 -166.5t35 -149.5t69 -125t115.5 -82t172 -32t172 32t115.5 82t68.5 126t35 149.5t8.5 165.5v732h194v-826q0 -303 -148.5 -470t-445.5 -167zM934 1782l-383 -131v84l383 194v-147z" />
<glyph unicode="&#xdb;" horiz-adv-x="1486" d="M743 -29q-297 0 -445 167t-148 470v826h194v-732q0 -92 8 -166.5t35 -149.5t69 -125t115.5 -82t172 -32t172 32t115.5 82t68.5 126t35 149.5t8.5 165.5v732h194v-826q0 -303 -148.5 -470t-445.5 -167zM1044 1665l-301 168l-301 -168v74l301 217l301 -217v-74z" />
<glyph unicode="&#xdc;" horiz-adv-x="1486" d="M743 -29q-297 0 -445 167t-148 470v826h194v-732q0 -92 8 -166.5t35 -149.5t69 -125t115.5 -82t172 -32t172 32t115.5 82t68.5 126t35 149.5t8.5 165.5v732h194v-826q0 -303 -148.5 -470t-445.5 -167zM997 1659h-143v205h143v-205zM633 1659h-144v205h144v-205z" />
<glyph unicode="&#xdd;" horiz-adv-x="1161" d="M1165 1434l-483 -772v-662h-203v662l-485 772h205l381 -596l381 596h204zM797 1782l-383 -131v84l383 194v-147z" />
<glyph unicode="&#xde;" horiz-adv-x="1167" d="M508 422h-139v-422h-205v1434h205v-287h139q342 0 480 -67.5t138 -276.5t-142 -295t-476 -86zM582 1030h-213v-495h213q350 0 350 253q0 131 -83 186.5t-267 55.5z" />
<glyph unicode="&#xdf;" horiz-adv-x="1140" d="M649 -31q-23 0 -40 1t-33.5 3t-28.5 2v123q197 4 294 45t97 152q0 66 -36 126t-88 104t-103.5 82t-87 74t-35.5 64.5t38 70.5t83 84t82.5 114.5t37.5 152.5q0 121 -74.5 178.5t-170.5 57.5q-104 0 -164 -64.5t-60 -164.5v-1453h-176v1178h-151l14 125h137v139 q0 162 124 267.5t276 105.5q143 0 267 -92t124 -260q0 -84 -37 -162t-80 -123l-80 -84q-37 -39 -37 -55q-1 -20 57 -64l126 -94q68 -49 125 -135t57 -180q0 -154 -133.5 -236t-323.5 -82z" />
<glyph unicode="&#xe0;" horiz-adv-x="983" d="M967 127l-29 -147h-14q-123 0 -173.5 33.5t-84.5 113.5q-127 -147 -308 -147q-139 0 -224 81.5t-85 208.5q0 100 56.5 174t149.5 111t190.5 54.5t203.5 19.5q0 135 -52 183t-167 48q-133 0 -264 -90l-27 150q135 104 340 104q193 0 274 -106.5t81 -374.5v-205 q0 -119 20 -165t94 -46h19zM649 262v240q-221 -8 -316 -58.5t-95 -162.5q0 -154 155 -154q74 0 142.5 37t113.5 98zM682 1221l-383 131v147l383 -194v-84z" />
<glyph unicode="&#xe1;" horiz-adv-x="983" d="M967 127l-29 -147h-14q-123 0 -173.5 33.5t-84.5 113.5q-127 -147 -308 -147q-139 0 -224 81.5t-85 208.5q0 100 56.5 174t149.5 111t190.5 54.5t203.5 19.5q0 135 -52 183t-167 48q-133 0 -264 -90l-27 150q135 104 340 104q193 0 274 -106.5t81 -374.5v-205 q0 -119 20 -165t94 -46h19zM649 262v240q-221 -8 -316 -58.5t-95 -162.5q0 -154 155 -154q74 0 142.5 37t113.5 98zM682 1352l-383 -131v84l383 194v-147z" />
<glyph unicode="&#xe2;" horiz-adv-x="983" d="M967 127l-29 -147h-14q-123 0 -173.5 33.5t-84.5 113.5q-127 -147 -308 -147q-139 0 -224 81.5t-85 208.5q0 100 56.5 174t149.5 111t190.5 54.5t203.5 19.5q0 135 -52 183t-167 48q-133 0 -264 -90l-27 150q135 104 340 104q193 0 274 -106.5t81 -374.5v-205 q0 -119 20 -165t94 -46h19zM649 262v240q-221 -8 -316 -58.5t-95 -162.5q0 -154 155 -154q74 0 142.5 37t113.5 98zM793 1235l-301 168l-302 -168v74l302 217l301 -217v-74z" />
<glyph unicode="&#xe3;" horiz-adv-x="983" d="M967 127l-29 -147h-14q-123 0 -173.5 33.5t-84.5 113.5q-127 -147 -308 -147q-139 0 -224 81.5t-85 208.5q0 100 56.5 174t149.5 111t190.5 54.5t203.5 19.5q0 135 -52 183t-167 48q-133 0 -264 -90l-27 150q135 104 340 104q193 0 274 -106.5t81 -374.5v-205 q0 -119 20 -165t94 -46h19zM649 262v240q-221 -8 -316 -58.5t-95 -162.5q0 -154 155 -154q74 0 142.5 37t113.5 98zM618 1227q-39 0 -139 52t-131 52q-109 0 -145 -100l-74 18q23 92 85 138.5t126 46.5q43 0 147.5 -50.5t139.5 -50.5q86 0 141 105l70 -19 q-23 -88 -82.5 -140t-137.5 -52z" />
<glyph unicode="&#xe4;" horiz-adv-x="983" d="M967 127l-29 -147h-14q-123 0 -173.5 33.5t-84.5 113.5q-127 -147 -308 -147q-139 0 -224 81.5t-85 208.5q0 100 56.5 174t149.5 111t190.5 54.5t203.5 19.5q0 135 -52 183t-167 48q-133 0 -264 -90l-27 150q135 104 340 104q193 0 274 -106.5t81 -374.5v-205 q0 -119 20 -165t94 -46h19zM649 262v240q-221 -8 -316 -58.5t-95 -162.5q0 -154 155 -154q74 0 142.5 37t113.5 98zM745 1229h-143v205h143v-205zM381 1229h-143v205h143v-205z" />
<glyph unicode="&#xe5;" horiz-adv-x="983" d="M967 127l-29 -147h-14q-123 0 -173.5 33.5t-84.5 113.5q-127 -147 -308 -147q-139 0 -224 81.5t-85 208.5q0 100 56.5 174t149.5 111t190.5 54.5t203.5 19.5q0 135 -52 183t-167 48q-133 0 -264 -90l-27 150q135 104 340 104q193 0 274 -106.5t81 -374.5v-205 q0 -119 20 -165t94 -46h19zM649 262v240q-221 -8 -316 -58.5t-95 -162.5q0 -154 155 -154q74 0 142.5 37t113.5 98zM492 1180q-100 0 -156.5 53t-56.5 129t56 130t156.5 54t157 -54t56.5 -130t-55.5 -129t-157.5 -53zM491.5 1483q-51.5 0 -87 -34t-35.5 -87q0 -55 36.5 -89 t86 -34t86 34t36.5 89q0 53 -35.5 87t-87 34z" />
<glyph unicode="&#xe6;" horiz-adv-x="1634" d="M1565 502h-688q0 -182 92 -278.5t245 -96.5q68 0 121.5 16.5t153.5 59.5l35 -142q-182 -82 -334 -81q-305 0 -412 231q-53 -117 -166.5 -178.5t-259.5 -61.5q-152 0 -229.5 72t-77.5 199q0 356 617 387q-18 125 -72.5 178t-169.5 53q-113 0 -250 -59l-16 143 q172 80 319 80q43 0 87 -10t96.5 -35t91 -76t51.5 -125q41 127 146.5 186.5t236.5 59.5q178 0 284.5 -107.5t106.5 -302.5q0 -46 -8 -112zM1174 860q-219 0 -281 -231h504q0 231 -223 231zM678 502q-106 0 -201.5 -21.5t-169.5 -79t-74 -143.5q0 -131 160 -131 q115 0 202 68.5t87 210.5q0 59 -4 96z" />
<glyph unicode="&#xe7;" horiz-adv-x="929" d="M567 -20q-240 0 -369.5 150.5t-129.5 373.5q0 229 128 374.5t369 145.5q201 0 309 -59l-28 -166q-127 61 -260 61q-164 0 -247 -93t-83 -263t83 -266.5t247 -96.5q135 0 262 62l24 -148q-115 -75 -305 -75zM668 -111l-181 -272l-94 -10l139 270z" />
<glyph unicode="&#xe8;" horiz-adv-x="1048" d="M979 502h-727q35 -358 377 -359q158 0 289 60l24 -146q-174 -78 -336 -77q-256 0 -399.5 151.5t-143.5 378.5q0 219 133.5 366.5t358.5 147.5q193 0 312.5 -112.5t119.5 -311.5q0 -51 -8 -98zM551 860q-223 0 -283 -231h529q0 109 -61.5 170t-184.5 61zM715 1221 l-383 131v147l383 -194v-84z" />
<glyph unicode="&#xe9;" horiz-adv-x="1048" d="M979 502h-727q35 -358 377 -359q158 0 289 60l24 -146q-174 -78 -336 -77q-256 0 -399.5 151.5t-143.5 378.5q0 219 133.5 366.5t358.5 147.5q193 0 312.5 -112.5t119.5 -311.5q0 -51 -8 -98zM551 860q-223 0 -283 -231h529q0 109 -61.5 170t-184.5 61zM715 1352 l-383 -131v84l383 194v-147z" />
<glyph unicode="&#xea;" horiz-adv-x="1048" d="M979 502h-727q35 -358 377 -359q158 0 289 60l24 -146q-174 -78 -336 -77q-256 0 -399.5 151.5t-143.5 378.5q0 219 133.5 366.5t358.5 147.5q193 0 312.5 -112.5t119.5 -311.5q0 -51 -8 -98zM551 860q-223 0 -283 -231h529q0 109 -61.5 170t-184.5 61zM823 1235 l-301 168l-301 -168v74l301 217l301 -217v-74z" />
<glyph unicode="&#xeb;" horiz-adv-x="1048" d="M979 502h-727q35 -358 377 -359q158 0 289 60l24 -146q-174 -78 -336 -77q-256 0 -399.5 151.5t-143.5 378.5q0 219 133.5 366.5t358.5 147.5q193 0 312.5 -112.5t119.5 -311.5q0 -51 -8 -98zM551 860q-223 0 -283 -231h529q0 109 -61.5 170t-184.5 61zM776 1229h-143 v205h143v-205zM412 1229h-144v205h144v-205z" />
<glyph unicode="&#xec;" horiz-adv-x="434" d="M309 0h-184v1004h184v-1004zM410 1221l-383 131v147l383 -194v-84z" />
<glyph unicode="&#xed;" horiz-adv-x="434" d="M309 0h-184v1004h184v-1004zM410 1352l-383 -131v84l383 194v-147z" />
<glyph unicode="&#xee;" horiz-adv-x="434" d="M309 0h-184v1004h184v-1004zM518 1235l-301 168l-301 -168v74l301 217l301 -217v-74z" />
<glyph unicode="&#xef;" horiz-adv-x="434" d="M309 0h-184v1004h184v-1004zM471 1229h-143v205h143v-205zM106 1229h-143v205h143v-205z" />
<glyph unicode="&#xf0;" horiz-adv-x="1058" d="M510 -25q-195 0 -324 124t-129 313q0 176 112 318t320 142q174 0 277 -112q-14 100 -63.5 218t-112.5 169q-156 -109 -289 -127l-61 113q129 18 262 106q-123 111 -248 111l65 86q145 0 306 -113q66 59 120 131l95 -24q-45 -68 -142 -173q133 -121 213 -320.5t80 -410.5 q0 -156 -46 -270.5t-120.5 -171.5t-152.5 -83t-162 -26zM520 702q-117 0 -187.5 -80.5t-70.5 -191.5q0 -121 70.5 -203t185.5 -82q111 0 178.5 79t67.5 202t-66.5 199.5t-177.5 76.5z" />
<glyph unicode="&#xf1;" horiz-adv-x="1144" d="M1030 0h-184v553q0 162 -60.5 234.5t-201.5 72.5q-201 0 -275 -131v-729h-184v1004h143l21 -107q141 127 332 127q410 0 409 -471v-553zM707 1227q-39 0 -139.5 52t-131.5 52q-109 0 -145 -100l-74 18q23 92 85.5 138.5t125.5 46.5q43 0 147.5 -50.5t139.5 -50.5 q86 0 141 105l70 -19q-23 -88 -82 -140t-137 -52z" />
<glyph unicode="&#xf2;" horiz-adv-x="1126" d="M563.5 -20q-229.5 0 -363.5 148t-134 373.5t134 374t363.5 148.5t363.5 -148.5t134 -374t-134 -373.5t-363.5 -148zM563.5 860q-147.5 0 -228.5 -94t-81 -264t81 -264.5t228.5 -94.5t228 94.5t80.5 264.5t-80.5 264t-228 94zM754 1221l-383 131v147l383 -194v-84z" />
<glyph unicode="&#xf3;" horiz-adv-x="1126" d="M563.5 -20q-229.5 0 -363.5 148t-134 373.5t134 374t363.5 148.5t363.5 -148.5t134 -374t-134 -373.5t-363.5 -148zM563.5 860q-147.5 0 -228.5 -94t-81 -264t81 -264.5t228.5 -94.5t228 94.5t80.5 264.5t-80.5 264t-228 94zM754 1352l-383 -131v84l383 194v-147z" />
<glyph unicode="&#xf4;" horiz-adv-x="1126" d="M563.5 -20q-229.5 0 -363.5 148t-134 373.5t134 374t363.5 148.5t363.5 -148.5t134 -374t-134 -373.5t-363.5 -148zM563.5 860q-147.5 0 -228.5 -94t-81 -264t81 -264.5t228.5 -94.5t228 94.5t80.5 264.5t-80.5 264t-228 94zM864 1235l-301 168l-301 -168v74l301 217 l301 -217v-74z" />
<glyph unicode="&#xf5;" horiz-adv-x="1126" d="M563.5 -20q-229.5 0 -363.5 148t-134 373.5t134 374t363.5 148.5t363.5 -148.5t134 -374t-134 -373.5t-363.5 -148zM563.5 860q-147.5 0 -228.5 -94t-81 -264t81 -264.5t228.5 -94.5t228 94.5t80.5 264.5t-80.5 264t-228 94zM698 1227q-39 0 -139 52t-131 52 q-109 0 -145 -100l-74 18q23 92 85 138.5t126 46.5q43 0 147.5 -50.5t139.5 -50.5q86 0 141 105l70 -19q-23 -88 -82.5 -140t-137.5 -52z" />
<glyph unicode="&#xf6;" horiz-adv-x="1126" d="M563.5 -20q-229.5 0 -363.5 148t-134 373.5t134 374t363.5 148.5t363.5 -148.5t134 -374t-134 -373.5t-363.5 -148zM563.5 860q-147.5 0 -228.5 -94t-81 -264t81 -264.5t228.5 -94.5t228 94.5t80.5 264.5t-80.5 264t-228 94zM817 1229h-143v205h143v-205zM453 1229h-144 v205h144v-205z" />
<glyph unicode="&#xf7;" horiz-adv-x="1212" d="M688 901h-182v193h182v-193zM1077 502h-942v151h942v-151zM688 41h-182v192h182v-192z" />
<glyph unicode="&#xf8;" horiz-adv-x="1167" d="M586 -16q-72 0 -176 22l-39 -78h-146l66 135q-223 166 -223 447q0 223 139 374.5t377 151.5q74 0 172 -24l39 82h151l-69 -136q227 -172 227 -450q0 -223 -140 -373.5t-378 -150.5zM809 815l-334 -676q86 -12 113 -12q150 0 233.5 108.5t83.5 272.5q0 88 -23.5 179 t-72.5 128zM582 893q-147 0 -231.5 -108.5t-84.5 -276.5q0 -137 94 -303l330 674q-81 14 -108 14z" />
<glyph unicode="&#xf9;" horiz-adv-x="1073" d="M948 0h-164l-20 111q-94 -131 -279 -131q-371 0 -370 440v584h184v-533q0 -328 233 -328q162 0 232 115v746h184v-1004zM762 1221l-383 131v147l383 -194v-84z" />
<glyph unicode="&#xfa;" horiz-adv-x="1073" d="M948 0h-164l-20 111q-94 -131 -279 -131q-371 0 -370 440v584h184v-533q0 -328 233 -328q162 0 232 115v746h184v-1004zM762 1352l-383 -131v84l383 194v-147z" />
<glyph unicode="&#xfb;" horiz-adv-x="1073" d="M948 0h-164l-20 111q-94 -131 -279 -131q-371 0 -370 440v584h184v-533q0 -328 233 -328q162 0 232 115v746h184v-1004zM872 1235l-301 168l-301 -168v74l301 217l301 -217v-74z" />
<glyph unicode="&#xfc;" horiz-adv-x="1073" d="M948 0h-164l-20 111q-94 -131 -279 -131q-371 0 -370 440v584h184v-533q0 -328 233 -328q162 0 232 115v746h184v-1004zM825 1229h-143v205h143v-205zM461 1229h-144v205h144v-205z" />
<glyph unicode="&#xfd;" horiz-adv-x="1034" d="M1020 1004l-614 -1500h-205l231 541l-418 959h205l313 -746l283 746h205zM707 1352l-383 -131v84l383 194v-147z" />
<glyph unicode="&#xfe;" horiz-adv-x="1187" d="M618 -20q-209 0 -311 135v-609h-184v2030h184v-639q127 127 324 127q225 0 358 -150.5t133 -371.5t-134 -371.5t-370 -150.5zM602 860q-160 0 -234.5 -96t-74.5 -262q0 -168 75.5 -271.5t233.5 -103.5q160 0 247 103.5t87 271.5q0 164 -87 261t-247 97z" />
<glyph unicode="&#xff;" horiz-adv-x="1034" d="M1020 1004l-614 -1500h-205l231 541l-418 959h205l313 -746l283 746h205zM768 1229h-143v205h143v-205zM403 1229h-143v205h143v-205z" />
<glyph unicode="&#x131;" horiz-adv-x="434" d="M309 0h-184v1004h184v-1004z" />
<glyph unicode="&#x152;" horiz-adv-x="2193" d="M2118 0h-840v170q-141 -109 -259 -154t-245 -45q-305 0 -498.5 204t-193.5 542t193.5 541.5t498.5 203.5q127 0 245 -45t259 -153v168h821v-175h-635v-419h488v-176h-488v-486h654v-176zM774 1286q-238 0 -362.5 -158.5t-124.5 -410.5t125 -411t362 -159q236 0 361 159 t125 411t-125 410.5t-361 158.5z" />
<glyph unicode="&#x153;" horiz-adv-x="1847" d="M1778 502h-703q0 -113 33 -193t87 -116.5t103.5 -51t100.5 -14.5q170 0 317 76l21 -158q-143 -66 -314 -65q-190 0 -294.5 54t-151.5 165q-45 -104 -157.5 -161.5t-250.5 -57.5q-229 0 -366 152.5t-137 379.5q0 223 137 367.5t375 144.5q123 0 235.5 -54.5t155.5 -154.5 q55 100 162.5 154.5t218.5 54.5q197 0 316.5 -111.5t119.5 -306.5q0 -57 -8 -104zM1348 860q-219 0 -269 -231h518q-8 111 -74 171t-175 60zM578 860q-158 0 -241 -94t-83 -264q0 -172 82 -265.5t239 -93.5q154 0 233 101.5t79 263.5q0 158 -82 255t-227 97z" />
<glyph unicode="&#x160;" horiz-adv-x="1196" d="M573 -29q-297 0 -469 92l27 228q195 -143 447 -144q147 0 244.5 54.5t97.5 167.5q0 57 -27 102t-84 79t-112.5 56.5t-147.5 50.5q-98 31 -143.5 47.5t-121 52.5t-110.5 70.5t-63.5 92t-28.5 129t26.5 140t83 132t162 102.5t244.5 39q129 0 255 -29.5t196 -68.5l-21 -207 q-258 129 -412 129q-127 0 -224 -53t-97 -158q0 -90 77 -140t232 -99q72 -23 86.5 -27t80 -26.5t84.5 -33l71 -37.5q54 -26 72 -46l52 -52q34 -34 47 -68t24.5 -79t11.5 -96q0 -53 -10.5 -100.5t-45.5 -104.5t-92 -98t-164 -69t-248 -28zM899 1862l-301 -203l-301 203v84 l301 -156l301 156v-84z" />
<glyph unicode="&#x161;" horiz-adv-x="847" d="M410 -20q-217 0 -344 88l22 178q41 -37 126 -70t187 -33q201 0 201 125q0 111 -201 166q-55 14 -86.5 24.5t-82 35t-77 51t-48 74t-21.5 104.5q0 129 92 215t285 86q141 0 272 -66l-22 -167q-106 88 -246 88q-195 0 -195 -136q0 -66 49.5 -95.5t184.5 -69.5 q51 -14 88 -31t89 -50.5t81 -89t29 -128.5q0 -55 -17.5 -103.5t-57.5 -94.5t-119.5 -73.5t-188.5 -27.5zM709 1432l-301 -203l-302 203v84l302 -156l301 156v-84z" />
<glyph unicode="&#x178;" horiz-adv-x="1161" d="M1165 1434l-483 -772v-662h-203v662l-485 772h205l381 -596l381 596h204zM860 1659h-143v205h143v-205zM496 1659h-144v205h144v-205z" />
<glyph unicode="&#x17d;" horiz-adv-x="1124" d="M1110 1434l-772 -1258h680v-176h-1000l770 1257h-677v177h999zM883 1862l-301 -203l-301 203v84l301 -156l301 156v-84z" />
<glyph unicode="&#x17e;" horiz-adv-x="964" d="M913 1004l-534 -861h524v-143h-858l535 860h-514v144h847zM786 1432l-301 -203l-301 203v84l301 -156l301 156v-84z" />
<glyph unicode="&#x192;" horiz-adv-x="718" d="M760 1440l-15 -113q-25 16 -65 16q-125 0 -180.5 -74.5t-87.5 -264.5h303l-13 -115h-313l-176 -1077q-27 -162 -99.5 -234t-129.5 -72h-27l-27 129q117 25 146 207l164 1047h-193l14 115h197l18 124q25 158 129.5 246t247.5 88q39 1 107 -22z" />
<glyph unicode="&#x237;" horiz-adv-x="434" d="M57 -485l-61 -11l-21 142q92 10 121 48t29 156v1154h184v-1223q0 -129 -75 -189.5t-177 -76.5z" />
<glyph unicode="&#x2c6;" horiz-adv-x="913" d="M758 1235l-301 168l-301 -168v74l301 217l301 -217v-74z" />
<glyph unicode="&#x2c7;" horiz-adv-x="913" d="M758 1432l-301 -203l-301 203v84l301 -156l301 156v-84z" />
<glyph unicode="&#x2da;" horiz-adv-x="598" d="M299 1180q-100 0 -156.5 53t-56.5 129t56.5 130t156.5 54t156.5 -54t56.5 -130t-55.5 -129t-157.5 -53zM299 1483q-51 0 -87 -34t-36 -87q0 -55 37 -89t86 -34t86 34t37 89q0 53 -36 87t-87 34z" />
<glyph unicode="&#x2dc;" horiz-adv-x="1081" d="M678 1227q-39 0 -139.5 52t-130.5 52q-109 0 -146 -100l-74 18q23 92 85.5 138.5t125.5 46.5q43 0 147.5 -50.5t139.5 -50.5q86 0 141 105l70 -19q-23 -88 -82 -140t-137 -52z" />
<glyph unicode="&#x2000;" horiz-adv-x="988" />
<glyph unicode="&#x2001;" horiz-adv-x="1976" />
<glyph unicode="&#x2002;" horiz-adv-x="988" />
<glyph unicode="&#x2003;" horiz-adv-x="1976" />
<glyph unicode="&#x2004;" horiz-adv-x="658" />
<glyph unicode="&#x2005;" horiz-adv-x="494" />
<glyph unicode="&#x2006;" horiz-adv-x="329" />
<glyph unicode="&#x2007;" horiz-adv-x="329" />
<glyph unicode="&#x2008;" horiz-adv-x="247" />
<glyph unicode="&#x2009;" horiz-adv-x="395" />
<glyph unicode="&#x200a;" horiz-adv-x="109" />
<glyph unicode="&#x2010;" horiz-adv-x="868" d="M752 487h-635v177h635v-177z" />
<glyph unicode="&#x2011;" horiz-adv-x="868" d="M752 487h-635v177h635v-177z" />
<glyph unicode="&#x2012;" horiz-adv-x="868" d="M752 487h-635v177h635v-177z" />
<glyph unicode="&#x2013;" horiz-adv-x="1028" d="M911 487h-794v177h794v-177z" />
<glyph unicode="&#x2014;" horiz-adv-x="1216" d="M1100 487h-983v177h983v-177z" />
<glyph unicode="&#x2018;" horiz-adv-x="380" d="M88 1313l160 223l47 -27l-72 -178l70 -18v-176h-205v176z" />
<glyph unicode="&#x2019;" horiz-adv-x="346" d="M293 1360l-160 -223l-47 26l72 178l-70 19v176h205v-176z" />
<glyph unicode="&#x201a;" horiz-adv-x="442" d="M324 0l-160 -223l-47 26l71 179l-69 18v176h205v-176z" />
<glyph unicode="&#x201c;" horiz-adv-x="811" d="M88 1313l160 223l47 -27l-72 -178l70 -18v-176h-205v176zM518 1313l160 223l47 -27l-72 -178l70 -18v-176h-205v176z" />
<glyph unicode="&#x201d;" horiz-adv-x="776" d="M723 1360l-160 -223l-47 26l72 178l-70 19v176h205v-176zM293 1360l-160 -223l-47 26l72 178l-70 19v176h205v-176z" />
<glyph unicode="&#x201e;" horiz-adv-x="913" d="M324 0l-160 -223l-47 26l71 179l-69 18v176h205v-176zM795 0l-160 -223l-47 26l71 179l-69 18v176h205v-176z" />
<glyph unicode="&#x2020;" horiz-adv-x="868" d="M797 764l-324 61l84 -309l-63 -516h-119l-64 516l84 309l-323 -61v174l319 -64l-69 369h225l-70 -369l320 64v-174z" />
<glyph unicode="&#x2021;" horiz-adv-x="942" d="M834 180l-320 62l70 -363h-226l70 363l-319 -62v172l327 -61l-88 270l88 273l-327 -62v172l319 -61l-70 360h226l-70 -360l320 61v-172l-328 62l88 -273l-88 -270l328 61v-172z" />
<glyph unicode="&#x2022;" horiz-adv-x="626" d="M313.5 346q-92.5 0 -158 65.5t-65.5 158t65.5 158t158 65.5t158 -65.5t65.5 -158t-65.5 -158t-158 -65.5z" />
<glyph unicode="&#x2026;" horiz-adv-x="1384" d="M301 0h-184v176h184v-176zM784 0h-184v176h184v-176zM1268 0h-185v176h185v-176z" />
<glyph unicode="&#x202f;" horiz-adv-x="395" />
<glyph unicode="&#x2030;" horiz-adv-x="2459" d="M1339 -27q-137 0 -220 100.5t-83 276.5q0 180 91.5 285.5t222.5 105.5q133 0 218 -100t85 -274q0 -184 -86.5 -289t-227.5 -105zM1348 1434l-861 -1459h-153l862 1459h152zM373 682q-133 0 -216 98.5t-83 274.5q0 180 89 284.5t220 104.5t215 -98.5t84 -272.5 q0 -184 -86 -287.5t-223 -103.5zM1341 645q-88 0 -145 -80t-57 -215q0 -131 53 -203.5t143 -72.5q96 0 150.5 76.5t54.5 216.5q0 127 -56.5 202.5t-142.5 75.5zM381 1339q-80 0 -136.5 -78.5t-56.5 -205.5q0 -119 54.5 -193t132.5 -74q84 0 139 79t55 206q0 117 -56 191.5 t-132 74.5zM2077 -27q-137 0 -220 100.5t-83 276.5q0 180 91 285.5t222 105.5q133 0 218 -100t85 -274q0 -184 -86 -289t-227 -105zM2079 645q-88 0 -145.5 -80t-57.5 -215q0 -131 53 -203.5t144 -72.5q96 0 150 76.5t54 216.5q0 127 -56 202.5t-142 75.5z" />
<glyph unicode="&#x2039;" horiz-adv-x="659" d="M578 160h-224l-325 422l325 422h224l-326 -422z" />
<glyph unicode="&#x203a;" horiz-adv-x="661" d="M633 582l-326 -422h-223l326 422l-326 422h223z" />
<glyph unicode="&#x205f;" horiz-adv-x="494" />
<glyph unicode="&#x2070;" horiz-adv-x="833" d="M410 639q-154 0 -248 107.5t-94 283.5q0 182 102 299t254 117q147 0 244.5 -111.5t97.5 -285.5q0 -184 -98 -297t-258 -113zM422 1315q-82 0 -142.5 -74t-60.5 -211q0 -131 53.5 -194.5t139.5 -63.5q92 0 148 67.5t56 209.5q0 129 -56 197.5t-138 68.5z" />
<glyph unicode="&#x2074;" horiz-adv-x="675" d="M621 866h-101v-211h-151v211h-359l383 564h127v-447h101v-117zM369 983v225l-152 -225h152z" />
<glyph unicode="&#x2075;" horiz-adv-x="628" d="M266 641q-72 0 -142.5 24.5t-74.5 41.5l35 133q70 -59 178 -60q160 0 160 125q0 113 -203 113h-127l51 412h383l-16 -144h-252l-20 -145q174 -2 252.5 -57.5t78.5 -174.5q0 -129 -89 -198.5t-214 -69.5z" />
<glyph unicode="&#x2076;" horiz-adv-x="659" d="M324 639q-117 0 -187.5 72.5t-70.5 226.5q0 197 126.5 344.5t229.5 147.5l100 -58q-68 0 -176 -101.5t-121 -189.5q37 39 140 39q111 0 180 -57t69 -166q0 -106 -80.5 -182t-209.5 -76zM354 1001q-63 0 -102 -30.5t-39 -89.5q0 -49 40 -79t87 -30q59 0 96 38t37 91 q0 39 -31 69.5t-88 30.5z" />
<glyph unicode="&#x2077;" horiz-adv-x="593" d="M594 1430l-348 -775h-158l285 631h-326v144h547z" />
<glyph unicode="&#x2078;" horiz-adv-x="708" d="M342 639q-137 0 -208 63.5t-71 157.5q0 125 130 213q-82 57 -82 176q0 86 58 141.5t189 55.5q127 0 184.5 -50t57.5 -130q0 -111 -102 -185q66 -27 106.5 -80t40.5 -118q0 -96 -78 -170t-225 -74zM354 1331q-111 0 -110 -96q0 -84 104 -109q113 27 113 113q-1 92 -107 92 zM358 1022q-61 -8 -105 -48t-44 -102q0 -55 37 -85.5t102 -30.5q70 0 109 32.5t39 88.5q0 59 -39.5 96t-98.5 49z" />
<glyph unicode="&#x2079;" horiz-adv-x="663" d="M336 1446q115 0 187.5 -74t72.5 -223q0 -197 -119 -345.5t-239 -148.5l-97 58q70 0 181.5 92t117.5 199q-39 -39 -145 -39q-113 0 -181.5 56t-68.5 163q0 109 81 185.5t210 76.5zM309 1083q63 0 102.5 30t39.5 89q0 111 -125 111q-61 0 -96 -37t-35 -86q0 -45 27.5 -76 t86.5 -31z" />
<glyph unicode="&#x2080;" horiz-adv-x="882" d="M434 -16q-154 0 -248 107.5t-94 283.5q0 182 102.5 299t254.5 117q147 0 244.5 -112t97.5 -286q0 -184 -98.5 -296.5t-258.5 -112.5zM446.5 659q-81.5 0 -142 -73.5t-60.5 -210.5q0 -131 53 -194.5t139 -63.5q92 0 148.5 67.5t56.5 208.5q0 129 -56.5 197.5t-138 68.5z " />
<glyph unicode="&#x2081;" horiz-adv-x="485" d="M348 0h-153v565q-61 -29 -105 -35l-12 123q39 6 88 44t65 77h117v-774z" />
<glyph unicode="&#x2082;" horiz-adv-x="679" d="M586 0h-508q145 195 223 316.5t95.5 165.5t17.5 77q0 51 -31 80t-86 29q-104 0 -191 -121l-18 133q23 39 86.5 75t153.5 36q121 0 175 -62.5t54 -146.5q0 -137 -217 -439h246v-143z" />
<glyph unicode="&#x2083;" horiz-adv-x="690" d="M291 -16q-72 0 -140.5 21.5t-82.5 39.5l36 135q66 -53 181 -53q160 0 159 106q0 61 -31.5 96.5t-119.5 35.5h-107l13 112h55q158 0 158 98q0 90 -123 91q-102 0 -146 -35l-22 108q55 51 186 52q143 0 200.5 -63.5t57.5 -143.5q0 -109 -80 -154q111 -63 111 -190 q0 -121 -90 -188.5t-215 -67.5z" />
<glyph unicode="&#x2084;" horiz-adv-x="731" d="M645 211h-100v-211h-152v211h-358l383 563h127v-446h100v-117zM393 328v225l-151 -225h151z" />
<glyph unicode="&#x2085;" horiz-adv-x="679" d="M289 -14q-72 0 -142.5 24.5t-74.5 40.5l34 133q70 -59 179 -59q160 0 159 125q0 113 -202 112h-127l51 412h383l-17 -143h-251l-21 -146q174 -2 253 -57t79 -174q0 -129 -89 -198.5t-214 -69.5z" />
<glyph unicode="&#x2086;" horiz-adv-x="710" d="M350 -16q-117 0 -187.5 72.5t-70.5 226.5q0 197 127 344t230 147l100 -57q-68 0 -176.5 -101.5t-120.5 -189.5q37 39 139 39q111 0 180.5 -57.5t69.5 -165.5q0 -106 -81 -182t-210 -76zM381 346q-63 0 -102 -30.5t-39 -90.5q0 -49 39.5 -78.5t87.5 -29.5q59 0 96 38 t37 91q0 39 -31 69.5t-88 30.5z" />
<glyph unicode="&#x2087;" horiz-adv-x="679" d="M633 774l-348 -774h-158l285 631h-326v143h547z" />
<glyph unicode="&#x2088;" horiz-adv-x="761" d="M369 -16q-137 0 -208 63.5t-71 157.5q0 125 129 213q-82 57 -82 176q0 86 58.5 141.5t189.5 55.5q127 0 184.5 -50.5t57.5 -130.5q0 -111 -103 -184q66 -27 107 -80t41 -119q0 -96 -78 -169.5t-225 -73.5zM381 676q-111 0 -111 -96q0 -84 105 -109q113 27 112 113 q0 92 -106 92zM385 367q-61 -8 -105 -48t-44 -102q0 -55 36.5 -86t102.5 -31q70 0 108.5 33t38.5 88q0 59 -39 96.5t-98 49.5z" />
<glyph unicode="&#x2089;" horiz-adv-x="708" d="M356 791q115 0 187.5 -74t72.5 -223q0 -197 -118.5 -345.5t-239.5 -148.5l-96 57q68 0 180.5 93.5t118.5 197.5q-39 -39 -146 -39q-113 0 -181 56.5t-68 162.5q0 109 80.5 186t209.5 77zM330 428q63 0 102 29.5t39 89.5q0 111 -125 110q-61 0 -96 -36.5t-35 -85.5 q0 -45 28 -76t87 -31z" />
<glyph unicode="&#x20ac;" horiz-adv-x="1439" d="M962.5 35q-208.5 0 -368.5 106.5t-238 298.5h-288l49 142h202q-8 76 -8 135v49h-182l45 131h156q57 236 227 369t406 133q209 0 360 -70l-25 -201q-184 78 -335 78q-299 0 -394 -309h529l-49 -131h-500v-49q0 -70 10 -135h498l-49 -142h-406q121 -213 361 -213 q152 0 335 78l25 -201q-152 -69 -360.5 -69z" />
<glyph unicode="&#x2122;" horiz-adv-x="1488" d="M1001 907h-12l-188 334l-68 -551h-106l96 744h59l215 -367l213 367h60l98 -744h-111l-63 549zM594 1434l-12 -103h-205v-641h-105v641h-209v103h531z" />
<glyph unicode="&#xe000;" horiz-adv-x="1004" d="M0 1005h1005v-1005h-1005v1005z" />
<glyph horiz-adv-x="1093" d="M1077 0h-198l-113 289h-438l-111 -289h-201l437 1147h190zM702 469l-155 387l-156 -387h311z" />
<glyph horiz-adv-x="1519" d="M1444 0h-758v283h-358l-152 -283h-192l594 1147h849v-182h-530v-277h410v-180h-410v-328h547v-180zM686 467v494l-270 -494h270z" />
<glyph horiz-adv-x="1093" d="M594 0h-442v1147h299q238 0 350 -58.5t112 -232.5q0 -164 -100 -244q111 -39 159 -103.5t48 -170.5q0 -98 -37 -168t-102.5 -104.5t-135 -50t-151.5 -15.5zM518 983h-176v-303h211q174 0 174 151q0 90 -53.5 121t-155.5 31zM588 524h-246v-358h195q143 0 213.5 37 t70.5 137q0 184 -233 184z" />
<glyph horiz-adv-x="1099" d="M686 -23q-266 0 -436 164t-170 432.5t170 432t436 163.5q199 0 340 -67l-20 -178q-184 66 -320 65q-190 0 -293.5 -115.5t-103.5 -300t103.5 -300t295.5 -115.5q133 0 318 65l20 -180q-147 -66 -340 -66z" />
<glyph horiz-adv-x="1288" d="M604 0h-452v1147h452q268 0 436 -153.5t168 -420t-168 -420t-436 -153.5zM604 967h-262v-787h262q193 0 294 105.5t101 288t-101 288t-294 105.5z" />
<glyph horiz-adv-x="1003" d="M928 0h-776v1147h759v-180h-565v-279h445v-180h-445v-328h582v-180z" />
<glyph horiz-adv-x="940" d="M897 967h-555v-279h430v-180h-430v-508h-190v1147h745v-180z" />
<glyph horiz-adv-x="1193" d="M676 -23q-260 0 -428 164t-168 434q0 268 170 431t440 163q211 0 363 -65l-19 -178q-180 63 -340 63q-201 0 -303 -113.5t-102 -297.5q0 -193 108.5 -306.5t317.5 -113.5q102 0 186 22v234h-166v161h359v-512q-72 -35 -193 -60.5t-225 -25.5z" />
<glyph horiz-adv-x="1323" d="M1171 0h-190v508h-639v-508h-190v1147h190v-457h639v457h190v-1147z" />
<glyph horiz-adv-x="493" d="M342 0h-190v1147h190v-1147z" />
<glyph horiz-adv-x="493" d="M57 -283h-43l-18 136h24q76 0 104 34.5t28 114.5v1145h190v-1192q0 -238 -285 -238z" />
<glyph horiz-adv-x="1075" d="M1049 0h-209l-441 606l441 541h209l-441 -541zM342 0h-190v1147h190v-1147z" />
<glyph horiz-adv-x="901" d="M877 0h-725v1147h190v-967h535v-180z" />
<glyph horiz-adv-x="1458" d="M1364 0h-201l-110 803l-322 -551l-325 551l-111 -803h-201l166 1147h160l311 -539l307 539h160z" />
<glyph horiz-adv-x="1257" d="M1106 0h-160l-604 829v-829h-190v1147h196l565 -782v782h193v-1147z" />
<glyph horiz-adv-x="1361" d="M680 -23q-264 0 -432 164t-168 432.5t168 432t432 163.5t433 -163.5t169 -432t-169 -432.5t-433 -164zM680 989q-188 0 -289.5 -114.5t-101.5 -301t101.5 -301t289.5 -114.5t289.5 114.5t101.5 301t-101.5 301t-289.5 114.5z" />
<glyph horiz-adv-x="1886" d="M1810 0h-735v106q-199 -129 -401 -129q-262 0 -428 164t-166 432.5t166 432t428 163.5q203 0 401 -129v107h719v-180h-528v-279h407v-180h-407v-328h544v-180zM673.5 989q-188.5 0 -288.5 -114.5t-100 -301t100 -301t288.5 -114.5t288 114.5t99.5 301t-99.5 301 t-288 114.5z" />
<glyph horiz-adv-x="1044" d="M592 385h-244v-385h-196v1147h368q115 0 193 -13.5t144.5 -50t99 -110.5t32.5 -186.5t-38 -195.5t-100.5 -126t-125.5 -61.5t-133 -18.5zM532 985h-184v-424h213q123 0 177.5 52.5t54.5 168.5q0 111 -57 157t-204 46z" />
<glyph horiz-adv-x="1361" d="M1268 119l-107 -127l-117 90q-160 -104 -364 -105q-264 0 -432 164t-168 432.5t168 432t432 163.5t433 -163.5t169 -432.5q0 -209 -121 -370zM680 989q-188 0 -289.5 -114.5t-101.5 -301t101.5 -301t289.5 -114.5q135 0 223 47l-164 123l105 131l170 -133q68 94 67 247 q0 186 -105.5 301t-295.5 115z" />
<glyph horiz-adv-x="1099" d="M1055 0h-203l-262 434h-242v-434h-196v1147h417q420 0 420 -332q0 -223 -215 -332zM545 989h-197v-375h217q106 0 166 49.5t60 141.5q0 184 -246 184z" />
<glyph horiz-adv-x="1046" d="M504 -23q-262 0 -402 80l25 219q147 -119 381 -118q258 0 258 143q0 43 -21.5 76t-70.5 58.5t-90 41t-119 37.5q-76 23 -114 36t-99.5 42t-91 57.5t-53 75.5t-23.5 106q0 131 106.5 234.5t333.5 103.5q113 0 219.5 -25.5t165.5 -58.5l-20 -196q-205 102 -352 102 q-100 0 -176 -32.5t-76 -106.5q0 -66 63.5 -102.5t192.5 -71.5q61 -16 89.5 -25.5t84 -30t84 -37t68.5 -46t59.5 -61.5t35 -76t15.5 -97q0 -45 -9.5 -84t-39 -86t-78.5 -79.5t-138 -55.5t-208 -23z" />
<glyph horiz-adv-x="962" d="M928 967h-350v-967h-193v967h-350v180h893v-180z" />
<glyph horiz-adv-x="1284" d="M643 -23q-252 0 -379 136.5t-127 375.5v658h191v-586q0 -190 66.5 -296.5t248.5 -106.5q96 0 159.5 30.5t96.5 90t45 126t12 156.5v586h191v-658q0 -240 -127 -376t-377 -136z" />
<glyph horiz-adv-x="1148" d="M1135 1147l-451 -1147h-217l-455 1147h201l362 -905l359 905h201z" />
<glyph horiz-adv-x="1710" d="M1683 1147l-356 -1147h-190l-279 827l-287 -827h-194l-342 1147h201l258 -871l288 863h152l297 -848l252 856h200z" />
<glyph horiz-adv-x="1105" d="M1083 0h-213l-325 438l-305 -438h-211l417 571l-409 576h221l299 -420l303 420h211l-420 -553z" />
<glyph horiz-adv-x="1032" d="M1030 1147l-416 -631v-516h-196v516l-416 631h203l311 -461l311 461h203z" />
<glyph horiz-adv-x="989" d="M958 1147l-612 -967h535v-180h-850l612 967h-534v180h849z" />
</font>
</defs>
</svg>
