<?xml version="1.0" standalone="no"?>
<!DOCTYPE svg PUBLIC "-//W3C//DTD SVG 1.1//EN" "http://www.w3.org/Graphics/SVG/1.1/DTD/svg11.dtd" >
<svg xmlns="http://www.w3.org/2000/svg">
<metadata>
This is a custom SVG webfont generated by Font Squirrel.
Copyright   : Copyright c 2011 by Pablo Impallari wwwimpallaricom Igino Marini wwwikerncom All rights reserved
Designer    : Pablo Impallari
Foundry     : Pablo Impallari wwwimpallaricom Igino Marini wwwikerncom
Foundry URL : wwwimpallaricom
</metadata>
<defs>
<font id="webfont5hI2qEkU" horiz-adv-x="479" >
<font-face units-per-em="2048" ascent="1638" descent="-410" />
<missing-glyph horiz-adv-x="460" />
<glyph unicode=" "  horiz-adv-x="460" />
<glyph unicode="&#x09;" horiz-adv-x="460" />
<glyph unicode="&#xa0;" horiz-adv-x="460" />
<glyph unicode="!" horiz-adv-x="507" d="M381 1536l-47 -1126h-160l-47 1126h254zM369 0h-230v229h230v-229z" />
<glyph unicode="&#x22;" horiz-adv-x="817" d="M739 1536l-41 -614h-151l-41 614h233zM313 1536l-41 -614h-153l-41 614h235z" />
<glyph unicode="#" horiz-adv-x="1441" d="M1380 1044l-65 -192h-236l-80 -211h258l-94 -205h-243l-172 -459h-189l174 459h-241l-177 -459h-184l174 459h-244l91 205h231l80 211h-250l63 192h261l151 390h184l-149 -390h246l149 390h182l-147 -390h227zM895 852h-244l-84 -211h246z" />
<glyph unicode="$" horiz-adv-x="1064" d="M600 166l33 -232h-207l33 230q-242 12 -359 80l31 248q141 -125 383 -125q215 0 215 114q0 59 -66.5 101.5t-161.5 70t-190.5 60t-162 98.5t-66.5 160q0 119 90 212t287 111l-33 238h207l-33 -238q213 -12 328 -77l-21 -222q-209 104 -350 105q-236 0 -235 -105 q0 -47 50 -80.5t123.5 -52t161.5 -47.5t162 -62.5t124 -103t50 -166.5q0 -49 -15 -95t-54 -95t-122 -83t-202 -44z" />
<glyph unicode="%" horiz-adv-x="1720" d="M1337 -20q-137 0 -222 101t-85 271q0 176 91 281.5t226.5 105.5t220.5 -100t85 -270q0 -178 -86.5 -283.5t-229.5 -105.5zM1366 1434l-862 -1459h-195l862 1459h195zM373 684q-137 0 -221 101.5t-84 271.5q0 174 90 279.5t225 105.5q133 0 219 -100.5t86 -268.5 q0 -178 -87 -283.5t-228 -105.5zM1343 606q-72 0 -119.5 -65.5t-47.5 -188.5q0 -119 44 -178t117 -59q78 0 123 63.5t45 190.5q0 115 -46 176t-116 61zM381 1309q-68 0 -116 -66.5t-48 -185.5q0 -115 44 -174.5t114 -59.5q74 0 120 63.5t46 186.5q0 113 -47 174.5t-113 61.5 z" />
<glyph unicode="&#x26;" horiz-adv-x="1271" d="M1257 0h-262l-71 78q-152 -127 -379 -127q-238 0 -357.5 110.5t-119.5 278.5q0 225 251 412q-154 190 -153 348q0 156 121 248t291 92q152 0 233.5 -77t81.5 -206q0 -125 -80 -216t-225 -191l317 -351q35 98 41 322h219q-6 -297 -110 -488zM561 1255q-76 0 -124 -42 t-48 -121q0 -96 100 -224q104 78 152.5 132.5t48.5 125.5q0 129 -129 129zM807 215l-377 408q-125 -115 -125 -263q0 -100 61.5 -165.5t202.5 -65.5q152 0 238 86z" />
<glyph unicode="'" horiz-adv-x="397" d="M317 1536l-38 -614h-160l-39 614h237z" />
<glyph unicode="(" horiz-adv-x="557" d="M510 -279h-209q-109 180 -163 390.5t-54 517.5t54.5 517t162.5 390h209q-238 -408 -238 -907.5t238 -907.5z" />
<glyph unicode=")" horiz-adv-x="557" d="M256 -279h-209q238 408 238 907.5t-238 907.5h209q109 -180 163 -390t54 -517t-54 -517.5t-163 -390.5z" />
<glyph unicode="*" horiz-adv-x="903" d="M639 854l-184 276l-185 -282l-114 110l239 203l-327 117l79 141l283 -207l-57 322h162l-62 -322l285 207l80 -143l-324 -111l240 -200z" />
<glyph unicode="+" horiz-adv-x="946" d="M852 475h-287v-266h-184v266h-287v189h287v262h184v-262h287v-189z" />
<glyph unicode="," horiz-adv-x="464" d="M352 0l-188 -225l-51 28l67 177l-67 20v238h239v-238z" />
<glyph unicode="-" horiz-adv-x="860" d="M748 475h-635v189h635v-189z" />
<glyph unicode="." horiz-adv-x="458" d="M346 0h-233v238h233v-238z" />
<glyph unicode="/" horiz-adv-x="1114" d="M1047 1434l-756 -1608h-254l756 1608h254z" />
<glyph unicode="0" horiz-adv-x="1449" d="M713 -29q-264 0 -427 199t-163 524q0 338 176 553t438 215q256 0 423 -204.5t167 -528.5q0 -342 -169 -550t-445 -208zM733 1247q-152 0 -258 -143t-106 -410q0 -252 95 -379t253 -127q168 0 268 134.5t100 406.5q0 248 -101 383t-251 135z" />
<glyph unicode="1" horiz-adv-x="747" d="M547 0h-246v1092q-92 -68 -190 -91l-25 209q74 18 158 85t118 139h185v-1434z" />
<glyph unicode="2" horiz-adv-x="1083" d="M967 0h-869q362 520 473 732t111 310q0 100 -57.5 156.5t-157.5 56.5q-186 0 -330 -211l-31 218q37 68 146.5 134t267.5 66q205 0 299 -115.5t94 -271.5q0 -141 -91 -335.5t-304 -510.5h449v-229z" />
<glyph unicode="3" horiz-adv-x="1112" d="M465 -29q-125 0 -243 39t-144 72l59 221q137 -104 320 -104q123 0 204.5 54t81.5 181q0 115 -61 183.5t-225 68.5h-174l22 188h88q295 0 295 203q0 178 -221 178q-172 0 -260 -73l-39 186q35 35 124 64.5t202 29.5q129 0 222 -35.5t138 -96t63.5 -120t18.5 -125.5 q0 -182 -152 -290q203 -100 203 -353q0 -225 -153.5 -348t-368.5 -123z" />
<glyph unicode="4" horiz-adv-x="1179" d="M1061 389h-174v-389h-246v389h-616l659 1045h203v-844h174v-201zM641 590v459l-276 -459h276z" />
<glyph unicode="5" horiz-adv-x="1105" d="M469 -27q-117 0 -234.5 37t-132.5 66l58 221q133 -100 303 -100q125 0 211 69.5t86 200.5q0 111 -83 169t-294 58h-205l88 740h656l-23 -230h-448l-37 -305q309 -2 447 -103.5t138 -318.5q0 -233 -156.5 -368.5t-373.5 -135.5z" />
<glyph unicode="6" horiz-adv-x="1157" d="M569 -29q-201 0 -323.5 130t-122.5 409q0 190 66.5 368.5t164 295t200.5 188.5t183 72l160 -95q-131 -25 -305 -196.5t-209 -376.5q74 96 254 96q188 0 310 -106.5t122 -307t-138.5 -339t-361.5 -138.5zM618 664q-111 0 -183.5 -66t-72.5 -184q0 -109 71 -169.5 t163 -60.5q113 0 179.5 78t66.5 187q0 84 -55.5 149.5t-168.5 65.5z" />
<glyph unicode="7" horiz-adv-x="1042" d="M1024 1434l-606 -1434h-252l508 1204h-588v230h938z" />
<glyph unicode="8" horiz-adv-x="1236" d="M600 -29q-240 0 -361.5 120t-121.5 290q0 236 237 391q-156 123 -155 330q0 156 100 258t328 102q217 0 316 -94t99 -235q0 -104 -47 -183.5t-149 -158.5q274 -113 274 -377q0 -172 -134 -307.5t-386 -135.5zM616 1266q-102 0 -153 -50.5t-51 -134.5q0 -156 194 -213 q209 59 209 228q0 76 -49.5 123t-149.5 47zM625 684q-115 -20 -193 -94t-78 -195q0 -109 67.5 -167t186.5 -58q123 0 197 65.5t74 174.5q0 106 -71.5 176.5t-182.5 97.5z" />
<glyph unicode="9" horiz-adv-x="1159" d="M588 1462q201 0 324.5 -129t123.5 -407q0 -197 -61.5 -376t-153.5 -296t-197.5 -185.5t-197.5 -68.5l-162 94q61 12 142 57.5t163 117t142.5 176t70.5 217.5q-37 -43 -120.5 -67t-141.5 -24q-199 0 -315.5 104.5t-116.5 305.5q0 205 137.5 343t362.5 138zM543 770 q111 0 184.5 65.5t73.5 184.5q0 117 -68.5 173t-163.5 56q-113 0 -178 -77.5t-65 -180.5q0 -90 52 -155.5t165 -65.5z" />
<glyph unicode=":" horiz-adv-x="458" d="M346 664h-233v237h233v-237zM346 0h-233v238h233v-238z" />
<glyph unicode=";" horiz-adv-x="487" d="M375 664h-258v237h258v-237zM356 0l-188 -225l-51 28l67 177l-67 20v238h239v-238z" />
<glyph unicode="&#x3c;" horiz-adv-x="882" d="M764 160h-268l-437 422l437 422h268l-436 -422z" />
<glyph unicode="=" horiz-adv-x="1019" d="M889 639h-758v182h758v-182zM889 313h-758v183h758v-183z" />
<glyph unicode="&#x3e;" horiz-adv-x="884" d="M825 582l-436 -422h-268l436 422l-436 422h268z" />
<glyph unicode="?" horiz-adv-x="905" d="M489 410h-155q-6 80 -6 104q0 84 43 172t93 150.5t93 147.5t43 163q0 102 -64.5 155.5t-160.5 53.5q-86 0 -153.5 -40t-104.5 -95l-56 172q45 70 133.5 106.5t194.5 36.5q199 0 313.5 -123t114.5 -264q0 -84 -51 -178t-112.5 -167t-113 -171t-51.5 -189v-34zM528 0h-231 v229h231v-229z" />
<glyph unicode="@" horiz-adv-x="1468" d="M1110 776q-104 109 -250 109q-190 0 -355 -181.5t-165 -394.5q0 -98 46 -162.5t149 -64.5q88 0 194.5 65.5t165.5 171.5q0 -4 -3 -30.5t-3 -32.5q0 -66 26.5 -118t86 -52t140.5 40t132 91q-98 -178 -279.5 -286.5t-392.5 -108.5q-236 0 -372 139t-136 387 q0 330 228.5 557.5t543.5 227.5q240 0 375 -140.5t135 -380.5q0 -150 -51 -286q-39 -61 -115.5 -97t-136.5 -36q-76 0 -76 108q0 49 15.5 113.5t46.5 172t51 189.5zM862 760q94 0 111 -45q-29 -168 -153 -333t-226 -165q-45 0 -67.5 37t-22.5 94q0 162 122.5 287t235.5 125z " />
<glyph unicode="A" horiz-adv-x="1277" d="M1268 0h-252l-127 358h-500l-127 -358h-252l510 1434h236zM807 588l-170 477l-168 -477h338z" />
<glyph unicode="B" horiz-adv-x="1263" d="M692 0h-532v1434h366q137 0 227.5 -13.5t168 -51.5t114.5 -111.5t37 -188.5q0 -100 -26.5 -172t-94.5 -131q131 -51 189.5 -132t58.5 -210q0 -123 -44 -210t-122 -132t-161 -63.5t-181 -18.5zM616 1225h-217v-373h252q190 0 191 186q0 111 -56.5 149t-169.5 38zM682 655 h-283v-446h242q154 0 231.5 47t77.5 172q0 227 -268 227z" />
<glyph unicode="C" horiz-adv-x="1255" d="M786 -29q-311 0 -510.5 205t-199.5 541t199.5 540.5t510.5 204.5q229 0 404 -84l-27 -227q-227 84 -377 84q-215 0 -330.5 -143.5t-115.5 -375t115.5 -374.5t330.5 -143q160 0 377 84l27 -228q-173 -84 -404 -84z" />
<glyph unicode="D" horiz-adv-x="1480" d="M694 0h-534v1434h534q315 0 512 -192.5t197 -524.5t-197 -524.5t-512 -192.5zM694 1206h-293v-979h293q217 0 331 131t114 358.5t-114 358.5t-331 131z" />
<glyph unicode="E" horiz-adv-x="1155" d="M1083 0h-923v1434h903v-230h-657v-342h514v-229h-514v-404h677v-229z" />
<glyph unicode="F" horiz-adv-x="1075" d="M1040 1204h-639v-342h494v-229h-494v-633h-241v1434h880v-230z" />
<glyph unicode="G" horiz-adv-x="1368" d="M776 -29q-305 0 -502.5 206t-197.5 542t199.5 539.5t517.5 203.5q106 0 228 -23.5t200 -60.5l-25 -225q-209 82 -397 82q-227 0 -343 -142.5t-116 -371.5q0 -236 122 -379t355 -143q109 0 209 28v287h-178v205h420v-639q-80 -45 -224.5 -77t-267.5 -32z" />
<glyph unicode="H" horiz-adv-x="1519" d="M1360 0h-242v633h-717v-633h-241v1434h241v-570h717v570h242v-1434z" />
<glyph unicode="I" horiz-adv-x="561" d="M401 0h-241v1434h241v-1434z" />
<glyph unicode="J" horiz-adv-x="559" d="M66 -352h-62l-20 172h41q76 0 105.5 43t29.5 141v1430h239v-1487q0 -147 -85.5 -223t-247.5 -76z" />
<glyph unicode="K" horiz-adv-x="1245" d="M1237 0h-266l-510 758l510 676h266l-508 -676zM401 0h-241v1434h241v-1434z" />
<glyph unicode="L" horiz-adv-x="1028" d="M1012 0h-852v1434h241v-1205h611v-229z" />
<glyph unicode="M" horiz-adv-x="1691" d="M1599 0h-251l-127 999l-373 -686l-377 684l-127 -997h-252l197 1434h200l359 -672l354 672h201z" />
<glyph unicode="N" horiz-adv-x="1445" d="M1286 0h-199l-686 1030v-1030h-241v1434h243l641 -971v971h242v-1434z" />
<glyph unicode="O" horiz-adv-x="1564" d="M782.5 -29q-311.5 0 -509 205t-197.5 541t197.5 540.5t509 204.5t509 -204.5t197.5 -540.5t-197.5 -541t-509 -205zM782 1235q-213 0 -327.5 -143.5t-114.5 -375t114.5 -374.5t327.5 -143t328 143t115 374.5t-115 375t-328 143.5z" />
<glyph unicode="P" horiz-adv-x="1206" d="M678 481h-275v-481h-243v1434h422q117 0 198.5 -9.5t158.5 -38t122 -77.5t72.5 -131t27.5 -197q0 -141 -46 -244.5t-121.5 -156t-154.5 -76t-161 -23.5zM621 1229h-218v-524h238q145 0 208.5 63t63.5 209q0 137 -62 194.5t-230 57.5z" />
<glyph unicode="Q" horiz-adv-x="1564" d="M1481 152l-138 -164l-139 114q-180 -131 -422 -131q-311 0 -508.5 205t-197.5 541t197.5 540.5t509 204.5t509 -204.5t197.5 -540.5q0 -262 -135 -463zM782 1235q-213 0 -327.5 -143.5t-114.5 -375t114.5 -374.5t327.5 -143q143 0 238 59l-184 154l135 163l192 -163 q68 123 68 305q0 231 -117 374.5t-332 143.5z" />
<glyph unicode="R" horiz-adv-x="1267" d="M1237 0h-252l-303 541h-279v-541h-243v1434h506q493 0 493 -414q0 -274 -248 -416zM625 1233h-222v-465h230q274 0 274 238q0 113 -64 170t-218 57z" />
<glyph unicode="S" horiz-adv-x="1193" d="M573 -29q-152 0 -277.5 29t-195.5 72l31 276q70 -63 186.5 -106t262.5 -43q282 0 282 175q0 44 -20.5 81t-46 60.5t-78.5 49t-89 38.5l-110 38q-88 29 -131 45t-113.5 52t-104.5 72t-61.5 95.5t-27.5 130.5q0 76 27.5 147.5t85 136t162 103.5t243.5 39q133 0 261 -32.5 t194 -73.5l-25 -250q-242 129 -418 129q-111 0 -195.5 -40t-84.5 -130q0 -57 45 -100t98 -64.5t152 -52.5l119 -38q40 -13 112 -43t111 -60.5t82 -76.5t62 -108.5t19 -138.5q0 -55 -10 -104.5t-46 -108.5t-93 -100t-163 -70t-245 -29z" />
<glyph unicode="T" horiz-adv-x="1134" d="M1098 1204h-410v-1204h-242v1204h-409v230h1061v-230z" />
<glyph unicode="U" horiz-adv-x="1474" d="M737 -29q-295 0 -444.5 170t-149.5 471v822h242v-732q0 -113 14.5 -194.5t50 -156.5t108.5 -113.5t179.5 -38.5t179 38.5t108.5 113.5t50.5 157t14.5 194v732h241v-822q0 -301 -149.5 -471t-444.5 -170z" />
<glyph unicode="V" horiz-adv-x="1341" d="M1333 1434l-518 -1434h-285l-526 1434h252l416 -1127l409 1127h252z" />
<glyph unicode="W" horiz-adv-x="1980" d="M1964 1434l-420 -1434h-227l-324 1024l-327 -1024h-238l-403 1434h251l295 -1080l332 1071h180l342 -1050l287 1059h252z" />
<glyph unicode="X" horiz-adv-x="1269" d="M1268 0h-273l-368 545l-351 -545h-270l498 715l-484 719h279l344 -521l332 521h272l-483 -693z" />
<glyph unicode="Y" horiz-adv-x="1206" d="M1217 1434l-492 -791v-643h-244v643l-493 791h256l358 -576l359 576h256z" />
<glyph unicode="Z" horiz-adv-x="1126" d="M1110 1434l-694 -1205h602v-229h-1000l695 1204h-602v230h999z" />
<glyph unicode="[" horiz-adv-x="684" d="M666 -279h-527v1815h527v-197h-314v-1419h314v-199z" />
<glyph unicode="\" horiz-adv-x="1110" d="M1073 -174h-250l-755 1608h249z" />
<glyph unicode="]" horiz-adv-x="696" d="M557 -279h-526v230h313v1356h-313v229h526v-1815z" />
<glyph unicode="^" horiz-adv-x="1046" d="M944 844l-422 436l-422 -436v274l422 436l422 -436v-274z" />
<glyph unicode="_" horiz-adv-x="1150" d="M1149 -262h-1147v188h1147v-188z" />
<glyph unicode="`" horiz-adv-x="620" d="M502 1204l-383 127v193l383 -189v-131z" />
<glyph unicode="a" horiz-adv-x="1009" d="M987 170l-22 -190h-70q-174 0 -238 126q-110 -126 -308 -126h-3q-131 0 -216 82.5t-85 220.5q0 100 59.5 174.5t154.5 112.5t186.5 55.5t183.5 19.5q-2 102 -48 145.5t-149 43.5q-125 0 -274 -82l-25 188q174 96 363 96q184 0 275 -101t91 -333v-254q0 -115 17.5 -146.5 t81.5 -31.5h26zM629 252v235q-152 -6 -247 -54t-95 -140q0 -133 143 -133q49 0 104.5 24.5t94.5 67.5z" />
<glyph unicode="b" horiz-adv-x="1165" d="M616 -20q-158 0 -270 100l-8 -80h-215v1536h231v-588q102 88 262 88q225 0 356.5 -152.5t131.5 -375.5t-133.5 -375.5t-354.5 -152.5zM598 840q-119 0 -186.5 -88t-67.5 -244q0 -158 67.5 -246t186.5 -88q123 0 195.5 93t72.5 240.5t-71.5 240t-196.5 92.5z" />
<glyph unicode="c" horiz-adv-x="921" d="M559 -20q-238 0 -368 151.5t-130 376.5q0 227 130.5 377.5t367.5 150.5q190 0 307 -71l-24 -201q-127 76 -262.5 76t-208 -89t-72.5 -243q0 -152 73.5 -243t207.5 -91q135 0 264 76l22 -195q-117 -75 -307 -75z" />
<glyph unicode="d" horiz-adv-x="1165" d="M1042 0h-217l-8 80q-113 -100 -268 -100q-221 0 -354.5 152.5t-133.5 375.5t131.5 375.5t356.5 152.5q160 0 260 -88v588h233v-1536zM565 840q-123 0 -194.5 -91.5t-71.5 -240.5q0 -147 71.5 -240.5t194.5 -93.5q119 0 189.5 88t70.5 244q0 154 -70.5 244t-189.5 90z" />
<glyph unicode="e" horiz-adv-x="1052" d="M981 471h-682q20 -154 111.5 -225.5t216.5 -71.5q156 0 307 76l16 -193q-154 -77 -335 -77h-5q-262 0 -406.5 151.5t-144.5 378.5q0 221 132.5 373.5t359.5 152.5q195 0 319.5 -119.5t124.5 -318.5q0 -49 -14 -127zM555 840q-201 0 -246 -211h449q0 88 -50.5 149.5 t-152.5 61.5z" />
<glyph unicode="f" horiz-adv-x="694" d="M655 829h-239v-829h-232v829h-155l24 189h131v246q0 115 63.5 193.5t178.5 78.5q100 0 223 -16l-22 -195q-45 12 -115 12q-61 0 -78.5 -35.5t-17.5 -150.5v-133h239v-189z" />
<glyph unicode="g" horiz-adv-x="1024" d="M530 -512q-238 0 -358.5 90t-120.5 213q0 152 172 227q-96 53 -96 142q0 92 106 143q-161 114 -161 327q0 175 109.5 290.5t303.5 115.5q137 0 240 -65q98 49 227 49h52l-19 -150h-78q-35 0 -78 -6q72 -98 72 -229q0 -168 -109.5 -285t-302.5 -117q-63 0 -118 13 q-31 -16 -31 -41q0 -35 57.5 -52.5t214.5 -39.5q57 -8 101.5 -16.5t107 -31t103.5 -52t70.5 -82t29.5 -117.5q0 -145 -130.5 -235.5t-363.5 -90.5zM485 860q-98 0 -150 -61.5t-52 -166t54 -165.5t150 -61q98 0 150.5 62t52.5 166.5t-54.5 165t-150.5 60.5zM541 -59l-142 20 q-66 -20 -106.5 -59t-40.5 -92q0 -70 71.5 -112t200.5 -42t208 41t79 106q0 59 -69.5 89.5t-200.5 48.5z" />
<glyph unicode="h" horiz-adv-x="1126" d="M1016 0h-232v547q0 154 -50 223.5t-165 69.5q-137 0 -215 -101v-739h-231v1536h231v-590q104 90 238 90q424 0 424 -489v-547z" />
<glyph unicode="i" d="M356 1194h-233v240h233v-240zM356 0h-233v1018h233v-1018z" />
<glyph unicode="j" d="M96 -492l-82 -4l-22 189q88 4 109.5 30.5t21.5 145.5v1149h233v-1243q0 -121 -70.5 -192t-189.5 -75zM356 1194h-233v240h233v-240z" />
<glyph unicode="k" horiz-adv-x="976" d="M356 0h-233v1536h233v-948l338 430h269l-388 -483l390 -535h-267l-342 471v-471z" />
<glyph unicode="l" horiz-adv-x="528" d="M487 170l-22 -190h-82q-131 0 -196.5 73.5t-65.5 186.5v1296h233v-1192q0 -121 22.5 -147.5t110.5 -26.5z" />
<glyph unicode="m" horiz-adv-x="1783" d="M1673 0h-233v563q0 143 -47 210t-158 67q-221 0 -221 -224v-616h-232v551q0 166 -51 227.5t-164 61.5q-141 0 -213 -99v-741h-231v1018h188l17 -88q123 106 274 106q215 0 322 -170q37 70 128 120t220 50q197 0 299 -126t102 -347v-563z" />
<glyph unicode="n" horiz-adv-x="1136" d="M1026 0h-231v551q0 150 -52.5 219.5t-169.5 69.5q-143 0 -219 -101v-739h-231v1018h209l8 -76q119 94 258 94q428 0 428 -485v-551z" />
<glyph unicode="o" horiz-adv-x="1142" d="M571.5 -20q-235.5 0 -374 151.5t-138.5 376.5q0 223 138.5 375.5t374 152.5t373.5 -152.5t138 -375.5q0 -225 -138 -376.5t-373.5 -151.5zM571 840q-129 0 -201.5 -90.5t-72.5 -241.5q0 -154 72.5 -244t201.5 -90t202 90t73 244q0 152 -73 242t-202 90z" />
<glyph unicode="p" horiz-adv-x="1165" d="M618 -20q-154 0 -264 94v-570h-231v1514h196l21 -86q121 104 278 104q225 0 355.5 -152.5t130.5 -375.5q0 -227 -128.5 -377.5t-357.5 -150.5zM600 840q-119 0 -187.5 -88t-68.5 -244q0 -158 68.5 -246t187.5 -88q123 0 194.5 93t71.5 241q0 150 -71.5 241t-194.5 91z " />
<glyph unicode="q" horiz-adv-x="1165" d="M547 -20q-229 0 -357.5 150.5t-128.5 377.5q0 223 130.5 375.5t355.5 152.5q158 0 278 -104l21 86h196v-1514h-233v570q-106 -94 -262 -94zM565 840q-123 0 -194.5 -91.5t-71.5 -240.5q0 -147 71.5 -240.5t194.5 -93.5q119 0 187.5 88t68.5 246q0 156 -68.5 244 t-187.5 88z" />
<glyph unicode="r" horiz-adv-x="692" d="M690 1040l-45 -227h-86q-61 0 -117.5 -32.5t-81.5 -78.5v-702h-237v1018h211l12 -127q134 149 291 149h2h51z" />
<glyph unicode="s" horiz-adv-x="862" d="M412 -20q-227 0 -346 79l22 205q49 -39 138 -70.5t177.5 -31.5t129 32.5t40.5 84.5q0 43 -32.5 74.5t-64.5 45t-95 31.5q-72 20 -110 35.5t-90 47.5t-76.5 82t-24.5 122q0 129 90 224t285 95q186 0 307 -73l-23 -201q-115 102 -270 102q-78 0 -128 -28.5t-50 -90.5 q0 -47 34.5 -77.5t71.5 -43t127 -34.5q283 -74 283 -309q0 -55 -15.5 -102.5t-55.5 -95.5t-122.5 -75.5t-201.5 -27.5z" />
<glyph unicode="t" horiz-adv-x="700" d="M653 170l-20 -190h-176q-135 0 -203 75.5t-68 184.5v589h-153l20 189h133v231l232 25v-256h237v-189h-237v-483q0 -125 25.5 -150.5t146.5 -25.5h63z" />
<glyph unicode="u" horiz-adv-x="1114" d="M991 0h-213l-10 76q-100 -96 -244 -96q-414 0 -413 477v561h231v-545q0 -152 51 -223.5t162 -71.5q135 0 205 94v746h231v-1018z" />
<glyph unicode="v" horiz-adv-x="1017" d="M1006 1018l-390 -1018h-215l-389 1018h236l260 -737l260 737h238z" />
<glyph unicode="w" horiz-adv-x="1484" d="M1464 1018l-301 -1018h-211l-209 690l-211 -690h-210l-302 1018h240l180 -742l199 717h207l196 -717l185 742h237z" />
<glyph unicode="x" horiz-adv-x="997" d="M975 0h-275l-206 322l-199 -322h-275l338 508l-333 510h272l207 -324l190 324h277l-332 -504z" />
<glyph unicode="y" horiz-adv-x="1085" d="M1075 1018l-633 -1514h-239l229 557l-424 957h258l279 -686l272 686h258z" />
<glyph unicode="z" horiz-adv-x="972" d="M926 1018l-480 -817h461v-201h-860l477 817h-456v201h858z" />
<glyph unicode="{" horiz-adv-x="647" d="M180 49q0 39 8.5 138.5t8.5 148.5q0 111 -35 176.5t-127 116.5q90 51 126 115.5t36 179.5q0 47 -8.5 146t-8.5 138q0 162 101.5 244t343.5 84v-199q-66 0 -108 -4t-72.5 -20.5t-45 -31.5t-23.5 -58t-10 -80t-1 -113q0 -27 3 -84t3 -86q0 -76 -24.5 -131t-100.5 -100 q76 -45 100.5 -93.5t24.5 -121.5q0 -27 -3 -88.5t-3 -96.5q0 -76 1 -113.5t10 -79.5t23.5 -58.5t45 -33t72.5 -20.5t108 -4v-199q-240 2 -342.5 82t-102.5 246z" />
<glyph unicode="|" horiz-adv-x="475" d="M336 -430h-197v1966h197v-1966z" />
<glyph unicode="}" horiz-adv-x="647" d="M465 49q0 -166 -102.5 -245.5t-339.5 -82.5v199q66 0 107.5 4t72 20.5t45 33t23 59.5t9.5 79t1 113q0 35 -3.5 96.5t-3.5 88.5q0 74 25 122t100 93q-76 45 -100.5 100t-24.5 131q0 29 3.5 86.5t3.5 83.5q0 78 -1 114t-9.5 79t-23 58t-45 31.5t-72.5 20.5t-107 4v199 q242 -2 342 -84t100 -244q0 -39 -7 -138t-7 -146q0 -115 35.5 -179.5t125.5 -115.5q-92 -51 -126.5 -117t-34.5 -176q0 -49 7 -148.5t7 -138.5z" />
<glyph unicode="~" horiz-adv-x="948" d="M614 362q-53 0 -141 46.5t-121 46.5q-84 0 -114 -99l-140 35q14 94 86 147.5t156 53.5q59 0 141 -45t115 -45q45 0 78 28.5t47 69.5l129 -35q-18 -84 -82 -143.5t-154 -59.5z" />
<glyph unicode="&#xa1;" horiz-adv-x="495" d="M121 -512l47 1126h160l47 -1126h-254zM133 1024h229v-229h-229v229z" />
<glyph unicode="&#xa2;" horiz-adv-x="972" d="M612 180l33 -246h-180l35 250q-207 27 -319.5 174.5t-112.5 354.5t113.5 354t322.5 174l-39 291h180l-37 -289q158 -10 264 -72l-20 -198q-127 78 -264 78q-127 0 -201 -94.5t-74 -244t74 -243.5t201 -94q137 0 264 78l20 -199q-106 -64 -260 -74z" />
<glyph unicode="&#xa3;" horiz-adv-x="1062" d="M950 1245l-86 -108q-18 53 -33.5 80.5t-49 51t-85.5 23.5q-72 0 -110.5 -44t-48 -103.5t-9.5 -157.5v-182h385l-36 -158h-357q-14 -248 -108 -454h522v-193h-866q195 242 235 647h-186l35 158h159v225q0 68 6.5 121t27 110.5t56 96.5t100 63.5t150.5 24.5q246 0 299 -201 z" />
<glyph unicode="&#xa4;" horiz-adv-x="1290" d="M1171 131l-102 -86l-156 205q-125 -63 -268 -63.5t-268 63.5l-154 -205l-102 86l149 203q-143 152 -143 379t145 379l-151 202l102 86l154 -204q131 63 268 63q141 0 268 -65l156 206l102 -86l-151 -204q143 -152 143 -377q0 -223 -145 -381zM645 1057 q-131 0 -205.5 -95.5t-74.5 -249t74.5 -248.5t205.5 -95.5t206 95t75 249t-75 249t-206 95.5z" />
<glyph unicode="&#xa5;" horiz-adv-x="1423" d="M1368 1434l-508 -758h314l-52 -129h-288v-127h340l-52 -133h-288v-287h-242v287h-346l47 133h299v127h-346l47 129h272l-508 758h246l410 -586l409 586h246z" />
<glyph unicode="&#xa6;" horiz-adv-x="462" d="M322 596h-181v940h181v-940zM322 -430h-181v803h181v-803z" />
<glyph unicode="&#xa7;" horiz-adv-x="942" d="M674 383q55 -45 76.5 -96t21.5 -127q0 -135 -82 -234.5t-266 -99.5q-84 0 -169 25.5t-124 58.5l23 188q139 -98 264 -98q193 0 192 135q0 68 -54 110t-133 69.5t-157 62.5t-132 109.5t-54 191.5q0 231 188 303q-100 76 -100 215q0 141 82 240.5t266 99.5q84 0 170 -25.5 t125 -58.5l-20 -188q-139 98 -267 98q-82 0 -135 -35t-53 -102q0 -63 54 -105.5t131 -70t155 -64.5t132 -113.5t54 -191.5q0 -221 -188 -297zM410 854q-47 0 -99.5 -38t-52.5 -99q0 -156 287 -230q49 6 94 55.5t45 102.5q0 49 -25.5 87t-77 62.5t-84 35t-87.5 24.5z" />
<glyph unicode="&#xa8;" horiz-adv-x="864" d="M686 1221h-182v213h182v-213zM360 1221h-182v213h182v-213z" />
<glyph unicode="&#xa9;" horiz-adv-x="1435" d="M718.5 76q-278.5 0 -457.5 186.5t-179 485.5q0 301 179 486t457.5 185t457 -185t178.5 -486.5t-178.5 -486.5t-457 -185zM718.5 1292q-239.5 0 -367.5 -150.5t-128 -394t128 -395t367.5 -151.5t366.5 151.5t127 395t-127 394t-366.5 150.5zM735 393q-145 0 -238.5 96.5 t-93.5 254t93.5 255t238.5 97.5q100 0 203 -45l-18 -158q-113 45 -185 45q-76 0 -118 -52t-42 -143q0 -88 42 -141t118 -53q80 0 185 49l18 -156q-88 -49 -203 -49z" />
<glyph unicode="&#xaa;" horiz-adv-x="735" d="M659 1049l-10 -160h-100q-25 0 -65 15.5t-56 31.5q-49 -47 -190 -47q-72 0 -122 47t-50 137q0 57 38.5 101.5t98 65t107.5 30.5t87 12q-16 53 -90 53q-39 0 -178 -35l-12 154q123 41 243 41q98 0 165 -48t67 -136v-203q0 -39 9 -49t30 -10h28zM399 1038v119 q-129 -29 -129 -80q0 -49 72 -49q30 0 57 10z" />
<glyph unicode="&#xab;" horiz-adv-x="1216" d="M1139 160h-273l-307 422l307 422h273l-310 -422zM604 160h-270l-307 422l307 422h270l-307 -422z" />
<glyph unicode="&#xac;" horiz-adv-x="1212" d="M1069 309h-168v353h-774v169h942v-522z" />
<glyph unicode="&#xad;" horiz-adv-x="860" d="M748 471h-635v193h635v-193z" />
<glyph unicode="&#xae;" horiz-adv-x="1435" d="M718.5 76q-278.5 0 -457.5 186.5t-179 485.5q0 301 179 486t457.5 185t457 -185t178.5 -486.5t-178.5 -486.5t-457 -185zM718.5 1290q-239.5 0 -366.5 -149.5t-127 -392.5q0 -242 127 -393.5t367 -151.5q238 0 364.5 151.5t126.5 393.5q0 244 -126 393t-365.5 149z M1008 420h-170l-129 233h-78v-233h-164v678h254q115 0 177.5 -49.5t62.5 -169.5q0 -115 -103 -179zM694 961h-63v-158h59q57 0 79 20.5t22 59.5t-20 58.5t-77 19.5z" />
<glyph unicode="&#xb0;" horiz-adv-x="673" d="M336 987q-123 0 -196.5 80t-73.5 198.5t73.5 199.5t196.5 81q125 0 198.5 -81t73.5 -199.5t-73.5 -198.5t-198.5 -80zM336 1458q-68 0 -107 -54t-39 -138t39 -137.5t107 -53.5q72 0 108.5 53.5t36.5 137.5t-37.5 138t-107.5 54z" />
<glyph unicode="&#xb1;" horiz-adv-x="1007" d="M883 645h-293v-272h-172v272h-293v176h293v269h172v-269h293v-176zM883 70h-758v174h758v-174z" />
<glyph unicode="&#xb2;" horiz-adv-x="632" d="M565 655h-524q141 193 218 316t92.5 165t15.5 74q0 94 -88 95q-111 0 -189 -138l-22 166q27 47 90 80t153 33q119 0 172.5 -62.5t53.5 -142.5q0 -135 -181 -401h209v-185z" />
<glyph unicode="&#xb3;" horiz-adv-x="628" d="M258 639q-70 0 -139.5 21.5t-81.5 39.5l45 170q2 -18 58.5 -33.5t105.5 -15.5q143 0 143 66q0 121 -108 121h-127l14 137h65q63 0 92 23.5t29 50.5q0 33 -24.5 58.5t-81.5 25.5q-94 0 -133 -33l-25 125q55 51 182 51q145 0 204 -65.5t59 -147.5q0 -55 -17.5 -96 t-36.5 -52q4 -4 22.5 -26.5t25 -31.5t17.5 -30.5t15 -45t4 -52.5q0 -123 -91 -191.5t-216 -68.5z" />
<glyph unicode="&#xb4;" horiz-adv-x="620" d="M502 1331l-383 -127v131l383 189v-193z" />
<glyph unicode="&#xb5;" horiz-adv-x="1249" d="M1163 170l-24 -190h-80q-158 0 -221 120q-111 -119 -260 -118q-113 0 -197 45v-523h-231v1514h231v-545q0 -152 50 -224.5t167 -72.5q123 0 207 96v746h231v-668q0 -111 17.5 -145.5t74.5 -34.5h35z" />
<glyph unicode="&#xb6;" horiz-adv-x="1277" d="M1188 1239h-146v-1239h-153v1239h-154v-1239h-123v477q-260 16 -402 156.5t-142 324.5q0 193 153.5 334.5t433.5 141.5h533v-195z" />
<glyph unicode="&#xb7;" d="M367 436h-254v266h254v-266z" />
<glyph unicode="&#xb8;" horiz-adv-x="620" d="M604 -109l-196 -272l-134 -14l142 270z" />
<glyph unicode="&#xb9;" horiz-adv-x="450" d="M330 655h-183v519q-29 -6 -88 -9l-6 144q29 0 77 41t56 80h144v-775z" />
<glyph unicode="&#xba;" horiz-adv-x="768" d="M385 889q-147 0 -235.5 89t-88.5 214t88.5 214t235.5 89t234.5 -89t87.5 -214t-87.5 -214t-234.5 -89zM385 1348q-57 0 -92 -45.5t-35 -111t35 -110.5t92 -45t91 45t34 110.5t-34 111t-91 45.5z" />
<glyph unicode="&#xbb;" horiz-adv-x="1216" d="M1192 582l-309 -422h-271l308 422l-308 422h271zM659 582l-307 -422h-272l309 422l-309 422h272z" />
<glyph unicode="&#xbc;" horiz-adv-x="1497" d="M360 655h-182v519q-29 -6 -88 -9l-6 144q29 0 77 41t56 80h143v-775zM1133 1434l-756 -1608h-254l756 1608h254zM1430 211h-101v-211h-184v211h-359l383 563h160v-426h101v-137zM1145 348v176l-123 -176h123z" />
<glyph unicode="&#xbd;" horiz-adv-x="1501" d="M1126 1434l-755 -1608h-254l755 1608h254zM1430 0h-525q141 193 218 315.5t92.5 164.5t15.5 75q0 94 -88 94q-111 0 -189 -137l-22 166q27 47 90 80t154 33q119 0 172 -62.5t53 -142.5q0 -135 -180 -402h209v-184zM354 655h-182v519q-29 -6 -88 -9l-6 144q29 0 77 41 t56 80h143v-775z" />
<glyph unicode="&#xbe;" horiz-adv-x="1839" d="M1470 1434l-755 -1608h-254l756 1608h253zM285 639q-70 0 -139.5 21.5t-82.5 39.5l46 170q2 -18 58 -33.5t105 -15.5q143 0 144 66q0 121 -109 121h-127l15 137h65q63 0 92 23.5t29 50.5q0 33 -24.5 58.5t-82.5 25.5q-94 0 -133 -33l-24 125q55 51 182 51 q145 0 203.5 -65.5t58.5 -147.5q0 -55 -17.5 -96t-35.5 -52q4 -4 22.5 -26.5t24.5 -31.5t17.5 -30.5t15.5 -45t4 -52.5q0 -123 -91 -191.5t-216 -68.5zM1769 211h-100v-211h-184v211h-359l383 563h160v-426h100v-137zM1485 348v176l-123 -176h123z" />
<glyph unicode="&#xbf;" horiz-adv-x="905" d="M430 614h156q6 -80 6 -104q0 -84 -43 -172t-93 -150.5t-93.5 -147.5t-43.5 -163q0 -102 65 -155.5t161 -53.5q86 0 153.5 40t104.5 95l55 -172q-45 -70 -133 -106.5t-195 -36.5q-135 0 -236 63.5t-146.5 149.5t-45.5 174q0 84 51.5 178t113 167t112.5 171t51 189v34z M391 1024h232v-229h-232v229z" />
<glyph unicode="&#xc0;" horiz-adv-x="1277" d="M1268 0h-252l-127 358h-500l-127 -358h-252l510 1434h236zM807 588l-170 477l-168 -477h338zM829 1620l-383 127v192l383 -188v-131z" />
<glyph unicode="&#xc1;" horiz-adv-x="1277" d="M1268 0h-252l-127 358h-500l-127 -358h-252l510 1434h236zM807 588l-170 477l-168 -477h338zM829 1747l-383 -127v131l383 188v-192z" />
<glyph unicode="&#xc2;" horiz-adv-x="1277" d="M1268 0h-252l-127 358h-500l-127 -358h-252l510 1434h236zM807 588l-170 477l-168 -477h338zM940 1626l-301 152l-301 -152v127l301 195l301 -195v-127z" />
<glyph unicode="&#xc3;" horiz-adv-x="1277" d="M1268 0h-252l-127 358h-500l-127 -358h-252l510 1434h236zM807 588l-170 477l-168 -477h338zM778 1642q-53 0 -141 46.5t-121 46.5q-84 0 -115 -99l-139 35q14 94 86 147.5t156 53.5q59 0 141 -45t115 -45q45 0 77.5 28.5t47.5 69.5l129 -33q-18 -86 -82 -145.5 t-154 -59.5z" />
<glyph unicode="&#xc4;" horiz-adv-x="1277" d="M1268 0h-252l-127 358h-500l-127 -358h-252l510 1434h236zM807 588l-170 477l-168 -477h338zM893 1636h-182v213h182v-213zM567 1636h-182v213h182v-213z" />
<glyph unicode="&#xc5;" horiz-adv-x="1277" d="M1268 0h-252l-127 358h-500l-127 -358h-252l510 1434h236zM807 588l-170 477l-168 -477h338zM639 1595q-98 0 -155.5 52.5t-57.5 130t58.5 131t154.5 53.5q98 0 155.5 -53.5t57.5 -131t-57.5 -130t-155.5 -52.5zM639 1874q-41 0 -70.5 -27.5t-29.5 -68.5q0 -43 28.5 -70 t71.5 -27t71.5 27t28.5 70q0 41 -29.5 68.5t-70.5 27.5z" />
<glyph unicode="&#xc6;" horiz-adv-x="1777" d="M1704 0h-893v352h-410l-174 -352h-245l698 1434h1006v-230h-617v-342h475v-229h-475v-404h635v-229zM811 586v612l-299 -612h299z" />
<glyph unicode="&#xc7;" horiz-adv-x="1255" d="M786 -29q-311 0 -510.5 205t-199.5 541t199.5 540.5t510.5 204.5q229 0 404 -84l-27 -227q-227 84 -377 84q-215 0 -330.5 -143.5t-115.5 -375t115.5 -374.5t330.5 -143q160 0 377 84l27 -228q-173 -84 -404 -84zM793 -109l-197 -272l-133 -14l141 270z" />
<glyph unicode="&#xc8;" horiz-adv-x="1155" d="M1083 0h-923v1434h903v-230h-657v-342h514v-229h-514v-404h677v-229zM754 1620l-383 127v192l383 -188v-131z" />
<glyph unicode="&#xc9;" horiz-adv-x="1155" d="M1083 0h-923v1434h903v-230h-657v-342h514v-229h-514v-404h677v-229zM754 1747l-383 -127v131l383 188v-192z" />
<glyph unicode="&#xca;" horiz-adv-x="1155" d="M1083 0h-923v1434h903v-230h-657v-342h514v-229h-514v-404h677v-229zM862 1626l-301 152l-301 -152v127l301 195l301 -195v-127z" />
<glyph unicode="&#xcb;" horiz-adv-x="1155" d="M1083 0h-923v1434h903v-230h-657v-342h514v-229h-514v-404h677v-229zM815 1636h-182v213h182v-213zM489 1636h-182v213h182v-213z" />
<glyph unicode="&#xcc;" horiz-adv-x="561" d="M401 0h-241v1434h241v-1434zM473 1620l-383 127v192l383 -188v-131z" />
<glyph unicode="&#xcd;" horiz-adv-x="561" d="M401 0h-241v1434h241v-1434zM473 1747l-383 -127v131l383 188v-192z" />
<glyph unicode="&#xce;" horiz-adv-x="561" d="M401 0h-241v1434h241v-1434zM582 1626l-301 152l-301 -152v127l301 195l301 -195v-127z" />
<glyph unicode="&#xcf;" horiz-adv-x="561" d="M401 0h-241v1434h241v-1434zM535 1636h-183v213h183v-213zM209 1636h-182v213h182v-213z" />
<glyph unicode="&#xd0;" horiz-adv-x="1499" d="M715 0h-533v621h-192v174h192v639h533q313 0 509.5 -192.5t196.5 -524.5t-196.5 -524.5t-509.5 -192.5zM715 1206h-295v-411h256v-174h-256v-392h295q217 0 330.5 129t113.5 358.5t-113.5 359.5t-330.5 130z" />
<glyph unicode="&#xd1;" horiz-adv-x="1445" d="M1286 0h-199l-686 1030v-1030h-241v1434h243l641 -971v971h242v-1434zM862 1642q-53 0 -141 46.5t-121 46.5q-84 0 -115 -99l-139 35q14 94 86 147.5t156 53.5q59 0 141 -45t115 -45q45 0 77.5 28.5t47.5 69.5l129 -33q-18 -86 -82 -145.5t-154 -59.5z" />
<glyph unicode="&#xd2;" horiz-adv-x="1564" d="M782.5 -29q-311.5 0 -509 205t-197.5 541t197.5 540.5t509 204.5t509 -204.5t197.5 -540.5t-197.5 -541t-509 -205zM782 1235q-213 0 -327.5 -143.5t-114.5 -375t114.5 -374.5t327.5 -143t328 143t115 374.5t-115 375t-328 143.5zM973 1620l-383 127v192l383 -188v-131z " />
<glyph unicode="&#xd3;" horiz-adv-x="1564" d="M782.5 -29q-311.5 0 -509 205t-197.5 541t197.5 540.5t509 204.5t509 -204.5t197.5 -540.5t-197.5 -541t-509 -205zM782 1235q-213 0 -327.5 -143.5t-114.5 -375t114.5 -374.5t327.5 -143t328 143t115 374.5t-115 375t-328 143.5zM973 1747l-383 -127v131l383 188v-192z " />
<glyph unicode="&#xd4;" horiz-adv-x="1564" d="M782.5 -29q-311.5 0 -509 205t-197.5 541t197.5 540.5t509 204.5t509 -204.5t197.5 -540.5t-197.5 -541t-509 -205zM782 1235q-213 0 -327.5 -143.5t-114.5 -375t114.5 -374.5t327.5 -143t328 143t115 374.5t-115 375t-328 143.5zM1083 1626l-301 152l-301 -152v127 l301 195l301 -195v-127z" />
<glyph unicode="&#xd5;" horiz-adv-x="1564" d="M782.5 -29q-311.5 0 -509 205t-197.5 541t197.5 540.5t509 204.5t509 -204.5t197.5 -540.5t-197.5 -541t-509 -205zM782 1235q-213 0 -327.5 -143.5t-114.5 -375t114.5 -374.5t327.5 -143t328 143t115 374.5t-115 375t-328 143.5zM924 1642q-53 0 -141.5 46.5 t-120.5 46.5q-84 0 -115 -99l-139 35q14 94 85.5 147.5t155.5 53.5q59 0 141 -45t115 -45q45 0 78 28.5t47 69.5l129 -33q-18 -86 -81.5 -145.5t-153.5 -59.5z" />
<glyph unicode="&#xd6;" horiz-adv-x="1564" d="M782.5 -29q-311.5 0 -509 205t-197.5 541t197.5 540.5t509 204.5t509 -204.5t197.5 -540.5t-197.5 -541t-509 -205zM782 1235q-213 0 -327.5 -143.5t-114.5 -375t114.5 -374.5t327.5 -143t328 143t115 374.5t-115 375t-328 143.5zM1036 1636h-182v213h182v-213zM711 1636 h-183v213h183v-213z" />
<glyph unicode="&#xd7;" horiz-adv-x="913" d="M795 338l-109 -109l-229 230l-230 -230l-108 109l229 229l-229 230l108 108l230 -229l229 229l109 -108l-230 -230z" />
<glyph unicode="&#xd8;" horiz-adv-x="1564" d="M782 -27q-184 0 -340 78l-77 -114h-248l159 233q-201 217 -200 547q0 336 197.5 540.5t508.5 204.5q172 0 330 -73l55 77h248l-137 -198q211 -211 211 -551q0 -334 -198 -539t-509 -205zM1133 1057l-555 -813q96 -41 204 -41q213 0 327 142t114 374q0 211 -90 338z M782 1233q-213 0 -326.5 -142.5t-113.5 -373.5q0 -188 84 -332l551 807q-101 41 -195 41z" />
<glyph unicode="&#xd9;" horiz-adv-x="1474" d="M737 -29q-295 0 -444.5 170t-149.5 471v822h242v-732q0 -113 14.5 -194.5t50 -156.5t108.5 -113.5t179.5 -38.5t179 38.5t108.5 113.5t50.5 157t14.5 194v732h241v-822q0 -301 -149.5 -471t-444.5 -170zM928 1620l-383 127v192l383 -188v-131z" />
<glyph unicode="&#xda;" horiz-adv-x="1474" d="M737 -29q-295 0 -444.5 170t-149.5 471v822h242v-732q0 -113 14.5 -194.5t50 -156.5t108.5 -113.5t179.5 -38.5t179 38.5t108.5 113.5t50.5 157t14.5 194v732h241v-822q0 -301 -149.5 -471t-444.5 -170zM928 1747l-383 -127v131l383 188v-192z" />
<glyph unicode="&#xdb;" horiz-adv-x="1474" d="M737 -29q-295 0 -444.5 170t-149.5 471v822h242v-732q0 -113 14.5 -194.5t50 -156.5t108.5 -113.5t179.5 -38.5t179 38.5t108.5 113.5t50.5 157t14.5 194v732h241v-822q0 -301 -149.5 -471t-444.5 -170zM1038 1626l-301 152l-301 -152v127l301 195l301 -195v-127z" />
<glyph unicode="&#xdc;" horiz-adv-x="1474" d="M737 -29q-295 0 -444.5 170t-149.5 471v822h242v-732q0 -113 14.5 -194.5t50 -156.5t108.5 -113.5t179.5 -38.5t179 38.5t108.5 113.5t50.5 157t14.5 194v732h241v-822q0 -301 -149.5 -471t-444.5 -170zM991 1636h-182v213h182v-213zM666 1636h-183v213h183v-213z" />
<glyph unicode="&#xdd;" horiz-adv-x="1206" d="M1217 1434l-492 -791v-643h-244v643l-493 791h256l358 -576l359 576h256zM801 1747l-383 -127v131l383 188v-192z" />
<glyph unicode="&#xde;" horiz-adv-x="1161" d="M512 403h-109v-403h-243v1434h243v-275h109q129 0 218 -7t168 -29.5t125 -62.5t72.5 -104.5t26.5 -156.5q0 -219 -145.5 -307.5t-464.5 -88.5zM582 985h-179v-412h179q160 0 228.5 53.5t68.5 160t-66.5 152.5t-230.5 46z" />
<glyph unicode="&#xdf;" horiz-adv-x="1155" d="M657 -31q-59 0 -116 8v170q92 0 146 5.5t102.5 20.5t69 47t20.5 83q0 61 -31 117.5t-76 96.5t-90 76t-76 74t-31 72.5t31 78.5t69 84t68.5 106.5t30.5 138.5q0 102 -55 150.5t-131 48.5q-84 0 -131 -53.5t-47 -137.5v-1434h-228v1121h-147l20 182h127v121 q0 170 126 280.5t280 110.5q90 0 177 -36t154.5 -125t67.5 -214q0 -100 -45 -189t-89 -143.5t-44 -74.5q0 -25 47 -66t104.5 -85t104.5 -126t47 -178q0 -168 -129 -249t-326 -81z" />
<glyph unicode="&#xe0;" horiz-adv-x="1009" d="M987 170l-22 -190h-70q-174 0 -238 126q-111 -127 -311 -126q-131 0 -216 82.5t-85 220.5q0 100 59.5 174.5t154.5 112.5t186.5 55.5t183.5 19.5q-2 102 -48 145.5t-149 43.5q-125 0 -274 -82l-25 188q174 96 363 96q184 0 275 -101t91 -333v-254q0 -115 17.5 -146.5 t81.5 -31.5h26zM629 252v235q-152 -6 -247 -54t-95 -140q0 -133 143 -133q49 0 104.5 24.5t94.5 67.5zM696 1204l-383 127v193l383 -189v-131z" />
<glyph unicode="&#xe1;" horiz-adv-x="1009" d="M987 170l-22 -190h-70q-174 0 -238 126q-111 -127 -311 -126q-131 0 -216 82.5t-85 220.5q0 100 59.5 174.5t154.5 112.5t186.5 55.5t183.5 19.5q-2 102 -48 145.5t-149 43.5q-125 0 -274 -82l-25 188q174 96 363 96q184 0 275 -101t91 -333v-254q0 -115 17.5 -146.5 t81.5 -31.5h26zM629 252v235q-152 -6 -247 -54t-95 -140q0 -133 143 -133q49 0 104.5 24.5t94.5 67.5zM696 1331l-383 -127v131l383 189v-193z" />
<glyph unicode="&#xe2;" horiz-adv-x="1009" d="M987 170l-22 -190h-70q-174 0 -238 126q-111 -127 -311 -126q-131 0 -216 82.5t-85 220.5q0 100 59.5 174.5t154.5 112.5t186.5 55.5t183.5 19.5q-2 102 -48 145.5t-149 43.5q-125 0 -274 -82l-25 188q174 96 363 96q184 0 275 -101t91 -333v-254q0 -115 17.5 -146.5 t81.5 -31.5h26zM629 252v235q-152 -6 -247 -54t-95 -140q0 -133 143 -133q49 0 104.5 24.5t94.5 67.5zM807 1210l-301 152l-301 -152v127l301 195l301 -195v-127z" />
<glyph unicode="&#xe3;" horiz-adv-x="1009" d="M987 170l-22 -190h-70q-174 0 -238 126q-111 -127 -311 -126q-131 0 -216 82.5t-85 220.5q0 100 59.5 174.5t154.5 112.5t186.5 55.5t183.5 19.5q-2 102 -48 145.5t-149 43.5q-125 0 -274 -82l-25 188q174 96 363 96q184 0 275 -101t91 -333v-254q0 -115 17.5 -146.5 t81.5 -31.5h26zM629 252v235q-152 -6 -247 -54t-95 -140q0 -133 143 -133q49 0 104.5 24.5t94.5 67.5zM639 1227q-53 0 -141 46t-121 46q-84 0 -115 -98l-139 34q14 94 86 147.5t156 53.5q59 0 141 -45t115 -45q45 0 77.5 28.5t46.5 69.5l129 -32q-18 -86 -81.5 -145.5 t-153.5 -59.5z" />
<glyph unicode="&#xe4;" horiz-adv-x="1009" d="M987 170l-22 -190h-70q-174 0 -238 126q-111 -127 -311 -126q-131 0 -216 82.5t-85 220.5q0 100 59.5 174.5t154.5 112.5t186.5 55.5t183.5 19.5q-2 102 -48 145.5t-149 43.5q-125 0 -274 -82l-25 188q174 96 363 96q184 0 275 -101t91 -333v-254q0 -115 17.5 -146.5 t81.5 -31.5h26zM629 252v235q-152 -6 -247 -54t-95 -140q0 -133 143 -133q49 0 104.5 24.5t94.5 67.5zM760 1221h-182v213h182v-213zM434 1221h-182v213h182v-213z" />
<glyph unicode="&#xe5;" horiz-adv-x="1009" d="M987 170l-22 -190h-70q-174 0 -238 126q-111 -127 -311 -126q-131 0 -216 82.5t-85 220.5q0 100 59.5 174.5t154.5 112.5t186.5 55.5t183.5 19.5q-2 102 -48 145.5t-149 43.5q-125 0 -274 -82l-25 188q174 96 363 96q184 0 275 -101t91 -333v-254q0 -115 17.5 -146.5 t81.5 -31.5h26zM629 252v235q-152 -6 -247 -54t-95 -140q0 -133 143 -133q49 0 104.5 24.5t94.5 67.5zM506 1180q-98 0 -155.5 52t-57.5 130q0 76 58.5 130t154.5 54q98 0 155.5 -53t57.5 -131t-57.5 -130t-155.5 -52zM506 1458q-41 0 -70.5 -27.5t-29.5 -68.5 q0 -43 28.5 -69.5t71.5 -26.5t71.5 26.5t28.5 69.5q0 41 -29.5 68.5t-70.5 27.5z" />
<glyph unicode="&#xe6;" horiz-adv-x="1632" d="M1559 471h-662q14 -150 99 -225.5t208 -75.5q139 0 303 80l19 -191q-156 -80 -338 -79q-303 0 -410 204q-139 -215 -405 -215q-158 0 -243 76t-85 209q0 90 42 159.5t102.5 109.5t145.5 66.5t154.5 36t145.5 13.5q-10 104 -55 149.5t-148 45.5q-123 0 -272 -72l-21 186 q186 88 355 88q258 0 315 -202q31 88 133 145t229 57q180 0 291 -116.5t111 -315.5q0 -57 -14 -133zM1163 840q-96 0 -164.5 -55.5t-91.5 -155.5h455q0 92 -49.5 151.5t-149.5 59.5zM651 481q-86 -2 -163.5 -20.5t-139 -67.5t-61.5 -119q0 -57 37.5 -88.5t97.5 -31.5 q88 0 159.5 67.5t71.5 190.5q0 40 -2 69z" />
<glyph unicode="&#xe7;" horiz-adv-x="921" d="M559 -20q-238 0 -368 151.5t-130 376.5q0 227 130.5 377.5t367.5 150.5q190 0 307 -71l-24 -201q-127 76 -262.5 76t-208 -89t-72.5 -243q0 -152 73.5 -243t207.5 -91q135 0 264 76l22 -195q-117 -75 -307 -75zM688 -109l-196 -272l-134 -14l142 270z" />
<glyph unicode="&#xe8;" horiz-adv-x="1052" d="M981 471h-682q20 -154 111.5 -225.5t216.5 -71.5q156 0 307 76l16 -193q-156 -78 -340 -77q-262 0 -406.5 151.5t-144.5 378.5q0 221 132.5 373.5t359.5 152.5q195 0 319.5 -119.5t124.5 -318.5q0 -49 -14 -127zM555 840q-201 0 -246 -211h449q0 88 -50.5 149.5 t-152.5 61.5zM717 1204l-383 127v193l383 -189v-131z" />
<glyph unicode="&#xe9;" horiz-adv-x="1052" d="M981 471h-682q20 -154 111.5 -225.5t216.5 -71.5q156 0 307 76l16 -193q-156 -78 -340 -77q-262 0 -406.5 151.5t-144.5 378.5q0 221 132.5 373.5t359.5 152.5q195 0 319.5 -119.5t124.5 -318.5q0 -49 -14 -127zM555 840q-201 0 -246 -211h449q0 88 -50.5 149.5 t-152.5 61.5zM717 1331l-383 -127v131l383 189v-193z" />
<glyph unicode="&#xea;" horiz-adv-x="1052" d="M981 471h-682q20 -154 111.5 -225.5t216.5 -71.5q156 0 307 76l16 -193q-156 -78 -340 -77q-262 0 -406.5 151.5t-144.5 378.5q0 221 132.5 373.5t359.5 152.5q195 0 319.5 -119.5t124.5 -318.5q0 -49 -14 -127zM555 840q-201 0 -246 -211h449q0 88 -50.5 149.5 t-152.5 61.5zM825 1210l-301 152l-301 -152v127l301 195l301 -195v-127z" />
<glyph unicode="&#xeb;" horiz-adv-x="1052" d="M981 471h-682q20 -154 111.5 -225.5t216.5 -71.5q156 0 307 76l16 -193q-156 -78 -340 -77q-262 0 -406.5 151.5t-144.5 378.5q0 221 132.5 373.5t359.5 152.5q195 0 319.5 -119.5t124.5 -318.5q0 -49 -14 -127zM555 840q-201 0 -246 -211h449q0 88 -50.5 149.5 t-152.5 61.5zM778 1221h-182v213h182v-213zM453 1221h-183v213h183v-213z" />
<glyph unicode="&#xec;" d="M356 0h-233v1018h233v-1018zM432 1204l-383 127v193l383 -189v-131z" />
<glyph unicode="&#xed;" d="M356 0h-233v1018h233v-1018zM432 1331l-383 -127v131l383 189v-193z" />
<glyph unicode="&#xee;" d="M356 0h-233v1018h233v-1018zM541 1210l-301 152l-301 -152v127l301 195l301 -195v-127z" />
<glyph unicode="&#xef;" d="M356 0h-233v1018h233v-1018zM494 1221h-183v213h183v-213zM168 1221h-182v213h182v-213z" />
<glyph unicode="&#xf0;" horiz-adv-x="1058" d="M502 -27q-197 0 -328 126t-131 319q0 180 113.5 317t318.5 137q150 0 252 -90q-8 78 -53 186.5t-99 147.5q-137 -102 -282 -121l-74 140q109 4 250 94q-121 104 -244 104l80 103q152 -4 299 -109q72 66 117 129l123 -31q-72 -109 -142 -186q125 -127 200 -315.5 t75 -395.5q0 -156 -44 -270.5t-117 -172.5t-150.5 -85t-163.5 -27zM504 682q-109 0 -170.5 -71.5t-61.5 -166.5q0 -117 62.5 -195.5t173.5 -78.5q96 0 161.5 66.5t65.5 187.5t-60 189.5t-171 68.5z" />
<glyph unicode="&#xf1;" horiz-adv-x="1136" d="M1026 0h-231v551q0 150 -52.5 219.5t-169.5 69.5q-143 0 -219 -101v-739h-231v1018h209l8 -76q119 94 258 94q428 0 428 -485v-551zM711 1227q-53 0 -141.5 46t-120.5 46q-84 0 -115 -98l-139 34q14 94 85.5 147.5t155.5 53.5q59 0 141 -45t115 -45q45 0 78 28.5t47 69.5 l129 -32q-18 -86 -81.5 -145.5t-153.5 -59.5z" />
<glyph unicode="&#xf2;" horiz-adv-x="1142" d="M571.5 -20q-235.5 0 -374 151.5t-138.5 376.5q0 223 138.5 375.5t374 152.5t373.5 -152.5t138 -375.5q0 -225 -138 -376.5t-373.5 -151.5zM571 840q-129 0 -201.5 -90.5t-72.5 -241.5q0 -154 72.5 -244t201.5 -90t202 90t73 244q0 152 -73 242t-202 90zM762 1204 l-383 127v193l383 -189v-131z" />
<glyph unicode="&#xf3;" horiz-adv-x="1142" d="M571.5 -20q-235.5 0 -374 151.5t-138.5 376.5q0 223 138.5 375.5t374 152.5t373.5 -152.5t138 -375.5q0 -225 -138 -376.5t-373.5 -151.5zM571 840q-129 0 -201.5 -90.5t-72.5 -241.5q0 -154 72.5 -244t201.5 -90t202 90t73 244q0 152 -73 242t-202 90zM762 1331 l-383 -127v131l383 189v-193z" />
<glyph unicode="&#xf4;" horiz-adv-x="1142" d="M571.5 -20q-235.5 0 -374 151.5t-138.5 376.5q0 223 138.5 375.5t374 152.5t373.5 -152.5t138 -375.5q0 -225 -138 -376.5t-373.5 -151.5zM571 840q-129 0 -201.5 -90.5t-72.5 -241.5q0 -154 72.5 -244t201.5 -90t202 90t73 244q0 152 -73 242t-202 90zM872 1210 l-301 152l-301 -152v127l301 195l301 -195v-127z" />
<glyph unicode="&#xf5;" horiz-adv-x="1142" d="M571.5 -20q-235.5 0 -374 151.5t-138.5 376.5q0 223 138.5 375.5t374 152.5t373.5 -152.5t138 -375.5q0 -225 -138 -376.5t-373.5 -151.5zM571 840q-129 0 -201.5 -90.5t-72.5 -241.5q0 -154 72.5 -244t201.5 -90t202 90t73 244q0 152 -73 242t-202 90zM713 1227 q-53 0 -141.5 46t-120.5 46q-84 0 -115 -98l-139 34q14 94 85.5 147.5t155.5 53.5q59 0 141.5 -45t114.5 -45q45 0 78 28.5t47 69.5l129 -32q-18 -86 -81.5 -145.5t-153.5 -59.5z" />
<glyph unicode="&#xf6;" horiz-adv-x="1142" d="M571.5 -20q-235.5 0 -374 151.5t-138.5 376.5q0 223 138.5 375.5t374 152.5t373.5 -152.5t138 -375.5q0 -225 -138 -376.5t-373.5 -151.5zM571 840q-129 0 -201.5 -90.5t-72.5 -241.5q0 -154 72.5 -244t201.5 -90t202 90t73 244q0 152 -73 242t-202 90zM825 1221h-182 v213h182v-213zM500 1221h-183v213h183v-213z" />
<glyph unicode="&#xf7;" horiz-adv-x="1175" d="M694 850h-231v244h231v-244zM1059 481h-942v178h942v-178zM694 41h-231v244h231v-244z" />
<glyph unicode="&#xf8;" horiz-adv-x="1153" d="M578 -18q-70 0 -154 18l-35 -74h-194l71 150q-207 152 -207 434q0 223 140.5 375.5t378.5 152.5q68 0 147 -18l35 74h201l-74 -148q209 -160 209 -436q0 -223 -140 -375.5t-378 -152.5zM791 745l-281 -569q49 -6 68 -6q131 0 203.5 94t72.5 246q0 159 -63 235zM575 850 q-129 0 -201.5 -93t-72.5 -247q0 -127 61 -236l277 570q-31 6 -64 6z" />
<glyph unicode="&#xf9;" horiz-adv-x="1114" d="M991 0h-213l-10 76q-100 -96 -244 -96q-414 0 -413 477v561h231v-545q0 -152 51 -223.5t162 -71.5q135 0 205 94v746h231v-1018zM758 1204l-383 127v193l383 -189v-131z" />
<glyph unicode="&#xfa;" horiz-adv-x="1114" d="M991 0h-213l-10 76q-100 -96 -244 -96q-414 0 -413 477v561h231v-545q0 -152 51 -223.5t162 -71.5q135 0 205 94v746h231v-1018zM758 1331l-383 -127v131l383 189v-193z" />
<glyph unicode="&#xfb;" horiz-adv-x="1114" d="M991 0h-213l-10 76q-100 -96 -244 -96q-414 0 -413 477v561h231v-545q0 -152 51 -223.5t162 -71.5q135 0 205 94v746h231v-1018zM868 1210l-301 152l-301 -152v127l301 195l301 -195v-127z" />
<glyph unicode="&#xfc;" horiz-adv-x="1114" d="M991 0h-213l-10 76q-100 -96 -244 -96q-414 0 -413 477v561h231v-545q0 -152 51 -223.5t162 -71.5q135 0 205 94v746h231v-1018zM821 1221h-182v213h182v-213zM496 1221h-183v213h183v-213z" />
<glyph unicode="&#xfd;" horiz-adv-x="1085" d="M1075 1018l-633 -1514h-239l229 557l-424 957h258l279 -686l272 686h258zM733 1331l-383 -127v131l383 189v-193z" />
<glyph unicode="&#xfe;" horiz-adv-x="1181" d="M616 -20q-160 0 -262 90v-566h-231v2032h231v-588q113 88 267 88q231 0 365 -152.5t134 -375.5q0 -225 -134 -376.5t-370 -151.5zM600 840q-131 0 -194.5 -89t-63.5 -243q0 -156 63.5 -247t194.5 -91q133 0 208 93t75 244.5t-75 242t-208 90.5z" />
<glyph unicode="&#xff;" horiz-adv-x="1085" d="M1075 1018l-633 -1514h-239l229 557l-424 957h258l279 -686l272 686h258zM795 1221h-183v213h183v-213zM469 1221h-182v213h182v-213z" />
<glyph unicode="&#x131;" d="M356 0h-233v1018h233v-1018z" />
<glyph unicode="&#x152;" horiz-adv-x="2185" d="M2111 0h-876v131q-209 -160 -457 -160q-309 0 -505.5 205t-196.5 541t196.5 540.5t505.5 204.5q248 0 457 -159v131h858v-230h-614v-342h473v-229h-473v-404h632v-229zM778 1235q-213 0 -326.5 -143.5t-113.5 -375t113.5 -374.5t326.5 -143t327 143t114 374.5t-114 375 t-327 143.5z" />
<glyph unicode="&#x153;" horiz-adv-x="1837" d="M1765 471h-673q14 -158 105 -229.5t206 -71.5q160 0 315 80l15 -197q-143 -74 -332 -73q-301 0 -432 182q-59 -86 -164 -134t-232 -48q-236 0 -375 152.5t-139 377.5t139.5 375.5t376.5 150.5q123 0 225.5 -47t162.5 -131q61 84 158.5 131t211.5 47q197 0 322 -118.5 t125 -317.5q-1 -66 -15 -129zM1339 840q-199 0 -241 -211h446q-4 90 -55.5 150.5t-149.5 60.5zM575 840q-131 0 -204.5 -89t-73.5 -243t72.5 -244t205.5 -90q131 0 203 93t72 242.5t-73 240t-202 90.5z" />
<glyph unicode="&#x160;" horiz-adv-x="1193" d="M573 -29q-152 0 -277.5 29t-195.5 72l31 276q70 -63 186.5 -106t262.5 -43q283 0 282 176q0 43 -20.5 80t-46 60.5t-78.5 49t-89 38.5l-110 38q-88 29 -131 45t-113.5 52t-104.5 72t-61.5 95.5t-27.5 130.5q0 76 27.5 147.5t85 136t162 103.5t243.5 39q133 0 261 -32.5 t194 -73.5l-25 -250q-242 129 -418 129q-111 0 -195.5 -40t-84.5 -130q0 -57 45 -100t98 -64.5t152 -52.5l119 -38q40 -13 112 -43t111 -60.5t82 -76.5t62 -108.5t19 -138.5q0 -55 -10 -104.5t-46 -108.5t-93 -100t-163 -70t-245 -29zM897 1815l-301 -191l-301 191v131 l301 -150l301 150v-131z" />
<glyph unicode="&#x161;" horiz-adv-x="862" d="M412 -20q-227 0 -346 79l22 205q49 -39 138 -70.5t177.5 -31.5t129 32.5t40.5 84.5q0 43 -32.5 74.5t-64.5 45t-95 31.5q-72 20 -110 35.5t-90 47.5t-76.5 82t-24.5 122q0 129 90 224t285 95q186 0 307 -73l-23 -201q-115 102 -270 102q-78 0 -128 -28.5t-50 -90.5 q0 -47 34.5 -77.5t71.5 -43t127 -34.5q283 -74 283 -309q0 -55 -15.5 -102.5t-55.5 -95.5t-122.5 -75.5t-201.5 -27.5zM723 1399l-301 -191l-301 191v131l301 -150l301 150v-131z" />
<glyph unicode="&#x178;" horiz-adv-x="1206" d="M1217 1434l-492 -791v-643h-244v643l-493 791h256l358 -576l359 576h256zM864 1636h-182v213h182v-213zM539 1636h-183v213h183v-213z" />
<glyph unicode="&#x17d;" horiz-adv-x="1126" d="M1110 1434l-694 -1205h602v-229h-1000l695 1204h-602v230h999zM868 1815l-301 -191l-301 191v131l301 -150l301 150v-131z" />
<glyph unicode="&#x17e;" horiz-adv-x="972" d="M926 1018l-480 -817h461v-201h-860l477 817h-456v201h858zM788 1399l-301 -191l-301 191v131l301 -150l301 150v-131z" />
<glyph unicode="&#x192;" horiz-adv-x="729" d="M770 1438l-18 -168q-53 16 -88 16q-100 0 -144.5 -58.5t-68.5 -209.5h274l-16 -152h-283l-166 -1038q-27 -166 -100.5 -245t-141.5 -79h-51l-37 185q61 4 94 41t48 137l151 999h-170l17 152h176l14 94q25 162 129.5 256t249.5 94q63 1 131 -24z" />
<glyph unicode="&#x237;" d="M96 -492l-82 -4l-22 189q88 4 109.5 30.5t21.5 145.5v1149h233v-1243q0 -121 -70.5 -192t-189.5 -75z" />
<glyph unicode="&#x2c6;" horiz-adv-x="913" d="M758 1210l-301 152l-301 -152v127l301 195l301 -195v-127z" />
<glyph unicode="&#x2c7;" horiz-adv-x="913" d="M758 1399l-301 -191l-301 191v131l301 -150l301 150v-131z" />
<glyph unicode="&#x2da;" horiz-adv-x="598" d="M299 1180q-98 0 -155.5 52t-57.5 130q0 76 58.5 130t154.5 54q98 0 155.5 -53t57.5 -131t-57.5 -130t-155.5 -52zM299 1458q-41 0 -70.5 -27.5t-29.5 -68.5q0 -43 28.5 -69.5t71.5 -26.5t71.5 26.5t28.5 69.5q0 41 -29.5 68.5t-70.5 27.5z" />
<glyph unicode="&#x2dc;" horiz-adv-x="1081" d="M682 1227q-53 0 -141 46t-121 46q-84 0 -115 -98l-139 34q14 94 86 147.5t156 53.5q59 0 141 -45t115 -45q45 0 77.5 28.5t46.5 69.5l130 -32q-18 -86 -82 -145.5t-154 -59.5z" />
<glyph unicode="&#x2000;" horiz-adv-x="981" />
<glyph unicode="&#x2001;" horiz-adv-x="1962" />
<glyph unicode="&#x2002;" horiz-adv-x="981" />
<glyph unicode="&#x2003;" horiz-adv-x="1962" />
<glyph unicode="&#x2004;" horiz-adv-x="654" />
<glyph unicode="&#x2005;" horiz-adv-x="490" />
<glyph unicode="&#x2006;" horiz-adv-x="327" />
<glyph unicode="&#x2007;" horiz-adv-x="327" />
<glyph unicode="&#x2008;" horiz-adv-x="245" />
<glyph unicode="&#x2009;" horiz-adv-x="392" />
<glyph unicode="&#x200a;" horiz-adv-x="109" />
<glyph unicode="&#x2010;" horiz-adv-x="860" d="M748 475h-635v189h635v-189z" />
<glyph unicode="&#x2011;" horiz-adv-x="860" d="M748 475h-635v189h635v-189z" />
<glyph unicode="&#x2012;" horiz-adv-x="860" d="M748 475h-635v189h635v-189z" />
<glyph unicode="&#x2013;" horiz-adv-x="1019" d="M907 475h-794v189h794v-189z" />
<glyph unicode="&#x2014;" horiz-adv-x="1208" d="M1096 475h-983v189h983v-189z" />
<glyph unicode="&#x2018;" horiz-adv-x="413" d="M88 1311l188 225l52 -29l-70 -176l68 -20v-238h-238v238z" />
<glyph unicode="&#x2019;" horiz-adv-x="378" d="M324 1298l-189 -225l-51 29l68 176l-68 20v238h240v-238z" />
<glyph unicode="&#x201a;" horiz-adv-x="464" d="M352 0l-188 -225l-51 28l67 177l-67 20v238h239v-238z" />
<glyph unicode="&#x201c;" horiz-adv-x="843" d="M88 1311l188 225l52 -29l-70 -176l68 -20v-238h-238v238zM518 1311l189 225l51 -29l-70 -176l68 -20v-238h-238v238z" />
<glyph unicode="&#x201d;" horiz-adv-x="808" d="M754 1298l-189 -225l-51 29l68 176l-68 20v238h240v-238zM324 1298l-189 -225l-51 29l68 176l-68 20v238h240v-238z" />
<glyph unicode="&#x201e;" horiz-adv-x="935" d="M352 0l-188 -225l-51 28l67 177l-67 20v238h239v-238zM823 0l-188 -225l-51 28l67 177l-67 20v238h239v-238z" />
<glyph unicode="&#x2020;" horiz-adv-x="868" d="M797 729l-285 57l66 -264l-62 -522h-164l-61 522l65 264l-284 -57v242l284 -58l-63 330h282l-63 -330l285 58v-242z" />
<glyph unicode="&#x2021;" horiz-adv-x="942" d="M834 152l-285 55l63 -328h-282l63 328l-284 -55v239l286 -57l-67 227l67 227l-286 -55v240l284 -58l-63 328h282l-63 -328l285 58v-240l-287 55l67 -227l-67 -227l287 57v-239z" />
<glyph unicode="&#x2022;" horiz-adv-x="618" d="M309 346q-92 0 -157.5 65.5t-65.5 158t65.5 158t157.5 65.5t157.5 -65.5t65.5 -158t-65.5 -158t-157.5 -65.5z" />
<glyph unicode="&#x2026;" horiz-adv-x="1425" d="M346 0h-233v238h233v-238zM829 0h-233v238h233v-238zM1313 0h-234v238h234v-238z" />
<glyph unicode="&#x202f;" horiz-adv-x="392" />
<glyph unicode="&#x2030;" horiz-adv-x="2461" d="M1341 -20q-137 0 -222 101t-85 271q0 176 91.5 281.5t226.5 105.5t220 -100t85 -270q0 -178 -86.5 -283.5t-229.5 -105.5zM1370 1434l-862 -1459h-195l863 1459h194zM377 684q-137 0 -221 101.5t-84 271.5q0 174 90 279.5t225 105.5q133 0 219 -100.5t86 -268.5 q0 -178 -87 -283.5t-228 -105.5zM1348 606q-72 0 -120 -65.5t-48 -188.5q0 -119 44 -178t117 -59q78 0 123 63.5t45 190.5q0 115 -45.5 176t-115.5 61zM385 1309q-68 0 -116 -66.5t-48 -185.5q0 -115 44 -174.5t114 -59.5q74 0 120 63.5t46 186.5q0 113 -47 174.5t-113 61.5 zM2079 -20q-137 0 -221 101t-84 271q0 176 90 281.5t225 105.5t221 -100t86 -270q0 -178 -87 -283.5t-230 -105.5zM2084.5 606q-69.5 0 -117.5 -65.5t-48 -188.5q0 -119 44 -178t116 -59q78 0 124 63.5t46 190.5q0 115 -47.5 176t-117 61z" />
<glyph unicode="&#x2039;" horiz-adv-x="694" d="M616 160h-276l-315 422l315 422h276l-315 -422z" />
<glyph unicode="&#x203a;" horiz-adv-x="696" d="M672 582l-316 -422h-276l315 422l-315 422h276z" />
<glyph unicode="&#x205f;" horiz-adv-x="490" />
<glyph unicode="&#x2070;" horiz-adv-x="821" d="M403 639q-154 0 -248 109.5t-94 283.5q0 178 101.5 296t255.5 118q150 0 246 -112.5t96 -286.5q0 -180 -97.5 -294t-259.5 -114zM415.5 1286q-67.5 0 -120.5 -65.5t-53 -188.5q0 -119 46 -174t118 -55q176 0 176 244q0 117 -49.5 178t-117 61z" />
<glyph unicode="&#x2074;" horiz-adv-x="702" d="M649 866h-100v-211h-184v211h-359l383 564h160v-426h100v-138zM365 1004v176l-123 -176h123z" />
<glyph unicode="&#x2075;" horiz-adv-x="626" d="M281 643q-61 0 -118 16.5t-86.5 35t-29.5 30.5l43 162q51 -70 221 -70q88 0 88 84q0 16 -3 27.5t-16 29t-49 26.5t-91 9h-150l53 437h385l-20 -185h-229l-17 -106q156 -2 230.5 -57.5t74.5 -176.5q0 -135 -82.5 -198.5t-203.5 -63.5z" />
<glyph unicode="&#x2076;" horiz-adv-x="655" d="M319 639q-117 0 -187.5 77t-70.5 236q0 193 129 334t228 144l121 -70q-57 0 -171 -108.5t-118 -153.5q27 25 117 24q106 0 174.5 -59t68.5 -164q0 -102 -81 -181t-210 -79zM352 979q-117 0 -116 -96q0 -33 33.5 -55.5t66.5 -22.5q45 0 77.5 29.5t32.5 72.5 q0 29 -27.5 50.5t-66.5 21.5z" />
<glyph unicode="&#x2077;" horiz-adv-x="606" d="M608 1430l-334 -775h-196l258 590h-281v185h553z" />
<glyph unicode="&#x2078;" horiz-adv-x="700" d="M336 639q-133 0 -205 60.5t-72 156.5q0 117 101 217q-27 16 -41.5 68.5t-14.5 103.5q0 201 250 201q244 0 244 -182q0 -49 -22.5 -103.5t-47.5 -79.5q41 -27 77 -83t36 -109q0 -98 -77.5 -174t-227.5 -76zM350 1317q-86 0 -86 -94q0 -31 3 -46.5t21.5 -31t55.5 -15.5 q88 0 88 93q0 94 -82 94zM356 1016q-45 0 -88 -39t-43 -98q0 -47 32 -77t85 -30q121 0 121 107q0 61 -32 98t-75 39z" />
<glyph unicode="&#x2079;" horiz-adv-x="655" d="M334 1446q121 0 190.5 -80t69.5 -233q0 -174 -118 -326t-251 -152l-104 70q68 0 183.5 93t117.5 175q-39 -29 -127 -28q-94 0 -173 59t-79 158q0 106 81 185t210 79zM309 1106q119 0 119 92q0 88 -98 88q-47 0 -77 -31.5t-30 -68.5t23.5 -58.5t62.5 -21.5z" />
<glyph unicode="&#x2080;" horiz-adv-x="874" d="M430 -16q-154 0 -248 109.5t-94 283.5q0 178 101.5 296t254.5 118q150 0 246 -113t96 -287q0 -180 -97 -293.5t-259 -113.5zM442.5 631q-67.5 0 -121 -65.5t-53.5 -188.5q0 -119 46 -174.5t118 -55.5q176 0 176 244q0 117 -49 178.5t-116.5 61.5z" />
<glyph unicode="&#x2081;" horiz-adv-x="526" d="M358 0h-182v518q-10 -4 -88 -8l-6 143q29 0 77 41t56 80h143v-774z" />
<glyph unicode="&#x2082;" horiz-adv-x="684" d="M590 0h-524q141 193 217.5 315.5t92 164.5t15.5 75q0 94 -88 94q-111 0 -188 -137l-23 166q27 47 90.5 80t153.5 33q119 0 172 -62.5t53 -142.5q0 -135 -180 -402h209v-184z" />
<glyph unicode="&#x2083;" horiz-adv-x="681" d="M285 -16q-70 0 -139.5 21.5t-82.5 39.5l46 170q2 -18 58 -33.5t105 -15.5q143 0 144 65q0 121 -109 121h-127l15 137h65q63 0 92 24t29 50q0 33 -24.5 57.5t-82.5 24.5q-96 0 -133 -31l-24 125q55 51 182 52q145 0 203.5 -66t58.5 -147q0 -55 -17.5 -96.5t-35.5 -51.5 q4 -4 22.5 -26.5t24.5 -32t17.5 -31t15.5 -45t4 -51.5q0 -123 -91 -191.5t-216 -68.5z" />
<glyph unicode="&#x2084;" horiz-adv-x="757" d="M674 211h-101v-211h-184v211h-358l383 563h159v-426h101v-137zM389 348v176l-123 -176h123z" />
<glyph unicode="&#x2085;" horiz-adv-x="681" d="M305 -12q-61 0 -117.5 16t-86 34.5t-29.5 31.5l43 161q51 -70 221 -69q43 0 65.5 16.5t22.5 67.5q0 16 -3 27.5t-16.5 28.5t-49.5 26.5t-91 9.5h-149l53 436h385l-21 -184h-229l-16 -107q156 -2 230.5 -57t74.5 -176q0 -135 -83 -198.5t-204 -63.5z" />
<glyph unicode="&#x2086;" horiz-adv-x="706" d="M346 -16q-117 0 -187.5 76.5t-70.5 236.5q0 100 42 194.5t100.5 152.5t117 94t96.5 36l121 -69q-70 0 -176 -104.5t-113 -156.5q25 23 111 23q113 0 181.5 -58.5t68.5 -164.5q0 -102 -81 -181t-210 -79zM379 326q-117 0 -117 -99q0 -35 34 -57.5t66 -22.5q43 0 77 31 t34 74q0 29 -27.5 51.5t-66.5 22.5z" />
<glyph unicode="&#x2087;" horiz-adv-x="686" d="M643 774l-334 -774h-196l258 590h-281v184h553z" />
<glyph unicode="&#x2088;" horiz-adv-x="755" d="M365 -16q-133 0 -205 60t-72 157q0 117 100 217q-27 16 -41 68.5t-14 103.5q0 201 250 201q244 0 244 -183q0 -49 -22.5 -103t-47.5 -79q41 -27 77 -83t36 -110q0 -98 -77.5 -173.5t-227.5 -75.5zM379 662q-53 0 -76.5 -28t-23.5 -65q0 -18 2 -29.5t9 -28.5t28.5 -26.5 t54.5 -9.5q88 0 88 92q0 95 -82 95zM385 360q-45 0 -88 -38.5t-43 -98.5q0 -47 31.5 -76.5t85.5 -29.5q121 0 121 106q0 61 -32 98t-75 39z" />
<glyph unicode="&#x2089;" horiz-adv-x="702" d="M354 791q121 0 190.5 -80t69.5 -234q0 -174 -117.5 -325.5t-250.5 -151.5l-105 70q68 0 182.5 92t120.5 178q-41 -31 -131 -31q-106 0 -178 57.5t-72 159.5q0 106 81 185.5t210 79.5zM330 451q119 0 119 92q0 86 -99 86q-47 0 -76.5 -32t-29.5 -67q0 -37 23.5 -58 t62.5 -21z" />
<glyph unicode="&#x20ac;" horiz-adv-x="1441" d="M961 35q-207 0 -367 105.5t-236 291.5h-292l57 166h192q-6 61 -6 119v35h-184l55 155h150q57 227 227 359.5t404 132.5q211 0 368 -74l-29 -221q-193 80 -339 80q-283 0 -367 -277h518l-57 -155h-488v-35q0 -70 11 -119h493l-57 -166h-383q104 -182 330 -182 q147 0 339 80l29 -221q-157 -74 -368 -74z" />
<glyph unicode="&#x2122;" horiz-adv-x="1505" d="M1018 883h-21l-163 278l-60 -471h-149l100 744h88l197 -324l192 324h90l101 -744h-152l-57 469zM625 1434l-17 -142h-196v-602h-146v602h-203v142h562z" />
<glyph unicode="&#xe000;" horiz-adv-x="1020" d="M0 1020h1020v-1020h-1020v1020z" />
<glyph horiz-adv-x="1126" d="M1116 0h-239l-109 274h-410l-104 -274h-244l445 1176h219zM688 500l-125 305l-125 -305h250z" />
<glyph horiz-adv-x="1560" d="M1489 0h-776v279h-344l-144 -279h-243l608 1176h883v-226h-525v-225h404v-223h-404v-277h541v-225zM713 502v444l-236 -444h236z" />
<glyph horiz-adv-x="1144" d="M633 0h-488v1176h342q119 0 198 -11.5t146.5 -42t100.5 -93t33 -159.5q0 -172 -105 -241q113 -39 166 -104.5t53 -180.5q0 -125 -70.5 -206t-165.5 -109.5t-210 -28.5zM584 983h-205v-274h223q57 0 103.5 30.5t46.5 94.5q0 149 -168 149zM612 532h-233v-337h229 q229 0 230 170q-1 167 -226 167z" />
<glyph horiz-adv-x="1107" d="M686 -25q-270 0 -442 169t-172 446q0 272 172 441t442 169q209 0 354 -70l-24 -219q-168 66 -330 66q-174 0 -267 -105.5t-93 -281.5q0 -178 92 -283.5t266 -105.5q164 0 332 65l24 -221q-145 -70 -354 -70z" />
<glyph horiz-adv-x="1302" d="M614 0h-469v1176h469q272 0 442.5 -157t170.5 -429.5t-170.5 -431t-442.5 -158.5zM614 952h-235v-729h235q176 0 267.5 96.5t91.5 270.5q0 172 -91.5 267t-267.5 95z" />
<glyph horiz-adv-x="1036" d="M965 0h-820v1176h803v-226h-563v-225h436v-223h-436v-277h580v-225z" />
<glyph horiz-adv-x="956" d="M915 950h-536v-225h414v-223h-414v-502h-234v1176h770v-226z" />
<glyph horiz-adv-x="1202" d="M682 -25q-266 0 -438 170t-172 444.5t173 442.5t447 168q229 0 375 -70l-25 -223q-172 70 -344 70q-184 0 -278 -104.5t-94 -278.5q0 -180 98 -286.5t283 -106.5q63 0 167 14v186h-131v189h365v-524q-68 -37 -194 -64t-232 -27z" />
<glyph horiz-adv-x="1335" d="M1190 0h-234v502h-577v-502h-234v1176h234v-451h577v451h234v-1176z" />
<glyph horiz-adv-x="524" d="M379 0h-234v1176h234v-1176z" />
<glyph horiz-adv-x="524" d="M92 -289h-67l-19 180h51q49 0 68.5 28t19.5 89v1168h234v-1213q0 -125 -76 -188.5t-211 -63.5z" />
<glyph horiz-adv-x="1136" d="M1118 0h-262l-434 623l434 553h262l-434 -553zM379 0h-234v1176h234v-1176z" />
<glyph horiz-adv-x="911" d="M887 0h-742v1176h234v-951h508v-225z" />
<glyph horiz-adv-x="1509" d="M1421 0h-243l-107 760l-317 -522l-318 522l-106 -760h-242l172 1176h191l305 -523l301 523h190z" />
<glyph horiz-adv-x="1280" d="M1135 0h-193l-563 774v-774h-234v1176h228l528 -727v727h234v-1176z" />
<glyph horiz-adv-x="1372" d="M686 -25q-270 0 -442 169t-172 446q0 272 172 441t442 169t442 -169t172 -441q0 -276 -172 -445.5t-442 -169.5zM686 977q-174 0 -267 -105.5t-93 -281.5t93 -282.5t267 -106.5t266 105.5t92 283.5q0 176 -92 281.5t-266 105.5z" />
<glyph horiz-adv-x="1914" d="M1843 0h-780v80q-168 -104 -375 -105q-270 0 -443 170t-173 445q0 272 173 441t443 169q205 0 375 -102v78h764v-226h-524v-225h403v-223h-403v-277h540v-225zM688 977q-174 0 -268 -106.5t-94 -280.5q0 -178 93 -283.5t269 -105.5q174 0 267.5 106.5t93.5 282.5 q0 174 -93.5 280.5t-267.5 106.5z" />
<glyph horiz-adv-x="1087" d="M598 379h-219v-379h-234v1176h349q117 0 194.5 -7.5t149 -31t112.5 -64.5t64.5 -107.5t23.5 -162.5q0 -123 -43 -212t-112.5 -132t-139 -61.5t-145.5 -18.5zM565 987h-186v-391h188q129 0 182.5 44t53.5 161q0 100 -50.5 143t-187.5 43z" />
<glyph horiz-adv-x="1374" d="M1305 139l-138 -162l-123 99q-147 -100 -358 -101q-270 0 -442 169t-172 446q0 272 172 441t442 169t442 -169t172 -441q0 -215 -108 -363zM686 977q-174 0 -267 -105.5t-93 -281.5q0 -178 93 -283.5t267 -105.5q92 0 170 30l-147 113l137 162l153 -115q45 78 45 199 q0 176 -92 281.5t-266 105.5z" />
<glyph horiz-adv-x="1144" d="M1106 0h-242l-256 432h-229v-432h-234v1176h463q428 0 428 -336q0 -131 -54 -208t-157 -140zM551 983h-172v-338h158q150 0 203 47t53 127q0 84 -50.5 124t-191.5 40z" />
<glyph horiz-adv-x="1058" d="M512 -25q-276 0 -416 88l27 263q133 -125 395 -125q215 0 215 112q0 31 -17.5 58.5t-39 45t-67.5 37.5q-45 22 -75 32l-90 30q-72 23 -107.5 36t-94 42t-87 59.5t-52 79.5t-23.5 111q0 141 110.5 248.5t339.5 107.5q119 0 230.5 -29.5t167.5 -64.5l-23 -234 q-199 106 -366 107q-223 0 -224 -111q0 -43 39 -75.5t83 -49t128 -38.5q61 -16 99 -28.5t95.5 -36.5t93.5 -50.5t70.5 -64.5t52 -89t17.5 -112q0 -47 -9 -89t-40 -92.5t-81 -85t-141 -58.5t-210 -24z" />
<glyph horiz-adv-x="1007" d="M973 950h-350v-950h-236v950h-352v226h938v-226z" />
<glyph horiz-adv-x="1300" d="M651 -25q-256 0 -387 142.5t-131 388.5v670h234v-598q0 -184 59 -280.5t225 -96.5q164 0 223.5 96t59.5 281v598h233v-670q0 -246 -130 -388.5t-386 -142.5z" />
<glyph horiz-adv-x="1183" d="M1174 1176l-437 -1176h-284l-449 1176h244l346 -865l340 865h240z" />
<glyph horiz-adv-x="1734" d="M1714 1176l-364 -1176h-203l-277 737l-274 -737h-217l-352 1176h241l248 -793l275 799h157l289 -772l236 766h241z" />
<glyph horiz-adv-x="1148" d="M1141 0h-273l-297 418l-292 -418h-269l443 588l-422 588h270l285 -402l258 402h268l-405 -566z" />
<glyph horiz-adv-x="1071" d="M1085 1176l-434 -662v-514h-231v514l-432 662h248l301 -455l301 455h247z" />
<glyph horiz-adv-x="999" d="M977 1176l-565 -951h485v-225h-870l565 950h-486v226h871z" />
</font>
</defs>
</svg>
