<?xml version="1.0" standalone="no"?>
<!DOCTYPE svg PUBLIC "-//W3C//DTD SVG 1.1//EN" "http://www.w3.org/Graphics/SVG/1.1/DTD/svg11.dtd" >
<svg xmlns="http://www.w3.org/2000/svg">
<metadata>
This is a custom SVG webfont generated by Font Squirrel.
Copyright   : Copyright c 2011 by Pablo Impallari wwwimpallaricom Igino Marini wwwikerncom All rights reserved
Designer    : Pablo Impallari
Foundry     : Pablo Impallari wwwimpallaricom Igino Marini wwwikerncom
Foundry URL : wwwimpallaricom
</metadata>
<defs>
<font id="webfontjmpFQNyf" horiz-adv-x="481" >
<font-face units-per-em="2048" ascent="1638" descent="-410" />
<missing-glyph horiz-adv-x="460" />
<glyph unicode=" "  horiz-adv-x="460" />
<glyph unicode="&#x09;" horiz-adv-x="460" />
<glyph unicode="&#xa0;" horiz-adv-x="460" />
<glyph unicode="!" horiz-adv-x="501" d="M535 1536l-238 -1126h-160l158 1126h240zM260 0h-231l41 229h231z" />
<glyph unicode="&#x22;" horiz-adv-x="786" d="M868 1536l-147 -614h-158l72 614h233zM477 1536l-147 -614h-156l70 614h233z" />
<glyph unicode="#" horiz-adv-x="1378" d="M1391 1044l-101 -192h-219l-110 -211h241l-127 -205h-227l-244 -459h-180l242 459h-220l-247 -459h-179l244 459h-227l123 205h217l110 211h-235l96 192h244l209 390h180l-207 -390h221l209 390h180l-208 -390h215zM893 852h-223l-115 -211h223z" />
<glyph unicode="$" horiz-adv-x="1024" d="M504 166l-10 -232h-203l71 230q-221 12 -323 80l74 248q113 -125 340 -125q221 0 221 131q0 53 -54.5 90t-132 63.5t-155.5 57t-132.5 87t-54.5 138.5q0 123 102.5 231.5t313.5 128.5l12 238h203l-74 -238q90 -6 173 -28.5t120 -48.5l-59 -222q-178 104 -313 105 q-238 0 -238 -119q0 -47 56.5 -80t137 -56.5t161.5 -55t137.5 -96t56.5 -161.5q0 -37 -7 -74.5t-34 -88t-71 -90t-126.5 -71.5t-191.5 -42z" />
<glyph unicode="%" horiz-adv-x="1642" d="M1159 -20q-109 0 -170 76.5t-61 209.5q0 205 111.5 339t263.5 134q109 0 171 -77.5t62 -212.5q0 -203 -107.5 -336t-269.5 -133zM1450 1434l-1069 -1459h-197l1069 1459h197zM379 684q-109 0 -171.5 78t-62.5 209q0 207 112 339t265 132q106 0 169 -77t63 -210 q0 -205 -107.5 -338t-267.5 -133zM1278 606q-76 0 -137.5 -89t-61.5 -236q0 -166 107 -166q86 0 143 87t57 232q0 84 -29.5 128t-78.5 44zM496 1309q-74 0 -136.5 -88t-62.5 -234q0 -80 29.5 -122t76.5 -42q86 0 143.5 85t57.5 229q0 82 -30.5 127t-77.5 45z" />
<glyph unicode="&#x26;" horiz-adv-x="1210" d="M1102 0h-268l-50 78q-156 -127 -372 -127q-197 0 -294.5 91t-97.5 239q0 141 83 250.5t233 220.5q-88 168 -88 299q0 172 138 280.5t314 108.5q127 0 195 -62.5t68 -173.5q0 -76 -30 -143.5t-89.5 -125.5t-109.5 -96t-128 -89l217 -351q31 74 82 322h221 q-51 -293 -182 -488zM655 1255q-76 0 -127 -52t-51 -144q0 -86 53 -191l89 70q28 23 66 61.5t52.5 75.5t14.5 80q-1 100 -97 100zM692 215l-268 408q-158 -147 -158 -308q0 -186 203 -186q131 0 223 86z" />
<glyph unicode="'" horiz-adv-x="399" d="M479 1536l-145 -614h-160l70 614h235z" />
<glyph unicode="(" horiz-adv-x="559" d="M352 -279h-211q-82 225 -82 549q0 356 94.5 662.5t307.5 603.5h213q-195 -270 -305.5 -557t-110.5 -649q0 -345 94 -609z" />
<glyph unicode=")" horiz-adv-x="559" d="M109 -279h-213q195 270 304 557t109 650q0 344 -94 608h213q80 -219 80 -549q0 -356 -93 -662.5t-306 -603.5z" />
<glyph unicode="*" horiz-adv-x="876" d="M649 854l-117 276l-219 -282l-102 110l266 203l-291 117l113 141l223 -207l-12 322h176l-121 -322l297 207l62 -143l-326 -111l195 -200z" />
<glyph unicode="+" horiz-adv-x="899" d="M782 475h-266l-49 -266h-178l47 266h-266l32 189h267l47 262h178l-47 -262h268z" />
<glyph unicode="," horiz-adv-x="466" d="M246 0l-226 -225l-45 28l97 177l-62 20l43 238h234z" />
<glyph unicode="-" horiz-adv-x="829" d="M690 475h-598l35 189h596z" />
<glyph unicode="." horiz-adv-x="466" d="M244 0h-232l41 238h234z" />
<glyph unicode="/" horiz-adv-x="1073" d="M1149 1434l-989 -1608h-254l991 1608h252z" />
<glyph unicode="0" horiz-adv-x="1400" d="M586 -29q-219 0 -337 151.5t-118 418.5q0 254 104.5 468t270.5 333.5t350 119.5q207 0 328 -157.5t121 -432.5q0 -375 -210 -638t-509 -263zM821 1247q-168 0 -307 -190.5t-139 -493.5q0 -375 250 -375q186 0 314 182.5t128 473.5q0 207 -67.5 305t-178.5 98z" />
<glyph unicode="1" horiz-adv-x="735" d="M426 0h-242l191 1079q-90 -59 -187 -78l15 209q70 18 161 86t132 138h184z" />
<glyph unicode="2" horiz-adv-x="1048" d="M819 0h-823q459 553 597 761t138 322q0 172 -164 172q-176 0 -344 -211l8 218q51 68 166 134t260 66q164 0 238 -92t74 -223q0 -152 -112 -349.5t-402 -568.5h405z" />
<glyph unicode="3" horiz-adv-x="1073" d="M340 -29q-119 0 -223.5 40t-124.5 71l98 221q39 -45 117 -74.5t166 -29.5q131 0 218 69.5t87 216.5q0 94 -47 147.5t-168 53.5h-172l55 188h86q166 0 234.5 67t68.5 165q0 150 -174 149q-156 0 -252 -73l-8 186q43 37 132 65.5t198 28.5q193 0 273.5 -92t80.5 -225 q0 -209 -192 -350q129 -88 129 -285q0 -246 -177.5 -392.5t-404.5 -146.5z" />
<glyph unicode="4" horiz-adv-x="1140" d="M981 389h-166l-67 -389h-242l69 389h-581l805 1045h200l-147 -844h164zM610 590l80 459l-330 -459h250z" />
<glyph unicode="5" horiz-adv-x="1073" d="M350 -27q-113 0 -219 37t-111 66l95 221q100 -100 266 -100q133 0 227 82.5t94 222.5q0 96 -64.5 144t-236.5 48h-202l217 740h616l-65 -230h-412l-86 -305q250 -4 362.5 -85t112.5 -263q0 -256 -182.5 -417t-411.5 -161z" />
<glyph unicode="6" horiz-adv-x="1116" d="M446 -29q-348 0 -348 408q0 168 58.5 334t148.5 291.5t193.5 225t199 152t158.5 52.5l143 -95q-125 -27 -324.5 -199.5t-258.5 -373.5q84 96 248 96q154 0 247 -86t93 -250q0 -223 -161 -389t-397 -166zM604 664q-111 0 -192.5 -80t-81.5 -203q0 -98 52 -147.5t128 -49.5 q106 0 186 94.5t80 206.5q0 74 -41 126.5t-131 52.5z" />
<glyph unicode="7" horiz-adv-x="1009" d="M1122 1434l-817 -1434h-254l680 1204h-534l39 230h886z" />
<glyph unicode="8" horiz-adv-x="1189" d="M473 -29q-201 0 -299 99.5t-98 248.5q0 262 289 453q-88 94 -89 258q0 174 115 303t359 129q344 0 344 -282q0 -113 -57.5 -202t-180.5 -187q86 -45 135 -127t49 -183q0 -188 -153.5 -349t-413.5 -161zM709 1266q-113 0 -166.5 -64.5t-53.5 -150.5q0 -133 140 -183 q127 37 180 108t53 150q1 140 -153 140zM614 684q-119 -23 -210 -111t-91 -217q0 -186 197 -186q127 0 208 79t81 197q0 94 -50.5 154.5t-134.5 83.5z" />
<glyph unicode="9" horiz-adv-x="1124" d="M715 1462q346 0 346 -418q0 -166 -52.5 -328.5t-137.5 -288.5t-185 -224.5t-201.5 -150.5t-183.5 -52l-137 94q53 12 137 57.5t175 116t169 177t105 217.5q-43 -45 -126 -68t-135 -23q-156 0 -246.5 85t-90.5 247q0 225 162.5 392t400.5 167zM559 770q111 0 194 80 t83 209q0 98 -51.5 144t-122.5 46q-115 0 -192 -95t-77 -210q0 -74 39 -124t127 -50z" />
<glyph unicode=":" horiz-adv-x="462" d="M358 664h-233l43 237h231zM242 0h-234l41 238h234z" />
<glyph unicode=";" horiz-adv-x="493" d="M389 664h-258l41 237h260zM250 0l-225 -225l-45 28l96 177l-62 20l43 238h234z" />
<glyph unicode="&#x3c;" horiz-adv-x="862" d="M668 160h-275l-336 422l486 422h272l-483 -422z" />
<glyph unicode="=" horiz-adv-x="983" d="M854 639h-715l33 182h713zM797 313h-715l33 183h712z" />
<glyph unicode="&#x3e;" horiz-adv-x="864" d="M799 582l-486 -422h-272l483 422l-334 422h273z" />
<glyph unicode="?" horiz-adv-x="874" d="M442 410h-159q8 80 14 104q16 92 76.5 185.5t122 159t111.5 154.5t50 175q0 82 -46 125t-119 43q-145 0 -265 -135l-24 172q59 70 148 106.5t186 36.5q168 0 255 -103.5t87 -234.5q0 -78 -40 -156q-41 -79 -99 -148l-118 -138q-60 -68 -110.5 -150t-62.5 -162zM408 0 h-234l41 229h234z" />
<glyph unicode="@" horiz-adv-x="1409" d="M1092 776q-76 109 -213 109q-129 0 -270.5 -95.5t-235.5 -244t-94 -289.5q0 -76 34.5 -125t106.5 -49q90 0 199.5 63.5t189.5 173.5l-8 -25q-6 -18 -10.5 -39.5t-4.5 -43.5q0 -51 20.5 -88t67.5 -37q51 0 134.5 40t138.5 91q-123 -178 -313.5 -286.5t-387.5 -108.5 q-188 0 -293.5 110.5t-105.5 305.5q0 180 76 347t198.5 285.5t282.5 190.5t322 72q190 0 295.5 -111t105.5 -303q0 -119 -37 -235.5t-123 -203.5t-200 -87q-35 0 -52.5 14t-17.5 55q0 55 23.5 121t80 185.5t91.5 207.5zM872 760q72 0 80 -45q-57 -168 -202.5 -333 t-241.5 -165q-66 0 -66 96q0 168 150.5 307.5t279.5 139.5z" />
<glyph unicode="A" horiz-adv-x="1222" d="M1110 0h-252l-53 358h-457l-178 -358h-252l733 1434h232zM762 588l-62 477l-229 -477h291z" />
<glyph unicode="B" horiz-adv-x="1228" d="M571 0h-516l252 1434h361q238 0 348 -59.5t110 -235.5q0 -227 -174 -373q96 -47 138.5 -111.5t42.5 -179.5q0 -106 -35 -191t-91.5 -137.5t-131 -86t-149.5 -47t-155 -13.5zM725 1225h-213l-66 -373h240q82 0 144.5 49t62.5 176q0 88 -38 118t-130 30zM670 655h-258 l-80 -446h239q152 0 232 58.5t80 195.5q0 98 -48 145t-165 47z" />
<glyph unicode="C" horiz-adv-x="1198" d="M647 -29q-258 0 -407.5 163t-149.5 452q0 375 238.5 625.5t578.5 250.5q215 0 365 -84l-68 -227q-197 84 -330 84q-242 0 -380 -183.5t-138 -445.5q0 -190 83 -298.5t257 -108.5q135 0 355 84l-13 -228q-178 -84 -391 -84z" />
<glyph unicode="D" horiz-adv-x="1421" d="M561 0h-506l252 1434h506q256 0 405.5 -155t149.5 -441q0 -367 -233.5 -602.5t-573.5 -235.5zM774 1206h-264l-172 -979h264q233 0 366.5 169t133.5 421q0 389 -328 389z" />
<glyph unicode="E" horiz-adv-x="1114" d="M936 0h-881l252 1434h862l-41 -230h-614l-59 -342h477l-41 -229h-477l-72 -404h635z" />
<glyph unicode="F" horiz-adv-x="1038" d="M1100 1204h-590l-61 -342h456l-41 -229h-456l-111 -633h-242l252 1434h832z" />
<glyph unicode="G" horiz-adv-x="1308" d="M637 -29q-250 0 -398.5 165t-148.5 454q0 373 237.5 622.5t577.5 249.5q104 0 217 -23.5t178 -60.5l-65 -225q-178 82 -358 82q-246 0 -383.5 -184.5t-137.5 -436.5q0 -197 88 -306t265 -109q94 0 192 28l51 287h-155l37 205h393l-113 -639q-82 -45 -222 -77t-255 -32z " />
<glyph unicode="H" horiz-adv-x="1454" d="M1186 0h-240l111 633h-649l-111 -633h-242l252 1434h242l-100 -570h649l100 570h242z" />
<glyph unicode="I" horiz-adv-x="563" d="M297 0h-242l252 1434h242z" />
<glyph unicode="J" horiz-adv-x="563" d="M-80 -352h-67l12 172h47q61 0 94 43t49 141l252 1430h242l-262 -1487q-27 -147 -122 -223t-245 -76z" />
<glyph unicode="K" horiz-adv-x="1212" d="M1090 0h-271l-340 758l592 676h270l-591 -676zM295 0h-240l252 1434h240z" />
<glyph unicode="L" horiz-adv-x="993" d="M858 0h-803l252 1434h242l-211 -1205h561z" />
<glyph unicode="M" horiz-adv-x="1622" d="M1419 0h-250l60 985l-469 -672l-232 672l-288 -985h-252l440 1434h211l199 -672l438 672h209z" />
<glyph unicode="N" horiz-adv-x="1388" d="M1120 0h-198l-443 1030l-182 -1030h-242l252 1434h242l412 -971l172 971h241z" />
<glyph unicode="O" horiz-adv-x="1501" d="M647 -29q-258 0 -407.5 163t-149.5 450q0 373 236.5 625.5t568.5 252.5q258 0 407.5 -162.5t149.5 -449.5q0 -373 -236.5 -626t-568.5 -253zM856 1235q-225 0 -362.5 -187.5t-137.5 -443.5q0 -188 82 -296.5t248 -108.5q225 0 362.5 187t137.5 443q0 188 -82 297 t-248 109z" />
<glyph unicode="P" horiz-adv-x="1175" d="M629 481h-246l-86 -481h-242l252 1434h387q274 0 389 -70t115 -291q0 -160 -57.5 -281.5t-147.5 -185t-182 -94.5t-182 -31zM717 1229h-201l-94 -524h213q170 0 240.5 83.5t70.5 241.5q0 104 -45 151.5t-184 47.5z" />
<glyph unicode="Q" horiz-adv-x="1501" d="M1333 152l-166 -164l-112 114q-186 -131 -412 -131q-254 0 -403.5 165t-149.5 450q0 373 236.5 624.5t568.5 251.5q258 0 407.5 -163.5t149.5 -440.5q0 -313 -219 -604zM856 1235q-225 0 -362.5 -186.5t-137.5 -444.5q0 -190 82 -297.5t246 -107.5q121 0 209 59l-139 154 l168 163l143 -157q123 207 123 416q0 184 -82 292.5t-250 108.5z" />
<glyph unicode="R" horiz-adv-x="1226" d="M1083 0h-252l-186 541h-254l-94 -541h-242l252 1434h490q401 0 401 -340q0 -315 -315 -490zM711 1233h-197l-82 -465h191q317 0 317 279q0 94 -49 140t-180 46z" />
<glyph unicode="S" horiz-adv-x="1144" d="M440 -29q-143 0 -257.5 30t-170.5 71l78 276q51 -61 154.5 -105t238.5 -44q131 0 209 48t78 148q0 92 -62.5 140.5t-211.5 105.5l-98 40q-31 13 -86.5 45t-82 62.5t-49 81t-22.5 111.5q0 78 31.5 158t96 154.5t179.5 121.5t260 47q127 0 241.5 -32.5t170.5 -73.5 l-68 -250q-211 129 -371 129q-109 0 -197.5 -46t-88.5 -142q0 -74 56 -115t181 -84l117 -43q37 -14 101.5 -50t95 -73t56 -97.5t25.5 -135.5q0 -90 -31.5 -170t-98 -152t-188.5 -114t-286 -42z" />
<glyph unicode="T" horiz-adv-x="1150" d="M1184 1204h-383l-211 -1204h-242l211 1204h-383l41 230h1008z" />
<glyph unicode="U" horiz-adv-x="1409" d="M594 -29q-231 0 -347 120t-116 339q0 92 16 182l146 822h239l-129 -732q-20 -115 -20 -210q2 -139 58.5 -216t191.5 -77q78 0 140.5 27.5t104.5 71.5t74.5 111.5t53 136t34.5 156.5l129 732h242l-145 -822q-53 -301 -224.5 -471t-447.5 -170z" />
<glyph unicode="V" horiz-adv-x="1282" d="M1407 1434l-733 -1434h-291l-236 1434h252l185 -1151l573 1151h250z" />
<glyph unicode="W" horiz-adv-x="1884" d="M2007 1434l-647 -1434h-217l-121 1024l-483 -1024h-230l-127 1434h250l82 -1074l494 1065h172l127 -1044l450 1053h250z" />
<glyph unicode="X" horiz-adv-x="1226" d="M1112 0h-276l-238 545l-418 -545h-274l592 735l-320 699h279l215 -533l393 533h276l-569 -707z" />
<glyph unicode="Y" horiz-adv-x="1200" d="M1325 1434l-604 -791l-115 -643h-241l112 643l-325 791h256l233 -580l428 580h256z" />
<glyph unicode="Z" horiz-adv-x="1077" d="M1200 1434l-844 -1205h543l-39 -229h-940l842 1204h-543l41 230h940z" />
<glyph unicode="[" horiz-adv-x="657" d="M481 -279h-495l319 1815h496l-35 -197h-283l-252 -1419h285z" />
<glyph unicode="\" horiz-adv-x="1060" d="M887 -174h-252l-422 1608h252z" />
<glyph unicode="]" horiz-adv-x="671" d="M375 -279h-496l41 230h281l241 1356h-284l41 229h495z" />
<glyph unicode="^" horiz-adv-x="985" d="M1038 844l-321 436l-473 -436l49 274l473 436l319 -436z" />
<glyph unicode="_" horiz-adv-x="1085" d="M930 -262h-1080l33 188h1080z" />
<glyph unicode="`" horiz-adv-x="583" d="M686 1204l-338 127l33 193l328 -189z" />
<glyph unicode="a" horiz-adv-x="1169" d="M1071 1018l-119 -705q-8 -43 -8 -77q0 -43 19.5 -54.5t78.5 -11.5l-55 -190q-139 0 -192.5 22.5t-85.5 103.5q-122 -126 -296 -126h-3q-170 0 -270.5 121.5t-100.5 312.5q0 248 159.5 435t413.5 187q143 0 215 -88l33 70h211zM590 840q-135 0 -222 -119t-87 -289 q0 -119 50 -188.5t152 -69.5q141 0 215 125t74 289q0 252 -182 252z" />
<glyph unicode="b" horiz-adv-x="1122" d="M481 -20q-139 0 -227 100l-21 -80h-217l271 1536h233l-104 -588q104 88 246 88q190 0 288.5 -120.5t98.5 -311.5q0 -252 -160 -438t-408 -186zM608 840q-141 0 -217 -125t-76 -295q0 -246 183 -246q135 0 223 120t88 288q0 119 -50.5 188.5t-150.5 69.5z" />
<glyph unicode="c" horiz-adv-x="884" d="M446 -20q-207 0 -306 118.5t-99 311.5q0 256 157.5 441t430.5 185q164 0 264 -71l-59 -201q-104 76 -226 76q-150 0 -237.5 -116t-87.5 -290q0 -260 209 -260q119 0 253 76l-14 -195q-123 -75 -285 -75z" />
<glyph unicode="d" horiz-adv-x="1124" d="M895 0h-219l8 80q-123 -100 -260 -100q-184 0 -284.5 120.5t-100.5 309.5q0 250 159.5 438t413.5 188q143 0 217 -88l103 588h233zM590 840q-133 0 -220 -119t-87 -289q0 -119 49 -188.5t151 -69.5q141 0 216 125t75 289q0 252 -184 252z" />
<glyph unicode="e" horiz-adv-x="980" d="M930 752q0 -162 -131 -250t-353 -88q-96 0 -163 14q6 -135 73.5 -194.5t169.5 -59.5q152 0 308 76l-23 -193q-158 -77 -330 -77h-4q-217 0 -327.5 121.5t-110.5 316.5q0 248 158.5 433t408.5 185q156 0 240 -76.5t84 -207.5zM594 840q-104 0 -180 -77t-111 -183 q45 -12 111 -13q170 0 242.5 49.5t72.5 118.5q0 105 -135 105z" />
<glyph unicode="f" horiz-adv-x="669" d="M670 829h-217l-146 -829h-233l145 829h-139l55 189h117l45 246q47 272 319 272q47 0 172 -16l-57 -195q-51 12 -88 12q-68 0 -90.5 -33.5t-42.5 -152.5l-25 -133h217z" />
<glyph unicode="g" horiz-adv-x="980" d="M317 -512q-207 0 -307 78t-100 188q0 166 203 264q-66 49 -66 121q0 98 125 164q-98 98 -98 264q0 188 130 328.5t337 140.5q131 0 213 -65q86 49 217 49h55l-41 -150h-84q-23 0 -59 -6q28 -72 28 -156v-6q0 -186 -130 -327.5t-334 -141.5q-57 0 -107 13q-31 -20 -31 -47 q0 -33 50.5 -48.5t179.5 -37.5q51 -8 87 -16.5t88 -28t83.5 -45t56.5 -71.5t25 -104q0 -154 -141.5 -257t-379.5 -103zM508 860q-102 0 -162.5 -81t-60.5 -195q0 -178 149 -178q102 0 163.5 81.5t61.5 198.5q0 174 -151 174zM623 -188q0 43 -42 71.5t-89.5 38.5t-121 21.5 t-98.5 17.5q-70 -23 -116.5 -67t-46.5 -101q0 -63 59 -100t166 -37q123 0 206 45t83 111z" />
<glyph unicode="h" horiz-adv-x="1083" d="M866 0h-233q106 614 106 666q0 90 -36.5 132t-116.5 42q-117 0 -205 -101l-131 -739h-234l271 1536h235l-104 -590q117 90 239 90q160 0 240 -91t80 -251q0 -59 -111 -694z" />
<glyph unicode="i" d="M463 1194h-234l41 240h236zM252 0h-234l179 1018h233z" />
<glyph unicode="j" d="M-82 -492l-86 -4l12 189q80 4 104.5 31.5t45.5 144.5l203 1149h233l-219 -1243q-23 -125 -96.5 -195t-196.5 -72zM461 1194h-234l43 240h234z" />
<glyph unicode="k" horiz-adv-x="952" d="M250 0h-234l271 1536h235l-168 -948l385 430h267l-443 -483l262 -535h-264l-227 471z" />
<glyph unicode="l" horiz-adv-x="522" d="M397 170l-57 -190h-84q-104 0 -154.5 54t-50.5 144q0 31 234 1358h233q-223 -1262 -223 -1298q0 -45 22.5 -56.5t79.5 -11.5z" />
<glyph unicode="m" horiz-adv-x="1693" d="M1475 0h-234q111 631 111 674q0 92 -36 129t-108 37q-197 0 -237 -224l-109 -616h-231q113 645 112 684q0 156 -157 156q-123 0 -203 -99l-133 -741h-232l179 1018h190v-88q117 106 270 106q201 0 267 -170q41 70 135 120t217 50q154 0 232.5 -86t78.5 -239 q1 -62 -112 -711z" />
<glyph unicode="n" horiz-adv-x="1087" d="M868 0h-233q109 618 108 666q0 90 -36.5 132t-116.5 42q-121 0 -209 -101l-131 -739h-232l179 1018h202l7 -76q115 94 253 94q160 0 241 -89t81 -251q0 -69 -113 -696z" />
<glyph unicode="o" horiz-adv-x="1103" d="M449 -20q-197 0 -303.5 122.5t-106.5 313.5q0 250 167 435t417 185q199 0 304 -122.5t105 -313.5q0 -250 -166.5 -435t-416.5 -185zM590 840q-135 0 -223 -118t-88 -288q0 -125 51 -192.5t151 -67.5q137 0 224.5 119t87.5 289q0 258 -203 258z" />
<glyph unicode="p" horiz-adv-x="1124" d="M485 -20q-141 0 -223 94l-98 -570h-234l267 1514h200l6 -86q125 104 263 104q186 0 285.5 -121.5t99.5 -312.5q0 -250 -159 -436t-407 -186zM610 840q-141 0 -217 -125t-76 -293q0 -248 183 -248q135 0 223 121t88 289q0 119 -50.5 187.5t-150.5 68.5z" />
<glyph unicode="q" horiz-adv-x="1124" d="M424 -20q-186 0 -285.5 119.5t-99.5 308.5q0 252 158.5 440t406.5 188q143 0 232 -104l34 86h203l-266 -1514h-236l101 570q-117 -94 -248 -94zM592 840q-137 0 -225 -119t-88 -287q0 -121 50 -190.5t152 -69.5q96 0 164 63.5t97.5 155.5t29.5 199q0 248 -180 248z" />
<glyph unicode="r" horiz-adv-x="677" d="M745 1040l-86 -227h-86q-57 0 -113.5 -32.5t-84.5 -78.5l-125 -702h-234l181 1018h215l-15 -127q55 66 132 107.5t157 41.5h59z" />
<glyph unicode="s" horiz-adv-x="837" d="M293 -20q-213 0 -316 79l56 205q43 -39 123 -70.5t159 -31.5q90 0 130 40t40 93q0 39 -24.5 66.5t-51 40t-77.5 28.5q-57 18 -87 31.5t-70 41t-58.5 68.5t-18.5 99q0 59 21.5 119.5t66.5 118t129 93t195 35.5q90 0 170 -22.5t117 -50.5l-56 -201q-33 41 -101.5 71.5 t-141.5 30.5q-78 0 -131.5 -33.5t-53.5 -99.5q0 -18 4.5 -32.5t16.5 -28t20 -20.5t33 -17t34 -14.5t43 -14.5t44 -14q49 -18 82 -33.5t66.5 -44.5t51 -74t17.5 -104q0 -143 -100.5 -248.5t-331.5 -105.5z" />
<glyph unicode="t" horiz-adv-x="673" d="M549 170l-55 -190h-168q-111 0 -164 58t-53 148q0 33 108 643h-139l53 189h119l43 231l235 25l-45 -256h215l-32 -189h-215q-98 -555 -99 -589q0 -47 25.5 -58.5t107.5 -11.5h64z" />
<glyph unicode="u" horiz-adv-x="1079" d="M850 0h-219l8 76q-123 -96 -254 -96q-156 0 -234.5 87t-78.5 246q0 66 110 705h234q-106 -604 -107 -664q0 -176 154 -176q119 0 201 94l131 746h233z" />
<glyph unicode="v" horiz-adv-x="964" d="M1020 1018l-549 -1018h-203l-190 1018h231l109 -737l370 737h232z" />
<glyph unicode="w" horiz-adv-x="1415" d="M1460 1018l-461 -1018h-198l-76 690l-322 -690h-200l-103 1018h232l37 -742l309 717h199l55 -717l299 742h229z" />
<glyph unicode="x" horiz-adv-x="962" d="M827 0h-276l-123 330l-227 -330h-277l402 510l-222 508h277l117 -348l231 348h279l-412 -514z" />
<glyph unicode="y" horiz-adv-x="1036" d="M1094 1018l-869 -1514h-235l313 557l-231 957h258l131 -686l373 686h260z" />
<glyph unicode="z" horiz-adv-x="929" d="M952 1018l-575 -817h411l-34 -201h-809l577 817h-416l37 201h809z" />
<glyph unicode="{" horiz-adv-x="626" d="M76 -18q0 59 40 208.5t40 223.5q0 143 -115 215q96 51 142 114.5t67 180.5q8 47 19.5 146t17.5 138q29 162 138.5 244t338.5 84l-35 -199q-166 -2 -210 -52t-79 -255q-6 -27 -13 -85t-11 -85q-29 -158 -144 -231q72 -59 72 -158q0 -53 -35 -173t-35 -224q0 -90 42 -121 t163 -33l-35 -199q-195 2 -281.5 67t-86.5 194z" />
<glyph unicode="|" horiz-adv-x="468" d="M147 -430h-190l346 1966h191z" />
<glyph unicode="}" horiz-adv-x="624" d="M350 49q-31 -166 -142.5 -245.5t-336.5 -82.5l35 199q45 0 77.5 2t60.5 11.5t44 16.5t32.5 29.5t25 38t18.5 55.5t16 68.5t17 87.5q6 35 14 96.5t12 88.5q23 141 142 215q-70 59 -70 168q0 35 33.5 155.5t33.5 231.5q0 92 -43 122.5t-161 30.5l32 199q197 -2 284 -67.5 t87 -192.5q0 -59 -41 -208.5t-41 -223.5q0 -139 115 -215q-96 -51 -141 -117t-66 -176q-8 -47 -19.5 -147.5t-17.5 -139.5z" />
<glyph unicode="~" horiz-adv-x="929" d="M557 362q-53 0 -125 46.5t-104 46.5q-72 0 -115 -99l-145 35q27 94 107.5 147.5t164.5 53.5q61 0 122.5 -45t94.5 -45q43 0 79 29.5t50 68.5l133 -35q-29 -84 -99.5 -143.5t-162.5 -59.5z" />
<glyph unicode="&#xa1;" horiz-adv-x="497" d="M-68 -512l240 1126h158l-158 -1126h-240zM207 1024h231l-39 -229h-233z" />
<glyph unicode="&#xa2;" horiz-adv-x="931" d="M518 180l-14 -246h-180l73 250q-154 23 -234.5 140.5t-80.5 283.5q0 238 138 420t370 213l16 291h178l-84 -289q143 -10 232 -72l-58 -198q-102 78 -233 78q-137 0 -226 -122t-89 -296q0 -117 51 -187.5t145 -70.5q129 0 262 78l-14 -199q-111 -64 -252 -74z" />
<glyph unicode="&#xa3;" horiz-adv-x="1021" d="M1024 1245l-109 -108q-8 53 -16 80.5t-34.5 51t-73.5 23.5q-49 0 -84 -21.5t-57.5 -69.5t-34 -93t-25.5 -121l-31 -182h354l-63 -158h-328q-55 -240 -176 -454h475l-33 -193h-827q233 240 342 647h-174l66 158h145l39 225q12 68 26.5 120t44 110.5t70.5 96.5t106.5 63.5 t149.5 25.5q236 0 248 -201z" />
<glyph unicode="&#xa4;" horiz-adv-x="1241" d="M1036 131l-125 -86l-108 205q-115 -63 -256 -64q-139 0 -234 64l-178 -205l-96 86l176 203q-74 111 -74 284q0 268 211 474l-108 202l127 86l106 -204q121 63 256 63q137 0 232 -65l182 206l94 -86l-176 -204q72 -113 72 -285q0 -262 -207 -473zM700 1057 q-141 0 -229 -124t-88 -302q0 -119 50 -190.5t147 -71.5q139 0 229 123.5t90 302.5q0 117 -51.5 189.5t-147.5 72.5z" />
<glyph unicode="&#xa5;" horiz-adv-x="1370" d="M1450 1434l-606 -758h284l-71 -129h-269l-22 -127h317l-73 -133h-267l-51 -287h-241l51 287h-320l70 133h274l21 127h-320l70 129h242l-338 758h250l272 -586l477 586h250z" />
<glyph unicode="&#xa6;" horiz-adv-x="456" d="M311 596h-170l166 940h170zM129 -430h-168l141 803h170z" />
<glyph unicode="&#xa7;" horiz-adv-x="911" d="M616 383q53 -66 54 -164q0 -63 -19.5 -126.5t-62.5 -126t-124 -101.5t-190 -39q-78 0 -155.5 25.5t-104.5 58.5l52 188q113 -98 231 -98q84 0 143.5 38t59.5 122q0 55 -42 92t-101.5 61.5t-119 56t-101.5 93t-42 153.5q0 125 57.5 222.5t170.5 142.5q-53 61 -54 162 q0 49 11.5 99t40 104.5t71.5 95.5t113.5 67.5t159.5 26.5q78 0 155.5 -25.5t106.5 -58.5l-52 -188q-117 98 -231 98q-82 0 -141.5 -40t-59.5 -118q0 -53 42 -90t100.5 -63.5t118 -58t101.5 -95t42 -154.5q0 -117 -55.5 -214t-174.5 -146zM438 854q-47 0 -101 -44t-54 -116 q0 -133 221 -207q47 8 100 64.5t53 118.5q0 129 -219 184z" />
<glyph unicode="&#xa8;" horiz-adv-x="813" d="M860 1221h-182l37 213h184zM565 1221h-182l37 213h182z" />
<glyph unicode="&#xa9;" horiz-adv-x="1406" d="M608 76q-223 0 -358 149.5t-135 397.5q0 344 214 570t517 226q225 0 360 -148.5t135 -396.5q0 -344 -214 -571t-519 -227zM825 1292q-264 0 -414.5 -192.5t-150.5 -472.5q0 -193 94.5 -309.5t278.5 -116.5q262 0 411.5 193.5t149.5 471.5q0 193 -93.5 309.5t-275.5 116.5 zM682 393q-119 0 -189.5 78t-70.5 207q0 180 111.5 299t271.5 119q100 0 186 -45l-45 -158q-102 45 -170 45q-82 0 -132 -68.5t-50 -173.5q0 -68 29.5 -107.5t87.5 -39.5q74 0 182 49l-8 -156q-94 -49 -203 -49z" />
<glyph unicode="&#xaa;" horiz-adv-x="710" d="M709 1049l-35 -160h-94q-31 0 -67 15.5t-48 31.5q-53 -47 -191 -47q-55 0 -93 38t-38 109q0 70 43 121t108.5 75.5t114 36t85.5 13.5q-8 31 -22.5 42t-47.5 11q-31 0 -55.5 -4t-67.5 -16t-55 -15l18 154q131 41 242 41q76 0 132 -38t56 -99q0 -55 -35 -250q-4 -14 -4 -35 q2 -25 25 -24h29zM451 1030l22 127q-10 0 -34.5 -6t-54.5 -29.5t-30 -58.5q0 -43 47 -43q30 0 50 10z" />
<glyph unicode="&#xab;" horiz-adv-x="1183" d="M1026 160h-276l-218 422l367 422h277l-367 -422zM524 160h-276l-217 422l366 422h277l-367 -422z" />
<glyph unicode="&#xac;" horiz-adv-x="1153" d="M956 309h-174l60 353h-711l31 169h887z" />
<glyph unicode="&#xad;" horiz-adv-x="829" d="M690 471h-598l35 193h596z" />
<glyph unicode="&#xae;" horiz-adv-x="1406" d="M608 76q-223 0 -358 149.5t-135 397.5q0 344 214 570t517 226q225 0 360 -148.5t135 -396.5q0 -344 -214 -571t-519 -227zM825 1290q-262 0 -413.5 -191.5t-151.5 -469.5q0 -193 94.5 -309.5t278.5 -116.5q260 0 410.5 193.5t150.5 471.5q0 190 -93.5 306t-275.5 116z M952 420h-174l-80 233h-63l-39 -233h-168l121 678h244q195 0 194 -168q0 -147 -129 -230zM743 961h-53l-28 -158h49q104 0 104 102q0 56 -72 56z" />
<glyph unicode="&#xb0;" horiz-adv-x="651" d="M389 987q-100 0 -155.5 64.5t-55.5 162.5q0 135 88 233.5t221 98.5q102 0 157.5 -64.5t55.5 -164.5q0 -135 -88 -232.5t-223 -97.5zM471 1458q-70 0 -117 -71.5t-47 -167.5q0 -63 25.5 -103.5t73.5 -40.5q74 0 120.5 72t46.5 168q0 63 -26.5 103t-75.5 40z" />
<glyph unicode="&#xb1;" horiz-adv-x="968" d="M852 645h-268l-49 -272h-177l50 272h-271l33 176h268l47 269h177l-48 -269h269zM750 70h-713l31 174h714z" />
<glyph unicode="&#xb2;" horiz-adv-x="608" d="M547 655h-496q254 293 329 404.5t75 175.5q0 70 -62 70q-45 0 -92 -31t-70.5 -57.5t-37.5 -49.5l6 166q88 113 252 113q94 0 136 -50t42 -118q0 -78 -53.5 -177.5t-180.5 -260.5h187z" />
<glyph unicode="&#xb3;" horiz-adv-x="606" d="M254 639q-63 0 -125.5 21.5t-71.5 39.5l76 170q29 -49 139 -49q147 0 148 103q0 84 -74 84h-125l39 137h64q63 0 89.5 27.5t26.5 60.5q0 66 -82 65q-84 0 -127 -28l-4 125q25 20 81.5 35.5t101.5 15.5q117 0 166 -53.5t49 -124.5q0 -61 -27 -113.5t-47 -69.5 q2 -8 16.5 -35.5t20.5 -53t6 -58.5q0 -137 -103.5 -218t-236.5 -81z" />
<glyph unicode="&#xb4;" horiz-adv-x="583" d="M707 1331l-383 -127l24 131l393 189z" />
<glyph unicode="&#xb5;" horiz-adv-x="1208" d="M1038 170l-55 -190h-82q-150 0 -188 120q-119 -119 -262 -118q-106 0 -168 45l-90 -523h-234l266 1514h234l-97 -545q-12 -74 -12 -129q0 -168 154 -168q117 0 203 96l133 746h231l-117 -668q-14 -78 -14 -121q0 -59 66 -59h32z" />
<glyph unicode="&#xb6;" horiz-adv-x="1218" d="M1237 1239h-135l-219 -1239h-162l217 1239h-125l-219 -1239h-129l86 477q-207 14 -316.5 133t-109.5 283q0 211 175 376t468 165h502z" />
<glyph unicode="&#xb7;" horiz-adv-x="473" d="M326 436h-240l47 266h240z" />
<glyph unicode="&#xb8;" horiz-adv-x="581" d="M559 -109l-237 -272l-142 -14l182 270z" />
<glyph unicode="&#xb9;" horiz-adv-x="444" d="M330 655h-183l93 519q-31 -6 -78 -9l20 144q27 0 78 41t64 80h143z" />
<glyph unicode="&#xba;" horiz-adv-x="747" d="M422 889q-123 0 -191.5 73.5t-68.5 182.5q0 137 104.5 243.5t261.5 106.5q123 0 191.5 -73.5t68.5 -182.5q0 -137 -104 -243.5t-262 -106.5zM502 1348q-59 0 -99.5 -57.5t-40.5 -133.5q0 -51 23 -86t64 -35q59 0 99 57.5t40 133.5q0 51 -22.5 86t-63.5 35z" />
<glyph unicode="&#xbb;" horiz-adv-x="1183" d="M1145 582l-367 -422h-274l364 422l-217 422h277zM643 582l-367 -422h-274l367 422l-217 422h274z" />
<glyph unicode="&#xbc;" horiz-adv-x="1433" d="M362 655h-182l92 519q-31 -6 -77 -9l20 144q27 0 78 41t63 80h144zM1233 1434l-989 -1608h-254l991 1608h252zM1294 211h-94l-39 -211h-180l37 211h-338l461 563h157l-75 -426h94zM1042 348l31 176l-139 -176h108z" />
<glyph unicode="&#xbd;" horiz-adv-x="1431" d="M1229 1434l-989 -1608h-254l991 1608h252zM1251 0h-495q254 293 328.5 404.5t74.5 175.5q0 70 -61 69q-45 0 -92.5 -30.5t-71 -57t-37.5 -49.5v166q35 45 104.5 79t153.5 34q94 0 136 -50.5t42 -117.5q0 -78 -53 -177.5t-180 -261.5h186zM358 655h-182l92 519 q-31 -6 -78 -9l21 144q27 0 78 41t63 80h144z" />
<glyph unicode="&#xbe;" horiz-adv-x="1755" d="M1544 1434l-989 -1608h-254l991 1608h252zM281 639q-63 0 -126 21.5t-71 39.5l76 170q29 -49 139 -49q147 0 147 103q0 84 -73 84h-125l39 137h63q63 0 90 27.5t27 60.5q0 66 -82 65q-84 0 -127 -28l-4 125q25 20 81 35.5t101 15.5q117 0 166 -53.5t49 -124.5 q0 -61 -26.5 -113.5t-46.5 -69.5q2 -8 16 -35.5t20.5 -53t6.5 -58.5q0 -137 -103.5 -218t-236.5 -81zM1614 211h-94l-39 -211h-181l37 211h-338l461 563h158l-76 -426h94zM1362 348l31 176l-140 -176h109z" />
<glyph unicode="&#xbf;" horiz-adv-x="874" d="M410 614h157q-10 -94 -12 -104q-16 -92 -76.5 -185.5t-122 -159t-111.5 -154.5t-50 -175q0 -82 46 -125t121 -43q143 0 263 135l24 -172q-59 -70 -148 -106.5t-186 -36.5q-168 0 -255 103.5t-87 234.5q0 78 40 156q41 79 99 148l118 138q60 68 110.5 150t62.5 162z M444 1024h234l-41 -229h-234z" />
<glyph unicode="&#xc0;" horiz-adv-x="1222" d="M1110 0h-252l-53 358h-457l-178 -358h-252l733 1434h232zM762 588l-62 477l-229 -477h291zM981 1620l-338 127l33 192l328 -188z" />
<glyph unicode="&#xc1;" horiz-adv-x="1222" d="M1110 0h-252l-53 358h-457l-178 -358h-252l733 1434h232zM762 588l-62 477l-229 -477h291zM1004 1747l-383 -127l24 131l393 188z" />
<glyph unicode="&#xc2;" horiz-adv-x="1222" d="M1110 0h-252l-53 358h-457l-178 -358h-252l733 1434h232zM762 588l-62 477l-229 -477h291zM1083 1626l-254 152l-311 -152l23 127l317 195l248 -195z" />
<glyph unicode="&#xc3;" horiz-adv-x="1222" d="M1110 0h-252l-53 358h-457l-178 -358h-252l733 1434h232zM762 588l-62 477l-229 -477h291zM938 1642q-53 0 -125 46.5t-104 46.5q-76 0 -115 -99l-145 35q27 94 107.5 147.5t164.5 53.5q61 0 122.5 -45t94.5 -45q41 0 78 29.5t51 68.5l133 -33q-29 -86 -99.5 -145.5 t-162.5 -59.5z" />
<glyph unicode="&#xc4;" horiz-adv-x="1222" d="M1110 0h-252l-53 358h-457l-178 -358h-252l733 1434h232zM762 588l-62 477l-229 -477h291zM1040 1636h-182l37 213h184zM745 1636h-182l37 213h182z" />
<glyph unicode="&#xc5;" horiz-adv-x="1222" d="M1110 0h-252l-53 358h-457l-178 -358h-252l733 1434h232zM762 588l-62 477l-229 -477h291zM795 1595q-80 0 -126 45.5t-46 110.5q0 86 67.5 148.5t167.5 62.5q82 0 127 -45t45 -113q0 -84 -66.5 -146.5t-168.5 -62.5zM842 1874q-43 0 -74 -33t-31 -82q0 -35 19.5 -56.5 t52.5 -21.5q43 0 74.5 32t31.5 81q0 35 -20 57.5t-53 22.5z" />
<glyph unicode="&#xc6;" horiz-adv-x="1691" d="M1513 0h-839l61 352h-377l-221 -352h-250l912 1434h950l-41 -230h-573l-60 -342h443l-41 -229h-443l-71 -404h591zM778 586l107 612l-375 -612h268z" />
<glyph unicode="&#xc7;" horiz-adv-x="1198" d="M647 -29q-258 0 -407.5 163t-149.5 452q0 375 238.5 625.5t578.5 250.5q215 0 365 -84l-68 -227q-197 84 -330 84q-242 0 -380 -183.5t-138 -445.5q0 -190 83 -298.5t257 -108.5q135 0 355 84l-13 -228q-178 -84 -391 -84zM643 -109l-237 -272l-142 -14l182 270z" />
<glyph unicode="&#xc8;" horiz-adv-x="1114" d="M936 0h-881l252 1434h862l-41 -230h-614l-59 -342h477l-41 -229h-477l-72 -404h635zM901 1620l-338 127l33 192l328 -188z" />
<glyph unicode="&#xc9;" horiz-adv-x="1114" d="M936 0h-881l252 1434h862l-41 -230h-614l-59 -342h477l-41 -229h-477l-72 -404h635zM922 1747l-383 -127l24 131l393 188z" />
<glyph unicode="&#xca;" horiz-adv-x="1114" d="M936 0h-881l252 1434h862l-41 -230h-614l-59 -342h477l-41 -229h-477l-72 -404h635zM1004 1626l-254 152l-312 -152l23 127l317 195l248 -195z" />
<glyph unicode="&#xcb;" horiz-adv-x="1114" d="M936 0h-881l252 1434h862l-41 -230h-614l-59 -342h477l-41 -229h-477l-72 -404h635zM961 1636h-183l37 213h184zM666 1636h-183l37 213h182z" />
<glyph unicode="&#xcc;" horiz-adv-x="563" d="M297 0h-242l252 1434h242zM645 1620l-338 127l33 192l328 -188z" />
<glyph unicode="&#xcd;" horiz-adv-x="563" d="M297 0h-242l252 1434h242zM666 1747l-383 -127l24 131l393 188z" />
<glyph unicode="&#xce;" horiz-adv-x="563" d="M297 0h-242l252 1434h242zM748 1626l-254 152l-312 -152l23 127l317 195l248 -195z" />
<glyph unicode="&#xcf;" horiz-adv-x="563" d="M297 0h-242l252 1434h242zM705 1636h-183l37 213h184zM410 1636h-183l37 213h182z" />
<glyph unicode="&#xd0;" horiz-adv-x="1443" d="M584 0h-502l108 621h-178l31 174h178l113 639h504q254 0 404.5 -154t150.5 -424q0 -385 -232.5 -620.5t-576.5 -235.5zM797 1206h-265l-71 -411h237l-30 -174h-238l-70 -392h265q238 0 369.5 168t131.5 437q0 174 -82.5 273t-246.5 99z" />
<glyph unicode="&#xd1;" horiz-adv-x="1388" d="M1120 0h-198l-443 1030l-182 -1030h-242l252 1434h242l412 -971l172 971h241zM1012 1642q-53 0 -125 46.5t-105 46.5q-76 0 -114 -99l-146 35q27 94 108 147.5t165 53.5q61 0 122.5 -45t94.5 -45q41 0 77.5 29.5t51.5 68.5l133 -33q-29 -86 -99.5 -145.5t-162.5 -59.5z " />
<glyph unicode="&#xd2;" horiz-adv-x="1501" d="M647 -29q-258 0 -407.5 163t-149.5 450q0 373 236.5 625.5t568.5 252.5q258 0 407.5 -162.5t149.5 -449.5q0 -373 -236.5 -626t-568.5 -253zM856 1235q-225 0 -362.5 -187.5t-137.5 -443.5q0 -188 82 -296.5t248 -108.5q225 0 362.5 187t137.5 443q0 188 -82 297 t-248 109zM1110 1620l-338 127l33 192l328 -188z" />
<glyph unicode="&#xd3;" horiz-adv-x="1501" d="M647 -29q-258 0 -407.5 163t-149.5 450q0 373 236.5 625.5t568.5 252.5q258 0 407.5 -162.5t149.5 -449.5q0 -373 -236.5 -626t-568.5 -253zM856 1235q-225 0 -362.5 -187.5t-137.5 -443.5q0 -188 82 -296.5t248 -108.5q225 0 362.5 187t137.5 443q0 188 -82 297 t-248 109zM1133 1747l-383 -127l24 131l393 188z" />
<glyph unicode="&#xd4;" horiz-adv-x="1501" d="M647 -29q-258 0 -407.5 163t-149.5 450q0 373 236.5 625.5t568.5 252.5q258 0 407.5 -162.5t149.5 -449.5q0 -373 -236.5 -626t-568.5 -253zM856 1235q-225 0 -362.5 -187.5t-137.5 -443.5q0 -188 82 -296.5t248 -108.5q225 0 362.5 187t137.5 443q0 188 -82 297 t-248 109zM1214 1626l-253 152l-312 -152l23 127l317 195l248 -195z" />
<glyph unicode="&#xd5;" horiz-adv-x="1501" d="M647 -29q-258 0 -407.5 163t-149.5 450q0 373 236.5 625.5t568.5 252.5q258 0 407.5 -162.5t149.5 -449.5q0 -373 -236.5 -626t-568.5 -253zM856 1235q-225 0 -362.5 -187.5t-137.5 -443.5q0 -188 82 -296.5t248 -108.5q225 0 362.5 187t137.5 443q0 188 -82 297 t-248 109zM1069 1642q-53 0 -125 46.5t-104 46.5q-76 0 -115 -99l-145 35q27 94 107.5 147.5t164.5 53.5q61 0 122.5 -45t94.5 -45q41 0 78 29.5t51 68.5l133 -33q-29 -86 -99.5 -145.5t-162.5 -59.5z" />
<glyph unicode="&#xd6;" horiz-adv-x="1501" d="M647 -29q-258 0 -407.5 163t-149.5 450q0 373 236.5 625.5t568.5 252.5q258 0 407.5 -162.5t149.5 -449.5q0 -373 -236.5 -626t-568.5 -253zM856 1235q-225 0 -362.5 -187.5t-137.5 -443.5q0 -188 82 -296.5t248 -108.5q225 0 362.5 187t137.5 443q0 188 -82 297 t-248 109zM1171 1636h-182l37 213h184zM877 1636h-183l37 213h182z" />
<glyph unicode="&#xd7;" horiz-adv-x="884" d="M719 338l-135 -109l-168 230l-248 -230l-94 109l248 229l-168 230l133 108l168 -229l250 229l94 -108l-250 -230z" />
<glyph unicode="&#xd8;" horiz-adv-x="1503" d="M643 -27q-178 0 -301 78l-90 -114h-252l197 233q-104 156 -105 403q0 387 236.5 638t576.5 251q166 0 289 -73l63 77h252l-166 -198q111 -160 111 -410q0 -385 -236.5 -635t-574.5 -250zM1159 1057l-647 -813q68 -41 170 -41q233 0 369.5 185t136.5 458q0 137 -29 211z M864 1233q-233 0 -369.5 -185.5t-136.5 -453.5q0 -119 25 -209l643 807q-72 41 -162 41z" />
<glyph unicode="&#xd9;" horiz-adv-x="1409" d="M594 -29q-231 0 -347 120t-116 339q0 92 16 182l146 822h239l-129 -732q-20 -115 -20 -210q2 -139 58.5 -216t191.5 -77q78 0 140.5 27.5t104.5 71.5t74.5 111.5t53 136t34.5 156.5l129 732h242l-145 -822q-53 -301 -224.5 -471t-447.5 -170zM1065 1620l-338 127l33 192 l327 -188z" />
<glyph unicode="&#xda;" horiz-adv-x="1409" d="M594 -29q-231 0 -347 120t-116 339q0 92 16 182l146 822h239l-129 -732q-20 -115 -20 -210q2 -139 58.5 -216t191.5 -77q78 0 140.5 27.5t104.5 71.5t74.5 111.5t53 136t34.5 156.5l129 732h242l-145 -822q-53 -301 -224.5 -471t-447.5 -170zM1085 1747l-383 -127l25 131 l393 188z" />
<glyph unicode="&#xdb;" horiz-adv-x="1409" d="M594 -29q-231 0 -347 120t-116 339q0 92 16 182l146 822h239l-129 -732q-20 -115 -20 -210q2 -139 58.5 -216t191.5 -77q78 0 140.5 27.5t104.5 71.5t74.5 111.5t53 136t34.5 156.5l129 732h242l-145 -822q-53 -301 -224.5 -471t-447.5 -170zM1167 1626l-254 152 l-311 -152l23 127l317 195l248 -195z" />
<glyph unicode="&#xdc;" horiz-adv-x="1409" d="M594 -29q-231 0 -347 120t-116 339q0 92 16 182l146 822h239l-129 -732q-20 -115 -20 -210q2 -139 58.5 -216t191.5 -77q78 0 140.5 27.5t104.5 71.5t74.5 111.5t53 136t34.5 156.5l129 732h242l-145 -822q-53 -301 -224.5 -471t-447.5 -170zM1126 1636h-182l37 213h184z M831 1636h-182l37 213h182z" />
<glyph unicode="&#xdd;" horiz-adv-x="1200" d="M1325 1434l-604 -791l-115 -643h-241l112 643l-325 791h256l233 -580l428 580h256zM973 1747l-383 -127l24 131l394 188z" />
<glyph unicode="&#xde;" horiz-adv-x="1114" d="M461 403h-92l-72 -403h-242l252 1434h244l-47 -275h90q133 0 220 -10t158.5 -40t105.5 -87t34 -145q0 -258 -153.5 -366t-497.5 -108zM629 985h-158l-72 -412h156q174 0 240.5 68t66.5 193q0 80 -53 115.5t-180 35.5z" />
<glyph unicode="&#xdf;" horiz-adv-x="1107" d="M516 -31q-59 0 -110 8l28 170q190 2 261 37t71 156q0 63 -30.5 122.5t-68.5 97.5t-69 83t-31 82q0 41 40 91t87 94t87 121t40 165q0 78 -36.5 114t-94.5 36q-72 0 -122 -53.5t-64 -137.5l-254 -1434h-227l196 1121h-137l53 182h117l20 121q29 172 169.5 281.5 t285.5 109.5q119 0 218 -81t99 -232q0 -94 -35.5 -180.5t-79.5 -136.5l-80 -93q-36 -43 -36 -63q0 -25 48 -76t97.5 -133t49.5 -181q0 -199 -140.5 -295t-351.5 -96z" />
<glyph unicode="&#xe0;" horiz-adv-x="1169" d="M1071 1018l-119 -705q-8 -43 -8 -77q0 -43 19.5 -54.5t78.5 -11.5l-55 -190q-139 0 -192.5 22.5t-85.5 103.5q-123 -127 -299 -126q-170 0 -270.5 121.5t-100.5 312.5q0 248 159.5 435t413.5 187q143 0 215 -88l33 70h211zM590 840q-135 0 -222 -119t-87 -289 q0 -119 50 -188.5t152 -69.5q141 0 215 125t74 289q0 252 -182 252zM948 1204l-338 127l33 193l328 -189z" />
<glyph unicode="&#xe1;" horiz-adv-x="1169" d="M1071 1018l-119 -705q-8 -43 -8 -77q0 -43 19.5 -54.5t78.5 -11.5l-55 -190q-139 0 -192.5 22.5t-85.5 103.5q-123 -127 -299 -126q-170 0 -270.5 121.5t-100.5 312.5q0 248 159.5 435t413.5 187q143 0 215 -88l33 70h211zM590 840q-135 0 -222 -119t-87 -289 q0 -119 50 -188.5t152 -69.5q141 0 215 125t74 289q0 252 -182 252zM969 1331l-383 -127l24 131l394 189z" />
<glyph unicode="&#xe2;" horiz-adv-x="1169" d="M1071 1018l-119 -705q-8 -43 -8 -77q0 -43 19.5 -54.5t78.5 -11.5l-55 -190q-139 0 -192.5 22.5t-85.5 103.5q-123 -127 -299 -126q-170 0 -270.5 121.5t-100.5 312.5q0 248 159.5 435t413.5 187q143 0 215 -88l33 70h211zM590 840q-135 0 -222 -119t-87 -289 q0 -119 50 -188.5t152 -69.5q141 0 215 125t74 289q0 252 -182 252zM1051 1210l-254 152l-312 -152l23 127l317 195l248 -195z" />
<glyph unicode="&#xe3;" horiz-adv-x="1169" d="M1071 1018l-119 -705q-8 -43 -8 -77q0 -43 19.5 -54.5t78.5 -11.5l-55 -190q-139 0 -192.5 22.5t-85.5 103.5q-123 -127 -299 -126q-170 0 -270.5 121.5t-100.5 312.5q0 248 159.5 435t413.5 187q143 0 215 -88l33 70h211zM590 840q-135 0 -222 -119t-87 -289 q0 -119 50 -188.5t152 -69.5q141 0 215 125t74 289q0 252 -182 252zM901 1227q-53 0 -124.5 46t-104.5 46q-76 0 -115 -98l-145 34q27 94 107.5 147.5t164.5 53.5q61 0 122.5 -45t94.5 -45q41 0 78 29.5t51 68.5l133 -32q-29 -86 -99.5 -145.5t-162.5 -59.5z" />
<glyph unicode="&#xe4;" horiz-adv-x="1169" d="M1071 1018l-119 -705q-8 -43 -8 -77q0 -43 19.5 -54.5t78.5 -11.5l-55 -190q-139 0 -192.5 22.5t-85.5 103.5q-123 -127 -299 -126q-170 0 -270.5 121.5t-100.5 312.5q0 248 159.5 435t413.5 187q143 0 215 -88l33 70h211zM590 840q-135 0 -222 -119t-87 -289 q0 -119 50 -188.5t152 -69.5q141 0 215 125t74 289q0 252 -182 252zM1010 1221h-183l37 213h185zM715 1221h-183l37 213h183z" />
<glyph unicode="&#xe5;" horiz-adv-x="1169" d="M1071 1018l-119 -705q-8 -43 -8 -77q0 -43 19.5 -54.5t78.5 -11.5l-55 -190q-139 0 -192.5 22.5t-85.5 103.5q-123 -127 -299 -126q-170 0 -270.5 121.5t-100.5 312.5q0 248 159.5 435t413.5 187q143 0 215 -88l33 70h211zM590 840q-135 0 -222 -119t-87 -289 q0 -119 50 -188.5t152 -69.5q141 0 215 125t74 289q0 252 -182 252zM764 1180q-80 0 -126 45t-46 110q0 86 67.5 148.5t167.5 62.5q82 0 127 -45t45 -112q0 -84 -66.5 -146.5t-168.5 -62.5zM811 1458q-43 0 -73.5 -32.5t-30.5 -82.5q0 -35 19 -56t52 -21q43 0 75 31.5 t32 80.5q0 35 -20.5 57.5t-53.5 22.5z" />
<glyph unicode="&#xe6;" horiz-adv-x="1550" d="M1452 471h-616q0 -55 2 -80q12 -109 73.5 -165t151.5 -56q152 0 307 80l-18 -191q-156 -80 -336 -79q-291 0 -348 204q-178 -215 -416 -215q-129 0 -198.5 62.5t-69.5 171.5q0 102 45 181t110.5 124t155.5 74.5t160.5 41t148.5 15.5q0 111 -26.5 153t-118.5 42 q-117 0 -275 -72l13 186q193 88 360 88q115 0 179.5 -44t76.5 -158q41 88 145.5 145t227.5 57q143 0 228 -93t85 -253q0 -92 -47 -219zM1143 840q-90 0 -163 -56.5t-110 -154.5h414q4 23 4 63q0 148 -145 148zM592 481q-131 -2 -245 -59t-114 -170q0 -47 28 -72.5t73 -25.5 q78 0 153.5 67.5t96.5 190.5q2 12 4 34.5t4 34.5z" />
<glyph unicode="&#xe7;" horiz-adv-x="884" d="M446 -20q-207 0 -306 118.5t-99 311.5q0 256 157.5 441t430.5 185q164 0 264 -71l-59 -201q-104 76 -226 76q-150 0 -237.5 -116t-87.5 -290q0 -260 209 -260q119 0 253 76l-14 -195q-123 -75 -285 -75zM543 -109l-238 -272l-141 -14l182 270z" />
<glyph unicode="&#xe8;" horiz-adv-x="980" d="M930 752q0 -162 -131 -250t-353 -88q-96 0 -163 14q6 -135 73.5 -194.5t169.5 -59.5q152 0 308 76l-23 -193q-160 -78 -334 -77q-217 0 -327.5 121.5t-110.5 316.5q0 248 158.5 433t408.5 185q156 0 240 -76.5t84 -207.5zM594 840q-104 0 -180 -77t-111 -183 q45 -12 111 -13q170 0 242.5 49.5t72.5 118.5q0 105 -135 105zM793 1204l-338 127l32 193l328 -189z" />
<glyph unicode="&#xe9;" horiz-adv-x="980" d="M930 752q0 -162 -131 -250t-353 -88q-96 0 -163 14q6 -135 73.5 -194.5t169.5 -59.5q152 0 308 76l-23 -193q-160 -78 -334 -77q-217 0 -327.5 121.5t-110.5 316.5q0 248 158.5 433t408.5 185q156 0 240 -76.5t84 -207.5zM594 840q-104 0 -180 -77t-111 -183 q45 -12 111 -13q170 0 242.5 49.5t72.5 118.5q0 105 -135 105zM815 1331l-383 -127l25 131l393 189z" />
<glyph unicode="&#xea;" horiz-adv-x="980" d="M930 752q0 -162 -131 -250t-353 -88q-96 0 -163 14q6 -135 73.5 -194.5t169.5 -59.5q152 0 308 76l-23 -193q-160 -78 -334 -77q-217 0 -327.5 121.5t-110.5 316.5q0 248 158.5 433t408.5 185q156 0 240 -76.5t84 -207.5zM594 840q-104 0 -180 -77t-111 -183 q45 -12 111 -13q170 0 242.5 49.5t72.5 118.5q0 105 -135 105zM895 1210l-254 152l-311 -152l22 127l318 195l248 -195z" />
<glyph unicode="&#xeb;" horiz-adv-x="980" d="M930 752q0 -162 -131 -250t-353 -88q-96 0 -163 14q6 -135 73.5 -194.5t169.5 -59.5q152 0 308 76l-23 -193q-160 -78 -334 -77q-217 0 -327.5 121.5t-110.5 316.5q0 248 158.5 433t408.5 185q156 0 240 -76.5t84 -207.5zM594 840q-104 0 -180 -77t-111 -183 q45 -12 111 -13q170 0 242.5 49.5t72.5 118.5q0 105 -135 105zM852 1221h-182l37 213h184zM557 1221h-182l37 213h182z" />
<glyph unicode="&#xec;" d="M252 0h-234l179 1018h233zM530 1204l-337 127l32 193l328 -189z" />
<glyph unicode="&#xed;" d="M252 0h-234l179 1018h233zM551 1331l-383 -127l25 131l393 189z" />
<glyph unicode="&#xee;" d="M252 0h-234l179 1018h233zM631 1210l-254 152l-311 -152l22 127l318 195l247 -195z" />
<glyph unicode="&#xef;" d="M252 0h-234l179 1018h233zM590 1221h-182l36 213h185zM295 1221h-182l37 213h182z" />
<glyph unicode="&#xf0;" horiz-adv-x="1013" d="M371 -27q-162 0 -263.5 104.5t-101.5 268.5q0 193 139.5 359.5t356.5 166.5q127 0 213 -90q0 92 -18.5 194.5t-57.5 139.5q-139 -102 -285 -121l-49 140q106 4 250 94q-94 104 -211 104l96 103q147 -4 262 -109q92 82 132 129l118 -31q-88 -109 -166 -186 q68 -92 107 -238.5t39 -306.5q0 -164 -37 -293t-93.5 -207.5t-133 -130t-149 -71t-148.5 -19.5zM496 682q-115 0 -187.5 -90t-72.5 -207q0 -94 44 -154.5t130 -60.5q102 0 182 84t80 231q0 92 -45 144.5t-131 52.5z" />
<glyph unicode="&#xf1;" horiz-adv-x="1087" d="M868 0h-233q109 618 108 666q0 90 -36.5 132t-116.5 42q-121 0 -209 -101l-131 -739h-232l179 1018h202l7 -76q115 94 253 94q160 0 241 -89t81 -251q0 -69 -113 -696zM788 1227q-53 0 -124.5 46t-104.5 46q-76 0 -115 -98l-145 34q27 94 107.5 147.5t164.5 53.5 q61 0 123 -45t94 -45q41 0 78 29.5t52 68.5l133 -32q-29 -86 -100 -145.5t-163 -59.5z" />
<glyph unicode="&#xf2;" horiz-adv-x="1103" d="M449 -20q-197 0 -303.5 122.5t-106.5 313.5q0 250 167 435t417 185q199 0 304 -122.5t105 -313.5q0 -250 -166.5 -435t-416.5 -185zM590 840q-135 0 -223 -118t-88 -288q0 -125 51 -192.5t151 -67.5q137 0 224.5 119t87.5 289q0 258 -203 258zM838 1204l-338 127l32 193 l328 -189z" />
<glyph unicode="&#xf3;" horiz-adv-x="1103" d="M449 -20q-197 0 -303.5 122.5t-106.5 313.5q0 250 167 435t417 185q199 0 304 -122.5t105 -313.5q0 -250 -166.5 -435t-416.5 -185zM590 840q-135 0 -223 -118t-88 -288q0 -125 51 -192.5t151 -67.5q137 0 224.5 119t87.5 289q0 258 -203 258zM858 1331l-383 -127l25 131 l393 189z" />
<glyph unicode="&#xf4;" horiz-adv-x="1103" d="M449 -20q-197 0 -303.5 122.5t-106.5 313.5q0 250 167 435t417 185q199 0 304 -122.5t105 -313.5q0 -250 -166.5 -435t-416.5 -185zM590 840q-135 0 -223 -118t-88 -288q0 -125 51 -192.5t151 -67.5q137 0 224.5 119t87.5 289q0 258 -203 258zM942 1210l-254 152 l-311 -152l22 127l318 195l248 -195z" />
<glyph unicode="&#xf5;" horiz-adv-x="1103" d="M449 -20q-197 0 -303.5 122.5t-106.5 313.5q0 250 167 435t417 185q199 0 304 -122.5t105 -313.5q0 -250 -166.5 -435t-416.5 -185zM590 840q-135 0 -223 -118t-88 -288q0 -125 51 -192.5t151 -67.5q137 0 224.5 119t87.5 289q0 258 -203 258zM797 1227q-53 0 -125 46 t-105 46q-76 0 -114 -98l-146 34q27 94 108 147.5t165 53.5q61 0 122.5 -45t94.5 -45q41 0 77.5 29.5t51.5 68.5l133 -32q-29 -86 -99.5 -145.5t-162.5 -59.5z" />
<glyph unicode="&#xf6;" horiz-adv-x="1103" d="M449 -20q-197 0 -303.5 122.5t-106.5 313.5q0 250 167 435t417 185q199 0 304 -122.5t105 -313.5q0 -250 -166.5 -435t-416.5 -185zM590 840q-135 0 -223 -118t-88 -288q0 -125 51 -192.5t151 -67.5q137 0 224.5 119t87.5 289q0 258 -203 258zM899 1221h-182l37 213h184z M604 1221h-182l37 213h182z" />
<glyph unicode="&#xf7;" horiz-adv-x="1118" d="M711 850h-236l43 244h234zM979 481h-887l33 178h885zM567 41h-233l43 244h233z" />
<glyph unicode="&#xf8;" horiz-adv-x="1105" d="M444 -18q-72 0 -133 18l-45 -74h-198l94 150q-123 113 -123 340q0 250 168 436t424 186q68 0 129 -18l45 74h203l-97 -148q125 -125 125 -344q0 -250 -168 -435t-424 -185zM776 745l-348 -569q28 -6 49 -6q141 0 229.5 124t88.5 308q-1 104 -19 143zM598 850 q-139 0 -228 -123t-89 -303q0 -90 16 -150l344 570q-25 6 -43 6z" />
<glyph unicode="&#xf9;" horiz-adv-x="1081" d="M852 0h-219l8 76q-123 -96 -254 -96q-156 0 -234.5 87t-78.5 246q0 66 110 705h234q-106 -604 -107 -664q0 -176 154 -176q119 0 201 94l131 746h233zM829 1204l-337 127l32 193l328 -189z" />
<glyph unicode="&#xfa;" horiz-adv-x="1081" d="M852 0h-219l8 76q-123 -96 -254 -96q-156 0 -234.5 87t-78.5 246q0 66 110 705h234q-106 -604 -107 -664q0 -176 154 -176q119 0 201 94l131 746h233zM850 1331l-383 -127l25 131l393 189z" />
<glyph unicode="&#xfb;" horiz-adv-x="1081" d="M852 0h-219l8 76q-123 -96 -254 -96q-156 0 -234.5 87t-78.5 246q0 66 110 705h234q-106 -604 -107 -664q0 -176 154 -176q119 0 201 94l131 746h233zM932 1210l-254 152l-311 -152l22 127l318 195l247 -195z" />
<glyph unicode="&#xfc;" horiz-adv-x="1081" d="M852 0h-219l8 76q-123 -96 -254 -96q-156 0 -234.5 87t-78.5 246q0 66 110 705h234q-106 -604 -107 -664q0 -176 154 -176q119 0 201 94l131 746h233zM891 1221h-182l36 213h185zM596 1221h-182l37 213h182z" />
<glyph unicode="&#xfd;" horiz-adv-x="1036" d="M1094 1018l-869 -1514h-235l313 557l-231 957h258l131 -686l373 686h260zM817 1331l-383 -127l25 131l393 189z" />
<glyph unicode="&#xfe;" horiz-adv-x="1128" d="M479 -20q-137 0 -217 90l-98 -566h-234l359 2032h233l-102 -588q111 88 248 88q186 0 286.5 -121.5t100.5 -308.5q0 -254 -160 -440t-416 -186zM616 840q-147 0 -223 -124t-76 -304q0 -111 44.5 -176.5t134.5 -65.5q141 0 230 121t89 295q0 117 -51.5 185.5t-147.5 68.5z " />
<glyph unicode="&#xff;" horiz-adv-x="1036" d="M1094 1018l-869 -1514h-235l313 557l-231 957h258l131 -686l373 686h260zM856 1221h-182l37 213h184zM561 1221h-182l37 213h182z" />
<glyph unicode="&#x131;" d="M252 0h-234l179 1018h233z" />
<glyph unicode="&#x152;" horiz-adv-x="2074" d="M1896 0h-837l24 131q-203 -160 -444 -160q-250 0 -399.5 165t-149.5 437q0 387 236.5 638t574.5 251q246 0 387 -159l25 131h819l-41 -230h-573l-60 -342h440l-40 -229h-441l-71 -404h589zM860 1235q-231 0 -367.5 -185.5t-136.5 -453.5q0 -180 82 -288.5t240 -108.5 q231 0 368.5 186t137.5 453q0 180 -82 288.5t-242 108.5z" />
<glyph unicode="&#x153;" horiz-adv-x="1744" d="M1647 471h-625q0 -10 -1 -29.5t-1 -27.5q0 -127 69.5 -185.5t167.5 -58.5q152 0 312 80l-23 -197q-152 -74 -334 -73q-268 0 -368 182q-162 -182 -402 -182q-190 0 -296.5 123.5t-106.5 312.5q0 252 167 436t423 184q238 0 334 -178q152 178 376 178q160 0 257.5 -97 t97.5 -261q0 -94 -47 -207zM1311 840q-180 0 -256 -211h397q6 37 6 57q0 154 -147 154zM596 840q-143 0 -230 -118t-87 -296q0 -117 51 -184.5t149 -67.5q139 0 227.5 121t88.5 293q0 113 -52.5 182.5t-146.5 69.5z" />
<glyph unicode="&#x160;" horiz-adv-x="1144" d="M440 -29q-143 0 -257.5 30t-170.5 71l78 276q51 -61 154.5 -105t238.5 -44q131 0 209 48t78 148q0 92 -62.5 140.5t-211.5 105.5l-98 40q-32 13 -87 45t-81.5 62.5t-49 81t-22.5 111.5q0 78 31.5 158t96 154.5t179.5 121.5t260 47q127 0 241.5 -32.5t170.5 -73.5 l-68 -250q-211 129 -371 129q-109 0 -197.5 -46t-88.5 -142q0 -74 56 -115t181 -84l117 -43q37 -14 101.5 -50t95 -73t56 -97.5t25.5 -135.5q0 -90 -31.5 -170t-98 -152t-188.5 -114t-286 -42zM1071 1815l-317 -191l-250 191l22 131l258 -150l310 150z" />
<glyph unicode="&#x161;" horiz-adv-x="837" d="M293 -20q-213 0 -316 79l56 205q43 -39 123 -70.5t159 -31.5q90 0 130 40t40 93q0 39 -24.5 66.5t-51 40t-77.5 28.5q-57 18 -87 31.5t-70 41t-58.5 68.5t-18.5 99q0 59 21.5 119.5t66.5 118t129 93t195 35.5q90 0 170 -22.5t117 -50.5l-56 -201q-33 41 -101.5 71.5 t-141.5 30.5q-78 0 -131.5 -33.5t-53.5 -99.5q0 -18 4.5 -32.5t16.5 -28t20 -20.5t33 -17t34 -14.5t43 -14.5t44 -14q49 -18 82 -33.5t66.5 -44.5t51 -74t17.5 -104q0 -143 -100.5 -248.5t-331.5 -105.5zM836 1399l-318 -191l-250 191l23 131l258 -150l309 150z" />
<glyph unicode="&#x178;" horiz-adv-x="1200" d="M1325 1434l-604 -791l-115 -643h-241l112 643l-325 791h256l233 -580l428 580h256zM1014 1636h-183l37 213h185zM719 1636h-182l36 213h183z" />
<glyph unicode="&#x17d;" horiz-adv-x="1077" d="M1200 1434l-844 -1205h543l-39 -229h-940l842 1204h-543l41 230h940zM1036 1815l-317 -191l-250 191l23 131l258 -150l309 150z" />
<glyph unicode="&#x17e;" horiz-adv-x="929" d="M952 1018l-575 -817h411l-34 -201h-809l577 817h-416l37 201h809zM889 1399l-318 -191l-249 191l22 131l258 -150l309 150z" />
<glyph unicode="&#x192;" horiz-adv-x="706" d="M883 1438l-49 -168q-53 16 -89 16q-84 0 -132 -58.5t-97 -209.5h250l-43 -152h-256l-336 -1038q-53 -166 -138 -245t-151 -79h-57v185q59 4 94 41t66 137l313 999h-154l43 152h160l29 94q53 164 167.5 257t252.5 93q66 1 127 -24z" />
<glyph unicode="&#x237;" d="M-82 -492l-86 -4l12 189q80 4 104.5 30.5t45.5 145.5l203 1149h233l-219 -1243q-23 -125 -96.5 -195t-196.5 -72z" />
<glyph unicode="&#x2c6;" horiz-adv-x="860" d="M926 1210l-254 152l-312 -152l23 127l317 195l248 -195z" />
<glyph unicode="&#x2c7;" horiz-adv-x="860" d="M961 1399l-318 -191l-250 191l23 131l258 -150l309 150z" />
<glyph unicode="&#x2da;" horiz-adv-x="563" d="M489 1180q-80 0 -126 45t-46 110q0 86 68 148.5t168 62.5q82 0 127 -45t45 -112q0 -84 -67 -146.5t-169 -62.5zM537 1458q-43 0 -74 -32.5t-31 -82.5q0 -35 19.5 -56t52.5 -21q43 0 74.5 31.5t31.5 80.5q0 35 -20 57.5t-53 22.5z" />
<glyph unicode="&#x2dc;" horiz-adv-x="1017" d="M860 1227q-53 0 -124.5 46t-104.5 46q-76 0 -115 -98l-145 34q27 94 107.5 147.5t164.5 53.5q61 0 122.5 -45t94.5 -45q41 0 78 29.5t51 68.5l133 -32q-29 -86 -99.5 -145.5t-162.5 -59.5z" />
<glyph unicode="&#x2000;" horiz-adv-x="981" />
<glyph unicode="&#x2001;" horiz-adv-x="1962" />
<glyph unicode="&#x2002;" horiz-adv-x="981" />
<glyph unicode="&#x2003;" horiz-adv-x="1962" />
<glyph unicode="&#x2004;" horiz-adv-x="654" />
<glyph unicode="&#x2005;" horiz-adv-x="490" />
<glyph unicode="&#x2006;" horiz-adv-x="327" />
<glyph unicode="&#x2007;" horiz-adv-x="327" />
<glyph unicode="&#x2008;" horiz-adv-x="245" />
<glyph unicode="&#x2009;" horiz-adv-x="392" />
<glyph unicode="&#x200a;" horiz-adv-x="109" />
<glyph unicode="&#x2010;" horiz-adv-x="829" d="M690 475h-598l35 189h596z" />
<glyph unicode="&#x2011;" horiz-adv-x="829" d="M690 475h-598l35 189h596z" />
<glyph unicode="&#x2012;" horiz-adv-x="829" d="M690 475h-598l35 189h596z" />
<glyph unicode="&#x2013;" horiz-adv-x="978" d="M840 475h-748l35 189h747z" />
<glyph unicode="&#x2014;" horiz-adv-x="1157" d="M1018 475h-926l35 189h924z" />
<glyph unicode="&#x2018;" horiz-adv-x="415" d="M215 1311l225 225l43 -29l-94 -176l62 -20l-43 -238h-236z" />
<glyph unicode="&#x2019;" horiz-adv-x="380" d="M442 1298l-225 -225l-45 29l96 176l-59 20l41 238h233z" />
<glyph unicode="&#x201a;" horiz-adv-x="466" d="M246 0l-226 -225l-45 28l97 177l-62 20l43 238h234z" />
<glyph unicode="&#x201c;" horiz-adv-x="821" d="M215 1311l225 225l43 -29l-94 -176l62 -20l-43 -238h-236zM621 1311l223 225l45 -29l-94 -176l59 -20l-41 -238h-235z" />
<glyph unicode="&#x201d;" horiz-adv-x="786" d="M848 1298l-225 -225l-45 29l94 176l-60 20l41 238h236zM442 1298l-225 -225l-45 29l96 176l-59 20l41 238h233z" />
<glyph unicode="&#x201e;" horiz-adv-x="911" d="M246 0l-226 -225l-45 28l97 177l-62 20l43 238h234zM688 0l-225 -225l-43 28l94 177l-59 20l41 238h235z" />
<glyph unicode="&#x2020;" horiz-adv-x="835" d="M780 729l-248 57l13 -264l-152 -522h-166l33 522l105 264l-267 -57l41 242l248 -58v330h285l-117 -330l268 58z" />
<glyph unicode="&#x2021;" horiz-adv-x="903" d="M715 152l-248 55v-328h-283l115 328l-268 -55l43 239l248 -57l-19 227l98 227l-266 -55l41 240l248 -58v328h283l-115 -328l266 58l-41 -240l-248 55l19 -227l-101 -227l269 57z" />
<glyph unicode="&#x2022;" horiz-adv-x="598" d="M252 346q-76 0 -125 55.5t-49 135.5q0 102 77.5 179t176.5 77q76 0 125 -55.5t49 -135.5q0 -102 -78 -179t-176 -77z" />
<glyph unicode="&#x2026;" horiz-adv-x="1376" d="M244 0h-232l41 238h234zM700 0h-233l41 238h233zM1155 0h-233l43 238h231z" />
<glyph unicode="&#x202f;" horiz-adv-x="392" />
<glyph unicode="&#x2030;" horiz-adv-x="2338" d="M1161 -20q-109 0 -170 76.5t-61 209.5q0 205 111.5 339t263.5 134q109 0 171 -77.5t62 -212.5q0 -203 -107.5 -336t-269.5 -133zM1452 1434l-1069 -1459h-197l1069 1459h197zM381 684q-111 0 -172.5 78t-61.5 209q0 207 112 339t265 132q106 0 169 -77t63 -210 q0 -205 -107.5 -338t-267.5 -133zM1280 606q-76 0 -137.5 -89t-61.5 -236q0 -166 107 -166q86 0 143.5 87t57.5 232q0 84 -31 128t-78 44zM498 1309q-74 0 -136.5 -88t-62.5 -234q0 -80 29.5 -122t77.5 -42q86 0 143 85t57 229q0 82 -30.5 127t-77.5 45zM1858 -20 q-109 0 -171.5 76.5t-62.5 209.5q0 205 112.5 339t264.5 134q106 0 169.5 -77.5t63.5 -212.5q0 -203 -107 -336t-269 -133zM1976 606q-76 0 -138 -89t-62 -236q0 -166 108 -166q86 0 143.5 87t57.5 232q0 84 -31 128t-78 44z" />
<glyph unicode="&#x2039;" horiz-adv-x="681" d="M526 160h-276l-221 422l368 422h277l-367 -422z" />
<glyph unicode="&#x203a;" horiz-adv-x="684" d="M647 582l-368 -422h-277l369 422l-219 422h276z" />
<glyph unicode="&#x205f;" horiz-adv-x="490" />
<glyph unicode="&#x2070;" horiz-adv-x="792" d="M395 639q-123 0 -192.5 85t-69.5 226q0 207 125 351.5t293 144.5q119 0 189.5 -89t70.5 -231q0 -205 -119 -346t-297 -141zM520 1286q-76 0 -141.5 -85t-65.5 -236q0 -82 32 -122t81 -40q88 0 146.5 76.5t58.5 230.5q0 86 -32 131t-79 45z" />
<glyph unicode="&#x2074;" horiz-adv-x="681" d="M672 866h-94l-39 -211h-181l37 211h-338l461 564h158l-76 -426h94zM420 1004l31 176l-140 -176h109z" />
<glyph unicode="&#x2075;" horiz-adv-x="610" d="M283 643q-86 0 -145.5 28.5t-63.5 53.5l73 162q12 -29 54.5 -50.5t105.5 -21.5q127 0 127 111q0 68 -125 67h-149l129 437h362l-51 -185h-209l-33 -106q244 -4 244 -187q0 -156 -95 -232.5t-224 -76.5z" />
<glyph unicode="&#x2076;" horiz-adv-x="634" d="M317 639q-92 0 -145 57.5t-53 175.5q0 117 52 226.5t124 178.5t141.5 111t112.5 42l108 -70q-55 0 -181 -108.5t-134 -153.5q25 25 104 24q86 0 140.5 -49t54.5 -135q0 -117 -94.5 -208t-229.5 -91zM410 979q-121 0 -121 -105q0 -29 24.5 -49t46.5 -20q41 0 79 33.5 t38 76.5q0 25 -20 44.5t-47 19.5z" />
<glyph unicode="&#x2077;" horiz-adv-x="589" d="M729 1430l-448 -775h-197l338 590h-250l33 185h524z" />
<glyph unicode="&#x2078;" horiz-adv-x="673" d="M332 639q-111 0 -169.5 51t-58.5 133q0 119 127 250q-20 23 -20 109q0 119 65.5 191.5t212.5 72.5q201 0 201 -150q0 -96 -90 -215q63 -74 64 -170q0 -98 -88 -185t-244 -87zM463 1317q-98 0 -98 -129q0 -47 59 -58q55 12 76.5 41t21.5 89q0 57 -59 57zM416 1016 q-43 -4 -93.5 -48t-50.5 -108q0 -39 23.5 -63.5t64.5 -24.5q127 0 127 135q1 93 -71 109z" />
<glyph unicode="&#x2079;" horiz-adv-x="630" d="M469 1446q94 0 146.5 -60.5t52.5 -173.5q0 -199 -146.5 -378t-296.5 -179l-88 70q66 0 192 93t140 175q-43 -29 -121 -28q-74 0 -138.5 52t-64.5 136q0 111 94.5 202t229.5 91zM389 1106q121 0 121 111q0 70 -72 69q-45 0 -77.5 -38t-32.5 -77q0 -31 17 -48t44 -17z" />
<glyph unicode="&#x2080;" horiz-adv-x="845" d="M305 -16q-123 0 -192.5 85t-69.5 226q0 205 125 350.5t293 145.5q119 0 190.5 -89.5t71.5 -230.5q0 -205 -119 -346t-299 -141zM432 631q-76 0 -141.5 -85t-65.5 -237q0 -162 111 -162q88 0 147.5 77t59.5 231q0 86 -33 131t-78 45z" />
<glyph unicode="&#x2081;" horiz-adv-x="518" d="M242 0h-181l93 518q-23 -6 -80 -8l20 143q27 0 78 41t64 80h143z" />
<glyph unicode="&#x2082;" horiz-adv-x="667" d="M461 0h-496q254 293 329 404.5t75 175.5q0 70 -62 69q-45 0 -92 -30.5t-70.5 -57t-38.5 -49.5v166q35 45 105 79t154 34q94 0 136 -50.5t42 -117.5q0 -78 -53.5 -177.5t-180.5 -261.5h187z" />
<glyph unicode="&#x2083;" horiz-adv-x="661" d="M168 -16q-63 0 -125.5 21.5t-71.5 39.5l76 170q12 -20 54 -34.5t85 -14.5q147 0 148 102q0 84 -74 84h-125l39 137h64q63 0 89.5 28t26.5 61q0 68 -82 67q-84 0 -127 -31l-4 125q25 20 81.5 36t101.5 16q117 0 166 -53.5t49 -125.5q0 -61 -27 -113.5t-49 -70.5 q45 -76 45 -145q0 -137 -103.5 -218t-236.5 -81z" />
<glyph unicode="&#x2084;" horiz-adv-x="735" d="M580 211h-95l-39 -211h-180l37 211h-338l461 563h158l-76 -426h94zM328 348l30 176l-139 -176h109z" />
<glyph unicode="&#x2085;" horiz-adv-x="663" d="M193 -12q-59 0 -109.5 16t-74 33.5t-27.5 30.5l73 163q12 -29 54.5 -50t105.5 -21q39 0 60.5 4t45 29.5t23.5 76.5q0 68 -125 68h-149l129 436h362l-53 -184h-209l-31 -107q242 -4 242 -186q0 -156 -94 -232.5t-223 -76.5z" />
<glyph unicode="&#x2086;" horiz-adv-x="684" d="M227 -16q-92 0 -145 57t-53 176q0 117 53 227.5t127 179t142.5 109.5t107.5 41l108 -69q-70 0 -188.5 -104.5t-126.5 -156.5q23 23 98 23q92 0 146.5 -48t54.5 -134q0 -117 -94.5 -209t-229.5 -92zM319 326q-121 0 -120 -109q0 -29 24.5 -49.5t46.5 -20.5q41 0 79 35 t38 78q0 25 -20.5 45.5t-47.5 20.5z" />
<glyph unicode="&#x2087;" horiz-adv-x="671" d="M649 774l-448 -774h-197l338 590h-250l33 184h524z" />
<glyph unicode="&#x2088;" horiz-adv-x="729" d="M244 -16q-111 0 -169.5 51t-58.5 133q0 119 127 250q-20 23 -20 108q0 119 65.5 192t212.5 73q201 0 201 -150q0 -96 -90 -215q63 -74 63 -170q0 -98 -87.5 -185t-243.5 -87zM375 662q-98 0 -99 -130q0 -47 60 -57q55 12 76.5 41t21.5 88q0 58 -59 58zM328 360 q-43 -4 -93.5 -48t-50.5 -107q0 -39 23.5 -63.5t64.5 -24.5q127 0 127 135q1 92 -71 108z" />
<glyph unicode="&#x2089;" horiz-adv-x="677" d="M375 791q94 0 146 -60.5t52 -173.5q0 -199 -146 -378t-296 -179l-88 70q63 0 188 92t146 178q-43 -31 -125 -31q-86 0 -143.5 48.5t-57.5 131.5q0 117 94.5 209.5t229.5 92.5zM295 451q121 0 121 110q0 68 -70 68q-45 0 -79 -37t-34 -76q0 -29 18.5 -47t43.5 -18z" />
<glyph unicode="&#x20ac;" horiz-adv-x="1370" d="M809 35q-197 0 -328 105.5t-166 291.5h-278l86 166h178q4 41 16 119l7 35h-174l79 155h142q94 227 276 359.5t404 132.5q199 0 333 -74l-65 -221q-168 80 -307 80q-260 0 -387 -277h485l-84 -155h-455l-4 -35q-14 -72 -14 -119h465l-86 -166h-354q59 -182 270 -182 q135 0 336 80l-13 -221q-163 -74 -362 -74z" />
<glyph unicode="&#x2122;" horiz-adv-x="1439" d="M1018 883h-21l-98 278l-137 -471h-152l226 744h92l121 -324l233 324h94l-37 -744h-155l33 469zM750 1434l-43 -142h-183l-106 -602h-150l107 602h-189l27 142h537z" />
<glyph unicode="&#xe000;" horiz-adv-x="1020" d="M0 1020h1020v-1020h-1020v1020z" />
<glyph horiz-adv-x="1085" d="M971 0h-240l-51 274h-377l-145 -274h-242l627 1176h217zM639 500l-55 305l-160 -305h215z" />
<glyph horiz-adv-x="1492" d="M1317 0h-739l51 279h-318l-182 -279h-244l785 1176h839l-41 -226h-491l-41 -225h379l-39 -223h-379l-47 -277h506zM668 502l77 444l-288 -444h211z" />
<glyph horiz-adv-x="1118" d="M514 0h-471l207 1176h336q205 0 306 -49.5t101 -192.5q0 -209 -149 -305q164 -63 164 -230q0 -109 -45 -190.5t-120 -124.5t-157 -63.5t-172 -20.5zM651 983h-202l-48 -274h213q57 0 108.5 38.5t51.5 124.5q0 61 -31 86t-92 25zM586 532h-217l-58 -337h226q233 0 233 202 q0 135 -184 135z" />
<glyph horiz-adv-x="1067" d="M551 -25q-219 0 -352 138.5t-133 365.5q0 311 204.5 516t495.5 205q199 0 328 -70l-64 -219q-152 66 -303 66q-190 0 -296.5 -136t-106.5 -341q0 -137 66.5 -218t199.5 -81q156 0 325 65l-12 -221q-151 -70 -352 -70z" />
<glyph horiz-adv-x="1261" d="M487 0h-444l207 1176h446q223 0 356.5 -128t133.5 -352q0 -313 -201 -504.5t-498 -191.5zM657 952h-215l-127 -729h213q195 0 298.5 124t103.5 327q0 131 -69 204.5t-204 73.5z" />
<glyph horiz-adv-x="1003" d="M827 0h-784l207 1176h768l-39 -226h-528l-39 -225h405l-39 -223h-407l-49 -277h546z" />
<glyph horiz-adv-x="931" d="M944 950h-502l-39 -225h385l-38 -223h-385l-89 -502h-233l207 1176h733z" />
<glyph horiz-adv-x="1161" d="M551 -25q-219 0 -351 138.5t-132 367.5q0 311 204.5 515t503.5 204q90 0 189.5 -19.5t154.5 -50.5l-63 -223q-150 70 -316 70q-201 0 -308 -133t-107 -334q0 -143 71.5 -226t212.5 -83q55 0 156 14l33 186h-115l33 189h346l-92 -524q-70 -37 -195 -64t-225 -27z" />
<glyph horiz-adv-x="1290" d="M1034 0h-233l88 502h-524l-89 -502h-233l207 1176h233l-80 -451h527l80 451h233z" />
<glyph horiz-adv-x="530" d="M274 0h-231l207 1176h231z" />
<glyph horiz-adv-x="530" d="M-47 -289h-72l17 180h55q72 0 92 117l205 1168h231l-213 -1213q-23 -125 -106.5 -188.5t-208.5 -63.5z" />
<glyph horiz-adv-x="1114" d="M981 0h-264l-295 623l504 553h262l-504 -553zM274 0h-231l207 1176h231z" />
<glyph horiz-adv-x="872" d="M748 0h-705l207 1176h233l-168 -951h471z" />
<glyph horiz-adv-x="1456" d="M1257 0h-241l35 760l-389 -522l-205 522l-232 -760h-241l372 1176h189l192 -523l373 523h188z" />
<glyph horiz-adv-x="1239" d="M983 0h-190l-381 774l-136 -774h-233l207 1176h223l358 -727l127 727h234z" />
<glyph horiz-adv-x="1329" d="M555 -25q-223 0 -356 138.5t-133 365.5q0 313 204.5 517t499.5 204q221 0 354 -137t133 -365q0 -313 -204.5 -518t-497.5 -205zM731 977q-190 0 -298.5 -135t-108.5 -340q0 -139 68.5 -220t201.5 -81q190 0 297.5 136t107.5 339q0 139 -67.5 220t-200.5 81z" />
<glyph horiz-adv-x="1830" d="M1655 0h-750l15 80q-158 -104 -363 -105q-223 0 -357 138.5t-134 367.5q0 311 205.5 515t500.5 204q205 0 326 -102l14 78h735l-39 -226h-495l-39 -225h381l-39 -223h-381l-49 -277h508zM733 977q-188 0 -298.5 -135t-110.5 -338q0 -139 69.5 -221t204.5 -82 q188 0 298 135t110 338q0 139 -70 221t-203 82z" />
<glyph horiz-adv-x="1062" d="M539 379h-199l-68 -379h-229l207 1176h323q254 0 366 -56.5t112 -226.5q0 -121 -36 -215t-89.5 -148.5t-125 -90.5t-135 -48t-126.5 -12zM625 987h-179l-67 -391h168q154 0 210 57.5t56 198.5q0 70 -43 102.5t-145 32.5z" />
<glyph horiz-adv-x="1329" d="M1174 139l-166 -162l-103 99q-147 -100 -350 -101q-223 0 -356 138.5t-133 365.5q0 313 204.5 517t499.5 204q221 0 354 -137t133 -365q0 -260 -176 -471zM731 977q-190 0 -298.5 -135t-108.5 -340q0 -139 68.5 -220t201.5 -81q80 0 147 30l-112 113l166 162l120 -115 q80 139 80 287q0 137 -66.5 218t-197.5 81z" />
<glyph horiz-adv-x="1114" d="M965 0h-240l-164 432h-211l-76 -432h-231l207 1176h448q352 0 353 -273q0 -156 -68 -245t-197 -166zM600 983h-151l-62 -338h131q168 0 226.5 55.5t58.5 159.5q0 61 -45 92t-158 31z" />
<glyph horiz-adv-x="1024" d="M387 -25q-260 0 -381 88l74 263q41 -53 133 -89t219 -36q109 0 161 29.5t52 103.5q0 47 -38 84t-79 54t-118 44q-66 23 -105 41t-87 51t-71.5 80t-23.5 111q0 66 28.5 133t85 128.5t157 100.5t227.5 39q115 0 217 -29.5t145 -64.5l-65 -234q-174 106 -330 107 q-223 0 -223 -127q0 -37 31.5 -66.5t68.5 -44t106 -36.5q76 -25 120 -43.5t103.5 -56.5t88 -94t28.5 -132q0 -47 -9 -92t-42 -104.5t-86 -102.5t-153.5 -74t-233.5 -31z" />
<glyph horiz-adv-x="985" d="M1001 950h-331l-166 -950h-234l166 950h-330l39 226h895z" />
<glyph horiz-adv-x="1247" d="M512 -25q-203 0 -304.5 100.5t-103.5 282.5q0 72 13 148l119 670h229l-105 -598q-16 -92 -16 -160q2 -104 50 -160.5t159 -56.5q147 0 219 96t105 281l106 598h231l-118 -670q-43 -246 -191.5 -388.5t-392.5 -142.5z" />
<glyph horiz-adv-x="1136" d="M1221 1176l-613 -1176h-291l-211 1176h242l168 -865l467 865h238z" />
<glyph horiz-adv-x="1671" d="M1743 1176l-555 -1176h-195l-129 737l-385 -737h-211l-127 1176h242l88 -793l395 799h152l131 -772l354 766h240z" />
<glyph horiz-adv-x="1116" d="M995 0h-274l-197 418l-344 -418h-272l526 588l-295 588h269l194 -402l299 402h270l-479 -566z" />
<glyph horiz-adv-x="1064" d="M1155 1176l-530 -662l-90 -514h-228l90 514l-297 662h248l201 -455l360 455h246z" />
<glyph horiz-adv-x="966" d="M1036 1176l-684 -951h441l-39 -225h-826l686 950h-442l41 226h823z" />
</font>
</defs>
</svg>
