<?xml version="1.0" standalone="no"?>
<!DOCTYPE svg PUBLIC "-//W3C//DTD SVG 1.1//EN" "http://www.w3.org/Graphics/SVG/1.1/DTD/svg11.dtd" >
<svg xmlns="http://www.w3.org/2000/svg">
<metadata>
This is a custom SVG webfont generated by Font Squirrel.
Designer    : Robby Woodard
</metadata>
<defs>
<font id="webfontmM0vweQY" horiz-adv-x="1085" >
<font-face units-per-em="2048" ascent="1536" descent="-512" />
<missing-glyph horiz-adv-x="573" />
<glyph unicode=" "  horiz-adv-x="573" />
<glyph unicode="&#x09;" horiz-adv-x="573" />
<glyph unicode="&#xa0;" horiz-adv-x="573" />
<glyph unicode="!" horiz-adv-x="471" d="M328 0h-123v246h123v-246zM328 410h-123v901h123v-901z" />
<glyph unicode="&#x22;" horiz-adv-x="757" d="M266 983h-123v492h123v-492zM614 983h-122v492h122v-492z" />
<glyph unicode="#" horiz-adv-x="1024" d="M922 492h-164v-328h-125v328h-244v-328h-123v328h-164v124h164v244h-164v123h164v328h123v-328h244v328h125v-328h164v-123h-164v-244h164v-124zM637 612v252h-252v-252h252z" />
<glyph unicode="$" horiz-adv-x="839" d="M737 492q0 -68 -48 -116t-116 -48h-90v-164h-125v164h-223v123h438q16 0 28.5 12t12.5 29v225q0 16 -12 28.5t-29 12.5h-307q-68 0 -116 48t-48 116v225q0 68 48.5 116t115.5 48h92v164h125v-164h242v-123h-459q-16 0 -28.5 -12.5t-12.5 -28.5v-225q0 -16 12.5 -28.5 t28.5 -12.5h307q68 0 116 -48.5t48 -115.5v-225z" />
<glyph unicode="%" horiz-adv-x="1556" d="M1454 164q0 -68 -48 -116t-116 -48h-246q-68 0 -115.5 48t-47.5 116v246q0 68 48 115.5t115 47.5h246q68 0 116 -48t48 -115v-246zM1331 164v246q0 16 -12 28.5t-29 12.5h-246q-16 0 -28 -12.5t-12 -28.5v-246q0 -16 12 -28.5t28 -12.5h246q16 0 28.5 12.5t12.5 28.5z M1188 1311l-678 -1311h-141l680 1311h139zM676 901q0 -68 -48 -116t-116 -48h-246q-68 0 -116 48.5t-48 115.5v246q0 68 48.5 116t115.5 48h246q68 0 116 -48.5t48 -115.5v-246zM553 901v246q0 16 -12.5 28.5t-28.5 12.5h-246q-16 0 -28.5 -12.5t-12.5 -28.5v-246 q0 -16 12.5 -28.5t28.5 -12.5h246q16 0 28.5 12.5t12.5 28.5z" />
<glyph unicode="&#x26;" horiz-adv-x="1370" d="M1227 860q0 -68 -48.5 -116t-115.5 -48h-358v-573h161q84 0 144.5 60.5t60.5 144.5v84h125v-84q0 -137 -96 -232.5t-232 -95.5h-163v-246h-123v246h-152q-135 0 -231.5 95t-96.5 233v164q0 137 96.5 232t231.5 95h152v328q0 68 48 116t115 48h318q68 0 116 -48.5 t48 -115.5v-287zM1104 860v287q0 16 -12.5 28.5t-28.5 12.5h-318q-16 0 -28 -12.5t-12 -28.5v-328h358q16 0 28.5 12.5t12.5 28.5zM582 123v573h-152q-84 0 -144.5 -60.5t-60.5 -143.5v-164q0 -84 60.5 -144.5t144.5 -60.5h152z" />
<glyph unicode="'" horiz-adv-x="409" d="M266 983h-123v492h123v-492z" />
<glyph unicode="(" horiz-adv-x="655" d="M573 -410h-102q-135 0 -231.5 95.5t-96.5 232.5v1229q0 137 96.5 232.5t231.5 95.5h102v-123h-102q-84 0 -144.5 -60.5t-60.5 -144.5v-1229q0 -84 60.5 -143.5t144.5 -59.5h102v-125z" />
<glyph unicode=")" horiz-adv-x="655" d="M512 -82q0 -137 -96.5 -232.5t-231.5 -95.5h-102v123h102q84 0 144.5 60.5t60.5 144.5v1229q0 84 -60.5 143.5t-144.5 59.5h-102v125h102q135 0 231.5 -95.5t96.5 -232.5v-1229z" />
<glyph unicode="*" horiz-adv-x="737" d="M676 1024l-47 -78l-215 123v-248h-92v248l-213 -123l-48 78l215 125l-215 125l48 78l213 -123v248h92v-248l215 123l47 -78l-215 -125z" />
<glyph unicode="+" horiz-adv-x="1105" d="M963 635v-123h-347v-348h-124v348h-349v123h349v348h124v-348h347z" />
<glyph unicode="," horiz-adv-x="491" d="M373 246l-205 -656h-131l207 656h129z" />
<glyph unicode="-" horiz-adv-x="696" d="M594 532h-492v123h492v-123z" />
<glyph unicode="." horiz-adv-x="450" d="M287 0h-123v246h123v-246z" />
<glyph unicode="/" horiz-adv-x="942" d="M881 1311l-680 -1311h-140l682 1311h138z" />
<glyph unicode="0" horiz-adv-x="1126" d="M1004 328q0 -137 -96.5 -232.5t-231.5 -95.5h-225q-135 0 -231.5 95t-96.5 233v655q0 137 96 232.5t232 95.5h225q135 0 231.5 -95.5t96.5 -232.5v-655zM879 328v655q0 84 -59.5 144.5t-143.5 60.5h-225q-84 0 -144.5 -60.5t-60.5 -144.5v-655q0 -84 60.5 -144.5 t144.5 -60.5h225q84 0 143.5 60.5t59.5 144.5z" />
<glyph unicode="1" horiz-adv-x="563" d="M420 0h-123v1188h-236v123h359v-1311z" />
<glyph unicode="2" horiz-adv-x="1064" d="M942 934q0 -137 -96 -232.5t-232 -95.5h-163q-84 0 -144.5 -60.5t-60.5 -144.5v-276h663v-125h-786v401q0 137 96 232.5t232 95.5h163q84 0 143.5 60.5t59.5 144.5v49q0 84 -59.5 144.5t-143.5 60.5h-469v123h469q135 0 231.5 -95.5t96.5 -232.5v-49z" />
<glyph unicode="3" horiz-adv-x="1024" d="M901 328q0 -137 -96 -232.5t-232 -95.5h-450v123h450q84 0 144.5 60.5t60.5 144.5v145q0 84 -60.5 144.5t-144.5 60.5h-450v123h450q27 0 39 -2v348q0 16 -12 28.5t-29 12.5h-448v123h448q68 0 116 -48.5t48 -115.5v-389q76 -43 121 -119t45 -166v-145z" />
<glyph unicode="4" horiz-adv-x="1105" d="M1044 328h-163v-328h-125v328h-736l512 983h140l-449 -858h533v366h125v-366h163v-125z" />
<glyph unicode="5" horiz-adv-x="1105" d="M963 328q0 -137 -96.5 -232.5t-231.5 -95.5h-490v123h490q84 0 143.5 59.5t59.5 145.5v123q0 86 -59.5 145t-143.5 59h-492v656h738v-123h-613v-410h367q135 0 231.5 -95t96.5 -232v-123z" />
<glyph unicode="6" horiz-adv-x="1126" d="M1004 328q0 -137 -96.5 -232.5t-231.5 -95.5h-225q-135 0 -231.5 95t-96.5 233v655q0 137 96 232.5t232 95.5h479v-123h-479q-84 0 -144.5 -60.5t-60.5 -144.5v-205h430q135 0 231.5 -95t96.5 -232v-123zM879 328v123q0 86 -59.5 145t-143.5 59h-428v-327 q0 -86 59.5 -145.5t143.5 -59.5h225q84 0 143.5 59.5t59.5 145.5z" />
<glyph unicode="7" horiz-adv-x="1003" d="M983 1311l-678 -1311h-139l614 1188h-698v123h901z" />
<glyph unicode="8" horiz-adv-x="1187" d="M961 727q125 -98 124 -258v-141q0 -137 -96 -232.5t-231 -95.5h-328q-135 0 -231.5 95t-96.5 233v141q0 162 127 258v420q0 68 48.5 116t115.5 48h404q68 0 116 -48.5t48 -115.5v-420zM352 1147v-361q41 10 78 11h328q35 0 80 -11v361q0 16 -12.5 28.5t-28.5 12.5h-404 q-16 0 -28.5 -12.5t-12.5 -28.5zM963 328v141q0 84 -60.5 144.5t-144.5 60.5h-328q-84 0 -144.5 -60.5t-60.5 -144.5v-141q0 -84 60.5 -144.5t144.5 -60.5h328q84 0 144.5 60.5t60.5 144.5z" />
<glyph unicode="9" horiz-adv-x="1126" d="M1004 328q0 -137 -96.5 -232.5t-231.5 -95.5h-479v123h479q84 0 144.5 60.5t60.5 144.5v204h-430q-135 0 -231.5 95.5t-96.5 232.5v123q0 137 96 232.5t232 95.5h225q135 0 231.5 -95.5t96.5 -232.5v-655zM879 655v328q0 86 -59.5 145.5t-143.5 59.5h-225 q-84 0 -143.5 -59.5t-59.5 -145.5v-123q0 -86 59.5 -145.5t143.5 -59.5h428z" />
<glyph unicode=":" horiz-adv-x="573" d="M348 657h-123v246h123v-246zM348 164h-123v246h123v-246z" />
<glyph unicode=";" horiz-adv-x="573" d="M348 657h-123v246h123v-246zM356 326l-204 -656h-132l207 656h129z" />
<glyph unicode="&#x3c;" horiz-adv-x="880" d="M758 1231l-578 -578l578 -577l-88 -88l-666 665l666 666z" />
<glyph unicode="=" horiz-adv-x="1105" d="M963 696h-820v123h820v-123zM963 328h-820v123h820v-123z" />
<glyph unicode="&#x3e;" horiz-adv-x="880" d="M877 653l-666 -665l-88 88l577 577l-577 578l88 88z" />
<glyph unicode="?" horiz-adv-x="901" d="M348 0h-123v246h123v-246zM799 819q0 -68 -48.5 -116t-115.5 -48h-246q-16 0 -28.5 -12t-12.5 -29v-204h-123v204q0 68 48.5 116t115.5 48h246q16 0 28.5 12.5t12.5 28.5v328q0 16 -12.5 28.5t-28.5 12.5h-492v123h492q68 0 116 -48.5t48 -115.5v-328z" />
<glyph unicode="@" horiz-adv-x="1576" d="M1434 369q0 -68 -48.5 -116t-115.5 -48h-645q-68 0 -116 48t-48 116v286q0 68 48 116t116 48h491v-489h154q14 0 26.5 10t12.5 29v450q0 84 -59.5 144.5t-143.5 60.5h-471q-152 0 -259.5 -108.5t-107.5 -260.5v-286q0 -152 107.5 -260.5t259.5 -108.5h797v-123h-797 q-203 0 -347.5 144.5t-144.5 347.5v286q0 203 144.5 347.5t347.5 144.5h471q135 0 231.5 -95.5t96.5 -232.5v-450zM991 330v366h-366q-16 0 -28.5 -12t-12.5 -29v-286q0 -16 12 -27.5t29 -11.5h366z" />
<glyph unicode="A" d="M942 0h-125v532h-549v-532h-125v983q0 137 96.5 232.5t231.5 95.5h143q135 0 231.5 -95.5t96.5 -232.5v-983zM817 655v328q0 84 -59.5 144.5t-145.5 60.5h-139q-86 0 -145.5 -60.5t-59.5 -144.5v-328h549z" />
<glyph unicode="B" d="M983 328q0 -137 -96 -232.5t-232 -95.5h-512v1311h510q68 0 116 -48.5t48 -115.5v-389q76 -43 121 -119t45 -166v-145zM694 799v348q0 16 -12 28.5t-29 12.5h-387v-387h389q27 0 39 -2zM860 328v145q0 84 -60.5 144.5t-144.5 60.5h-389v-555h389q84 0 144.5 60.5 t60.5 144.5z" />
<glyph unicode="C" horiz-adv-x="1126" d="M1004 0h-390q-203 0 -347 144.5t-144 347.5v491q0 137 96 232.5t232 95.5h315q98 0 168 -70t70 -168v-172h-123v172q0 47 -34 81t-81 34h-315q-84 0 -144.5 -60.5t-60.5 -144.5v-491q0 -152 107.5 -259.5t260.5 -107.5h390v-125z" />
<glyph unicode="D" horiz-adv-x="1146" d="M1024 492q0 -203 -144.5 -347.5t-347.5 -144.5h-389v1311h389q203 0 347.5 -144.5t144.5 -347.5v-327zM901 492v327q0 152 -108.5 260.5t-260.5 108.5h-266v-1063h266q152 0 260.5 107.5t108.5 259.5z" />
<glyph unicode="E" horiz-adv-x="962" d="M840 0h-533q-68 0 -116 48t-48 116v1147h697v-123h-574v-410h574v-123h-574v-491q0 -16 12.5 -27.5t28.5 -11.5h533v-125z" />
<glyph unicode="F" horiz-adv-x="942" d="M840 655h-574v-655h-123v1311h697v-123h-574v-410h574v-123z" />
<glyph unicode="G" horiz-adv-x="1146" d="M1004 0h-553q-135 0 -231.5 95t-96.5 233v491q0 203 144.5 347.5t346.5 144.5h390v-125h-390q-154 0 -261 -107.5t-107 -259.5v-491q0 -84 60.5 -144.5t144.5 -60.5h430v532h123v-655z" />
<glyph unicode="H" d="M942 0h-123v655h-553v-655h-123v1311h123v-533h553v533h123v-1311z" />
<glyph unicode="I" horiz-adv-x="419" d="M272 1311v-1311h-125v1311h125z" />
<glyph unicode="J" horiz-adv-x="737" d="M594 328q0 -137 -96.5 -232.5t-231.5 -95.5h-205v123h205q84 0 144.5 60.5t60.5 144.5v983h123v-983z" />
<glyph unicode="K" d="M999 1311l-340 -533q121 -16 202 -109.5t81 -215.5v-453h-123v453q0 84 -60.5 144t-144.5 60h-348v-657h-123v1311h123v-531h250l336 531h147z" />
<glyph unicode="L" horiz-adv-x="819" d="M758 0h-615v1311h125v-1186h490v-125z" />
<glyph unicode="M" horiz-adv-x="1740" d="M1597 0h-124v983q0 84 -59.5 144.5t-145.5 60.5h-336v-1188h-123v1188h-541v-1188h-125v1311h1127q135 0 231 -95.5t96 -232.5v-983z" />
<glyph unicode="N" horiz-adv-x="1167" d="M1024 0h-74q-74 0 -112 70l-572 1042v-1112h-123v1311h74q76 0 115 -70l569 -1042v1112h123v-1311z" />
<glyph unicode="O" horiz-adv-x="1126" d="M1004 328q0 -137 -96.5 -232.5t-231.5 -95.5h-225q-135 0 -231.5 95t-96.5 233v655q0 137 96 232.5t232 95.5h225q135 0 231.5 -95.5t96.5 -232.5v-655zM879 328v655q0 84 -59.5 144.5t-143.5 60.5h-225q-84 0 -144.5 -60.5t-60.5 -144.5v-655q0 -84 60.5 -144.5 t144.5 -60.5h225q84 0 143.5 60.5t59.5 144.5z" />
<glyph unicode="P" horiz-adv-x="1044" d="M942 819q0 -137 -96 -232t-232 -95h-348v-492h-123v1311h471q135 0 231.5 -95.5t96.5 -232.5v-164zM819 819v164q0 84 -60.5 144.5t-144.5 60.5h-348v-574h348q84 0 144.5 60.5t60.5 144.5z" />
<glyph unicode="Q" horiz-adv-x="1126" d="M1004 328q0 -137 -96.5 -232.5t-231.5 -95.5h-51v-410h-123v410h-51q-135 0 -231.5 95t-96.5 233v655q0 137 96 232.5t232 95.5h225q135 0 231.5 -95.5t96.5 -232.5v-655zM879 328v655q0 84 -59.5 144.5t-143.5 60.5h-225q-84 0 -144.5 -60.5t-60.5 -144.5v-655 q0 -84 60.5 -144.5t144.5 -60.5h225q84 0 143.5 60.5t59.5 144.5z" />
<glyph unicode="R" d="M983 0h-123v473q0 84 -60.5 144.5t-144.5 60.5h-389v-678h-123v1311h514q68 0 116 -48.5t48 -115.5l-4 -389q76 -43 121 -119t45 -166v-473zM694 799l4 348q0 16 -12 28.5t-29 12.5h-391v-387h389q27 0 39 -2z" />
<glyph unicode="S" horiz-adv-x="1024" d="M901 238q0 -98 -69.5 -168t-167.5 -70h-500v125h500q47 0 79.5 32.5t32.5 80.5v258q0 45 -33.5 78.5t-78.5 33.5h-304q-98 0 -167.5 70t-69.5 168v227q0 98 69.5 168t167.5 70h521v-123h-521q-47 0 -80.5 -34t-33.5 -81v-227q0 -47 33.5 -81t80.5 -34h304 q98 0 167.5 -69.5t69.5 -167.5v-256z" />
<glyph unicode="T" horiz-adv-x="942" d="M881 1188h-349v-1188h-122v1188h-349v123h820v-123z" />
<glyph unicode="U" d="M942 328q0 -137 -96 -232.5t-232 -95.5h-143q-135 0 -231.5 95t-96.5 233v983h123v-983q0 -84 60.5 -144.5t144.5 -60.5h143q84 0 144.5 60.5t60.5 144.5v983h123v-983z" />
<glyph unicode="V" d="M942 492q0 -203 -144.5 -347.5t-346.5 -144.5h-308v1311h125v-1188l183 2q152 0 259 107.5t107 259.5v819h125v-819z" />
<glyph unicode="W" horiz-adv-x="1740" d="M1597 328q0 -137 -96 -232.5t-231 -95.5h-799q-135 0 -231.5 95t-96.5 233v983h125v-983q0 -84 59.5 -144.5t145.5 -60.5h336v1188h123v-1188h336q86 0 145.5 60.5t59.5 144.5v983h124v-983z" />
<glyph unicode="X" d="M942 0h-123v481q0 72 -51 123t-123 51h-205q-72 0 -123 -51t-51 -123v-481h-123v473q0 158 127 244q-127 86 -127 244v350h123v-361q0 -72 51.5 -122t122.5 -50h205q72 0 123 50.5t51 121.5v361h123v-350q0 -156 -129 -244q129 -88 129 -244v-473z" />
<glyph unicode="Y" horiz-adv-x="1024" d="M922 1311v-451q0 -137 -96.5 -232.5t-231.5 -95.5h-19v-532h-122v532h-23q-135 0 -231.5 95.5t-96.5 232.5v451h125v-451q0 -84 59.5 -144.5t145.5 -60.5h160q86 0 145.5 60.5t59.5 144.5v451h125z" />
<glyph unicode="Z" horiz-adv-x="1187" d="M1106 1311l-793 -1186h674v-125h-905l795 1188h-676v123h905z" />
<glyph unicode="[" horiz-adv-x="655" d="M553 -412h-410v1887h410v-123h-287v-1641h287v-123z" />
<glyph unicode="\" horiz-adv-x="942" d="M879 0h-140l-676 1311h138z" />
<glyph unicode="]" horiz-adv-x="655" d="M512 -410h-410v123h287v1639h-287v123h410v-1885z" />
<glyph unicode="^" horiz-adv-x="911" d="M850 819h-148l-247 373l-246 -373h-148l326 492h137z" />
<glyph unicode="_" horiz-adv-x="1105" d="M1126 -328h-1146v125h1146v-125z" />
<glyph unicode="`" horiz-adv-x="778" d="M520 1147h-125l-207 328h125z" />
<glyph unicode="a" d="M942 0h-655q-68 0 -116 48t-48 116v266q0 68 48 116t116 48h532v225q0 16 -12 28.5t-29 12.5h-610v123h610q68 0 116 -48t48 -116v-819zM819 125v346h-532q-16 0 -28.5 -12.5t-12.5 -28.5v-266q0 -16 12 -27.5t29 -11.5h532z" />
<glyph unicode="b" horiz-adv-x="1064" d="M942 328q0 -137 -96 -232.5t-232 -95.5h-471v1475h123v-492h348q135 0 231.5 -95t96.5 -233v-327zM817 328v327q0 84 -59.5 144.5t-143.5 60.5h-348v-737h348q84 0 143.5 60.5t59.5 144.5z" />
<glyph unicode="c" horiz-adv-x="1024" d="M889 0h-438q-135 0 -231.5 95t-96.5 233v327q0 137 96 232.5t232 95.5h286q68 0 116 -48t48 -116v-164h-123v164q0 16 -12 28.5t-29 12.5h-286q-84 0 -143.5 -60.5t-59.5 -144.5v-327q0 -84 59.5 -144.5t143.5 -60.5h438v-123z" />
<glyph unicode="d" horiz-adv-x="1064" d="M922 0h-471q-135 0 -231.5 95t-96.5 233v327q0 137 96 232.5t232 95.5h348v492h123v-1475zM799 123v737h-348q-84 0 -143.5 -60.5t-59.5 -144.5v-327q0 -84 59.5 -144.5t143.5 -60.5h348z" />
<glyph unicode="e" horiz-adv-x="1044" d="M922 430h-674v-102q0 -84 59.5 -144.5t143.5 -60.5h415v-123h-415q-135 0 -231.5 95t-96.5 233v327q0 137 96 232.5t232 95.5h143q135 0 231.5 -95t96.5 -233v-225zM797 553v102q0 84 -59.5 144.5t-143.5 60.5h-143q-84 0 -143.5 -60.5t-59.5 -144.5v-102h549z" />
<glyph unicode="f" horiz-adv-x="819" d="M737 860h-389v-860h-123v860h-164v123h164v328q0 68 48.5 116t115.5 48h348v-123h-348q-16 0 -28.5 -12.5t-12.5 -28.5v-328h389v-123z" />
<glyph unicode="g" horiz-adv-x="1064" d="M922 -246q0 -68 -48.5 -116t-115.5 -48h-512v123h512q16 0 28.5 12.5t12.5 28.5v246h-348q-135 0 -231.5 95t-96.5 233v327q0 137 96 232.5t232 95.5h471v-1229zM799 123v737h-348q-84 0 -143.5 -60.5t-59.5 -144.5v-327q0 -84 59.5 -144.5t143.5 -60.5h348z" />
<glyph unicode="h" d="M614 983q135 0 231.5 -95t96.5 -233v-655h-125v655q0 84 -59.5 144.5t-143.5 60.5h-348v-860h-123v1475h123v-492h348z" />
<glyph unicode="i" horiz-adv-x="409" d="M266 1229h-123v246h123v-246zM266 0h-123v983h123v-983z" />
<glyph unicode="j" horiz-adv-x="409" d="M266 1229h-123v246h123v-246zM266 -246q0 -68 -48 -116t-116 -48h-90v123h90q16 0 28.5 12.5t12.5 28.5v1229h123v-1229z" />
<glyph unicode="k" horiz-adv-x="1044" d="M690 578q98 -35 159.5 -120t61.5 -192v-266h-125v266q0 84 -59 144.5t-143 60.5h-318v-471h-123v1475h123v-881h289l242 389h145z" />
<glyph unicode="l" horiz-adv-x="409" d="M266 0h-123v1475h123v-1475z" />
<glyph unicode="m" horiz-adv-x="1597" d="M1126 983q135 0 231.5 -95t96.5 -233v-655h-125v655q0 84 -59.5 144.5t-143.5 60.5h-264v-860h-125v860h-469v-860h-125v983h983z" />
<glyph unicode="n" d="M942 0h-125v655q0 84 -59.5 144.5t-143.5 60.5h-346v-860h-125v983h471q135 0 231.5 -95t96.5 -233v-655z" />
<glyph unicode="o" horiz-adv-x="1044" d="M922 328q0 -137 -96.5 -232.5t-231.5 -95.5h-143q-135 0 -231.5 95t-96.5 233v327q0 137 96 232.5t232 95.5h143q135 0 231.5 -95t96.5 -233v-327zM797 328v327q0 84 -59.5 144.5t-143.5 60.5h-143q-84 0 -143.5 -60.5t-59.5 -144.5v-327q0 -84 59.5 -144.5t143.5 -60.5 h143q84 0 143.5 60.5t59.5 144.5z" />
<glyph unicode="p" horiz-adv-x="1064" d="M942 328q0 -137 -96 -232.5t-232 -95.5h-348v-410h-123v1393h471q135 0 231.5 -95t96.5 -233v-327zM817 328v327q0 84 -59.5 144.5t-143.5 60.5h-348v-737h348q84 0 143.5 60.5t59.5 144.5z" />
<glyph unicode="q" horiz-adv-x="1064" d="M922 -410h-123v410h-348q-135 0 -231.5 95t-96.5 233v327q0 137 96 232.5t232 95.5h143q135 0 231.5 -95t96.5 -233v-1065zM799 123v532q0 84 -59.5 144.5t-143.5 60.5h-145q-84 0 -143.5 -60.5t-59.5 -144.5v-327q0 -84 59.5 -144.5t143.5 -60.5h348z" />
<glyph unicode="r" horiz-adv-x="901" d="M840 573h-123v246q0 16 -12.5 28.5t-28.5 12.5h-410v-860h-123v983h533q68 0 116 -48t48 -116v-246z" />
<glyph unicode="s" horiz-adv-x="942" d="M819 164q0 -68 -48 -116t-116 -48h-499v123h499q16 0 28.5 12t12.5 29v246q0 16 -12 28.5t-29 12.5h-368q-68 0 -116 48t-48 115v205q0 68 48 116t116 48h518v-123h-518q-16 0 -28.5 -12t-12.5 -29v-205q0 -16 12 -28.5t29 -12.5h368q68 0 116 -48t48 -115v-246z" />
<glyph unicode="t" horiz-adv-x="860" d="M778 0h-368q-68 0 -116 48t-48 116v696h-164v123h164v328h123v-328h409v-123h-409v-696q0 -16 12 -28.5t29 -12.5h368v-123z" />
<glyph unicode="u" d="M614 0h-143q-135 0 -231.5 95t-96.5 233v655h125v-655q0 -84 59.5 -144.5t143.5 -60.5h143q84 0 143.5 60.5t59.5 144.5v655h125v-655q0 -137 -96.5 -232.5t-231.5 -95.5z" />
<glyph unicode="v" d="M942 328q0 -137 -96 -232.5t-232 -95.5h-471v983h125v-860h346q84 0 143.5 60.5t59.5 144.5v655h125v-655z" />
<glyph unicode="w" horiz-adv-x="1597" d="M1454 328q0 -137 -96 -232.5t-232 -95.5h-655q-135 0 -231.5 95t-96.5 233v655h125v-655q0 -84 59.5 -144.5t143.5 -60.5h266v860h125v-860h264q84 0 143.5 60.5t59.5 144.5v655h125v-655z" />
<glyph unicode="x" d="M942 0h-123v297q0 72 -51 123t-123 51h-205q-72 0 -123 -51t-51 -123v-297h-123v289q0 158 127 243q-127 86 -127 244v207h123v-217q0 -72 51.5 -122t122.5 -50h205q72 0 123 50t51 122v217h123v-207q0 -156 -129 -244q129 -88 129 -243v-289z" />
<glyph unicode="y" d="M942 -246q0 -68 -48 -116t-116 -48h-90v123h90q16 0 28.5 12.5t12.5 28.5v246h-348q-135 0 -231.5 95t-96.5 233v655h125v-655q0 -84 59.5 -144.5t143.5 -60.5h346v860h125v-1229z" />
<glyph unicode="z" horiz-adv-x="1044" d="M963 983l-635 -860h569v-123h-815l635 860h-570v123h816z" />
<glyph unicode="{" horiz-adv-x="593" d="M492 -410q-135 0 -231.5 95.5t-96.5 232.5v451l-164 163l164 164v451q0 137 96 232.5t232 95.5v-123q-84 0 -144.5 -60.5t-60.5 -144.5v-502l-113 -113l113 -112v-502q0 -84 60.5 -144.5t144.5 -60.5v-123z" />
<glyph unicode="|" horiz-adv-x="573" d="M348 -410h-123v1885h123v-1885z" />
<glyph unicode="}" horiz-adv-x="593" d="M594 532l-164 -163v-451q0 -137 -96 -232.5t-232 -95.5v123q84 0 144.5 60.5t60.5 144.5v502l113 112l-113 113v502q0 84 -60.5 144.5t-144.5 60.5v123q135 0 231.5 -95.5t96.5 -232.5v-451z" />
<glyph unicode="~" horiz-adv-x="1024" d="M922 696h-308q-16 0 -28.5 -12t-12.5 -29q0 -68 -48 -115.5t-115 -47.5h-308v122h308q16 0 28.5 12.5t12.5 28.5q0 68 48 116t115 48h308v-123z" />
<glyph unicode="&#xa1;" horiz-adv-x="471" d="M266 737h-123v246h123v-246zM266 -328h-123v901h123v-901z" />
<glyph unicode="&#xa2;" horiz-adv-x="819" d="M717 166h-162v-166h-125v166q-135 0 -231.5 95t-96.5 233v161q0 137 96.5 232.5t231.5 95.5v164h125v-164h162v-123h-287q-84 0 -143.5 -60.5t-59.5 -144.5v-161q0 -84 59.5 -144.5t143.5 -60.5h287v-123z" />
<glyph unicode="&#xa3;" horiz-adv-x="942" d="M840 328h-736v123h27q57 0 97 39.5t40 97.5v188h-166v125h166v82q0 137 96.5 232.5t231.5 95.5h164v-123h-164q-84 0 -143.5 -60.5t-59.5 -144.5v-82h365v-125h-365v-196q0 -66 -47 -129h494v-123z" />
<glyph unicode="&#xa4;" horiz-adv-x="1105" d="M868 897v-440l136 -138l-86 -86l-138 136h-452l-138 -136l-88 86l138 138v440l-138 135l88 88l138 -137h452l138 137l86 -88zM743 494v366h-381v-366h381z" />
<glyph unicode="&#xa5;" horiz-adv-x="1044" d="M983 1311l-328 -492h242v-123h-313v-204h313v-123h-313v-369h-123v369h-311v123h311v204h-311v123h239l-328 492h148l313 -469l314 469h147z" />
<glyph unicode="&#xa6;" horiz-adv-x="409" d="M266 1311v-738h-123v738h123zM266 328v-738h-123v738h123z" />
<glyph unicode="&#xa7;" horiz-adv-x="901" d="M758 0q0 -68 -48 -116t-116 -48h-451v123h451q16 0 28.5 12.5t12.5 28.5v330h-328q-68 0 -116 48t-48 116v817q0 68 48.5 116t115.5 48h451v-123h-451q-16 0 -28.5 -12.5t-12.5 -28.5v-330h328q68 0 116 -48t48 -116v-817zM635 453v364q0 16 -12.5 28.5t-28.5 12.5h-328 v-364q0 -16 12.5 -28.5t28.5 -12.5h328z" />
<glyph unicode="&#xa8;" horiz-adv-x="778" d="M289 1194h-119v117h119v-117zM608 1194h-119v117h119v-117z" />
<glyph unicode="&#xa9;" horiz-adv-x="1556" d="M1413 492q0 -203 -143.5 -347.5t-347.5 -144.5h-287q-205 0 -348.5 144.5t-143.5 347.5v327q0 205 143.5 348.5t348.5 143.5h287q205 0 348 -143.5t143 -348.5v-327zM1292 455v403q0 139 -103.5 234.5t-252.5 95.5h-315q-150 0 -253.5 -95.5t-103.5 -234.5v-403 q0 -139 103.5 -235.5t253.5 -96.5h315q150 0 253 96.5t103 235.5zM1044 328h-389q-68 0 -115.5 48t-47.5 116v327q0 68 47 116t116 48h389v-127h-428v-401h428v-127z" />
<glyph unicode="&#xaa;" horiz-adv-x="737" d="M655 819h-465q-45 0 -76.5 32t-31.5 77v182q0 45 31.5 77t76.5 32h365v157h-442v99h426q47 0 81.5 -35t34.5 -82v-539zM555 920v198h-371v-198h371z" />
<glyph unicode="&#xab;" horiz-adv-x="1228" d="M1126 199l-88 -84l-491 491l491 492l88 -86l-405 -406zM580 199l-88 -84l-492 491l492 492l88 -86l-406 -406z" />
<glyph unicode="&#xac;" horiz-adv-x="1105" d="M963 246h-123v286h-697v123h820v-409z" />
<glyph unicode="&#xad;" horiz-adv-x="696" d="M594 532h-492v123h492v-123z" />
<glyph unicode="&#xae;" horiz-adv-x="1126" d="M1014 1092q0 -172 -111 -295v182q0 47 -31.5 84t-76.5 47v178q0 57 -40 96t-96 39h-393v-667h125v227h385v-227h88q-127 -115 -301 -115q-186 0 -317 132t-131 318.5t131 317.5t317.5 131t318.5 -131t132 -317zM664 1108h-273v188h273v-188z" />
<glyph unicode="&#xaf;" horiz-adv-x="778" d="M635 1198h-492v113h492v-113z" />
<glyph unicode="&#xb0;" horiz-adv-x="696" d="M635 901q0 -68 -47 -116t-117 -48h-246q-68 0 -116 48.5t-48 115.5v246q0 68 48.5 116t115.5 48h246q70 0 117 -48.5t47 -115.5v-246zM510 862v324h-324v-324h324z" />
<glyph unicode="&#xb1;" horiz-adv-x="1105" d="M963 799v-123h-347v-348h-124v348h-349v123h349v348h124v-348h347zM963 0h-820v123h820v-123z" />
<glyph unicode="&#xb2;" horiz-adv-x="839" d="M737 1006q0 -63 -46 -109.5t-109 -46.5h-324q-14 0 -26.5 -11.5t-12.5 -25.5v-205h518v-116h-635v321q0 63 46.5 109.5t109.5 46.5h324q14 0 26.5 11t12.5 26v149q0 16 -11.5 27.5t-27.5 11.5h-449v117h449q66 0 110.5 -45t44.5 -111v-149z" />
<glyph unicode="&#xb3;" horiz-adv-x="860" d="M758 647q0 -66 -45 -110.5t-111 -44.5h-500v116h500q39 0 39 39v180q0 14 -11.5 25.5t-27.5 11.5h-500v119h455v209h-455v119h572v-346q84 -43 84 -138v-180z" />
<glyph unicode="&#xb4;" horiz-adv-x="778" d="M582 1475l-207 -328h-123l207 328h123z" />
<glyph unicode="&#xb5;" horiz-adv-x="1228" d="M1106 0q-166 0 -264 133q-98 -133 -264 -133h-46q-115 0 -202 72v-482h-125v1393h125v-655q0 -84 59.5 -144.5t142.5 -60.5h46q84 0 143 60.5t59 144.5v655h123v-655q0 -84 59.5 -144.5t143.5 -60.5v-123z" />
<glyph unicode="&#x3bc;" horiz-adv-x="1228" d="M1106 0q-166 0 -264 133q-98 -133 -264 -133h-46q-115 0 -202 72v-482h-125v1393h125v-655q0 -84 59.5 -144.5t142.5 -60.5h46q84 0 143 60.5t59 144.5v655h123v-655q0 -84 59.5 -144.5t143.5 -60.5v-123z" />
<glyph unicode="&#xb6;" horiz-adv-x="1024" d="M881 328h-123v858h-244v-858h-125v491h-123q-68 0 -116 48t-48 116v164q0 68 48.5 116t115.5 48h615v-983z" />
<glyph unicode="&#xb7;" horiz-adv-x="491" d="M307 512h-123v246h123v-246z" />
<glyph unicode="&#xb8;" horiz-adv-x="778" d="M512 -246q0 -68 -48 -116t-116 -48h-164v113h164q23 0 37 14.5t14 36.5v266h113v-266z" />
<glyph unicode="&#xb9;" horiz-adv-x="450" d="M328 492h-117v702h-170v117h287v-819z" />
<glyph unicode="&#xba;" horiz-adv-x="757" d="M676 1038q0 -90 -64.5 -154.5t-154.5 -64.5h-156q-90 0 -154.5 64.5t-64.5 154.5v217q0 92 64.5 156t154.5 64h156q90 0 154.5 -63.5t64.5 -156.5v-217zM575 1028v236q0 47 -33.5 78.5t-78.5 31.5h-166q-45 0 -80 -31.5t-35 -78.5v-236q0 -45 35 -77.5t80 -32.5h166 q45 0 78.5 32.5t33.5 77.5z" />
<glyph unicode="&#xbb;" horiz-adv-x="1228" d="M1229 606l-492 -491l-88 84l406 407l-406 406l88 86zM682 606l-492 -491l-88 84l406 407l-406 406l88 86z" />
<glyph unicode="&#xbc;" horiz-adv-x="1658" d="M1137 1311l-680 -1311h-140l682 1311h138zM332 492h-117v702h-174v117h291v-819zM1597 180h-151v-180h-117v180h-483l328 639h131l-267 -522h291v195h117v-195h151v-117z" />
<glyph unicode="&#xbd;" horiz-adv-x="1781" d="M1137 1311l-680 -1311h-140l682 1311h138zM1679 514q0 -63 -46 -109.5t-109 -46.5h-324q-14 0 -26.5 -11t-12.5 -25v-205h518v-117h-635v322q0 63 46.5 109t109.5 46h324q14 0 26.5 11.5t12.5 25.5v150q0 16 -11.5 27t-27.5 11h-449v117h449q66 0 110.5 -45t44.5 -110 v-150zM332 492h-117v702h-174v117h291v-819z" />
<glyph unicode="&#xbe;" horiz-adv-x="1986" d="M1925 180h-151v-180h-117v180h-483l327 639h131l-266 -522h291v195h117v-195h151v-117zM1464 1311l-680 -1311h-139l682 1311h137zM766 647q0 -66 -45 -110.5t-111 -44.5h-508v116h508q39 0 39 39v180q0 14 -11 25.5t-28 11.5h-508v119h463v209h-463v119h580v-346 q84 -43 84 -138v-180z" />
<glyph unicode="&#xbf;" horiz-adv-x="901" d="M676 737h-123v246h123v-246zM758 -328h-492q-68 0 -116 48.5t-48 115.5v328q0 68 48.5 116t115.5 48h246q16 0 28.5 12t12.5 29v204h123v-204q0 -68 -48 -116t-116 -48h-246q-16 0 -28.5 -12.5t-12.5 -28.5v-328q0 -16 12.5 -28.5t28.5 -12.5h492v-123z" />
<glyph unicode="&#xc0;" d="M942 0h-125v532h-549v-532h-125v983q0 137 96.5 232.5t231.5 95.5h143q135 0 231.5 -95.5t96.5 -232.5v-983zM817 655v328q0 84 -59.5 144.5t-145.5 60.5h-139q-86 0 -145.5 -60.5t-59.5 -144.5v-328h549zM629 1475h-123l-207 327h123z" />
<glyph unicode="&#xc1;" d="M942 0h-125v532h-549v-532h-125v983q0 137 96.5 232.5t231.5 95.5h143q135 0 231.5 -95.5t96.5 -232.5v-983zM817 655v328q0 84 -59.5 144.5t-145.5 60.5h-139q-86 0 -145.5 -60.5t-59.5 -144.5v-328h549zM788 1802l-206 -327h-123l207 327h122z" />
<glyph unicode="&#xc2;" d="M942 0h-125v532h-549v-532h-125v983q0 137 96.5 232.5t231.5 95.5h143q135 0 231.5 -95.5t96.5 -232.5v-983zM817 655v328q0 84 -59.5 144.5t-145.5 60.5h-139q-86 0 -145.5 -60.5t-59.5 -144.5v-328h549zM813 1475h-123l-145 231l-146 -231h-123l207 327h121z" />
<glyph unicode="&#xc3;" d="M942 0h-125v532h-549v-532h-125v983q0 137 96.5 232.5t231.5 95.5h143q135 0 231.5 -95.5t96.5 -232.5v-983zM817 655v328q0 84 -59.5 144.5t-145.5 60.5h-139q-86 0 -145.5 -60.5t-59.5 -144.5v-328h549zM850 1475h-199q-68 0 -116 48t-48 115q0 16 -12 28.5t-29 12.5 h-210v115h202q68 0 116 -49t48 -117q0 -16 12.5 -28.5t28.5 -12.5h207v-112z" />
<glyph unicode="&#xc4;" d="M942 0h-125v532h-549v-532h-125v983q0 137 96.5 232.5t231.5 95.5h143q135 0 231.5 -95.5t96.5 -232.5v-983zM817 655v328q0 84 -59.5 144.5t-145.5 60.5h-139q-86 0 -145.5 -60.5t-59.5 -144.5v-328h549zM483 1522h-118v116h118v-116zM803 1522h-119v116h119v-116z" />
<glyph unicode="&#xc5;" d="M942 0h-125v532h-549v-532h-125v983q0 182 154 277v215q0 68 48 115.5t116 47.5h164q68 0 115.5 -48t47.5 -115v-215q70 -45 112 -118t42 -159v-983zM817 655v328q0 84 -59.5 144.5t-145.5 60.5h-139q-86 0 -145.5 -60.5t-59.5 -144.5v-328h549zM684 1311v223h-283v-223 h283z" />
<glyph unicode="&#xc6;" horiz-adv-x="1638" d="M1511 0h-364q-135 0 -231.5 95t-96.5 233v204h-553v-532h-123v983q0 137 96.5 232.5t231.5 95.5h1040v-121h-569v-412h574v-123h-574v-327q0 -84 60.5 -144.5t144.5 -60.5h364v-123zM819 655v533h-348q-84 0 -144.5 -60.5t-60.5 -144.5v-328h553z" />
<glyph unicode="&#xc7;" horiz-adv-x="1126" d="M1004 0h-205v-246q0 -68 -48.5 -116t-115.5 -48h-164v113h164q23 0 37 14.5t14 36.5v246h-72q-203 0 -347 144.5t-144 347.5v491q0 137 96 232.5t232 95.5h315q98 0 168 -70t70 -168v-172h-123v172q0 47 -34 81t-81 34h-315q-84 0 -144.5 -60.5t-60.5 -144.5v-491 q0 -152 107.5 -259.5t260.5 -107.5h390v-125z" />
<glyph unicode="&#xc8;" horiz-adv-x="962" d="M840 0h-533q-68 0 -116 48t-48 116v1147h697v-123h-574v-410h574v-123h-574v-491q0 -16 12.5 -27.5t28.5 -11.5h533v-125zM629 1475h-123l-207 327h123z" />
<glyph unicode="&#xc9;" horiz-adv-x="962" d="M840 0h-533q-68 0 -116 48t-48 116v1147h697v-123h-574v-410h574v-123h-574v-491q0 -16 12.5 -27.5t28.5 -11.5h533v-125zM772 1802l-207 -327h-123l207 327h123z" />
<glyph unicode="&#xca;" horiz-adv-x="962" d="M840 0h-533q-68 0 -116 48t-48 116v1147h697v-123h-574v-410h574v-123h-574v-491q0 -16 12.5 -27.5t28.5 -11.5h533v-125zM772 1475h-123l-145 231l-146 -231h-122l206 327h121z" />
<glyph unicode="&#xcb;" horiz-adv-x="962" d="M840 0h-533q-68 0 -116 48t-48 116v1147h697v-123h-574v-410h574v-123h-574v-491q0 -16 12.5 -27.5t28.5 -11.5h533v-125zM401 1522h-118v116h118v-116zM721 1522h-119v116h119v-116z" />
<glyph unicode="&#xcc;" horiz-adv-x="419" d="M272 1311v-1311h-125v1311h125zM264 1475h-123l-207 327h123z" />
<glyph unicode="&#xcd;" horiz-adv-x="419" d="M272 1311v-1311h-125v1311h125zM475 1802l-207 -327h-123l207 327h123z" />
<glyph unicode="&#xce;" horiz-adv-x="419" d="M272 1311v-1311h-125v1311h125zM479 1475h-123l-145 231l-145 -231h-123l207 327h120z" />
<glyph unicode="&#xcf;" horiz-adv-x="419" d="M272 1311v-1311h-125v1311h125zM109 1522h-119v116h119v-116zM430 1522h-119v116h119v-116z" />
<glyph unicode="&#xd0;" horiz-adv-x="1228" d="M1106 492q0 -203 -144.5 -347.5t-347.5 -144.5h-389v655h-205v123h205v533h389q203 0 347.5 -144.5t144.5 -347.5v-327zM664 655h-316v-530h266q152 0 260.5 107.5t108.5 259.5v327q0 152 -108.5 260.5t-260.5 108.5h-266v-410h316v-123z" />
<glyph unicode="&#xd1;" horiz-adv-x="1167" d="M1024 0h-74q-74 0 -112 70l-572 1042v-1112h-123v1311h74q76 0 115 -70l569 -1042v1112h123v-1311zM889 1475h-199q-68 0 -116 48t-48 115q0 16 -12 28.5t-29 12.5h-211v115h203q68 0 116 -49t48 -117q0 -16 12.5 -28.5t28.5 -12.5h207v-112z" />
<glyph unicode="&#xd2;" horiz-adv-x="1126" d="M1004 328q0 -137 -96.5 -232.5t-231.5 -95.5h-225q-135 0 -231.5 95t-96.5 233v655q0 137 96 232.5t232 95.5h225q135 0 231.5 -95.5t96.5 -232.5v-655zM879 328v655q0 84 -59.5 144.5t-143.5 60.5h-225q-84 0 -144.5 -60.5t-60.5 -144.5v-655q0 -84 60.5 -144.5 t144.5 -60.5h225q84 0 143.5 60.5t59.5 144.5zM629 1475h-123l-207 327h123z" />
<glyph unicode="&#xd3;" horiz-adv-x="1126" d="M1004 328q0 -137 -96.5 -232.5t-231.5 -95.5h-225q-135 0 -231.5 95t-96.5 233v655q0 137 96 232.5t232 95.5h225q135 0 231.5 -95.5t96.5 -232.5v-655zM879 328v655q0 84 -59.5 144.5t-143.5 60.5h-225q-84 0 -144.5 -60.5t-60.5 -144.5v-655q0 -84 60.5 -144.5 t144.5 -60.5h225q84 0 143.5 60.5t59.5 144.5zM809 1802l-207 -327h-123l207 327h123z" />
<glyph unicode="&#xd4;" horiz-adv-x="1126" d="M1004 328q0 -137 -96.5 -232.5t-231.5 -95.5h-225q-135 0 -231.5 95t-96.5 233v655q0 137 96 232.5t232 95.5h225q135 0 231.5 -95.5t96.5 -232.5v-655zM879 328v655q0 84 -59.5 144.5t-143.5 60.5h-225q-84 0 -144.5 -60.5t-60.5 -144.5v-655q0 -84 60.5 -144.5 t144.5 -60.5h225q84 0 143.5 60.5t59.5 144.5zM834 1475h-123l-146 231l-145 -231h-123l207 327h121z" />
<glyph unicode="&#xd5;" horiz-adv-x="1126" d="M1004 328q0 -137 -96.5 -232.5t-231.5 -95.5h-225q-135 0 -231.5 95t-96.5 233v655q0 137 96 232.5t232 95.5h225q135 0 231.5 -95.5t96.5 -232.5v-655zM879 328v655q0 84 -59.5 144.5t-143.5 60.5h-225q-84 0 -144.5 -60.5t-60.5 -144.5v-655q0 -84 60.5 -144.5 t144.5 -60.5h225q84 0 143.5 60.5t59.5 144.5zM870 1475h-198q-68 0 -116 48t-48 115q0 16 -12.5 28.5t-28.5 12.5h-211v115h203q68 0 116 -49t48 -117q0 -16 12 -28.5t29 -12.5h206v-112z" />
<glyph unicode="&#xd6;" horiz-adv-x="1126" d="M1004 328q0 -137 -96.5 -232.5t-231.5 -95.5h-225q-135 0 -231.5 95t-96.5 233v655q0 137 96 232.5t232 95.5h225q135 0 231.5 -95.5t96.5 -232.5v-655zM879 328v655q0 84 -59.5 144.5t-143.5 60.5h-225q-84 0 -144.5 -60.5t-60.5 -144.5v-655q0 -84 60.5 -144.5 t144.5 -60.5h225q84 0 143.5 60.5t59.5 144.5zM463 1522h-119v116h119v-116zM782 1522h-118v116h118v-116z" />
<glyph unicode="&#xd7;" horiz-adv-x="1044" d="M942 227l-86 -86l-334 334l-334 -334l-86 86l334 336l-334 334l86 86l334 -334l334 334l86 -86l-334 -334z" />
<glyph unicode="&#xd8;" horiz-adv-x="1126" d="M1044 1266l-81 -123q41 -72 41 -160v-655q0 -137 -96.5 -232.5t-231.5 -95.5h-225q-115 0 -203 72l-64 -95l-102 68l82 123q-41 72 -41 160v655q0 137 96 232.5t232 95.5h225q113 0 205 -70l61 92zM246 328q0 -4 1 -16.5t1 -16.5l563 842q-57 51 -135 51h-225 q-84 0 -144.5 -60.5t-60.5 -144.5v-655zM879 983q0 20 -2 31l-562 -840q61 -51 136 -51h225q84 0 143.5 60.5t59.5 144.5v655z" />
<glyph unicode="&#xd9;" d="M942 328q0 -137 -96 -232.5t-232 -95.5h-143q-135 0 -231.5 95t-96.5 233v983h123v-983q0 -84 60.5 -144.5t144.5 -60.5h143q84 0 144.5 60.5t60.5 144.5v983h123v-983zM629 1475h-123l-207 327h123z" />
<glyph unicode="&#xda;" d="M942 328q0 -137 -96 -232.5t-232 -95.5h-143q-135 0 -231.5 95t-96.5 233v983h123v-983q0 -84 60.5 -144.5t144.5 -60.5h143q84 0 144.5 60.5t60.5 144.5v983h123v-983zM788 1802l-206 -327h-123l207 327h122z" />
<glyph unicode="&#xdb;" d="M942 328q0 -137 -96 -232.5t-232 -95.5h-143q-135 0 -231.5 95t-96.5 233v983h123v-983q0 -84 60.5 -144.5t144.5 -60.5h143q84 0 144.5 60.5t60.5 144.5v983h123v-983zM813 1475h-123l-145 231l-146 -231h-123l207 327h121z" />
<glyph unicode="&#xdc;" d="M942 328q0 -137 -96 -232.5t-232 -95.5h-143q-135 0 -231.5 95t-96.5 233v983h123v-983q0 -84 60.5 -144.5t144.5 -60.5h143q84 0 144.5 60.5t60.5 144.5v983h123v-983zM442 1522h-118v116h118v-116zM762 1522h-119v116h119v-116z" />
<glyph unicode="&#xdd;" horiz-adv-x="1024" d="M922 1311v-451q0 -137 -96.5 -232.5t-231.5 -95.5h-19v-532h-122v532h-23q-135 0 -231.5 95.5t-96.5 232.5v451h125v-451q0 -84 59.5 -144.5t145.5 -60.5h160q86 0 145.5 60.5t59.5 144.5v451h125zM745 1802l-206 -327h-123l207 327h122z" />
<glyph unicode="&#xde;" horiz-adv-x="1024" d="M922 573q0 -137 -96.5 -232t-231.5 -95h-328v-246h-123v1311h123v-246h328q135 0 231.5 -95.5t96.5 -232.5v-164zM797 573v164q0 84 -59.5 144.5t-143.5 60.5h-328v-573h328q84 0 143.5 60t59.5 144z" />
<glyph unicode="&#xdf;" horiz-adv-x="1126" d="M1024 328q0 -137 -96.5 -232.5t-231.5 -95.5h-164v123h164q84 0 143.5 60.5t59.5 144.5v247q0 74 -46 129.5t-116 71.5v287q0 51 -35.5 88t-87.5 37h-161q-51 0 -87 -37t-36 -88v-1063h-125v694h-164v125h164v244q0 102 72.5 175t175.5 73h161q102 0 174 -73t72 -175 v-205q76 -43 120 -117.5t44 -165.5v-247z" />
<glyph unicode="&#xe0;" d="M942 0h-655q-68 0 -116 48t-48 116v266q0 68 48 116t116 48h532v225q0 16 -12 28.5t-29 12.5h-610v123h610q68 0 116 -48t48 -116v-819zM819 125v346h-532q-16 0 -28.5 -12.5t-12.5 -28.5v-266q0 -16 12 -27.5t29 -11.5h532zM616 1147h-122l-207 328h123z" />
<glyph unicode="&#xe1;" d="M733 1475l-207 -328h-123l207 328h123zM942 0h-655q-68 0 -116 48t-48 116v266q0 68 48 116t116 48h532v225q0 16 -12 28.5t-29 12.5h-610v123h610q68 0 116 -48t48 -116v-819zM819 125v346h-532q-16 0 -28.5 -12.5t-12.5 -28.5v-266q0 -16 12 -27.5t29 -11.5h532z" />
<glyph unicode="&#xe2;" d="M942 0h-655q-68 0 -116 48t-48 116v266q0 68 48 116t116 48h532v225q0 16 -12 28.5t-29 12.5h-610v123h610q68 0 116 -48t48 -116v-819zM819 125v346h-532q-16 0 -28.5 -12.5t-12.5 -28.5v-266q0 -16 12 -27.5t29 -11.5h532zM801 1147h-123l-146 229l-145 -229h-123 l207 328h121z" />
<glyph unicode="&#xe3;" d="M942 0h-655q-68 0 -116 48t-48 116v266q0 68 48 116t116 48h532v225q0 16 -12 28.5t-29 12.5h-610v123h610q68 0 116 -48t48 -116v-819zM819 125v346h-532q-16 0 -28.5 -12.5t-12.5 -28.5v-266q0 -16 12 -27.5t29 -11.5h532zM819 1155h-198q-68 0 -116 48t-48 116 q0 16 -12.5 28.5t-28.5 12.5h-211v115h203q68 0 115.5 -49.5t47.5 -116.5q0 -16 12.5 -28.5t28.5 -12.5h207v-113z" />
<glyph unicode="&#xe4;" d="M942 0h-655q-68 0 -116 48t-48 116v266q0 68 48 116t116 48h532v225q0 16 -12 28.5t-29 12.5h-610v123h610q68 0 116 -48t48 -116v-819zM819 125v346h-532q-16 0 -28.5 -12.5t-12.5 -28.5v-266q0 -16 12 -27.5t29 -11.5h532zM428 1194h-119v117h119v-117zM748 1194h-119 v117h119v-117z" />
<glyph unicode="&#xe5;" d="M942 0h-655q-68 0 -116 48t-48 116v266q0 68 48 116t116 48h532v225q0 16 -12 28.5t-29 12.5h-610v123h610q68 0 116 -48t48 -116v-819zM819 125v346h-532q-16 0 -28.5 -12.5t-12.5 -28.5v-266q0 -16 12 -27.5t29 -11.5h532zM778 1311q0 -68 -48 -116t-116 -48h-163 q-68 0 -116 48t-48 116v164q0 68 48 115.5t116 47.5h163q68 0 116 -48t48 -115v-164zM674 1251v283h-283v-283h283z" />
<glyph unicode="&#xe6;" horiz-adv-x="1720" d="M1597 432h-673v-110q0 -84 59 -141.5t143 -57.5h416v-123h-416q-164 0 -266 135q-98 -135 -264 -135h-309q-68 0 -116 48t-48 116v227q0 68 48 116t116 48h512v100q0 84 -59.5 144.5t-143.5 60.5h-430v123h430q166 0 264 -135q102 135 266 135h144q135 0 231 -95t96 -233 v-223zM799 322v110h-512q-16 0 -28.5 -12t-12.5 -29v-227q0 -16 12 -28.5t29 -12.5h309q84 0 143.5 57.5t59.5 141.5zM1473 555v100q0 84 -59.5 144.5t-143.5 60.5h-144q-84 0 -143 -60.5t-59 -144.5v-100h549z" />
<glyph unicode="&#xe7;" horiz-adv-x="1024" d="M639 -246q0 -68 -48 -116t-116 -48h-164v113h164q23 0 37 14.5t14 36.5v246h-75q-135 0 -231.5 95t-96.5 233v327q0 137 96 232.5t232 95.5h286q68 0 116 -48t48 -116v-164h-123v164q0 16 -12 28.5t-29 12.5h-286q-84 0 -143.5 -60.5t-59.5 -144.5v-327 q0 -84 59.5 -144.5t143.5 -60.5h438v-123h-250v-246z" />
<glyph unicode="&#xe8;" horiz-adv-x="1044" d="M922 430h-674v-102q0 -84 59.5 -144.5t143.5 -60.5h415v-123h-415q-135 0 -231.5 95t-96.5 233v327q0 137 96 232.5t232 95.5h143q135 0 231.5 -95t96.5 -233v-225zM797 553v102q0 84 -59.5 144.5t-143.5 60.5h-143q-84 0 -143.5 -60.5t-59.5 -144.5v-102h549zM637 1147 h-123l-207 328h123z" />
<glyph unicode="&#xe9;" horiz-adv-x="1044" d="M815 1475l-207 -328h-123l207 328h123zM922 430h-674v-102q0 -84 59.5 -144.5t143.5 -60.5h415v-123h-415q-135 0 -231.5 95t-96.5 233v327q0 137 96 232.5t232 95.5h143q135 0 231.5 -95t96.5 -233v-225zM797 553v102q0 84 -59.5 144.5t-143.5 60.5h-143 q-84 0 -143.5 -60.5t-59.5 -144.5v-102h549z" />
<glyph unicode="&#xea;" horiz-adv-x="1044" d="M922 430h-674v-102q0 -84 59.5 -144.5t143.5 -60.5h415v-123h-415q-135 0 -231.5 95t-96.5 233v327q0 137 96 232.5t232 95.5h143q135 0 231.5 -95t96.5 -233v-225zM797 553v102q0 84 -59.5 144.5t-143.5 60.5h-143q-84 0 -143.5 -60.5t-59.5 -144.5v-102h549zM809 1147 h-123l-145 229l-146 -229h-123l207 328h121z" />
<glyph unicode="&#xeb;" horiz-adv-x="1044" d="M449 1194h-119v117h119v-117zM768 1194h-119v117h119v-117zM922 430h-674v-102q0 -84 59.5 -144.5t143.5 -60.5h415v-123h-415q-135 0 -231.5 95t-96.5 233v327q0 137 96 232.5t232 95.5h143q135 0 231.5 -95t96.5 -233v-225zM797 553v102q0 84 -59.5 144.5t-143.5 60.5 h-143q-84 0 -143.5 -60.5t-59.5 -144.5v-102h549z" />
<glyph unicode="&#xec;" horiz-adv-x="409" d="M266 0h-123v983h123v-983zM268 1147h-123l-206 328h122z" />
<glyph unicode="&#xed;" horiz-adv-x="409" d="M453 1475l-207 -328h-123l207 328h123zM266 0h-123v983h123v-983z" />
<glyph unicode="&#xee;" horiz-adv-x="409" d="M266 0h-123v983h123v-983zM473 1147h-123l-145 229l-144 -229h-122l204 328h121z" />
<glyph unicode="&#xef;" horiz-adv-x="409" d="M266 0h-123v983h123v-983zM109 1194h-119v117h119v-117zM420 1194h-119v117h119v-117z" />
<glyph unicode="&#xf0;" horiz-adv-x="1146" d="M1106 1188h-164v-860q0 -137 -96 -232.5t-232 -95.5h-163q-135 0 -231.5 95t-96.5 233v327q0 137 96 232.5t232 95.5h366v205h-164v123h164v164h125v-164h164v-123zM817 328v532h-366q-84 0 -143.5 -60.5t-59.5 -144.5v-327q0 -84 59.5 -144.5t143.5 -60.5h163 q84 0 143.5 60.5t59.5 144.5z" />
<glyph unicode="&#xf1;" d="M942 0h-125v655q0 84 -59.5 144.5t-143.5 60.5h-346v-860h-125v983h471q135 0 231.5 -95t96.5 -233v-655zM823 1155h-198q-68 0 -116 48t-48 116q0 16 -12.5 28.5t-28.5 12.5h-211v115h203q68 0 115.5 -49.5t47.5 -116.5q0 -16 12.5 -28.5t28.5 -12.5h207v-113z" />
<glyph unicode="&#xf2;" horiz-adv-x="1044" d="M922 328q0 -137 -96.5 -232.5t-231.5 -95.5h-143q-135 0 -231.5 95t-96.5 233v327q0 137 96 232.5t232 95.5h143q135 0 231.5 -95t96.5 -233v-327zM797 328v327q0 84 -59.5 144.5t-143.5 60.5h-143q-84 0 -143.5 -60.5t-59.5 -144.5v-327q0 -84 59.5 -144.5t143.5 -60.5 h143q84 0 143.5 60.5t59.5 144.5zM616 1147h-122l-207 328h123z" />
<glyph unicode="&#xf3;" horiz-adv-x="1044" d="M795 1475l-207 -328h-123l207 328h123zM922 328q0 -137 -96.5 -232.5t-231.5 -95.5h-143q-135 0 -231.5 95t-96.5 233v327q0 137 96 232.5t232 95.5h143q135 0 231.5 -95t96.5 -233v-327zM797 328v327q0 84 -59.5 144.5t-143.5 60.5h-143q-84 0 -143.5 -60.5 t-59.5 -144.5v-327q0 -84 59.5 -144.5t143.5 -60.5h143q84 0 143.5 60.5t59.5 144.5z" />
<glyph unicode="&#xf4;" horiz-adv-x="1044" d="M922 328q0 -137 -96.5 -232.5t-231.5 -95.5h-143q-135 0 -231.5 95t-96.5 233v327q0 137 96 232.5t232 95.5h143q135 0 231.5 -95t96.5 -233v-327zM797 328v327q0 84 -59.5 144.5t-143.5 60.5h-143q-84 0 -143.5 -60.5t-59.5 -144.5v-327q0 -84 59.5 -144.5t143.5 -60.5 h143q84 0 143.5 60.5t59.5 144.5zM780 1147h-123l-145 229l-145 -229h-123l207 328h120z" />
<glyph unicode="&#xf5;" horiz-adv-x="1044" d="M825 1155h-198q-68 0 -116 48t-48 116q0 16 -12.5 28.5t-28.5 12.5h-211v115h203q68 0 116 -49.5t48 -116.5q0 -16 12 -28.5t28 -12.5h207v-113zM922 328q0 -137 -96.5 -232.5t-231.5 -95.5h-143q-135 0 -231.5 95t-96.5 233v327q0 137 96 232.5t232 95.5h143 q135 0 231.5 -95t96.5 -233v-327zM797 328v327q0 84 -59.5 144.5t-143.5 60.5h-143q-84 0 -143.5 -60.5t-59.5 -144.5v-327q0 -84 59.5 -144.5t143.5 -60.5h143q84 0 143.5 60.5t59.5 144.5z" />
<glyph unicode="&#xf6;" horiz-adv-x="1044" d="M922 328q0 -137 -96.5 -232.5t-231.5 -95.5h-143q-135 0 -231.5 95t-96.5 233v327q0 137 96 232.5t232 95.5h143q135 0 231.5 -95t96.5 -233v-327zM797 328v327q0 84 -59.5 144.5t-143.5 60.5h-143q-84 0 -143.5 -60.5t-59.5 -144.5v-327q0 -84 59.5 -144.5t143.5 -60.5 h143q84 0 143.5 60.5t59.5 144.5zM422 1194h-119v117h119v-117zM741 1194h-118v117h118v-117z" />
<glyph unicode="&#xf7;" horiz-adv-x="1105" d="M963 532h-820v123h820v-123zM621 819h-166v164h166v-164zM469 369h166v-164h-166v164z" />
<glyph unicode="&#xf8;" horiz-adv-x="1044" d="M944 946l-80 -102q57 -82 58 -189v-327q0 -137 -96.5 -232.5t-231.5 -95.5h-143q-100 0 -187 59l-69 -90l-93 70l80 102q-59 86 -59 187v327q0 137 96 232.5t232 95.5h143q106 0 188 -59l70 92zM709 827q-53 33 -115 33h-143q-84 0 -143.5 -60.5t-59.5 -144.5v-327 q0 -39 16 -78zM797 328v327q0 45 -15 80l-444 -577q55 -35 113 -35h143q84 0 143.5 60.5t59.5 144.5z" />
<glyph unicode="&#xf9;" d="M614 0h-143q-135 0 -231.5 95t-96.5 233v655h125v-655q0 -84 59.5 -144.5t143.5 -60.5h143q84 0 143.5 60.5t59.5 144.5v655h125v-655q0 -137 -96.5 -232.5t-231.5 -95.5zM623 1147h-123l-207 328h123z" />
<glyph unicode="&#xfa;" d="M614 0h-143q-135 0 -231.5 95t-96.5 233v655h125v-655q0 -84 59.5 -144.5t143.5 -60.5h143q84 0 143.5 60.5t59.5 144.5v655h125v-655q0 -137 -96.5 -232.5t-231.5 -95.5zM784 1475l-206 -328h-123l207 328h122z" />
<glyph unicode="&#xfb;" d="M614 0h-143q-135 0 -231.5 95t-96.5 233v655h125v-655q0 -84 59.5 -144.5t143.5 -60.5h143q84 0 143.5 60.5t59.5 144.5v655h125v-655q0 -137 -96.5 -232.5t-231.5 -95.5zM811 1147h-123l-145 229l-146 -229h-123l207 328h121z" />
<glyph unicode="&#xfc;" d="M614 0h-143q-135 0 -231.5 95t-96.5 233v655h125v-655q0 -84 59.5 -144.5t143.5 -60.5h143q84 0 143.5 60.5t59.5 144.5v655h125v-655q0 -137 -96.5 -232.5t-231.5 -95.5zM442 1194h-118v117h118v-117zM762 1194h-119v117h119v-117z" />
<glyph unicode="&#xfd;" d="M795 1475l-207 -328h-123l207 328h123zM942 -246q0 -68 -48 -116t-116 -48h-90v123h90q16 0 28.5 12.5t12.5 28.5v246h-348q-135 0 -231.5 95t-96.5 233v655h125v-655q0 -84 59.5 -144.5t143.5 -60.5h346v860h125v-1229z" />
<glyph unicode="&#xfe;" d="M963 328q0 -137 -96.5 -232.5t-231.5 -95.5h-369v-410h-123v1721h123v-328h369q135 0 231.5 -95t96.5 -233v-327zM838 328v327q0 84 -59.5 144.5t-143.5 60.5h-369v-737h369q84 0 143.5 60.5t59.5 144.5z" />
<glyph unicode="&#xff;" d="M942 -246q0 -68 -48 -116t-116 -48h-90v123h90q16 0 28.5 12.5t12.5 28.5v246h-348q-135 0 -231.5 95t-96.5 233v655h125v-655q0 -84 59.5 -144.5t143.5 -60.5h346v860h125v-1229zM766 1194h-119v117h119v-117zM446 1194h-118v117h118v-117z" />
<glyph unicode="&#x152;" horiz-adv-x="1679" d="M1577 0h-371q-168 0 -266 135q-98 -135 -264 -135h-225q-135 0 -231.5 95t-96.5 233v655q0 137 96 232.5t232 95.5h1126v-123h-573v-410h573v-123h-573v-327q0 -84 59 -144.5t143 -60.5h371v-123zM879 328v860h-428q-84 0 -144.5 -60.5t-60.5 -144.5v-655 q0 -84 60.5 -144.5t144.5 -60.5h225q84 0 143.5 60.5t59.5 144.5z" />
<glyph unicode="&#x153;" horiz-adv-x="1699" d="M1597 430h-673v-102q0 -84 59 -144.5t143 -60.5h416v-123h-416q-168 0 -264 133q-96 -133 -266 -133h-145q-135 0 -231.5 95t-96.5 233v327q0 137 96 232.5t232 95.5h145q168 0 266 -135q98 135 264 135h144q135 0 231 -95t96 -233v-225zM924 655v-102h549v102 q0 84 -59.5 144.5t-143.5 60.5h-144q-84 0 -143 -60.5t-59 -144.5zM799 328v327q0 84 -59.5 144.5t-143.5 60.5h-145q-84 0 -143.5 -60.5t-59.5 -144.5v-327q0 -84 59.5 -144.5t143.5 -60.5h145q84 0 143.5 60.5t59.5 144.5z" />
<glyph unicode="&#x178;" horiz-adv-x="1024" d="M922 1311v-451q0 -137 -96.5 -232.5t-231.5 -95.5h-19v-532h-122v532h-23q-135 0 -231.5 95.5t-96.5 232.5v451h125v-451q0 -84 59.5 -144.5t145.5 -60.5h160q86 0 145.5 60.5t59.5 144.5v451h125zM786 1491h-147v147h147v-147zM459 1491h-148v147h148v-147z" />
<glyph unicode="&#x2c6;" horiz-adv-x="778" d="M657 1147h-122l-146 231l-145 -231h-123l207 328h121z" />
<glyph unicode="&#x2dc;" horiz-adv-x="778" d="M696 1155h-198q-68 0 -116 48t-48 116q0 16 -12.5 28.5t-28.5 12.5h-211v115h203q68 0 116 -49.5t48 -116.5q0 -16 12 -28.5t28 -12.5h207v-113z" />
<glyph unicode="&#x2000;" horiz-adv-x="901" />
<glyph unicode="&#x2001;" horiz-adv-x="1802" />
<glyph unicode="&#x2002;" horiz-adv-x="901" />
<glyph unicode="&#x2003;" horiz-adv-x="1802" />
<glyph unicode="&#x2004;" horiz-adv-x="600" />
<glyph unicode="&#x2005;" horiz-adv-x="450" />
<glyph unicode="&#x2006;" horiz-adv-x="300" />
<glyph unicode="&#x2007;" horiz-adv-x="300" />
<glyph unicode="&#x2008;" horiz-adv-x="225" />
<glyph unicode="&#x2009;" horiz-adv-x="360" />
<glyph unicode="&#x200a;" horiz-adv-x="100" />
<glyph unicode="&#x2010;" horiz-adv-x="696" d="M594 532h-492v123h492v-123z" />
<glyph unicode="&#x2011;" horiz-adv-x="696" d="M594 532h-492v123h492v-123z" />
<glyph unicode="&#x2013;" horiz-adv-x="1105" d="M1004 532h-902v123h902v-123z" />
<glyph unicode="&#x2014;" horiz-adv-x="1638" d="M1536 532h-1434v123h1434v-123z" />
<glyph unicode="&#x2018;" horiz-adv-x="471" d="M348 983h-129l-158 492h127z" />
<glyph unicode="&#x2019;" horiz-adv-x="471" d="M410 1475l-158 -492h-129l160 492h127z" />
<glyph unicode="&#x201a;" horiz-adv-x="491" d="M375 246l-205 -656h-129l207 656h127z" />
<glyph unicode="&#x201c;" horiz-adv-x="901" d="M344 983h-129l-154 492h127zM778 983h-129l-153 492h127z" />
<glyph unicode="&#x201d;" horiz-adv-x="901" d="M840 1475l-154 -492h-129l156 492h127zM406 1475l-154 -492h-129l156 492h127z" />
<glyph unicode="&#x201e;" horiz-adv-x="921" d="M805 246l-205 -656h-129l207 656h127zM375 246l-205 -656h-129l207 656h127z" />
<glyph unicode="&#x2022;" horiz-adv-x="614" d="M471 819v-327h-328v327h328z" />
<glyph unicode="&#x2026;" horiz-adv-x="1351" d="M1188 0h-123v246h123v-246zM737 0h-123v246h123v-246zM287 0h-123v246h123v-246z" />
<glyph unicode="&#x202f;" horiz-adv-x="360" />
<glyph unicode="&#x2039;" horiz-adv-x="675" d="M573 199l-88 -84l-485 491l485 492l88 -86l-399 -406z" />
<glyph unicode="&#x203a;" horiz-adv-x="675" d="M676 606l-486 -491l-88 84l400 407l-400 406l88 86z" />
<glyph unicode="&#x205f;" horiz-adv-x="450" />
<glyph unicode="&#x20ac;" horiz-adv-x="1146" d="M1004 328h-330q-113 0 -201 69.5t-117 175.5h-254v123h244v246h-244v123h254q29 106 116 176t202 70h330v-123h-330q-84 0 -143.5 -60.5t-59.5 -144.5v-102h533v-123h-533v-103q0 -84 59.5 -144t143.5 -60h330v-123z" />
<glyph unicode="&#x2122;" horiz-adv-x="1617" d="M561 1231h-188v-494h-80v494h-191v80h459v-80zM1516 737h-82v359q0 55 -38 95t-93 40h-140v-494h-80v494h-274v-494h-80v574h574q88 0 150.5 -63.5t62.5 -151.5v-359z" />
<glyph horiz-adv-x="573" />
</font>
</defs>
</svg>
