<?xml version="1.0" standalone="no"?>
<!DOCTYPE svg PUBLIC "-//W3C//DTD SVG 1.1//EN" "http://www.w3.org/Graphics/SVG/1.1/DTD/svg11.dtd" >
<svg xmlns="http://www.w3.org/2000/svg">
<metadata>
This is a custom SVG webfont generated by Font Squirrel.
Designer    : Robby Woodard
</metadata>
<defs>
<font id="webfontYMIjrIrG" horiz-adv-x="1105" >
<font-face units-per-em="2048" ascent="1536" descent="-512" />
<missing-glyph horiz-adv-x="573" />
<glyph unicode=" "  horiz-adv-x="573" />
<glyph unicode="&#x09;" horiz-adv-x="573" />
<glyph unicode="&#xa0;" horiz-adv-x="573" />
<glyph unicode="!" horiz-adv-x="544" d="M401 0h-196v246h196v-246zM401 410h-196v901h196v-901z" />
<glyph unicode="&#x22;" horiz-adv-x="819" d="M676 983h-164v492h164v-492zM307 983h-164v492h164v-492z" />
<glyph unicode="#" horiz-adv-x="1024" d="M922 492h-164v-328h-164v328h-164v-328h-164v328h-164v163h164v164h-164v164h164v328h164v-328h164v328h164v-328h164v-164h-164v-164h164v-163zM594 655v164h-164v-164h164z" />
<glyph unicode="$" horiz-adv-x="860" d="M758 492q0 -68 -48 -116t-116 -48h-82v-164h-164v164h-213v164h438v266h-307q-68 0 -116 48t-48 116v225q0 68 48.5 116t115.5 48h82v164h164v-164h233v-164h-456v-225h305q68 0 116 -48.5t48 -115.5v-266z" />
<glyph unicode="%" horiz-adv-x="1515" d="M676 901q0 -68 -47 -116t-117 -48h-246q-68 0 -116 48.5t-48 115.5v246q0 68 48.5 116t115.5 48h246q70 0 117 -48.5t47 -115.5v-246zM512 901v246h-246v-246h246zM1190 1311l-678 -1311h-184l680 1311h182zM1413 164q0 -68 -47 -116t-117 -48h-245q-68 0 -116 48 t-48 116v244q0 70 48 116.5t116 46.5h245q70 0 117 -47t47 -116v-244zM1249 164v244h-245v-244h245z" />
<glyph unicode="&#x26;" horiz-adv-x="1433" d="M1257 328q0 -137 -96 -232.5t-231 -95.5h-131v-246h-197v246h-172q-137 0 -232.5 95t-95.5 233v164q0 135 95.5 231t232.5 96h172v328q0 68 47 116t117 48h360q68 0 116 -48.5t48 -115.5v-328q0 -70 -48 -117t-116 -47h-327v-491h131q53 0 91 43t38 106v99h198v-84z M1094 819v328h-295v-328h295zM602 164v491h-172q-53 0 -92 -44t-39 -107v-191q0 -63 38 -106t93 -43h172z" />
<glyph unicode="'" horiz-adv-x="450" d="M307 983h-164v492h164v-492z" />
<glyph unicode="(" horiz-adv-x="655" d="M573 -410h-102q-135 0 -231.5 95.5t-96.5 232.5v1229q0 135 96.5 231.5t231.5 96.5h102v-164h-102q-53 0 -91 -44t-38 -108v-1255q0 -63 38 -106.5t91 -43.5h102v-164z" />
<glyph unicode=")" horiz-adv-x="655" d="M512 -82q0 -135 -96.5 -231.5t-231.5 -96.5h-102v164h102q53 0 91 44t38 108v1255q0 63 -37.5 106.5t-91.5 43.5h-102v164h102q135 0 231.5 -95.5t96.5 -232.5v-1229z" />
<glyph unicode="*" horiz-adv-x="755" d="M694 1040l-65 -112l-187 106v-215h-129v215l-186 -106l-66 112l187 107l-187 108l66 113l186 -108v215h129v-215l187 108l65 -113l-186 -108z" />
<glyph unicode="+" d="M963 492h-328v-328h-164v328h-328v163h328v328h164v-328h328v-163z" />
<glyph unicode="," horiz-adv-x="552" d="M436 246l-205 -656h-198l207 656h196z" />
<glyph unicode="-" horiz-adv-x="696" d="M594 492h-492v163h492v-163z" />
<glyph unicode="." horiz-adv-x="512" d="M354 0h-196v246h196v-246z" />
<glyph unicode="/" horiz-adv-x="983" d="M922 1311l-676 -1311h-185l678 1311h183z" />
<glyph unicode="0" horiz-adv-x="1228" d="M1085 328q0 -137 -95 -232.5t-232 -95.5h-287q-135 0 -231.5 95t-96.5 233v655q0 135 96.5 231.5t231.5 96.5h287q137 0 232 -96.5t95 -231.5v-655zM889 313v682q0 63 -39 107.5t-92 44.5h-287q-53 0 -91 -44t-38 -108v-682q0 -63 38 -106t91 -43h287q55 0 93 43t38 106z " />
<glyph unicode="1" horiz-adv-x="573" d="M430 0h-197v1147h-163v164h360v-1311z" />
<glyph unicode="2" d="M963 905q0 -147 -103.5 -239.5t-255.5 -92.5h-104q-66 0 -113 -51t-47 -123v-235h590v-164h-787v397q0 147 104.5 252t252.5 105h104q68 0 114 43t46 108v101q0 63 -37 102t-92 39h-469v164h469q135 0 231.5 -91.5t96.5 -226.5v-88z" />
<glyph unicode="3" horiz-adv-x="1024" d="M901 328q0 -135 -96 -231.5t-232 -96.5h-450v164h450q53 0 91 44t38 107v191q0 63 -37.5 106t-91.5 43h-450v164h471v328h-471v164h506q68 0 116 -48.5t48 -115.5v-410q109 -102 108 -245v-164z" />
<glyph unicode="4" horiz-adv-x="1146" d="M1085 328h-163v-328h-197v328h-705l508 983h220l-424 -819h401v327h197v-327h163v-164z" />
<glyph unicode="5" d="M963 328q0 -135 -95.5 -231.5t-232.5 -96.5h-492v164h492q53 0 92 44t39 107v189q0 63 -39 107t-92 44h-492v656h738v-164h-539v-328h293q137 0 232.5 -96t95.5 -231v-164z" />
<glyph unicode="6" horiz-adv-x="1228" d="M1085 328q0 -135 -96 -231.5t-231 -96.5h-287q-135 0 -231.5 96.5t-96.5 231.5v655q0 137 96.5 232.5t231.5 95.5h541v-164h-541q-53 0 -91 -43t-38 -107v-178h416q135 0 231 -95t96 -232v-164zM887 315v191q0 63 -38 106t-91 43h-416v-340q0 -63 38 -107t91 -44h287 q53 0 91 44t38 107z" />
<glyph unicode="7" d="M1085 1311l-675 -1311h-224l592 1147h-676v164h983z" />
<glyph unicode="8" horiz-adv-x="1228" d="M1126 328q0 -135 -96 -231.5t-231 -96.5h-369q-135 0 -231.5 96.5t-96.5 231.5v164q0 143 109 245v410q0 68 48 116t116 48h479q68 0 116 -48.5t48 -115.5v-410q109 -102 108 -245v-164zM928 315v191q0 63 -38 106t-91 43h-369q-53 0 -91 -43t-38 -106v-191 q0 -63 38 -107t91 -44h369q53 0 91 44t38 107zM819 819v328h-409v-328h409z" />
<glyph unicode="9" horiz-adv-x="1228" d="M1085 328q0 -135 -96 -231.5t-231 -96.5h-541v164h541q53 0 91 44t38 107v177h-416q-135 0 -231.5 96t-96.5 231v164q0 137 96.5 232.5t231.5 95.5h287q135 0 231 -95.5t96 -232.5v-655zM887 655v342q0 63 -38 106.5t-91 43.5h-287q-53 0 -91 -43t-38 -107v-190 q0 -63 38 -107.5t91 -44.5h416z" />
<glyph unicode=":" horiz-adv-x="647" d="M422 164h-197v246h197v-246zM422 657h-197v246h197v-246z" />
<glyph unicode=";" horiz-adv-x="647" d="M426 657h-197v246h197v-246zM432 328l-178 -574h-193l168 574h203z" />
<glyph unicode="&#x3c;" horiz-adv-x="901" d="M782 102l-116 -114l-666 665l666 666l116 -117l-549 -549z" />
<glyph unicode="=" d="M963 655h-820v164h820v-164zM963 328h-820v164h820v-164z" />
<glyph unicode="&#x3e;" horiz-adv-x="901" d="M901 653l-665 -665l-117 114l549 551l-549 549l117 117z" />
<glyph unicode="?" horiz-adv-x="901" d="M799 819q0 -68 -48.5 -116t-115.5 -48h-213v-245h-197v245q0 70 47 117t117 47h211v328h-457v164h492q68 0 116 -47t48 -117v-328zM422 0h-197v246h197v-246z" />
<glyph unicode="@" horiz-adv-x="1638" d="M1493 -164h-858q-205 0 -348.5 144.5t-143.5 347.5v327q0 205 143.5 348.5t348.5 143.5h532q135 0 231.5 -95.5t96.5 -232.5v-471q0 -68 -48 -116t-116 -48h-676q-68 0 -115.5 48.5t-47.5 115.5v287q0 68 48 116t115 48h492v-451h184v471q0 70 -48 117t-116 47h-532 q-137 0 -232.5 -95t-95.5 -233v-325q0 -137 95.5 -233.5t232.5 -96.5h858v-164zM983 348v287h-328v-287h328z" />
<glyph unicode="A" horiz-adv-x="1146" d="M1004 0h-199v492h-463v-492h-199v983q0 137 96.5 232.5t231.5 95.5h205q135 0 231.5 -95.5t96.5 -232.5v-983zM805 655v340q0 63 -38 107.5t-91 44.5h-205q-53 0 -91 -44t-38 -108v-340h463z" />
<glyph unicode="B" horiz-adv-x="1146" d="M1044 332q0 -135 -96 -231.5t-231 -96.5h-574v1311h572q68 0 116 -48t48 -116v-389q76 -43 120.5 -120t44.5 -165v-145zM846 319v170q0 63 -38 107.5t-91 44.5h-375v-473h375q53 0 91 44t38 107zM680 805v346h-338v-346h338z" />
<glyph unicode="C" horiz-adv-x="1167" d="M1044 164v-164h-430q-203 0 -347 144.5t-144 347.5v491q0 137 96 232.5t232 95.5h356q98 0 167.5 -70t69.5 -168v-172h-198v195q0 23 -14.5 37t-34.5 14h-346q-53 0 -91 -44t-38 -108v-524q0 -129 86 -218t206 -89h430z" />
<glyph unicode="D" horiz-adv-x="1208" d="M1085 492q0 -205 -144 -348.5t-347 -143.5h-451v1311h451q203 0 347 -144.5t144 -347.5v-327zM887 471v369q0 129 -86 218t-207 89h-252v-983h252q121 0 207 89t86 218z" />
<glyph unicode="E" horiz-adv-x="1003" d="M877 0h-570q-68 0 -116 48t-48 116v1147h734v-164h-535v-369h539v-164h-539v-450h535v-164z" />
<glyph unicode="F" horiz-adv-x="983" d="M881 614h-539v-614h-199v1311h734v-164h-535v-369h539v-164z" />
<glyph unicode="G" horiz-adv-x="1187" d="M1044 0h-593q-135 0 -231.5 95t-96.5 233v491q0 203 144.5 347.5t346.5 144.5h430v-164h-430q-121 0 -206.5 -89t-85.5 -218v-525q0 -63 37.5 -107t91.5 -44h395v491h198v-655z" />
<glyph unicode="H" horiz-adv-x="1146" d="M1004 0h-199v614h-463v-614h-199v1311h199v-533h463v533h199v-1311z" />
<glyph unicode="I" horiz-adv-x="485" d="M342 0h-199v1311h199v-1311z" />
<glyph unicode="J" horiz-adv-x="737" d="M594 328q0 -135 -96.5 -231.5t-231.5 -96.5h-205v164h205q53 0 91 38t38 93v1016h199v-983z" />
<glyph unicode="K" horiz-adv-x="1146" d="M1061 1311l-338 -535q119 -16 200 -108.5t81 -214.5v-453h-199v465q0 63 -38 107t-91 44h-334v-616h-199v1311h199v-531h164l336 531h219z" />
<glyph unicode="L" horiz-adv-x="860" d="M799 0h-656v1311h199v-1147h457v-164z" />
<glyph unicode="M" horiz-adv-x="1802" d="M1659 0h-199v995q0 63 -38 107.5t-91 44.5h-332v-1147h-198v1147h-459v-1147h-199v1311h1188q135 0 231.5 -96.5t96.5 -231.5v-983z" />
<glyph unicode="N" horiz-adv-x="1187" d="M1044 0h-112q-100 0 -141 78l-449 862v-940h-199v1311h113q100 0 141 -78l449 -860v938h198v-1311z" />
<glyph unicode="O" horiz-adv-x="1187" d="M1065 328q0 -137 -95.5 -232.5t-232.5 -95.5h-286q-135 0 -231.5 95t-96.5 233v655q0 135 96 231.5t232 96.5h286q137 0 232.5 -96.5t95.5 -231.5v-655zM868 313v682q0 63 -38.5 107.5t-92.5 44.5h-286q-53 0 -91 -44t-38 -108v-682q0 -63 37.5 -106t91.5 -43h286 q55 0 93 43t38 106z" />
<glyph unicode="P" horiz-adv-x="1085" d="M1004 819q0 -135 -95.5 -231t-232.5 -96h-336v-492h-197v1311h533q137 0 232.5 -95.5t95.5 -232.5v-164zM807 807v190q0 63 -38 106.5t-93 43.5h-336v-492h336q53 0 92 44.5t39 107.5z" />
<glyph unicode="Q" horiz-adv-x="1187" d="M1065 328q0 -137 -95.5 -232.5t-232.5 -95.5h-47v-410h-192v410h-47q-135 0 -231.5 95t-96.5 233v655q0 135 96 231.5t232 96.5h286q137 0 232.5 -96.5t95.5 -231.5v-655zM868 313v682q0 63 -38.5 107.5t-92.5 44.5h-286q-53 0 -91 -44t-38 -108v-682q0 -63 37.5 -106 t91.5 -43h286q55 0 93 43t38 106z" />
<glyph unicode="R" horiz-adv-x="1146" d="M1044 0h-198v485q0 63 -38 107.5t-91 44.5h-375v-637h-199v1311h572q68 0 116 -48.5t48 -115.5v-389q76 -43 120.5 -120t44.5 -165v-473zM680 801v346h-338v-346h338z" />
<glyph unicode="S" horiz-adv-x="1064" d="M942 238q0 -98 -69.5 -168t-167.5 -70h-541v166h530q20 0 34.5 14.5t14.5 34.5v313q0 23 -14 37.5t-35 14.5h-334q-98 0 -167.5 69.5t-69.5 167.5v256q0 98 69.5 168t167.5 70h562v-164h-551q-20 0 -36 -14.5t-16 -34.5v-287q0 -20 14.5 -35.5t37.5 -15.5h334 q98 0 167.5 -68.5t69.5 -167.5v-286z" />
<glyph unicode="T" horiz-adv-x="983" d="M922 1147h-330v-1147h-199v1147h-332v164h861v-164z" />
<glyph unicode="U" horiz-adv-x="1146" d="M1004 328q0 -137 -96.5 -232.5t-231.5 -95.5h-205q-135 0 -231.5 95t-96.5 233v983h199v-998q0 -63 38 -106t91 -43h205q53 0 91 43t38 106v998h199v-983z" />
<glyph unicode="V" horiz-adv-x="1146" d="M1004 492q0 -205 -144.5 -348.5t-347.5 -143.5h-369v1311h199v-1147h170q121 0 207 92t86 223v832h199v-819z" />
<glyph unicode="W" horiz-adv-x="1802" d="M1659 328q0 -135 -96.5 -231.5t-231.5 -96.5h-860q-135 0 -231.5 96.5t-96.5 231.5v983h199v-996q0 -63 38 -107t91 -44h330v1147h198v-1147h332q53 0 91 44t38 107v996h199v-983z" />
<glyph unicode="X" horiz-adv-x="1146" d="M1004 0h-199v489q0 51 -36 88t-89 37h-213q-53 0 -89 -36.5t-36 -88.5v-489h-199v463q0 72 36 134t95 99q-59 37 -95 99.5t-36 134.5v381h199v-408q0 -51 36 -88t89 -37h213q53 0 89 37t36 88v408h199v-381q0 -72 -36 -134.5t-96 -99.5q59 -37 95.5 -99t36.5 -134v-463z " />
<glyph unicode="Y" horiz-adv-x="1064" d="M963 860q0 -137 -95.5 -232.5t-236.5 -95.5v-532h-199v532q-143 0 -236.5 94.5t-93.5 233.5v451h199v-463q0 -63 38 -107.5t91 -44.5h205q53 0 91 44t38 108v463h199v-451z" />
<glyph unicode="Z" horiz-adv-x="1269" d="M1188 1311l-760 -1147h637v-164h-983l760 1147h-635v164h981z" />
<glyph unicode="[" horiz-adv-x="655" d="M553 -410h-410v1885h410v-164h-211v-1557h211v-164z" />
<glyph unicode="\" horiz-adv-x="983" d="M922 0h-185l-676 1311h183z" />
<glyph unicode="]" horiz-adv-x="655" d="M512 -410h-410v164h213v1557h-213v164h410v-1885z" />
<glyph unicode="^" horiz-adv-x="974" d="M913 819h-198l-228 344l-227 -344h-199l326 492h201z" />
<glyph unicode="_" d="M1126 -328h-1146v164h1146v-164z" />
<glyph unicode="`" horiz-adv-x="778" d="M565 1147h-174l-207 328h174z" />
<glyph unicode="a" horiz-adv-x="1126" d="M983 0h-696q-68 0 -116 48t-48 116v266q0 68 48 116t116 48h510v225h-629v164h651q68 0 116 -48t48 -116v-819zM797 164v266h-488v-266h488z" />
<glyph unicode="b" horiz-adv-x="1126" d="M1004 328q0 -135 -95.5 -231.5t-232.5 -96.5h-533v1475h185v-492h348q137 0 232.5 -95t95.5 -233v-327zM819 315v355q0 63 -44 106t-99 43h-348v-655h348q55 0 99 44t44 107z" />
<glyph unicode="c" horiz-adv-x="1044" d="M909 0h-458q-135 0 -231.5 96.5t-96.5 231.5v327q0 137 96 232.5t232 95.5h307q68 0 116 -47t48 -117v-164h-187v164h-284q-55 0 -98.5 -43t-43.5 -106v-355q0 -63 43 -107t99 -44h458v-164z" />
<glyph unicode="d" horiz-adv-x="1126" d="M983 0h-532q-135 0 -231.5 96.5t-96.5 231.5v327q0 137 96 232.5t232 95.5h346v492h186v-1475zM797 164v655h-346q-55 0 -98.5 -44t-43.5 -107v-353q0 -63 43 -107t99 -44h346z" />
<glyph unicode="e" d="M983 430h-674v-115q0 -63 43 -107t99 -44h477v-164h-477q-135 0 -231.5 96.5t-96.5 231.5v327q0 137 96 232.5t232 95.5h204q135 0 231.5 -95t96.5 -233v-225zM797 594v76q0 63 -43 106t-99 43h-204q-55 0 -98.5 -43t-43.5 -106v-76h488z" />
<glyph unicode="f" horiz-adv-x="839" d="M758 819h-348v-819h-185v819h-164v164h164v328q0 68 47 116t117 48h369v-164h-348v-328h348v-164z" />
<glyph unicode="g" horiz-adv-x="1126" d="M983 -246q0 -68 -48 -116t-116 -48h-575v164h555v246h-348q-137 0 -232.5 96.5t-95.5 231.5v327q0 137 95 232.5t233 95.5h532v-1229zM799 164v655h-348q-55 0 -99.5 -44t-44.5 -107v-353q0 -63 44 -107t100 -44h348z" />
<glyph unicode="h" d="M963 0h-187v668q0 63 -43 107t-98 44h-307v-819h-185v1475h185v-492h307q135 0 231.5 -95t96.5 -233v-655z" />
<glyph unicode="i" horiz-adv-x="471" d="M328 0h-185v983h185v-983zM328 1229h-185v246h185v-246z" />
<glyph unicode="j" horiz-adv-x="471" d="M328 1229h-185v246h185v-246zM328 -246q0 -68 -48.5 -116t-115.5 -48h-152v164h129v1229h187v-1229z" />
<glyph unicode="k" d="M1004 983l-256 -405q98 -35 160.5 -120t62.5 -192v-266h-187v281q0 61 -43 105t-98 44h-315v-430h-185v1475h185v-881h229l244 389h203z" />
<glyph unicode="l" horiz-adv-x="471" d="M328 0h-185v1475h185v-1475z" />
<glyph unicode="m" horiz-adv-x="1638" d="M1167 983q135 0 231.5 -96t96.5 -232v-655h-186v668q0 63 -43 107t-99 44h-256v-819h-186v819h-397v-819h-185v983h1024z" />
<glyph unicode="n" d="M963 0h-187v668q0 63 -43 107t-98 44h-307v-819h-185v983h492q135 0 231.5 -95t96.5 -233v-655z" />
<glyph unicode="o" d="M983 328q0 -135 -96 -231.5t-232 -96.5h-204q-135 0 -231.5 96.5t-96.5 231.5v327q0 137 96 232.5t232 95.5h204q135 0 231.5 -95t96.5 -233v-327zM797 315v353q0 63 -43 107t-99 44h-204q-55 0 -98.5 -44t-43.5 -107v-353q0 -63 43 -107t99 -44h204q55 0 98.5 44 t43.5 107z" />
<glyph unicode="p" horiz-adv-x="1126" d="M1004 328q0 -135 -95.5 -231.5t-232.5 -96.5h-348v-410h-185v1393h533q137 0 232.5 -95t95.5 -233v-327zM819 315v353q0 63 -44 107t-99 44h-348v-655h348q55 0 99 44t44 107z" />
<glyph unicode="q" horiz-adv-x="1126" d="M983 -410h-186v410h-346q-135 0 -231.5 96.5t-96.5 231.5v327q0 137 96 232.5t232 95.5h204q135 0 231.5 -95t96.5 -233v-1065zM797 164v504q0 63 -43 107t-99 44h-204q-55 0 -99.5 -44t-44.5 -107v-353q0 -63 44 -107t100 -44h346z" />
<glyph unicode="r" horiz-adv-x="942" d="M860 573h-186v246h-344v-819h-187v983h553q70 0 117 -48t47 -116v-246z" />
<glyph unicode="s" horiz-adv-x="1003" d="M881 164q0 -68 -48.5 -116t-115.5 -48h-561v164h538v266h-407q-68 0 -116 48t-48 116v225q0 68 48 116t116 48h579v-164h-557v-225h408q68 0 116 -48t48 -116v-266z" />
<glyph unicode="t" horiz-adv-x="839" d="M758 164v-164h-369q-70 0 -117 48t-47 116v655h-164v164h164v328h185v-328h348v-164h-348v-655h348z" />
<glyph unicode="u" d="M963 328q0 -137 -96.5 -232.5t-231.5 -95.5h-164q-135 0 -231.5 95t-96.5 233v655h187v-668q0 -63 43 -107t98 -44h164q55 0 98 44t43 107v668h187v-655z" />
<glyph unicode="v" d="M963 328q0 -137 -96.5 -232.5t-231.5 -95.5h-492v983h185v-819h307q55 0 98 44t43 107v668h187v-655z" />
<glyph unicode="w" horiz-adv-x="1638" d="M1495 328q0 -135 -95 -231.5t-233 -96.5h-696q-137 0 -232.5 96.5t-95.5 231.5v655h197v-668q0 -63 39 -107t92 -44h250v819h197v-819h249q53 0 92 44t39 107v668h197v-655z" />
<glyph unicode="x" d="M963 0h-199v311q0 53 -36 89t-89 36h-172q-53 0 -89 -35.5t-36 -89.5v-311h-199v285q0 72 36 134t95 99q-59 37 -95 99.5t-36 134.5v231h199v-258q0 -53 36 -89t89 -36h172q53 0 89 36t36 89v258h199v-231q0 -72 -36 -134.5t-96 -99.5q59 -37 95.5 -99.5t36.5 -133.5 v-285z" />
<glyph unicode="y" d="M963 -246q0 -68 -48.5 -116t-115.5 -48h-152v164h129v246h-305q-137 0 -232.5 96.5t-95.5 231.5v655h185v-668q0 -63 44 -107t99 -44h305v819h187v-1229z" />
<glyph unicode="z" horiz-adv-x="1044" d="M963 983l-543 -819h479v-164h-817l543 819h-478v164h816z" />
<glyph unicode="{" horiz-adv-x="593" d="M492 -410q-135 0 -232.5 96.5t-97.5 231.5v453l-162 161l162 162v453q0 135 97 231.5t233 96.5v-164q-55 0 -94.5 -44t-39.5 -108v-477l-149 -150l149 -151v-477q0 -61 39 -105.5t95 -44.5v-164z" />
<glyph unicode="|" horiz-adv-x="614" d="M389 -410h-164v1885h164v-1885z" />
<glyph unicode="}" horiz-adv-x="593" d="M594 532l-162 -161v-453q0 -135 -97 -231.5t-233 -96.5v164q55 0 94.5 44t39.5 106v477l149 151l-149 150v477q0 63 -39 107.5t-95 44.5v164q135 0 232.5 -96.5t97.5 -231.5v-453z" />
<glyph unicode="~" horiz-adv-x="1024" d="M922 655h-328q0 -70 -48 -116.5t-116 -46.5h-328v163h328q0 68 48 116t116 48h328v-164z" />
<glyph unicode="&#xa1;" horiz-adv-x="544" d="M340 737h-197v246h197v-246zM340 -328h-197v901h197v-901z" />
<glyph unicode="&#xa2;" horiz-adv-x="860" d="M758 164h-166v-164h-164v164q-135 0 -230.5 95t-95.5 233v163q0 135 95.5 230.5t230.5 97.5v164h164v-164h166v-164h-328q-55 0 -99 -44t-44 -107v-191q0 -63 44 -106t99 -43h328v-164z" />
<glyph unicode="&#xa3;" horiz-adv-x="942" d="M840 328h-738v164h35q53 0 91 43t38 106v96h-164v164h166v82q0 135 95.5 231.5t232.5 96.5h164v-164h-164q-55 0 -99 -44t-44 -108v-94h305v-164h-307v-82q0 -94 -43 -163h432v-164z" />
<glyph unicode="&#xa4;" horiz-adv-x="1126" d="M1024 338l-115 -117l-147 150h-397l-146 -150l-117 117l148 147v385l-148 148l117 115l148 -150h393l149 150l115 -115l-147 -150v-383zM725 522v309h-324v-309h324z" />
<glyph unicode="&#xa5;" horiz-adv-x="1146" d="M1085 1311l-325 -492h194v-164h-278v-163h278v-164h-278v-328h-193v328h-276v164h276v163h-276v164h180l-326 492h203l309 -467l310 467h202z" />
<glyph unicode="&#xa6;" horiz-adv-x="450" d="M307 1311v-738h-164v738h164zM307 328v-738h-164v738h164z" />
<glyph unicode="&#xa7;" horiz-adv-x="942" d="M799 0q0 -68 -48.5 -116t-115.5 -48h-492v164h457v328h-293q-68 0 -116 48t-48 116v819q0 68 48.5 116t115.5 48h492v-164h-459v-328h295q68 0 116 -48t48 -116v-819zM600 492v327h-260v-327h260z" />
<glyph unicode="&#xa8;" horiz-adv-x="778" d="M627 1163h-148v148h148v-148zM299 1163h-147v148h147v-148z" />
<glyph unicode="&#xa9;" horiz-adv-x="1556" d="M1413 492q0 -203 -143.5 -347.5t-347.5 -144.5h-287q-205 0 -348.5 144.5t-143.5 347.5v327q0 205 143.5 348.5t348.5 143.5h287q205 0 348 -143.5t143 -348.5v-327zM1249 471v371q0 129 -95 217t-230 88h-291q-135 0 -230.5 -88t-95.5 -217v-371q0 -129 95.5 -218 t230.5 -89h291q135 0 230 89t95 218zM1044 328h-389q-68 0 -115.5 48t-47.5 116v327q0 68 47 116t116 48h389v-158h-382v-340h382v-157z" />
<glyph unicode="&#xaa;" horiz-adv-x="778" d="M696 819h-506q-45 0 -76.5 32t-31.5 77v182q0 45 31.5 77t76.5 32h375v139h-452v117h467q47 0 81.5 -35t34.5 -82v-539zM565 936v166h-350v-166h350z" />
<glyph unicode="&#xab;" horiz-adv-x="1249" d="M608 231l-116 -116l-492 491l492 492l116 -115l-375 -377zM1147 231l-117 -116l-491 491l491 492l117 -115l-375 -377z" />
<glyph unicode="&#xac;" d="M963 246h-164v246h-656v163h820v-409z" />
<glyph unicode="&#xad;" horiz-adv-x="696" d="M594 492h-492v163h492v-163z" />
<glyph unicode="&#xae;" horiz-adv-x="1126" d="M1014 1089.5q0 -186.5 -132 -318.5t-318.5 -132t-317.5 132t-131 318.5t131 317.5t317.5 131t318.5 -131t132 -317.5zM838 825v181q0 39 -26 68.5t-62 37.5v145q0 45 -32 77t-77 32h-319v-541h108v181h297v-181h111zM637 1114h-207v143h207v-143z" />
<glyph unicode="&#xaf;" horiz-adv-x="778" d="M635 1163h-492v148h492v-148z" />
<glyph unicode="&#xb0;" horiz-adv-x="696" d="M635 901q0 -68 -47 -116t-117 -48h-246q-68 0 -116 48.5t-48 115.5v246q0 68 48.5 116t115.5 48h246q70 0 117 -48.5t47 -115.5v-246zM471 901v246h-246v-246h246z" />
<glyph unicode="&#xb1;" d="M963 655h-328v-327h-164v327h-328v164h328v328h164v-328h328v-164zM963 0h-820v164h820v-164z" />
<glyph unicode="&#xb2;" horiz-adv-x="901" d="M799 995q0 -68 -48.5 -116t-115.5 -48h-359v-188h492v-151h-666v327q0 68 48.5 116t115.5 48h359v176h-490v152h500q68 0 116 -48.5t48 -115.5v-152z" />
<glyph unicode="&#xb3;" horiz-adv-x="901" d="M799 655q0 -68 -48.5 -115.5t-115.5 -47.5h-533v151h521v182h-521v152h435v182h-435v152h609v-346q88 -45 88 -146v-164z" />
<glyph unicode="&#xb4;" horiz-adv-x="778" d="M594 1475l-207 -328h-174l207 328h174z" />
<glyph unicode="&#xb5;" horiz-adv-x="1228" d="M1106 0q-135 0 -227 92q-96 -92 -230 -92h-117q-70 0 -143 33v-443h-184v1393h184v-668q0 -63 44 -107t99 -44h117q55 0 98.5 44t43.5 107v668h186v-668q0 -63 38 -107t91 -44v-164z" />
<glyph unicode="&#x3bc;" horiz-adv-x="1228" d="M1106 0q-135 0 -227 92q-96 -92 -230 -92h-117q-70 0 -143 33v-443h-184v1393h184v-668q0 -63 44 -107t99 -44h117q55 0 98.5 44t43.5 107v668h186v-668q0 -63 38 -107t91 -44v-164z" />
<glyph unicode="&#xb6;" horiz-adv-x="1024" d="M881 330h-152v819h-188v-819h-152v491h-123q-68 0 -116 48.5t-48 115.5v164q0 68 48.5 116t115.5 48h615v-983z" />
<glyph unicode="&#xb7;" horiz-adv-x="573" d="M389 512h-205v246h205v-246z" />
<glyph unicode="&#xb8;" horiz-adv-x="778" d="M512 -246q0 -68 -48 -116t-116 -48h-164v148h181v282h147v-266z" />
<glyph unicode="&#xb9;" horiz-adv-x="491" d="M389 492h-174v667h-174v152h348v-819z" />
<glyph unicode="&#xba;" horiz-adv-x="798" d="M696 1038q0 -90 -64.5 -154.5t-154.5 -64.5h-155q-90 0 -155 64.5t-65 154.5v217q0 92 64.5 156t155.5 64h155q90 0 154.5 -63.5t64.5 -156.5v-217zM563 1038v217q0 43 -28.5 73t-65.5 30h-139q-39 0 -68 -30t-29 -73v-217q0 -43 30 -72.5t67 -29.5h139q37 0 65.5 29.5 t28.5 72.5z" />
<glyph unicode="&#xbb;" horiz-adv-x="1249" d="M711 606l-492 -491l-117 116l375 375l-375 377l117 115zM1249 606l-491 -491l-117 116l375 375l-375 377l117 115z" />
<glyph unicode="&#xbc;" horiz-adv-x="1699" d="M1163 1311l-678 -1311h-184l680 1311h182zM393 492h-176v667h-176v152h352v-819zM1638 164h-151v-164h-176v164h-494l338 655h191l-263 -504h228v217h176v-217h151v-151z" />
<glyph unicode="&#xbd;" horiz-adv-x="1822" d="M1720 504q0 -68 -48 -116t-116 -48h-360v-188h494v-152h-668v328q0 68 48 116t116 48h360v176h-491v151h501q68 0 116 -48t48 -116v-151zM1163 1311l-680 -1311h-182l678 1311h184zM391 492h-174v667h-176v152h350v-819z" />
<glyph unicode="&#xbe;" horiz-adv-x="2027" d="M799 655q0 -68 -48.5 -115.5t-115.5 -47.5h-533v151h521v182h-521v152h435v182h-435v152h609v-346q88 -45 88 -146v-164zM1966 164h-151v-164h-177v164h-491l338 655h190l-262 -504h225v217h177v-217h151v-151zM1493 1311l-678 -1311h-184l680 1311h182z" />
<glyph unicode="&#xbf;" horiz-adv-x="901" d="M102 164q0 68 48.5 116t115.5 48h213v245h197v-245q0 -70 -47 -117t-117 -47h-211v-328h457v-164h-492q-68 0 -116 47.5t-48 116.5v328zM479 983h197v-246h-197v246z" />
<glyph unicode="&#xc0;" horiz-adv-x="1146" d="M1004 0h-199v492h-463v-492h-199v983q0 137 96.5 232.5t231.5 95.5h205q135 0 231.5 -95.5t96.5 -232.5v-983zM805 655v340q0 63 -38 107.5t-91 44.5h-205q-53 0 -91 -44t-38 -108v-340h463zM670 1475h-174l-207 327h174z" />
<glyph unicode="&#xc1;" horiz-adv-x="1146" d="M1004 0h-199v492h-463v-492h-199v983q0 137 96.5 232.5t231.5 95.5h205q135 0 231.5 -95.5t96.5 -232.5v-983zM805 655v340q0 63 -38 107.5t-91 44.5h-205q-53 0 -91 -44t-38 -108v-340h463zM854 1802l-207 -327h-174l207 327h174z" />
<glyph unicode="&#xc2;" horiz-adv-x="1146" d="M1004 0h-199v492h-463v-492h-199v983q0 137 96.5 232.5t231.5 95.5h205q135 0 231.5 -95.5t96.5 -232.5v-983zM805 655v340q0 63 -38 107.5t-91 44.5h-205q-53 0 -91 -44t-38 -108v-340h463zM858 1475h-166l-119 188l-118 -188h-164l207 327h153z" />
<glyph unicode="&#xc3;" horiz-adv-x="1146" d="M1004 0h-199v492h-463v-492h-199v983q0 137 96.5 232.5t231.5 95.5h205q135 0 231.5 -95.5t96.5 -232.5v-983zM805 655v340q0 63 -38 107.5t-91 44.5h-205q-53 0 -91 -44t-38 -108v-340h463zM881 1475h-256q-59 0 -103.5 43t-44.5 104v16h-252v148h252q61 0 104.5 -43 t43.5 -105v-16h256v-147z" />
<glyph unicode="&#xc4;" horiz-adv-x="1146" d="M1004 0h-199v492h-463v-492h-199v983q0 137 96.5 232.5t231.5 95.5h205q135 0 231.5 -95.5t96.5 -232.5v-983zM805 655v340q0 63 -38 107.5t-91 44.5h-205q-53 0 -91 -44t-38 -108v-340h463zM811 1491h-147v147h147v-147zM483 1491h-147v147h147v-147z" />
<glyph unicode="&#xc5;" horiz-adv-x="1146" d="M1004 0h-199v492h-463v-492h-199v983q0 94 50.5 173t134.5 120v199q0 68 48 115.5t116 47.5h163q68 0 116 -48t48 -115v-197q84 -41 134.5 -120t50.5 -175v-983zM805 655v340q0 63 -38 107.5t-91 44.5h-205q-53 0 -91 -44t-38 -108v-340h463zM465 1501v-190h217v190h-217 z" />
<glyph unicode="&#xc6;" horiz-adv-x="1638" d="M1532 0h-404q-137 0 -232 95t-95 233v164h-461v-492h-197v983q0 135 95.5 231.5t232.5 96.5h1061v-164h-535v-369h539v-164h-539v-319q0 -55 38 -93t93 -38h404v-164zM801 655v492h-330q-53 0 -92 -44t-39 -108v-340h461z" />
<glyph unicode="&#xc7;" horiz-adv-x="1167" d="M1044 901h-198v195q0 23 -14.5 37t-34.5 14h-346q-53 0 -91 -44t-38 -108v-524q0 -129 86 -218t206 -89h430v-164h-253v-246q0 -68 -48.5 -116t-115.5 -48h-164v148h180v262h-29q-203 0 -347 144.5t-144 347.5v491q0 137 96 232.5t232 95.5h356q98 0 167.5 -70t69.5 -168 v-172z" />
<glyph unicode="&#xc8;" horiz-adv-x="1003" d="M877 0h-570q-68 0 -116 48t-48 116v1147h734v-164h-535v-369h539v-164h-539v-450h535v-164zM670 1475h-174l-207 327h174z" />
<glyph unicode="&#xc9;" horiz-adv-x="1003" d="M877 0h-570q-68 0 -116 48t-48 116v1147h734v-164h-535v-369h539v-164h-539v-450h535v-164zM813 1802l-207 -327h-174l207 327h174z" />
<glyph unicode="&#xca;" horiz-adv-x="1003" d="M877 0h-570q-68 0 -116 48t-48 116v1147h734v-164h-535v-369h539v-164h-539v-450h535v-164zM817 1475h-166l-119 188l-118 -188h-164l207 327h153z" />
<glyph unicode="&#xcb;" horiz-adv-x="1003" d="M877 0h-570q-68 0 -116 48t-48 116v1147h734v-164h-535v-369h539v-164h-539v-450h535v-164zM782 1491h-147v147h147v-147zM455 1491h-148v147h148v-147z" />
<glyph unicode="&#xcc;" horiz-adv-x="485" d="M342 0h-199v1311h199v-1311zM360 1475h-174l-206 327h163z" />
<glyph unicode="&#xcd;" horiz-adv-x="485" d="M342 0h-199v1311h199v-1311zM506 1802l-207 -327h-174l207 327h174z" />
<glyph unicode="&#xce;" horiz-adv-x="485" d="M342 0h-199v1311h199v-1311zM526 1475h-166l-118 188l-119 -188h-164l207 327h153z" />
<glyph unicode="&#xcf;" horiz-adv-x="485" d="M342 0h-199v1311h199v-1311zM479 1491h-147v147h147v-147zM152 1491h-148v147h148v-147z" />
<glyph unicode="&#xd0;" horiz-adv-x="1243" d="M1120 492q0 -203 -143 -347.5t-348 -144.5h-445v594h-164v164h164v553h445q205 0 348 -143.5t143 -348.5v-327zM924 471v371q0 129 -86 217t-209 88h-246v-389h242v-164h-242v-430h246q123 0 209 89t86 218z" />
<glyph unicode="&#xd1;" horiz-adv-x="1187" d="M1044 0h-112q-100 0 -141 78l-449 862v-940h-199v1311h113q100 0 141 -78l449 -860v938h198v-1311zM922 1475h-256q-59 0 -103.5 43t-44.5 104v16h-252v148h252q61 0 104.5 -43t43.5 -105v-16h256v-147z" />
<glyph unicode="&#xd2;" horiz-adv-x="1187" d="M1065 328q0 -137 -95.5 -232.5t-232.5 -95.5h-286q-135 0 -231.5 95t-96.5 233v655q0 135 96 231.5t232 96.5h286q137 0 232.5 -96.5t95.5 -231.5v-655zM868 313v682q0 63 -38.5 107.5t-92.5 44.5h-286q-53 0 -91 -44t-38 -108v-682q0 -63 37.5 -106t91.5 -43h286 q55 0 93 43t38 106zM694 1475h-174l-207 327h174z" />
<glyph unicode="&#xd3;" horiz-adv-x="1187" d="M1065 328q0 -137 -95.5 -232.5t-232.5 -95.5h-286q-135 0 -231.5 95t-96.5 233v655q0 135 96 231.5t232 96.5h286q137 0 232.5 -96.5t95.5 -231.5v-655zM868 313v682q0 63 -38.5 107.5t-92.5 44.5h-286q-53 0 -91 -44t-38 -108v-682q0 -63 37.5 -106t91.5 -43h286 q55 0 93 43t38 106zM874 1802l-206 -327h-174l206 327h174z" />
<glyph unicode="&#xd4;" horiz-adv-x="1187" d="M1065 328q0 -137 -95.5 -232.5t-232.5 -95.5h-286q-135 0 -231.5 95t-96.5 233v655q0 135 96 231.5t232 96.5h286q137 0 232.5 -96.5t95.5 -231.5v-655zM868 313v682q2 63 -37.5 107.5t-93.5 44.5h-286q-53 0 -91 -44t-38 -108v-682q0 -63 37.5 -106t91.5 -43h286 q55 0 93 43t38 106zM879 1475h-166l-119 188l-119 -188h-164l207 327h154z" />
<glyph unicode="&#xd5;" horiz-adv-x="1187" d="M1065 328q0 -137 -95.5 -232.5t-232.5 -95.5h-286q-135 0 -231.5 95t-96.5 233v655q0 135 96 231.5t232 96.5h286q137 0 232.5 -96.5t95.5 -231.5v-655zM868 313v682q0 63 -38.5 107.5t-92.5 44.5h-286q-53 0 -91 -44t-38 -108v-682q0 -63 37.5 -106t91.5 -43h286 q55 0 93 43t38 106zM922 1475h-256q-59 0 -103.5 43t-44.5 104v16h-252v148h252q61 0 104.5 -43t43.5 -105v-16h256v-147z" />
<glyph unicode="&#xd6;" horiz-adv-x="1187" d="M1065 328q0 -137 -95.5 -232.5t-232.5 -95.5h-286q-135 0 -231.5 95t-96.5 233v655q0 135 96 231.5t232 96.5h286q137 0 232.5 -96.5t95.5 -231.5v-655zM868 313v682q0 63 -38.5 107.5t-92.5 44.5h-286q-53 0 -91 -44t-38 -108v-682q0 -63 37.5 -106t91.5 -43h286 q55 0 93 43t38 106zM831 1491h-147v147h147v-147zM504 1491h-148v147h148v-147z" />
<glyph unicode="&#xd7;" horiz-adv-x="1044" d="M942 266l-115 -116l-305 305l-303 -305l-117 116l306 303l-306 305l117 115l303 -303l305 303l115 -115l-303 -305z" />
<glyph unicode="&#xd8;" horiz-adv-x="1187" d="M1065 328q0 -137 -96.5 -232.5t-231.5 -95.5h-286q-92 0 -175 49l-51 -80l-123 82l70 105q-49 78 -49 172v655q0 135 96 231.5t232 96.5h286q94 0 172 -51l54 79l122 -82l-69 -104q49 -78 49 -170v-655zM866 313v617l-493 -737q35 -29 78 -29h286q53 0 91 43t38 106z M815 1116q-37 31 -78 31h-286q-53 0 -91 -44t-38 -108v-614z" />
<glyph unicode="&#xd9;" horiz-adv-x="1140" d="M997 328q0 -137 -96 -232.5t-231 -95.5h-199q-135 0 -231.5 95t-96.5 233v983h199v-998q0 -63 38 -106t91 -43h199q53 0 91 43t38 106v998h198v-983zM670 1475h-174l-207 327h174z" />
<glyph unicode="&#xda;" horiz-adv-x="1140" d="M997 328q0 -137 -96 -232.5t-231 -95.5h-199q-135 0 -231.5 95t-96.5 233v983h199v-998q0 -63 38 -106t91 -43h199q53 0 91 43t38 106v998h198v-983zM834 1802l-207 -327h-174l206 327h175z" />
<glyph unicode="&#xdb;" horiz-adv-x="1140" d="M997 328q0 -137 -96 -232.5t-231 -95.5h-199q-135 0 -231.5 95t-96.5 233v983h199v-998q0 -63 38 -106t91 -43h199q53 0 91 43t38 106v998h198v-983zM854 1475h-166l-119 188l-118 -188h-164l207 327h153z" />
<glyph unicode="&#xdc;" horiz-adv-x="1140" d="M997 328q0 -137 -96 -232.5t-231 -95.5h-199q-135 0 -231.5 95t-96.5 233v983h199v-998q0 -63 38 -106t91 -43h199q53 0 91 43t38 106v998h198v-983zM807 1491h-148v147h148v-147zM479 1491h-147v147h147v-147z" />
<glyph unicode="&#xdd;" horiz-adv-x="1064" d="M963 860q0 -137 -95.5 -232.5t-236.5 -95.5v-532h-199v532q-143 0 -236.5 94.5t-93.5 233.5v451h199v-463q0 -63 38 -107.5t91 -44.5h205q53 0 91 44t38 108v463h199v-451zM793 1802l-207 -327h-174l206 327h175z" />
<glyph unicode="&#xde;" d="M1004 573q0 -135 -95.5 -231t-232.5 -96h-336v-246h-197v1311h197v-246h336q137 0 232.5 -95.5t95.5 -232.5v-164zM807 561v191q0 63 -38 106t-93 43h-336v-491h336q53 0 92 44t39 107z" />
<glyph unicode="&#xdf;" horiz-adv-x="1167" d="M1065 328q0 -135 -95.5 -231.5t-232.5 -96.5h-164v164h164q55 0 99.5 44t44.5 107v273q0 63 -44 107t-100 44h-22v336q0 29 -21.5 50.5t-52.5 21.5h-176q-31 0 -52.5 -21.5t-21.5 -50.5v-1075h-186v655h-164v164h164v256q0 98 69.5 167t167.5 69h222q98 0 167.5 -68.5 t69.5 -167.5v-215q76 -43 120 -118.5t44 -166.5v-247z" />
<glyph unicode="&#xe0;" horiz-adv-x="1126" d="M983 0h-696q-68 0 -116 48t-48 116v266q0 68 48 116t116 48h510v225h-629v164h651q68 0 116 -48t48 -116v-819zM797 164v266h-488v-266h488zM668 1147h-174l-207 328h174z" />
<glyph unicode="&#xe1;" horiz-adv-x="1126" d="M778 1475l-207 -328h-174l207 328h174zM983 0h-696q-68 0 -116 48t-48 116v266q0 68 48 116t116 48h510v225h-629v164h651q68 0 116 -48t48 -116v-819zM797 164v266h-488v-266h488z" />
<glyph unicode="&#xe2;" horiz-adv-x="1126" d="M983 0h-696q-68 0 -116 48t-48 116v266q0 68 48 116t116 48h510v225h-629v164h651q68 0 116 -48t48 -116v-819zM797 164v266h-488v-266h488zM829 1147h-165l-119 188l-119 -188h-164l207 328h154z" />
<glyph unicode="&#xe3;" horiz-adv-x="1126" d="M983 0h-696q-68 0 -116 48t-48 116v266q0 68 48 116t116 48h510v225h-629v164h651q68 0 116 -48t48 -116v-819zM797 164v266h-488v-266h488zM874 1163h-256q-59 0 -103 43t-44 105v16h-252v148h252q61 0 104 -43t43 -105v-16h256v-148z" />
<glyph unicode="&#xe4;" horiz-adv-x="1126" d="M983 0h-696q-68 0 -116 48t-48 116v266q0 68 48 116t116 48h510v225h-629v164h651q68 0 116 -48t48 -116v-819zM797 164v266h-488v-266h488zM778 1163h-147v148h147v-148zM451 1163h-148v148h148v-148z" />
<glyph unicode="&#xe5;" horiz-adv-x="1126" d="M983 0h-696q-68 0 -116 48t-48 116v266q0 68 48 116t116 48h510v225h-629v164h651q68 0 116 -48t48 -116v-819zM797 164v266h-488v-266h488zM786 1311q0 -68 -48 -116t-115 -48h-164q-68 0 -116 48t-48 116v164q0 68 48 115.5t116 47.5h164q68 0 116.5 -48t57.5 -115z M649 1284v217h-217v-217h217z" />
<glyph unicode="&#xe6;" horiz-adv-x="1781" d="M1659 430h-674v-115q0 -63 43 -107t98 -44h478v-164h-478q-131 0 -229 94q-94 -94 -227 -94h-383q-70 0 -117 48t-47 116v266q0 70 47 117t117 47h512v76q0 63 -38 106t-91 43h-504v164h504q135 0 227 -92q96 92 229 92h205q135 0 231.5 -95t96.5 -233v-225zM1473 594v76 q0 63 -38 106t-92 43h-217q-55 0 -98 -43t-43 -106v-76h488zM799 315v115h-492v-266h363q53 0 91 44t38 107z" />
<glyph unicode="&#xe7;" horiz-adv-x="1044" d="M909 0h-241v-246q0 -68 -48.5 -116t-115.5 -48h-164v148h180v262h-55q-137 0 -239.5 97.5t-102.5 230.5v327q0 135 102.5 231.5t239.5 96.5h293q68 0 116 -47t48 -117v-164h-187v164h-270q-57 0 -106.5 -44t-49.5 -105v-355q0 -61 49.5 -106t106.5 -45h444v-164z" />
<glyph unicode="&#xe8;" d="M983 430h-674v-115q0 -63 43 -107t99 -44h477v-164h-477q-135 0 -231.5 96.5t-96.5 231.5v327q0 137 96 232.5t232 95.5h204q135 0 231.5 -95t96.5 -233v-225zM797 594v76q0 63 -43 106t-99 43h-204q-55 0 -98.5 -43t-43.5 -106v-76h488zM688 1147h-174l-207 328h174z " />
<glyph unicode="&#xe9;" d="M805 1475l-207 -328h-174l207 328h174zM983 430h-674v-115q0 -63 43 -107t99 -44h477v-164h-477q-135 0 -231.5 96.5t-96.5 231.5v327q0 137 96 232.5t232 95.5h204q135 0 231.5 -95t96.5 -233v-225zM797 594v76q0 63 -43 106t-99 43h-204q-55 0 -98.5 -43t-43.5 -106 v-76h488z" />
<glyph unicode="&#xea;" d="M983 430h-674v-115q0 -63 43 -107t99 -44h477v-164h-477q-135 0 -231.5 96.5t-96.5 231.5v327q0 137 96 232.5t232 95.5h204q135 0 231.5 -95t96.5 -233v-225zM797 594v76q0 63 -43 106t-99 43h-204q-55 0 -98.5 -43t-43.5 -106v-76h488zM850 1147h-166l-119 188 l-119 -188h-163l206 328h154z" />
<glyph unicode="&#xeb;" d="M983 430h-674v-115q0 -63 43 -107t99 -44h477v-164h-477q-135 0 -231.5 96.5t-96.5 231.5v327q0 137 96 232.5t232 95.5h204q135 0 231.5 -95t96.5 -233v-225zM797 594v76q0 63 -43 106t-99 43h-204q-55 0 -98.5 -43t-43.5 -106v-76h488zM795 1163h-148v148h148v-148z M467 1163h-148v148h148v-148z" />
<glyph unicode="&#xec;" horiz-adv-x="471" d="M328 0h-185v983h185v-983zM360 1147h-174l-206 328h163z" />
<glyph unicode="&#xed;" horiz-adv-x="471" d="M328 0h-185v983h185v-983zM492 1475l-207 -328h-174l206 328h175z" />
<glyph unicode="&#xee;" horiz-adv-x="471" d="M328 0h-185v983h185v-983zM518 1147h-166l-119 188l-118 -188h-164l207 328h153z" />
<glyph unicode="&#xef;" horiz-adv-x="471" d="M328 0h-185v983h185v-983zM473 1163h-147v148h147v-148zM145 1163h-147v148h147v-148z" />
<glyph unicode="&#xf0;" horiz-adv-x="1161" d="M1141 1147h-164v-819q0 -135 -96.5 -231.5t-231.5 -96.5h-198q-135 0 -231.5 96.5t-96.5 231.5v327q0 135 96 231.5t232 96.5h340v164h-160v164h160v164h186v-164h164v-164zM791 315v504h-340q-55 0 -98.5 -44t-43.5 -107v-353q0 -63 43 -107t99 -44h198q55 0 98.5 44 t43.5 107z" />
<glyph unicode="&#xf1;" d="M842 1163h-256q-59 0 -103.5 43t-44.5 105v16h-252v148h252q61 0 104.5 -43t43.5 -105v-16h256v-148zM963 0h-187v668q0 63 -43 107t-98 44h-307v-819h-185v983h492q135 0 231.5 -95t96.5 -233v-655z" />
<glyph unicode="&#xf2;" d="M983 328q0 -135 -96 -231.5t-232 -96.5h-204q-135 0 -231.5 96.5t-96.5 231.5v327q0 137 96 232.5t232 95.5h204q135 0 231.5 -95t96.5 -233v-327zM797 315v353q0 63 -43 107t-99 44h-204q-55 0 -98.5 -44t-43.5 -107v-353q0 -63 43 -107t99 -44h204q55 0 98.5 44 t43.5 107zM670 1147h-174l-207 328h174z" />
<glyph unicode="&#xf3;" d="M840 1475l-207 -328h-174l207 328h174zM983 328q0 -135 -96 -231.5t-232 -96.5h-204q-135 0 -231.5 96.5t-96.5 231.5v327q0 137 96 232.5t232 95.5h204q135 0 231.5 -95t96.5 -233v-327zM797 315v353q0 63 -43 107t-99 44h-204q-55 0 -98.5 -44t-43.5 -107v-353 q0 -63 43 -107t99 -44h204q55 0 98.5 44t43.5 107z" />
<glyph unicode="&#xf4;" d="M836 1147h-166l-119 188l-119 -188h-164l207 328h154zM983 328q0 -135 -96 -231.5t-232 -96.5h-204q-135 0 -231.5 96.5t-96.5 231.5v327q0 137 96 232.5t232 95.5h204q135 0 231.5 -95t96.5 -233v-327zM797 315v353q0 63 -43 107t-99 44h-204q-55 0 -98.5 -44 t-43.5 -107v-353q0 -63 43 -107t99 -44h204q55 0 98.5 44t43.5 107z" />
<glyph unicode="&#xf5;" d="M879 1163h-256q-59 0 -103.5 43t-44.5 105v16h-252v148h252q61 0 104.5 -43t43.5 -105v-16h256v-148zM983 328q0 -135 -96 -231.5t-232 -96.5h-204q-135 0 -231.5 96.5t-96.5 231.5v327q0 137 96 232.5t232 95.5h204q135 0 231.5 -95t96.5 -233v-327zM797 315v353 q0 63 -43 107t-99 44h-204q-55 0 -98.5 -44t-43.5 -107v-353q0 -63 43 -107t99 -44h204q55 0 98.5 44t43.5 107z" />
<glyph unicode="&#xf6;" d="M983 328q0 -135 -96 -231.5t-232 -96.5h-204q-135 0 -231.5 96.5t-96.5 231.5v327q0 137 96 232.5t232 95.5h204q135 0 231.5 -95t96.5 -233v-327zM797 315v353q-2 63 -44 107t-98 44h-204q-55 0 -98.5 -44t-43.5 -107v-353q0 -63 43 -107t99 -44h204q55 0 98.5 44 t43.5 107zM791 1163h-148v148h148v-148zM463 1163h-148v148h148v-148z" />
<glyph unicode="&#xf7;" d="M651 164h-196v164h196v-164zM963 492h-820v163h820v-163zM651 819h-196v164h196v-164z" />
<glyph unicode="&#xf8;" d="M983 328q0 -135 -96 -231.5t-232 -96.5h-204q-82 0 -154 39l-51 -68l-119 90l57 76q-61 84 -61 191v327q0 137 96 232.5t232 95.5h204q83 0 154 -37l51 68l117 -90l-57 -74q63 -90 63 -195v-327zM705 809q-20 10 -50 10h-204q-55 0 -98.5 -44t-43.5 -107v-369zM797 315 v353q0 12 -2 18l-394 -510q20 -12 50 -12h204q55 0 98.5 44t43.5 107z" />
<glyph unicode="&#xf9;" d="M963 328q0 -137 -96.5 -232.5t-231.5 -95.5h-164q-135 0 -231.5 95t-96.5 233v655h187v-668q0 -63 43 -107t98 -44h164q55 0 98 44t43 107v668h187v-655zM668 1147h-174l-207 328h174z" />
<glyph unicode="&#xfa;" d="M844 1475l-207 -328h-174l207 328h174zM963 328q0 -137 -96.5 -232.5t-231.5 -95.5h-164q-135 0 -231.5 95t-96.5 233v655h187v-668q0 -63 43 -107t98 -44h164q55 0 98 44t43 107v668h187v-655z" />
<glyph unicode="&#xfb;" d="M838 1147h-166l-119 188l-119 -188h-164l207 328h154zM963 328q0 -137 -96.5 -232.5t-231.5 -95.5h-164q-135 0 -231.5 95t-96.5 233v655h187v-668q0 -63 43 -107t98 -44h164q55 0 98 44t43 107v668h187v-655z" />
<glyph unicode="&#xfc;" d="M963 328q0 -137 -96.5 -232.5t-231.5 -95.5h-164q-135 0 -231.5 95t-96.5 233v655h187v-668q0 -63 43 -107t98 -44h164q55 0 98 44t43 107v668h187v-655zM791 1163h-148v148h148v-148zM463 1163h-148v148h148v-148z" />
<glyph unicode="&#xfd;" d="M842 1475l-207 -328h-174l207 328h174zM963 -246q0 -68 -48.5 -116t-115.5 -48h-152v164h129v246h-305q-137 0 -232.5 96.5t-95.5 231.5v655h185v-668q0 -63 44 -107t99 -44h305v819h187v-1229z" />
<glyph unicode="&#xfe;" horiz-adv-x="1126" d="M1004 328q0 -135 -96.5 -231.5t-231.5 -96.5h-346v-410h-187v1885h187v-492h346q135 0 231.5 -95t96.5 -233v-327zM817 315v355q0 63 -43 106t-98 43h-346v-655h346q55 0 98 44t43 107z" />
<glyph unicode="&#xff;" d="M963 -246q0 -68 -48.5 -116t-115.5 -48h-152v164h129v246h-305q-137 0 -232.5 96.5t-95.5 231.5v655h185v-668q0 -63 44 -107t99 -44h305v819h187v-1229zM791 1163h-148v148h148v-148zM463 1163h-148v148h148v-148z" />
<glyph unicode="&#x152;" horiz-adv-x="1720" d="M1614 0h-412q-135 0 -229 94q-94 -94 -230 -94h-292q-135 0 -231.5 96.5t-96.5 231.5v655q0 137 96 232.5t232 95.5h1163v-164h-543v-369h547v-164h-547v-319q0 -55 39 -93t92 -38h412v-164zM874 315v832h-423q-53 0 -91 -44t-38 -108v-680q0 -63 37.5 -107t91.5 -44h292 q55 0 93 44t38 107z" />
<glyph unicode="&#x153;" horiz-adv-x="1781" d="M1659 430h-670v-115q0 -63 38 -107t91 -44h486v-164h-486q-133 0 -227 94q-98 -94 -229 -94h-211q-135 0 -231.5 96.5t-96.5 231.5v327q0 137 96 232.5t232 95.5h211q133 0 229 -92q92 92 227 92h213q135 0 231.5 -95t96.5 -233v-225zM1473 594v76q0 63 -43.5 106 t-98.5 43h-213q-53 0 -91 -43t-38 -106v-76h484zM803 315v355q0 63 -43 106t-98 43h-211q-55 0 -98.5 -43t-43.5 -106v-355q0 -63 43 -107t99 -44h211q55 0 98 44t43 107z" />
<glyph unicode="&#x178;" horiz-adv-x="1064" d="M963 860q0 -137 -95.5 -232.5t-236.5 -95.5v-532h-199v532q-143 0 -236.5 94.5t-93.5 233.5v451h199v-463q0 -63 38 -107.5t91 -44.5h205q53 0 91 44t38 108v463h199v-451zM770 1491h-147v147h147v-147zM442 1491h-147v147h147v-147z" />
<glyph unicode="&#x2c6;" horiz-adv-x="778" d="M672 1147h-166l-119 188l-119 -188h-164l207 328h154z" />
<glyph unicode="&#x2dc;" horiz-adv-x="778" d="M717 1163h-256q-59 0 -103.5 43t-44.5 105v16h-252v148h252q61 0 104.5 -43t43.5 -105v-16h256v-148z" />
<glyph unicode="&#x2000;" horiz-adv-x="901" />
<glyph unicode="&#x2001;" horiz-adv-x="1802" />
<glyph unicode="&#x2002;" horiz-adv-x="901" />
<glyph unicode="&#x2003;" horiz-adv-x="1802" />
<glyph unicode="&#x2004;" horiz-adv-x="600" />
<glyph unicode="&#x2005;" horiz-adv-x="450" />
<glyph unicode="&#x2006;" horiz-adv-x="300" />
<glyph unicode="&#x2007;" horiz-adv-x="300" />
<glyph unicode="&#x2008;" horiz-adv-x="225" />
<glyph unicode="&#x2009;" horiz-adv-x="360" />
<glyph unicode="&#x200a;" horiz-adv-x="100" />
<glyph unicode="&#x2010;" horiz-adv-x="696" d="M594 492h-492v163h492v-163z" />
<glyph unicode="&#x2011;" horiz-adv-x="696" d="M594 492h-492v163h492v-163z" />
<glyph unicode="&#x2013;" d="M1004 492h-902v163h902v-163z" />
<glyph unicode="&#x2014;" horiz-adv-x="1638" d="M1536 492h-1434v163h1434v-163z" />
<glyph unicode="&#x2018;" horiz-adv-x="532" d="M410 983h-195l-154 492h193z" />
<glyph unicode="&#x2019;" horiz-adv-x="532" d="M471 1475l-154 -492h-194l156 492h192z" />
<glyph unicode="&#x201a;" horiz-adv-x="552" d="M436 246l-205 -656h-198l207 656h196z" />
<glyph unicode="&#x201c;" horiz-adv-x="942" d="M410 983h-195l-154 492h193zM819 983h-194l-154 492h193z" />
<glyph unicode="&#x201d;" horiz-adv-x="942" d="M881 1475l-154 -492h-192l155 492h191zM469 1475l-154 -492h-192l156 492h190z" />
<glyph unicode="&#x201e;" horiz-adv-x="962" d="M436 246l-205 -656h-198l207 656h196zM846 246l-205 -656h-199l207 656h197z" />
<glyph unicode="&#x2022;" horiz-adv-x="614" d="M471 819v-327h-328v327h328z" />
<glyph unicode="&#x2026;" horiz-adv-x="1392" d="M354 0h-196v246h196v-246zM795 0h-197v246h197v-246zM1235 0h-197v246h197v-246z" />
<glyph unicode="&#x202f;" horiz-adv-x="360" />
<glyph unicode="&#x2039;" horiz-adv-x="716" d="M614 231l-116 -116l-492 491l492 492l116 -115l-374 -377z" />
<glyph unicode="&#x203a;" horiz-adv-x="716" d="M711 606l-492 -491l-117 116l375 375l-375 377l117 115z" />
<glyph unicode="&#x205f;" horiz-adv-x="450" />
<glyph unicode="&#x20ac;" horiz-adv-x="1146" d="M1004 328h-330q-115 0 -202 69.5t-116 175.5h-254v164h244v164h-244v164h254q29 106 116 176t202 70h330v-164h-330q-55 0 -99.5 -44t-44.5 -108v-94h474v-164h-474v-96q0 -63 44 -106t100 -43h330v-164z" />
<glyph unicode="&#x2122;" horiz-adv-x="1613" d="M1511 737h-131v365q0 43 -25.5 71.5t-60.5 28.5h-110v-465h-131v465h-197v-465h-131v574h569q90 0 153.5 -63.5t63.5 -153.5v-357zM561 1202h-164v-465h-131v465h-164v109h459v-109z" />
<glyph horiz-adv-x="573" />
</font>
</defs>
</svg>
