<?xml version="1.0" standalone="no"?>
<!DOCTYPE svg PUBLIC "-//W3C//DTD SVG 1.1//EN" "http://www.w3.org/Graphics/SVG/1.1/DTD/svg11.dtd" >
<svg xmlns="http://www.w3.org/2000/svg">
<metadata>
This is a custom SVG webfont generated by Font Squirrel.
Designer    : Robby Woodard
</metadata>
<defs>
<font id="webfontykKmK2Zx" horiz-adv-x="1126" >
<font-face units-per-em="2048" ascent="1536" descent="-512" />
<missing-glyph horiz-adv-x="450" />
<glyph unicode=" "  horiz-adv-x="450" />
<glyph unicode="&#x09;" horiz-adv-x="450" />
<glyph unicode="&#xa0;" horiz-adv-x="450" />
<glyph unicode="!" horiz-adv-x="567" d="M567 -125h-444v78h364v334h80v-412zM567 332h-444v78h364v901h80v-979zM442 0h-319v287h319v-287zM442 457h-319v854h319v-854z" />
<glyph unicode="&#x22;" horiz-adv-x="880" d="M860 858h-397v78h317v559h80v-637zM735 983h-272v512h272v-512zM395 858h-272v78h272v-78zM395 983h-272v512h272v-512z" />
<glyph unicode="#" horiz-adv-x="1208" d="M1208 319h-164v-319h-374v78h295v321h163v230h80v-310zM1208 676h-243v76h163v231h80v-307zM1083 444h-163v-319h-250v319h-176v-319h-250v319h-162v185h162v170h-162v184h162v328h250v-328h176v328h250v-328h163v-184h-163v-170h163v-185zM670 629v170h-176v-170h176z M1044 1028h-79v283h79v-283zM623 0h-379v78h295v321h84v-399zM623 676h-84v76h84v-76zM623 1028h-84v283h84v-283zM197 319h-115v80h115v-80zM197 676h-115v76h115v-76z" />
<glyph unicode="$" horiz-adv-x="1003" d="M983 492q0 -109 -71.5 -191t-176.5 -98v-203h-395v78h315v203h39q86 0 147.5 61t61.5 150v258q0 55 -26 104q106 -47 106 -182v-180zM948 1001h-446v-40h-78v118h444v232h80v-310zM858 492q0 -68 -48 -116t-116 -48h-84v-203h-270v203h-223v184h444v225h-315 q-68 0 -116 48.5t-48 115.5v246q0 68 48 116t116 48h94v184h270v-184h213v-185h-444v-204h315q68 0 116 -48.5t48 -115.5v-266zM735 1356h-80v139h80v-139zM514 604h-190q-141 0 -183 107q49 -27 105 -27h268v-80zM293 203h-176v78h176v-78z" />
<glyph unicode="%" horiz-adv-x="2007" d="M1499 1311l-676 -1311h-342l678 1311h340zM848 901q0 -68 -48 -116t-116 -48h-438q-68 0 -116 48.5t-48 115.5v246q0 68 48 116t116 48h438q68 0 116 -48.5t48 -115.5v-246zM1898 164q0 -68 -48 -116t-115 -48h-439q-68 0 -112.5 48t-44.5 116v246q0 68 45 115.5 t112 47.5h439q68 0 115.5 -48t47.5 -115v-246zM2007 160q0 -119 -82 -202t-201 -83h-350q-115 0 -176 107q47 -29 98 -29h422q88 0 149.5 61.5t61.5 149.5v246q0 57 -28 104q106 -61 106 -184v-170zM1085 238l-186 -363h-473l41 78h385l233 457v-172zM1640 1311l-358 -693 q-59 -4 -108 -38l376 731h90zM807 731l-62 -119h-405q-123 0 -182 107q47 -29 102 -29h424q66 0 123 41zM551 922v204h-172v-204h172zM1602 184v205h-172v-205h172zM973 1051l-80 -152v248q0 55 -27 104q106 -61 107 -184v-16zM1556 229h-81v113h81v-113zM504 967h-80v112 h80v-112z" />
<glyph unicode="&#x26;" horiz-adv-x="1454" d="M1454 328q0 -188 -133 -322q-131 -131 -320 -131h-24v-246h-420v78h340v246h104q158 0 265 110q109 109 108 265v84h80v-84zM977 864h-80v215h80v-215zM510 229h-2q-33 0 -54.5 29t-21.5 70v164q0 41 21.5 68.5t54.5 27.5h2v-359zM510 -125h-14q-156 0 -265 109 q-22 22 -36 43q100 -74 221 -74h94v-78zM1446 1067v-268q0 -117 -84 -205q-88 -84 -205 -84h-180v-229q-25 -51 -68 -52h-12v359h260q86 0 147.5 61.5t61.5 149.5v348q0 55 -27 104q107 -61 107 -184zM1329 328q0 -137 -95 -232.5t-233 -95.5h-149v-246h-295v246h-147 q-137 0 -232.5 95t-95.5 233v164q0 137 95 232t233 95h147v328q0 68 48 116t116 48h438q68 0 116 -48.5t48 -115.5v-348q0 -68 -48 -116t-116 -48h-307v-451h57q51 0 87 41t36 103v84h297v-84zM1026 819v307h-174v-307h174zM557 184v451h-55q-51 0 -87 -41t-36 -102v-164 q0 -61 36 -102.5t87 -41.5h55z" />
<glyph unicode="'" horiz-adv-x="538" d="M518 858h-395v78h315v559h80v-637zM393 983h-270v512h270v-512z" />
<glyph unicode="(" horiz-adv-x="757" d="M758 -535h-230q-188 0 -299 152q100 -74 222 -74h227v232h80v-310zM633 -410h-182q-135 0 -231.5 96.5t-96.5 231.5v1249q0 135 96 231.5t232 96.5h182v-184h-58q-53 0 -91 -38t-38 -93v-1274q0 -55 38 -93t91 -38h58v-185zM571 -180q-35 2 -57 26.5t-22 59.5v1274 q0 35 24.5 59.5t58.5 24.5h103v231h80v-309h-156q-31 0 -31 -29v-1337z" />
<glyph unicode=")" horiz-adv-x="696" d="M696 -82q0 -188 -133 -320.5t-319 -132.5h-183v78h183q154 0 263 109.5t109 265.5v1249q0 123 -71 222q152 -111 151 -302v-1169zM571 -82q0 -135 -96 -231.5t-231 -96.5h-183v185h58q53 0 91 37.5t38 93.5v1274q0 55 -38 93t-91 38h-58v184h183q135 0 231 -96t96 -232 v-1249zM201 1186h-4h-136v78h58q35 0 57.5 -22.5t24.5 -55.5z" />
<glyph unicode="*" horiz-adv-x="860" d="M762 1470l160 -278l-144 -82l-80 45l115 66l-121 211zM858 1010l-100 -174l-68 38l101 175zM750 1071l-101 -172l-143 86v-168h-197v168l-145 -86l-101 172l146 86l-146 82l101 172l145 -86v170h197v-170l143 86l101 -172l-146 -82zM631 692h-322v78h244v133l78 -47v-164 zM631 1454l-78 -47v88h78v-41z" />
<glyph unicode="+" horiz-adv-x="1064" d="M1065 299h-279v-299h-383v78h304v299h278v303h80v-381zM940 424h-278v-299h-259v299h-280v256h280v303h259v-303h278v-256zM786 725h-79v258h79v-258zM356 299h-233v78h233v-78z" />
<glyph unicode="," horiz-adv-x="614" d="M655 287l-256 -822h-438l25 78h354l231 744h84zM524 287l-217 -697h-307l219 697h305z" />
<glyph unicode="-" horiz-adv-x="716" d="M717 346h-615v78h535v252h80v-330zM592 471h-490v205h490v-205z" />
<glyph unicode="." horiz-adv-x="614" d="M594 -125h-451v78h371v334h80v-412zM469 0h-326v287h326v-287z" />
<glyph unicode="/" horiz-adv-x="1105" d="M1202 1311l-741 -1436h-455l41 78h367l698 1358h90zM1061 1311l-676 -1311h-319l677 1311h318z" />
<glyph unicode="0" horiz-adv-x="1228" d="M1229 903v-586q0 -190 -136.5 -316t-328.5 -126h-234q-96 0 -178 38t-123 114q100 -74 222 -74h325q154 0 264.5 109.5t110.5 265.5v655q0 121 -74 221q152 -100 152 -301zM1104 328q0 -137 -95.5 -232.5t-232.5 -95.5h-325q-135 0 -231.5 95t-96.5 233v655 q0 135 96 231.5t232 96.5h325q137 0 232.5 -96.5t95.5 -231.5v-655zM784 334v641q0 63 -38.5 107t-92.5 44h-80q-53 0 -91 -44t-38 -107v-641q0 -63 38 -106.5t91 -43.5h80q55 0 93 43.5t38 106.5zM737 1001h-139q-29 0 -29 -34v-738q-33 2 -55 32t-22 73v641 q0 45 23.5 74.5t57.5 29.5h80q66 0 84 -78z" />
<glyph unicode="1" horiz-adv-x="675" d="M655 -125h-444v78h364v1358h80v-1436zM530 0h-319v1126h-164v185h483v-1311zM164 1001h-117v78h117v-78z" />
<glyph unicode="2" horiz-adv-x="1146" d="M1126 903q0 -182 -134 -318t-318 -132h-80q-29 0 -29 -31v-191h-80v201q0 43 25 70.5t61 27.5h103q154 0 263.5 111t109.5 264v78q0 125 -72 221q22 -15 43 -37q108 -108 108 -264zM1085 -125h-962v78h883v233h79v-311zM1001 905q0 -137 -95 -232t-232 -95h-103 q-55 0 -92 -41t-37 -105v-246h519v-186h-838v438q0 137 95 232.5t233 95.5h100q55 0 93 43t38 106v60q0 63 -39 107t-92 44h-389v185h512q137 0 232 -96.5t95 -231.5v-78zM633 1001h-4h-467v78h389q29 0 51.5 -21.5t30.5 -56.5z" />
<glyph unicode="3" horiz-adv-x="1064" d="M1065 328q0 -186 -133 -319.5t-322 -133.5h-508v78h510q154 0 263.5 109.5t109.5 265.5v151q0 158 -115 269v399q0 55 -26 104q106 -61 106 -184v-297q115 -127 115 -291v-151zM940 328q0 -135 -96 -231.5t-232 -96.5h-510v184h387q53 0 91 44t38 108v151 q0 63 -37.5 107.5t-91.5 44.5h-387v180h422v307h-422v185h560q68 0 115.5 -48.5t47.5 -115.5v-420q115 -100 115 -248v-151zM569 514h-2h-465v78h387q62 0 80 -78zM477 1001h-375v78h375v-78z" />
<glyph unicode="4" horiz-adv-x="1351" d="M1352 182h-164v-307h-445v78h365v307h164v232h80v-310zM1227 307h-164v-307h-320v307h-723l521 1004h344l-424 -819h282v327h320v-327h164v-185zM1188 537h-80v282h80v-282zM1026 1311l-231 -447h-88l229 447h90zM696 676l-71 -139h-88l159 311v-172zM696 182h-731l41 78 h690v-78z" />
<glyph unicode="5" horiz-adv-x="1085" d="M1085 328q0 -186 -131 -322q-135 -131 -319 -131h-533v78h531q156 0 266 110q109 109 109 265v164q0 121 -74 221q152 -96 151 -301v-84zM1034 1001h-489v-137h-78v215h489v232h78v-310zM961 328q0 -137 -95.5 -232.5t-232.5 -95.5h-531v184h408q55 0 93 43t38 107v149 q0 63 -39 107.5t-92 44.5h-408v676h807v-185h-489v-307h213q137 0 232.5 -96t95.5 -231v-164zM592 510h-2h-488v78h408q31 0 53.5 -21.5t28.5 -56.5z" />
<glyph unicode="6" horiz-adv-x="1208" d="M1206 328q4 -186 -131 -319.5t-321 -133.5h-262q-213 0 -283 152q100 -74 221 -74h324q154 0 264 109.5t110 265.5v161q0 121 -73 222q152 -96 151 -289v-94zM1133 1001h-553q-31 0 -31 -32v-107h-78v113q0 45 23.5 74.5t58.5 29.5h502v232h78v-310zM1081 328 q0 -137 -95 -232.5t-232 -95.5h-324q-135 0 -231.5 95t-96.5 233v655q0 135 96.5 231.5t231.5 96.5h578v-185h-455q-53 0 -91 -44t-38 -107v-158h330q137 0 232 -96t95 -232v-161zM762 334v147q0 63 -39 107.5t-92 44.5h-207v-299q0 -63 38 -106.5t91 -43.5h78q55 0 93 43.5 t38 106.5zM711 508h-162v-277q-35 2 -56.5 31t-21.5 72v252h160q31 0 53.5 -21.5t28.5 -56.5h-2z" />
<glyph unicode="7" horiz-adv-x="1269" d="M1331 1311l-739 -1436h-479l41 78h389l700 1358h88zM1190 1311l-676 -1311h-344l580 1126h-668v185h1108zM676 1079l-41 -78h-553v78h594z" />
<glyph unicode="8" horiz-adv-x="1208" d="M1210 328q0 -188 -132 -320.5t-320 -132.5h-250q-188 0 -299 152q100 -74 221 -74h328q156 0 264 109.5t108 265.5v164q0 123 -73 221v434q0 59 -27 104q106 -61 107 -184v-340q74 -113 73 -235v-164zM1085 328q0 -135 -96 -231.5t-231 -96.5h-328q-135 0 -231.5 96.5 t-96.5 231.5v164q0 117 74 206v449q0 68 48 116t116 48h508q68 0 116 -48.5t48 -115.5v-449q74 -94 73 -206v-164zM764 336v153q0 63 -38 107.5t-91 44.5h-82q-53 0 -91 -44t-38 -108v-153q0 -63 38 -107.5t91 -44.5h82q53 0 91 44.5t38 107.5zM711 819v307h-234v-307h234z M715 516h-2h-123q-41 0 -41 -41v-244q-35 2 -57.5 32t-22.5 73v153q0 45 24.5 75t59.5 30h82q29 0 51.5 -21.5t28.5 -56.5zM664 1001h-62v-137h-80v215h142v-78z" />
<glyph unicode="9" horiz-adv-x="1208" d="M1208 328q0 -188 -133 -320.5t-319 -132.5h-580v78h580q154 0 263 109.5t109 265.5v655q0 125 -71 221q20 -16 41 -35q111 -111 110 -266v-575zM1083 328q0 -135 -96 -231.5t-231 -96.5h-580v184h457q53 0 91 44t38 108v158h-332q-137 0 -232.5 96t-95.5 231v162 q0 137 95.5 232.5t232.5 95.5h326q135 0 231 -95.5t96 -232.5v-655zM762 678v299q0 63 -38 106t-91 43h-80q-55 0 -93 -43t-38 -106v-148q0 -63 39 -107t92 -44h209zM715 369h-207q-158 0 -264 110q-6 6 -37 41q100 -74 223 -74h285v-77zM633 1079q29 0 51.5 -21.5 t28.5 -56.5h-127q-39 0 -39 -43v-233q-35 2 -57.5 31.5t-22.5 72.5v148q0 43 24.5 72.5t61.5 29.5h80z" />
<glyph unicode=":" horiz-adv-x="655" d="M614 0h-450v78h371v334h79v-412zM489 125h-325v287h325v-287zM614 492h-450v77h371v334h79v-411zM489 616h-325v287h325v-287z" />
<glyph unicode=";" horiz-adv-x="655" d="M602 410l-246 -781h-401l25 78h317l221 703h84zM614 492h-452v77h373v334h79v-411zM469 410l-207 -656h-307l209 656h305zM489 616h-327v287h327v-287z" />
<glyph unicode="&#x3c;" horiz-adv-x="942" d="M961 117l-238 -252l-57 57l237 250zM963 1081l-478 -483l-57 55l477 484zM840 172l-174 -184l-666 665l666 666l174 -182l-475 -484z" />
<glyph unicode="=" horiz-adv-x="1085" d="M1065 174h-942v78h862v303h80v-381zM1065 602h-942v78h862v303h80v-381zM940 299h-817v256h817v-256zM940 727h-817v256h817v-256z" />
<glyph unicode="&#x3e;" horiz-adv-x="1024" d="M1065 596l-731 -729l-58 57l732 729zM944 653l-668 -665l-174 184l478 481l-478 484l174 182z" />
<glyph unicode="?" horiz-adv-x="942" d="M963 797q0 -119 -85 -203t-206 -84h-17v-176h-450v80h370v174h99q86 0 147.5 61.5t61.5 147.5v350q0 55 -27 104q106 -61 107 -184v-270zM838 797q0 -68 -48.5 -115t-115.5 -47h-144v-176h-325v196q0 68 47 116t115 48h143v307h-387v185h551q68 0 116 -48.5t48 -115.5 v-350zM655 -125h-450v78h370v334h80v-412zM530 0h-325v287h325v-287zM463 1001h-340v78h340v-78z" />
<glyph unicode="@" horiz-adv-x="1904" d="M1759 410q0 -68 -48 -116t-116 -48h-860q-68 0 -116 48t-48 116v327q0 68 48.5 116t115.5 48h563v-471h175v553q0 70 -49.5 117t-116.5 47h-590q-137 0 -232.5 -95.5t-95.5 -232.5v-489q0 -137 95.5 -233.5t232.5 -96.5h1040v-164h-1163q-205 0 -348.5 144.5 t-143.5 347.5v491q0 205 143.5 348.5t348.5 143.5h838q135 0 231 -95.5t96 -232.5v-573zM1595 121h-780q-123 0 -182 106q47 -29 102 -28h860q86 0 147.5 61.5t61.5 149.5v573q0 125 -71 221q74 -39 112.5 -119.5t38.5 -175.5v-499q0 -119 -84 -204t-205 -85zM1802 -211v211 h80v-289h-1216q-131 0 -244 52.5t-166 146.5q147 -121 338 -121h1208zM514 819v-614q0 -45 12 -88l-10 12q-82 86 -82 201v489q0 119 82 200t201 81h590q86 0 112 -78h-702q-86 0 -144.5 -59.5t-58.5 -143.5zM1032 430v287h-215v-287h215zM1425 901v-426h-79v426h79z M864 475v195h123v-78h-45v-117h-78z" />
<glyph unicode="A" horiz-adv-x="1228" d="M1208 -125h-446v78h366v1030q0 127 -73 223q23 -14 41 -35q113 -113 112 -266v-1030zM1083 0h-321v471h-297v-471h-322v983q0 137 96.5 232.5t231.5 95.5h285q135 0 231 -95.5t96 -232.5v-983zM762 655v320q0 70 -35 110.5t-94 40.5h-39q-59 0 -94 -41t-35 -110v-320h297 zM713 1001h-74q-49 0 -49 -57v-244h-80v275q0 104 84 104h39q37 0 59 -22q19 -25 21 -56zM715 346h-125v-471h-447v78h367v471h205v-78z" />
<glyph unicode="B" horiz-adv-x="1249" d="M1249 324q0 -180 -126 -314.5t-322 -134.5h-658v78h654q156 0 264 109.5t108 265.5v141q0 158 -114 268v410q0 61 -27 102q106 -59 107 -182v-301q115 -127 114 -303v-139zM1124 328q0 -135 -96 -231.5t-231 -96.5h-654v1311h703q68 0 116 -48.5t48 -115.5v-430 q115 -100 114 -248v-141zM803 336v141q0 63 -38 107.5t-91 44.5h-209v-445h209q53 0 91 44.5t38 107.5zM709 809v317h-244v-317h244zM754 504h-2h-162v-275h-80v353h164q29 0 51.5 -21.5t28.5 -56.5zM662 1001h-72v-147h-80v225h152v-78z" />
<glyph unicode="C" horiz-adv-x="1187" d="M1188 -125h-496q-123 0 -235.5 52.5t-180.5 146.5q145 -121 338 -121h494v231h80v-309zM1188 776h-447v78h367v219q0 88 -47 158q127 -86 127 -236v-219zM1063 0h-449q-203 0 -347 144.5t-144 347.5v491q0 137 96 232.5t232 95.5h374q98 0 168 -70t70 -168v-172h-322v225 h-168q-53 0 -91 -44t-38 -107v-483q0 -129 85 -218.5t206 -89.5h328v-184zM694 1001h-88q-37 0 -37 -36v-551q0 -82 41 -148q-121 78 -121 226v483q0 45 25 74.5t59 29.5h121v-78z" />
<glyph unicode="D" horiz-adv-x="1249" d="M1249 483q0 -254 -178 -431t-432 -177h-496v80h490q221 0 378.5 156.5t157.5 380.5v327q0 188 -120 338q98 -72 149 -181.5t51 -234.5v-258zM1124 492q0 -205 -144 -348.5t-347 -143.5h-490v1311h490q203 0 347 -144.5t144 -347.5v-327zM803 492v327q0 129 -86 218 t-207 89h-47v-942h47q121 0 207 89.5t86 218.5zM588 244q-37 -12 -78 -13h-2q2 850 0 850h2q102 0 174 -75q10 -12 31 -41q-59 37 -127 36v-757z" />
<glyph unicode="E" horiz-adv-x="1064" d="M1044 -125h-659q-121 0 -182 107q47 -29 104 -29h658v231h79v-309zM1044 469h-454v-240h-80v318h455v231h79v-309zM1044 1001h-454v-178h-80v256h455v232h79v-310zM920 0h-613q-68 0 -116 48t-48 116v1147h777v-185h-455v-348h455v-184h-455v-410h455v-184z" />
<glyph unicode="F" horiz-adv-x="1064" d="M1044 469h-454v-594h-447v78h367v594h455v231h79v-309zM1044 1001h-454v-178h-80v256h455v232h79v-310zM920 594h-455v-594h-322v1311h777v-185h-455v-348h455v-184z" />
<glyph unicode="G" horiz-adv-x="1208" d="M1188 -125h-674q-188 0 -287 152q102 -74 224 -74h657v702h80v-780zM1188 1001h-451q-70 0 -119 -52t-49 -126v-592q-35 2 -57.5 32t-22.5 73v483q0 102 72 181t176 79h371v232h80v-310zM1063 0h-612q-135 0 -231.5 95t-96.5 233v491q0 203 144.5 347.5t346.5 144.5h449 v-185h-326q-121 0 -207 -89t-86 -218v-483q0 -63 38 -107.5t91 -44.5h168v471h322v-655z" />
<glyph unicode="H" horiz-adv-x="1228" d="M1208 -125h-446v78h366v1358h80v-1436zM1083 0h-321v594h-297v-594h-322v1311h322v-533h297v533h321v-1311zM510 -47v594h205v-78h-125v-594h-447v78h367zM590 823h-80v488h80v-488z" />
<glyph unicode="I" horiz-adv-x="614" d="M512 1311h80v-1436h-447v78h367v1358zM467 0h-322v1311h322v-1311z" />
<glyph unicode="J" horiz-adv-x="778" d="M758 328q0 -188 -133 -320.5t-320 -132.5h-223v78h223q154 0 263.5 109.5t109.5 265.5v983h80v-983zM633 328q0 -135 -96.5 -231.5t-231.5 -96.5h-223v184h98q53 0 91 38t38 93v996h324v-983z" />
<glyph unicode="K" horiz-adv-x="1290" d="M1331 1311l-264 -496q86 -63 135 -158.5t49 -201.5v-580h-446v78h366v502q0 106 -56 195t-152 136l278 525h90zM1188 1311l-289 -545q100 -31 163.5 -117t63.5 -194v-455h-321v440q0 63 -38 107.5t-91 44.5h-211v-592h-322v1311h322v-533h102l281 533h340zM676 545 q29 0 51.5 -21.5t28.5 -56.5h-2h-164v-592h-447v78h367v592h166zM590 920l-51 -97h-29v488h80v-391z" />
<glyph unicode="L" horiz-adv-x="903" d="M924 -125h-781v78h701v231h80v-309zM799 0h-656v1311h322v-1127h334v-184zM590 229h-80v1082h80v-1082z" />
<glyph unicode="M" horiz-adv-x="1843" d="M1823 -125h-447v78h367v1030q0 123 -72 221q152 -111 152 -301v-1028zM1698 0h-322v995q0 63 -38 107.5t-91 44.5h-168v-1147h-321v1147h-293v-1147h-322v1311h1227q135 0 231.5 -96.5t96.5 -231.5v-983zM1327 1022h-2h-121v-1147h-446v78h366v1147h123q29 0 51.5 -21.5 t28.5 -56.5zM590 -125h-447v78h367v1147h201v-78h-121v-1147z" />
<glyph unicode="N" horiz-adv-x="1351" d="M1331 -125h-280q-127 0 -181 98q45 -20 101 -20h282v1358h78v-1436zM1206 0h-235q-100 0 -142 78l-364 737v-815h-322v1311h236q100 0 141 -78l365 -731v809h321v-1311zM840 694l-262 529q-27 57 -70 88q129 -6 188 -129l144 -291v-197zM590 -125h-447v78h369v665 l78 -157v-586z" />
<glyph unicode="O" horiz-adv-x="1249" d="M1249 903v-586q0 -190 -136 -316t-329 -126h-254q-96 0 -178 38t-123 114q100 -74 222 -74h346q154 0 264 109.5t110 265.5v655q0 121 -73 221q151 -100 151 -301zM1124 328q0 -137 -95 -232.5t-232 -95.5h-346q-135 0 -231.5 95t-96.5 233v655q0 135 96 231.5t232 96.5 h346q137 0 232 -96.5t95 -231.5v-655zM805 334v641q0 63 -39 107t-92 44h-101q-53 0 -91 -44t-38 -107v-641q0 -63 38 -106.5t91 -43.5h101q55 0 93 43.5t38 106.5zM758 1001h-160q-29 0 -29 -34v-738q-33 2 -55 32t-22 73v641q0 45 23.5 74.5t57.5 29.5h101q66 0 84 -78z " />
<glyph unicode="P" horiz-adv-x="1167" d="M1167 799q0 -184 -131 -320q-133 -133 -321 -133h-127v-471h-445v78h367v471h205q158 0 264 111q111 111 111 264v184q0 121 -74 223q152 -94 151 -303v-104zM1042 799q0 -135 -95 -231.5t-232 -96.5h-252v-471h-320v1311h574q137 0 231 -95.5t94 -232.5v-184zM723 807 v170q0 63 -38 106t-93 43h-129v-471h129q53 0 92 44.5t39 107.5zM676 1001h-88v-301h-78v379h82q66 0 84 -78z" />
<glyph unicode="Q" horiz-adv-x="1249" d="M1249 317q0 -158 -96 -274.5t-246 -153.5v-424h-440v78h362v412q143 12 242.5 118.5t99.5 254.5v655q0 121 -73 221q152 -100 151 -301v-586zM1124 328q0 -137 -95 -232.5t-232 -95.5h-15v-410h-315v410h-16q-135 0 -231.5 95t-96.5 233v655q0 135 96 231.5t232 96.5h346 q137 0 232 -96.5t95 -231.5v-655zM805 334v641q0 63 -39 107t-92 44h-101q-53 0 -91 -44t-38 -107v-641q0 -63 38 -106.5t91 -43.5h101q55 0 93 43.5t38 106.5zM569 229q-33 2 -55 32t-22 73v641q0 45 23.5 74.5t57.5 29.5h101q66 0 84 -78h-160q-29 0 -29 -34v-738z M420 -111q-133 35 -191 138q84 -61 191 -72v-66z" />
<glyph unicode="R" horiz-adv-x="1249" d="M1249 -125h-446v78h366v485q0 158 -114 269v440q0 59 -27 104q106 -55 107 -184v-338q115 -125 114 -287v-567zM1124 0h-321v442q0 63 -38 107.5t-91 44.5h-209v-594h-322v1311h703q68 0 116 -48.5t48 -115.5v-461q115 -100 114 -248v-438zM709 778v348h-244v-348h244z M754 469h-164v-594h-447v78h367v594h164q29 0 51.5 -21.5t28.5 -56.5zM662 1001h-72v-178h-80v256h152v-78z" />
<glyph unicode="S" d="M1126 229q0 -150 -103 -252t-253 -102h-627v78h621q117 0 200 84t83 201v292q0 82 -46 156q125 -68 125 -233v-224zM1001 238q0 -98 -69.5 -168t-167.5 -70h-621v186h537v389h-320q-98 0 -167.5 70t-69.5 168v260q0 98 69.5 168t167.5 70h621v-185h-539v-360h322 q98 0 167.5 -68.5t69.5 -167.5v-292zM633 451h-201q-156 0 -229 127q72 -49 157 -50h273v-77zM567 811h-80v268h539v232h80v-310h-539v-190z" />
<glyph unicode="T" horiz-adv-x="1105" d="M1106 1001h-287v-1126h-446v78h366v1126h287v232h80v-310zM981 1126h-287v-1126h-321v1126h-291v185h899v-185zM326 1001h-244v78h244v-78z" />
<glyph unicode="U" horiz-adv-x="1228" d="M1206 1311v-994q6 -184 -126 -313t-316 -129h-225q-205 0 -291 152q102 -74 223 -74h283q152 0 262 110.5t110 264.5v983h80zM1081 328q0 -137 -96 -232.5t-231 -95.5h-283q-135 0 -231.5 95t-96.5 233v983h322v-977q0 -63 38 -106.5t91 -43.5h37q53 0 91 43t38 107v977 h321v-983zM590 231q-35 2 -57.5 31t-22.5 72v977h80v-1080z" />
<glyph unicode="V" horiz-adv-x="1228" d="M510 236v1075h80v-1047q-39 -22 -80 -28zM1208 1311v-819q0 -256 -180 -436.5t-434 -180.5h-451v78h451q223 0 378.5 157.5t155.5 381.5v819h80zM1083 492q0 -205 -143 -348.5t-346 -143.5h-451v1311h322v-1127q123 0 210 89t87 219v819h321v-819z" />
<glyph unicode="W" horiz-adv-x="1843" d="M1126 209v1102h78v-1102h-78zM512 1311h78v-1100q-33 2 -55.5 31.5t-22.5 72.5v996zM1376 -125h-835q-211 0 -291 152q100 -74 221 -74h899q156 0 265.5 109.5t109.5 265.5v983h78v-989q0 -186 -129.5 -316.5t-317.5 -130.5zM1698 328q0 -135 -96.5 -231.5t-231.5 -96.5 h-899q-135 0 -231.5 96.5t-96.5 231.5v983h322v-996q0 -63 38 -107t91 -44h164v1147h321v-1147h168q53 0 91 44t38 107v996h322v-983z" />
<glyph unicode="X" horiz-adv-x="1228" d="M1208 -125h-446v78h366v475q0 102 -59 186q-27 39 -70 72q43 33 70 72q59 84 59 186v367h80v-367q0 -119 -69 -217q-16 -23 -35 -41q20 -20 35 -43q70 -98 69 -215v-553zM1083 0h-321v512q0 37 -23.5 59.5t-58.5 22.5h-133q-35 0 -58.5 -22.5t-23.5 -59.5v-512h-322v428 q0 88 50.5 157.5t130.5 100.5q-80 31 -130.5 100.5t-50.5 157.5v367h322v-451q0 -37 23.5 -59.5t58.5 -22.5h133q35 0 58.5 22.5t23.5 59.5v451h321v-367q0 -88 -50 -157.5t-130 -100.5q80 -31 130 -100.5t50 -157.5v-428zM715 469h-125v-594h-447v78h367v559q0 35 37 35 h133q35 0 35 -35v-43zM590 823h-43q-37 0 -37 37v451h80v-488z" />
<glyph unicode="Y" horiz-adv-x="1187" d="M1188 840q0 -145 -91 -268t-231 -162v-535h-444v78h364v516q137 14 229.5 123.5t92.5 247.5v471h80v-471zM1063 840q0 -133 -94.5 -228.5t-227.5 -99.5v-512h-319v512q-133 4 -226.5 99.5t-93.5 228.5v471h322v-465q0 -63 38 -106.5t91 -43.5h59q53 0 91 43t38 107v465 h322v-471zM549 743q-35 2 -57.5 31t-22.5 72v465h80v-568zM375 412q-111 31 -166 127q72 -53 166 -70v-57z" />
<glyph unicode="Z" horiz-adv-x="1249" d="M1311 1311l-615 -1082h-92l615 1082h92zM1184 -125h-1188l45 78h1063v231h80v-309zM1167 1311l-641 -1127h533v-184h-996l637 1126h-530v185h997zM621 1079l-46 -78h-405v78h451z" />
<glyph unicode="[" horiz-adv-x="757" d="M778 -535h-655v78h577v232h78v-310zM778 1186h-209v-1366h-77v1444h208v231h78v-309zM653 -410h-530v1905h530v-184h-209v-1536h209v-185z" />
<glyph unicode="\" horiz-adv-x="1146" d="M1266 -125h-494l-41 78h406l-703 1358h88zM1061 0h-340l-676 1311h338z" />
<glyph unicode="]" horiz-adv-x="737" d="M737 -535h-655v78h575v1952h80v-2030zM612 -410h-530v185h209v1536h-209v184h530v-1905zM244 1186h-162v78h162v-78z" />
<glyph unicode="^" horiz-adv-x="962" d="M1036 694h-385l-51 78h385zM920 819h-322l-119 182l-119 -182h-321l321 492h236zM526 844l-98 -150h-395l51 78h301l94 146z" />
<glyph unicode="_" horiz-adv-x="1105" d="M1126 -348h-1146v184h1146v-184z" />
<glyph unicode="`" horiz-adv-x="942" d="M625 1147h-201l-219 348h201z" />
<glyph unicode="a" horiz-adv-x="1105" d="M1085 -125h-741q-121 0 -182 107q47 -29 104 -29h740v866q0 59 -27 105q106 -61 106 -185v-864zM961 0h-695q-68 0 -116 48t-48 116v266q0 68 48.5 116t115.5 48h398v205h-517v184h650q68 0 116 -48t48 -116v-819zM664 184v226h-265v-226h265zM616 285h-92v-56h-80v133 h172v-77zM616 674h-469v78h469v-78z" />
<glyph unicode="b" d="M1126 322q0 -186 -129 -316.5t-317 -130.5h-557v78h551q154 0 264.5 109.5t110.5 265.5v327q0 121 -74 224q152 -96 151 -297v-260zM1001 328q0 -137 -95 -232.5t-232 -95.5h-551v1495h297v-512h254q137 0 232 -95t95 -233v-327zM705 328v327q0 61 -36 102.5t-87 41.5 h-162v-615h162q51 0 87 41.5t36 102.5zM657 674h-112v-445h-78v523h115q29 0 50 -21.5t25 -56.5zM545 1028h-78v467h78v-467z" />
<glyph unicode="c" horiz-adv-x="1044" d="M983 -125h-487q-92 0 -170 39t-119 113q100 -74 223 -74h473v231h80v-309zM1044 530h-421v78h342v211q0 59 -27 105q106 -47 106 -179v-215zM858 0h-428q-137 0 -232.5 95t-95.5 233v327q0 137 95.5 232.5t232.5 95.5h326q68 0 116 -48t48 -116v-164h-297v144h-101 q-51 0 -87 -41t-36 -103v-327q0 -61 36 -102.5t87 -41.5h336v-184zM575 670h-26q-25 0 -25 -29v-412h-2q-33 0 -55.5 29t-22.5 70v327q0 41 22.5 69t55.5 28h53v-82z" />
<glyph unicode="d" d="M1106 -125h-617q-190 0 -280 152q100 -74 221 -74h598v1542h78v-1620zM981 0h-551q-137 0 -232.5 95t-95.5 233v327q0 137 95.5 232.5t232.5 95.5h254v512h297v-1495zM684 184v615h-162q-51 0 -87 -41t-36 -103v-327q0 -61 36 -102.5t87 -41.5h162zM639 674h-84 q-31 0 -31 -33v-412h-2q-33 0 -54.5 29t-21.5 70v327q0 41 21.5 69t54.5 28h117v-78z" />
<glyph unicode="e" d="M1065 -125h-567q-201 0 -291 152q100 -74 223 -74h555v231h80v-309zM1126 285h-602v-56h-2q-33 0 -55.5 29t-22.5 70v34h603v293q0 123 -72 224q152 -102 151 -293v-301zM940 0h-510q-137 0 -232.5 95t-95.5 233v327q0 137 95.5 232.5t232.5 95.5h244q137 0 232 -95 t95 -233v-245h-602v-82q0 -61 36 -102.5t87 -41.5h418v-184zM705 594v61q0 61 -36 102.5t-87 41.5h-60q-51 0 -87 -41t-36 -103v-61h306zM657 674h-96q-35 0 -35 -35h-82v16q0 41 22.5 69t55.5 28h60q29 0 50 -21.5t25 -56.5z" />
<glyph unicode="f" horiz-adv-x="921" d="M160 672h-119v80h119v-80zM901 672h-272v-799h-424v80h344v799h272v231h80v-311zM774 799h-272v-799h-297v799h-164v184h164v348q0 68 48 116t116 48h405v-184h-272v-328h272v-184zM901 1184h-272v-156h-80v236h272v231h80v-311z" />
<glyph unicode="g" d="M1106 -252q0 -121 -82 -202t-201 -81h-600v78h594q86 0 147.5 61.5t61.5 149.5v1229h80v-1235zM981 -246q0 -68 -48 -116t-116 -48h-594v185h461v225h-254q-137 0 -232.5 95t-95.5 233v327q0 137 95.5 232.5t232.5 95.5h551v-1229zM684 184v615h-162q-51 0 -87 -41 t-36 -103v-327q0 -61 36 -102.5t87 -41.5h162zM637 -125h-135q-201 0 -295 152q100 -74 223 -74h207v-78zM637 674h-76q-37 0 -37 -41v-404h-2q-33 0 -55.5 29t-22.5 70v327q0 41 22.5 69t55.5 28h115v-78z" />
<glyph unicode="h" horiz-adv-x="1148" d="M1128 -125h-421v78h342v702q0 123 -72 224q152 -98 151 -291v-713zM1004 0h-297v655q0 61 -36 102.5t-87 41.5h-164v-799h-297v1495h297v-512h256q137 0 232.5 -95t95.5 -233v-655zM659 674h-114v-799h-422v78h342v799h119q27 0 48 -21.5t27 -56.5zM545 1028h-80v467h80 v-467z" />
<glyph unicode="i" horiz-adv-x="573" d="M549 -125h-422v78h342v1030h80v-1108zM549 1104h-422v78h342v313h80v-391zM424 0h-297v983h297v-983zM424 1229h-297v266h297v-266z" />
<glyph unicode="j" horiz-adv-x="573" d="M549 -246q0 -119 -85 -204t-204 -85h-260v78h260q86 0 147.5 61.5t61.5 149.5v1229h80v-1229zM549 1104h-422v78h342v313h80v-391zM424 -246q0 -68 -48 -116t-116 -48h-260v185h127v1208h297v-1229zM424 1229h-297v266h297v-266z" />
<glyph unicode="k" horiz-adv-x="1208" d="M1249 983l-233 -371q166 -135 166 -346v-391h-418v78h338v313q0 104 -51.5 191.5t-139.5 136.5l246 389h92zM1102 983l-258 -410q94 -37 153.5 -119.5t59.5 -187.5v-266h-293v266q0 61 -36 102.5t-87 41.5h-219v-410h-299v1495h299v-901h100l244 389h336zM717 285h-170 v-410h-424v78h344v409h174q29 0 50.5 -21t25.5 -56zM547 719l-49 -80h-31v856h80v-776z" />
<glyph unicode="l" horiz-adv-x="573" d="M549 -125h-422v78h342v1542h80v-1620zM424 0h-297v1495h297v-1495z" />
<glyph unicode="m" horiz-adv-x="1699" d="M1679 -125h-422v78h345v702q0 121 -74 224q152 -88 151 -291v-713zM1554 0h-297v655q0 61 -35.5 102.5t-86.5 41.5h-148v-799h-297v799h-270v-799h-297v983h1104q137 0 232 -95t95 -233v-655zM1210 674h-98v-799h-422v78h344v799h101q29 0 50 -21.5t25 -56.5zM645 674 h-100v-799h-422v78h344v799h178v-78z" />
<glyph unicode="n" horiz-adv-x="1146" d="M1126 -125h-421v78h342v702q0 123 -72 224q152 -102 151 -291v-713zM1001 0h-296v655q0 61 -36 102.5t-87 41.5h-162v-799h-297v983h551q137 0 232 -95t95 -233v-655zM655 674h-110v-799h-422v78h342v799h117q27 0 48 -21.5t25 -56.5z" />
<glyph unicode="o" d="M1126 328q0 -186 -131 -322q-135 -131 -321 -131h-185q-195 0 -282 152q100 -74 223 -74h244q158 0 264 110q109 104 109 265v327q0 123 -72 224q152 -92 151 -283v-268zM1001 328q0 -137 -95 -232.5t-232 -95.5h-244q-137 0 -232.5 95t-95.5 233v327q0 137 95.5 232.5 t232.5 95.5h244q137 0 232 -95t95 -233v-327zM705 328v327q0 61 -36 102.5t-87 41.5h-60q-51 0 -87 -41t-36 -103v-327q0 -61 36 -102.5t87 -41.5h60q51 0 87 41.5t36 102.5zM657 674h-102q-31 0 -31 -33v-412h-2q-33 0 -55.5 29t-22.5 70v327q0 41 22.5 69t55.5 28h60 q29 0 50 -21.5t25 -56.5z" />
<glyph unicode="p" d="M1126 586v-258q0 -188 -133 -322q-131 -131 -319 -131h-129v-410h-422v78h342v410h209q158 0 264 110q109 109 109 265v327q0 123 -72 224q151 -92 151 -293zM1001 328q0 -137 -95 -232.5t-232 -95.5h-254v-410h-297v1393h551q137 0 232 -95t95 -233v-327zM705 328v327 q0 61 -36 102.5t-87 41.5h-162v-615h162q51 0 87 41.5t36 102.5zM657 674h-112v-445h-80v523h117q29 0 50 -21.5t25 -56.5z" />
<glyph unicode="q" d="M1106 -535h-422v78h342v1112q0 123 -72 224q86 -39 119 -105.5t33 -167.5v-1141zM981 -410h-297v410h-256q-137 0 -232.5 95t-95.5 233v327q0 137 95.5 232.5t232.5 95.5h225q137 0 232.5 -95t95.5 -233v-1065zM684 184v471q0 61 -36 102.5t-87 41.5h-41q-51 0 -87 -41 t-36 -103v-327q0 -61 36 -102.5t87 -41.5h164zM637 674h-86q-29 0 -29 -33v-412h-2q-33 0 -55.5 29t-22.5 70v327q0 41 22.5 69t55.5 28h41q29 0 50.5 -21.5t25.5 -56.5zM637 -125h-162q-197 0 -270 152q102 -74 223 -74h209v-78z" />
<glyph unicode="r" horiz-adv-x="1067" d="M1067 449h-422v77h342v293q0 59 -26 105q106 -61 106 -185v-290zM942 573h-297v226h-225v-799h-297v983h655q68 0 116 -48t48 -116v-246zM598 674h-53v-799h-422v78h342v799h133v-78z" />
<glyph unicode="s" horiz-adv-x="1003" d="M1004 158q0 -121 -82 -202t-201 -81h-584v78h578q86 0 147.5 61.5t61.5 149.5v242q0 55 -27 104q106 -47 107 -164v-188zM969 674h-445v-60h-80v138h445v231h80v-309zM879 164q0 -68 -48.5 -116t-115.5 -48h-578v184h445v201h-316q-68 0 -116 48t-48 116v270 q0 68 48.5 116t115.5 48h578v-184h-445v-230h316q68 0 116 -48t48 -115v-242zM535 260h-201q-125 0 -172 107q47 -29 104 -29h269v-78z" />
<glyph unicode="t" horiz-adv-x="901" d="M901 -125h-434q-121 0 -182 107q47 -29 104 -29h432v231h80v-309zM901 674h-254v-445h-80v523h254v231h80v-309zM776 0h-387q-68 0 -116 48t-48 116v635h-164v184h164v328h297v-328h254v-184h-254v-615h254v-184zM178 674h-117v78h117v-78zM647 1028h-80v283h80v-283z " />
<glyph unicode="u" d="M1106 328q0 -184 -134 -321.5t-319 -131.5h-143q-154 0 -266 109q-25 29 -35 43q100 -74 221 -74h223q154 0 264.5 110.5t110.5 264.5v655h78v-655zM981 328q0 -137 -95 -232.5t-233 -95.5h-223q-137 0 -232.5 95t-95.5 233v655h297v-655q0 -61 36 -102.5t87 -41.5h39 q51 0 87 41t36 103v655h297v-655zM524 229h-2q-33 0 -54.5 29t-21.5 70v655h78v-754z" />
<glyph unicode="v" horiz-adv-x="1146" d="M1126 328q0 -184 -134 -321.5t-318 -131.5h-551v78h551q154 0 263.5 110.5t109.5 264.5v655h79v-655zM1001 328q0 -137 -95 -232.5t-232 -95.5h-551v983h297v-799h162q51 0 87 41t36 103v655h296v-655zM545 229h-80v754h80v-754z" />
<glyph unicode="w" horiz-adv-x="1689" d="M1669 983v-655q0 -188 -133 -322q-131 -131 -319 -131h-701q-193 0 -289 152q100 -74 224 -74h766q158 0 264 110q109 109 108 265v655h80zM1544 328q0 -137 -95 -232.5t-232 -95.5h-766q-137 0 -232.5 95t-95.5 233v655h297v-655q0 -61 36 -102.5t87 -41.5h141v799h297 v-799h143q51 0 87 41t36 103v655h297v-655zM1106 229h-80v754h80v-754zM545 229h-2q-33 0 -55.5 29t-22.5 70v655h80v-754z" />
<glyph unicode="x" horiz-adv-x="1146" d="M1126 -125h-421v78h342v307q0 100 -58 176q-29 43 -65 68q123 92 123 246v233h79v-233q0 -137 -92 -246q92 -109 92 -246v-383zM1001 0h-296v328q0 37 -24 59.5t-58 22.5h-121q-35 0 -58.5 -22.5t-23.5 -59.5v-328h-297v260q0 84 48 149.5t124 94.5q-76 29 -124 95.5 t-48 150.5v233h297v-309q0 -37 23.5 -59.5t58.5 -22.5h121q35 0 58.5 22.5t23.5 59.5v309h296v-233q0 -84 -48 -151t-124 -95q76 -29 124 -94.5t48 -149.5v-260zM545 637h-43q-37 0 -37 37v309h80v-346zM657 285h-96q-16 0 -16 -17v-393h-422v78h342v375q0 35 37 34h121 q35 0 34 -34v-43z" />
<glyph unicode="y" horiz-adv-x="1146" d="M1126 -246q0 -119 -84 -204t-204 -85h-256v78h256q86 0 147.5 61.5t61.5 149.5v1229h79v-1229zM1001 -246q0 -68 -48 -116t-115 -48h-256v185h123v225h-254q-137 0 -232.5 95t-95.5 233v655h297v-655q0 -61 36 -102.5t87 -41.5h162v799h296v-1229zM545 229h-2 q-33 0 -55.5 29t-22.5 70v655h80v-754zM657 -125h-129q-156 0 -264 109l-37 43q100 -74 224 -74h206v-78z" />
<glyph unicode="z" horiz-adv-x="1187" d="M1249 983l-532 -754h-99l533 754h98zM1161 -125h-1200l57 78h1065v231h78v-309zM1036 0h-991l571 799h-497v184h977l-566 -799h506v-184zM469 674h-350v78h407z" />
<glyph unicode="{" horiz-adv-x="716" d="M696 -535h-172q-186 0 -301 152q104 -74 223 -74h170v232h80v-310zM696 1186h-96q-33 0 -33 -35v-477l-178 -176l-55 55l153 154v473q0 35 25 59.5t59 24.5h45v231h80v-309zM569 -410h-123q-135 0 -230 96.5t-95 231.5v514l-121 121l121 121v493q0 135 95 231.5t230 96.5 h123v-184q-53 0 -90 -38t-37 -93v-455l-174 -172l174 -174v-473q0 -55 37 -93t90 -38v-185zM567 -178q-35 2 -57.5 25.5t-22.5 58.5v491l80 -78v-497z" />
<glyph unicode="|" horiz-adv-x="696" d="M614 -535h-409v78h330v1952h79v-2030zM489 -410h-284v1905h284v-1905z" />
<glyph unicode="}" horiz-adv-x="737" d="M778 498l-116 -117v-471q0 -186 -129.5 -315.5t-317.5 -129.5h-133v78h125q154 0 264.5 109.5t110.5 265.5v496l141 139zM657 553l-120 -121v-514q0 -135 -97.5 -231.5t-232.5 -96.5h-125v185q53 0 91 37.5t38 93.5v473l174 174l-174 172v455q0 55 -38 93t-91 38v184h125 q135 0 232.5 -96t97.5 -232v-493zM662 614l-80 78v475q0 123 -72 222q152 -88 152 -281v-494zM166 1186h-84v78q33 0 56.5 -22.5t27.5 -55.5z" />
<glyph unicode="~" horiz-adv-x="1044" d="M1044 840v-310h-335q-33 -82 -107 -133t-162 -51h-338v80h338q80 0 139.5 53t69.5 131h316v230h79zM920 655h-316v-20q0 -68 -48 -116t-116 -48h-338v184h318v21q0 68 48 116t116 48h336v-185z" />
<glyph unicode="&#xa1;" horiz-adv-x="573" d="M573 -453h-450v78h371v899h79v-977zM573 571h-450v78h371v334h79v-412zM449 -328h-326v852h326v-852zM449 696h-326v287h326v-287z" />
<glyph unicode="&#xa2;" horiz-adv-x="942" d="M942 39h-172v-164h-395v80h315v164h172v229h80v-309zM942 674h-401q-20 0 -28.5 -8.5t-8.5 -32.5v-219v-19h-2q-33 0 -55.5 28t-22.5 69v163q0 41 22.5 70t55.5 29h360v229h80v-309zM817 164h-172v-164h-270v164q-125 14 -209 106t-84 222v163q0 127 84 219.5t209 106.5 v166h270v-164h172v-184h-315q-51 0 -87 -41t-36 -103v-163q0 -61 36 -102.5t87 -41.5h315v-184zM770 1030h-80v117h80v-117zM328 74q-92 39 -142 114q61 -45 142 -63v-51z" />
<glyph unicode="&#xa3;" horiz-adv-x="1024" d="M1024 203h-942v78h862v231h80v-309zM942 602h-276q0 -27 -7 -45h-86q12 49 13 98v25h276v231h80v-309zM944 1001h-237q-41 0 -41 -45h-80v27q0 41 22.5 68.5t55.5 27.5h200v232h80v-310zM899 328h-817v184h39q51 0 87 41t36 102v72h-162v184h162v72q0 137 95 232.5 t232 95.5h248v-185h-155q-51 0 -87 -41t-36 -102v-72h276v-184h-276v-72q0 -74 -33 -143h391v-184zM184 602h-102v78h115v-25q-1 -33 -13 -53z" />
<glyph unicode="&#xa4;" d="M1159 299l-223 -217l-55 55l223 219zM1159 940l-166 -166v-307l-80 78v264l191 186zM1038 356l-157 -153l-166 168h-309l-166 -168l-158 153l168 168v303l-168 168l158 156l166 -168h311l164 168l157 -156l-170 -168v-301zM659 578v198h-198v-198h198zM612 623h-106v106 h106v-106zM772 246h-315l-162 -164l-55 55l184 187h270z" />
<glyph unicode="&#xa5;" horiz-adv-x="1310" d="M1309 1311l-279 -447h-94l278 447h95zM1159 1311l-305 -492h166v-184h-270v-94h270v-185h-270v-356h-297v356h-273v185h273v94h-273v184h168l-307 492h328l231 -400l231 400h328zM1145 231h-271v-356h-421v78h342v356h270v510h80v-588zM600 1004l-178 307h90l133 -230z M406 231h-226v78h226v-78z" />
<glyph unicode="&#xa6;" horiz-adv-x="532" d="M410 1311v-738h-287v738h287zM410 328v-738h-287v738h287z" />
<glyph unicode="&#xa7;" horiz-adv-x="1024" d="M1024 -27q0 -119 -82 -200.5t-201 -81.5h-618v78h612q86 0 147.5 61t61.5 150v839q0 55 -26 105q106 -55 106 -185v-766zM1024 1186h-469v-158h-78v236h467v231h80v-309zM899 -20q0 -68 -48 -116t-116 -48h-612v184h479v328h-315q-68 0 -116 48t-48 116v839q0 68 48 116 t116 48h612v-184h-481v-328h317q68 0 116 -48t48 -116v-839zM602 492v327h-184v-327h184zM555 203h-176q-123 0 -182 106q45 -29 102 -28h256v-78zM555 537h-78v235h78v-235z" />
<glyph unicode="&#xa8;" horiz-adv-x="942" d="M395 1141h-170v170h170v-170zM717 1141h-170v170h170v-170z" />
<glyph unicode="&#xa9;" horiz-adv-x="1536" d="M1516 492q0 -254 -180.5 -435.5t-436.5 -181.5h-209q-254 0 -416 199q147 -121 338 -121h287q223 0 380 157.5t157 381.5v327q0 195 -119 338q199 -141 199 -418v-247zM1391 492q0 -203 -143.5 -347.5t-348.5 -144.5h-287q-203 0 -346 144.5t-143 347.5v327 q0 205 142.5 348.5t346.5 143.5h287q205 0 348.5 -143.5t143.5 -348.5v-327zM1186 485v340q0 117 -87 198t-210 81h-266q-125 0 -212 -81t-87 -198v-340q0 -119 87 -199.5t212 -80.5h266q123 0 210 80.5t87 199.5zM1022 328h-389q-68 0 -116 48t-48 116v327q0 68 47 116 t117 48h389v-178h-301v-299h301v-178z" />
<glyph unicode="&#xaa;" horiz-adv-x="819" d="M819 694h-565q-111 0 -148 94q37 -16 70 -16h563v610q0 37 -14 66q43 -18 68.5 -57t25.5 -88v-609zM694 819h-518q-47 0 -81 33t-34 80v182q0 47 34 82t81 35h307v123h-389v141h488q47 0 79.5 -32.5t32.5 -80.5v-563zM483 961v129h-209v-129h209z" />
<glyph unicode="&#xab;" horiz-adv-x="1372" d="M788 221l-235 -254l-57 58l235 251zM760 815l-279 -285l-57 56l278 284zM668 276l-174 -184l-494 494l496 495l170 -182l-306 -313zM1413 221l-235 -254l-58 58l236 251zM1384 815l-278 -285l-57 56l278 284zM1292 276l-174 -184l-493 494l495 495l170 -182l-305 -313z " />
<glyph unicode="&#xac;" horiz-adv-x="1064" d="M942 246h-256v153h-563v256h819v-409z" />
<glyph unicode="&#xad;" horiz-adv-x="716" d="M717 346h-615v78h535v252h80v-330zM592 471h-490v205h490v-205z" />
<glyph unicode="&#xae;" horiz-adv-x="1146" d="M1139 1012q0 -205 -145.5 -351.5t-350.5 -146.5q-240 0 -387 186q137 -109 307 -108q207 0 352.5 146.5t145.5 351.5q0 172 -109 307q187 -147 187 -385zM1014 1089.5q0 -186.5 -132 -318.5t-318.5 -132t-317.5 132t-131 318.5t131 317.5t317.5 131t318.5 -131 t132 -317.5zM838 825v181q0 39 -26 68.5t-62 37.5v145q0 45 -32 77t-77 32h-319v-541h149v174h215v-174h152zM596 1114h-125v137h125v-137z" />
<glyph unicode="&#xaf;" horiz-adv-x="942" d="M717 1141h-492v170h492v-170z" />
<glyph unicode="&#xb0;" horiz-adv-x="737" d="M758 897q0 -119 -83 -203t-202 -82h-170q-59 0 -110.5 29t-71.5 78q47 -29 104 -29h244q86 0 147.5 62.5t61.5 148.5v246q0 57 -27 104q106 -51 107 -184v-170zM633 901q0 -68 -47 -116t-117 -48h-244q-68 0 -116 48.5t-48 115.5v246q0 68 48.5 116t115.5 48h244 q70 0 117 -48.5t47 -115.5v-246zM440 930v188h-186v-188h186zM393 975h-94v96h94v-96z" />
<glyph unicode="&#xb1;" horiz-adv-x="1064" d="M942 608h-280v-280h-259v280h-280v256h280v283h259v-283h280v-256zM942 0h-819v256h819v-256z" />
<glyph unicode="&#xb2;" horiz-adv-x="921" d="M840 985q0 -68 -48.5 -116t-115.5 -48h-305v-164h438v-165h-727v331q0 68 48 116t116 48h305v158h-451v166h576q68 0 116 -48.5t48 -115.5v-162z" />
<glyph unicode="&#xb3;" horiz-adv-x="921" d="M840 655q0 -68 -48.5 -115.5t-115.5 -47.5h-594v165h469v164h-469v166h381v158h-381v166h670v-344q88 -45 88 -144v-168z" />
<glyph unicode="&#xb4;" horiz-adv-x="942" d="M737 1495l-219 -348h-201l220 348h200z" />
<glyph unicode="&#xb5;" horiz-adv-x="1187" d="M1229 -125h-158q-119 0 -217 55q-96 -55 -215 -55h-115v-410h-422v80h342v418q35 -8 82 -8h113q119 0 211 63q104 -63 221 -63h78v229h80v-309zM1104 0h-33q-119 0 -221 76q-88 -76 -211 -76h-113q-68 0 -127 25v-435h-297v1393h297v-655q0 -61 36 -102.5t87 -41.5h39 q51 0 87 41t36 103v655h297v-655q0 -61 36 -102.5t87 -41.5v-184zM1104 231q-33 0 -55.5 28t-22.5 69v655h80v-752h-2zM522 231q-33 0 -55.5 28t-22.5 69v655h80v-752h-2z" />
<glyph unicode="&#x3bc;" horiz-adv-x="1187" d="M1229 -125h-158q-119 0 -217 55q-96 -55 -215 -55h-115v-410h-422v80h342v418q35 -8 82 -8h113q119 0 211 63q104 -63 221 -63h78v229h80v-309zM1104 0h-33q-119 0 -221 76q-88 -76 -211 -76h-113q-68 0 -127 25v-435h-297v1393h297v-655q0 -61 36 -102.5t87 -41.5h39 q51 0 87 41t36 103v655h297v-655q0 -61 36 -102.5t87 -41.5v-184zM1104 231q-33 0 -55.5 28t-22.5 69v655h80v-752h-2zM522 231q-33 0 -55.5 28t-22.5 69v655h80v-752h-2z" />
<glyph unicode="&#xb6;" horiz-adv-x="1044" d="M922 330h-213v819h-148v-819h-213v491h-102q-68 0 -116 48.5t-48 115.5v164q0 68 48 116t116 48h676v-983z" />
<glyph unicode="&#xb7;" horiz-adv-x="655" d="M614 346h-450v78h371v334h79v-412zM489 471h-325v287h325v-287z" />
<glyph unicode="&#xb8;" horiz-adv-x="942" d="M594 -246q0 -68 -48 -116t-116 -48h-164v170h158v158h170v-164z" />
<glyph unicode="&#xb9;" horiz-adv-x="552" d="M471 492h-291v653h-174v166h465v-819z" />
<glyph unicode="&#xba;" horiz-adv-x="819" d="M819 1044q0 -147 -102 -249q-100 -100 -248 -101h-86q-70 0 -132.5 32t-92.5 89q68 -43 147 -43h164q111 0 193 78q78 78 77 194v226q0 82 -43 147q123 -80 123 -227v-146zM694 1044q0 -94 -65.5 -159.5t-159.5 -65.5h-164q-94 0 -158.5 65.5t-64.5 159.5v226 q0 94 64.5 159.5t158.5 65.5h164q94 0 159.5 -65.5t65.5 -159.5v-226zM483 1059v196q0 41 -25.5 70t-60.5 29h-20q-35 0 -60.5 -29t-25.5 -70v-196q0 -43 24.5 -70.5t61.5 -27.5h20q37 0 61.5 27.5t24.5 70.5z" />
<glyph unicode="&#xbb;" horiz-adv-x="1392" d="M846 504l-533 -533l-57 56l532 534zM750 586l-494 -494l-174 184l307 310l-305 313l170 182zM1470 504l-532 -533l-57 56l532 534zM1374 586l-493 -494l-174 184l307 310l-305 313l170 182z" />
<glyph unicode="&#xbc;" horiz-adv-x="1925" d="M465 492h-291v653h-174v166h465v-819zM1317 1311l-676 -1311h-340l678 1311h338zM1884 150h-151v-150h-289v150h-543l344 669h295l-258 -504h162v217h289v-217h151v-165z" />
<glyph unicode="&#xbd;" horiz-adv-x="1966" d="M465 492h-291v653h-174v166h465v-819zM1317 1311l-676 -1311h-340l678 1311h338zM1884 494q0 -68 -48 -116t-116 -48h-305v-164h438v-166h-727v332q0 68 48.5 116t115.5 48h305v157h-450v166h575q68 0 116 -48t48 -116v-161z" />
<glyph unicode="&#xbe;" horiz-adv-x="2211" d="M840 655q0 -68 -48.5 -115.5t-115.5 -47.5h-594v165h469v164h-469v166h381v158h-381v166h670v-344q88 -45 88 -144v-168zM1604 1311l-676 -1311h-340l678 1311h338zM2171 150h-152v-150h-288v150h-543l344 669h295l-258 -504h162v217h288v-217h152v-165z" />
<glyph unicode="&#xbf;" horiz-adv-x="921" d="M840 571h-451v78h371v334h80v-412zM715 696h-326v287h326v-287zM797 -328h-551q-94 0 -144 84l-6 11q-12 33 -14 49v14v6v350v7q0 14 2 20v6q16 70 76 105l4 4l18 8l19 6q2 0 6 1t6 1q16 4 25 4h8h143v176h326v-196q0 -14 -2 -21q0 -8 -2 -12q0 -2 -1 -6t-1 -6l-4 -13 q-4 -12 -9 -18l-6 -10q-16 -29 -41 -47l-22 -13q-4 -4 -17 -8q-10 -4 -30 -8q-8 -2 -27 -2h-143v-307h387v-185zM922 -453h-598q-121 0 -183 107q47 -29 105 -29h596v232h80v-310zM840 328q0 -119 -84 -204t-203 -85h-18v-137h-80v215h98q86 0 146.5 61.5t60.5 149.5v194h80 v-194z" />
<glyph unicode="&#xc0;" horiz-adv-x="1228" d="M760 1454h-201l-219 348h201zM1208 -125h-446v78h366v1030q0 127 -73 223q72 -51 112.5 -132t40.5 -169v-1030zM1083 0h-321v471h-297v-471h-322v983q0 137 96.5 232.5t231.5 95.5h285q135 0 231 -95.5t96 -232.5v-983zM762 655v320q0 70 -35 110.5t-94 40.5h-39 q-59 0 -94 -41t-35 -110v-320h297zM713 1001h-74q-49 0 -49 -57v-244h-80v275q0 104 84 104h39q37 0 59 -22q19 -25 21 -56zM715 346h-125v-471h-447v78h367v471h205v-78z" />
<glyph unicode="&#xc1;" horiz-adv-x="1228" d="M1208 -125h-446v78h366v1030q0 127 -73 223q23 -14 41 -35q113 -113 112 -266v-1030zM1083 0h-321v471h-297v-471h-322v983q0 137 96.5 232.5t231.5 95.5h285q135 0 231 -95.5t96 -232.5v-983zM762 655v320q0 70 -35 110.5t-94 40.5h-39q-59 0 -94 -41t-35 -110v-320h297 zM713 1001h-74q-49 0 -49 -57v-244h-80v275q0 104 84 104h39q37 0 59 -22q19 -25 21 -56zM715 346h-125v-471h-447v78h367v471h205v-78zM942 1802l-219 -348h-201l219 348h201z" />
<glyph unicode="&#xc2;" horiz-adv-x="1228" d="M1208 -125h-446v78h366v1030q0 127 -73 223q23 -14 41 -35q113 -113 112 -266v-1030zM1083 0h-321v471h-297v-471h-322v983q0 137 96.5 232.5t231.5 95.5h285q135 0 231 -95.5t96 -232.5v-983zM762 655v320q0 70 -35 110.5t-94 40.5h-39q-59 0 -94 -41t-35 -110v-320h297 zM713 1001h-74q-49 0 -49 -57v-244h-80v275q0 104 84 104h39q37 0 59 -22q19 -25 21 -56zM715 346h-125v-471h-447v78h367v471h205v-78zM942 1475h-203l-102 165l-107 -165h-202l221 348h176z" />
<glyph unicode="&#xc3;" horiz-adv-x="1228" d="M922 1438h-246q-70 0 -120 49t-50 121v6h-240v172h240q72 0 121 -50t49 -122v-6h246v-170zM1208 -125h-446v78h366v1030q0 127 -73 223q70 -47 111.5 -130t41.5 -171v-1030zM1083 0h-321v471h-297v-471h-322v983q0 137 96.5 232.5t231.5 95.5h285q135 0 231 -95.5 t96 -232.5v-983zM762 655v320q0 70 -35 110.5t-94 40.5h-39q-59 0 -94 -41t-35 -110v-320h297zM713 1001h-74q-49 0 -49 -57v-244h-80v275q0 104 84 104h39q37 0 59 -22q19 -25 21 -56zM715 346h-125v-471h-447v78h367v471h205v-78z" />
<glyph unicode="&#xc4;" horiz-adv-x="1228" d="M569 1468h-170v170h170v-170zM891 1468h-170v170h170v-170zM1208 -125h-446v78h366v1030q0 127 -73 223q72 -51 112.5 -132t40.5 -169v-1030zM1083 0h-321v471h-297v-471h-322v983q0 137 96.5 232.5t231.5 95.5h285q135 0 231 -95.5t96 -232.5v-983zM762 655v320 q0 70 -35 110.5t-94 40.5h-39q-59 0 -94 -41t-35 -110v-320h297zM713 1001h-74q-49 0 -49 -57v-244h-80v275q0 104 84 104h39q37 0 59 -22q19 -25 21 -56zM715 346h-125v-471h-447v78h367v471h205v-78z" />
<glyph unicode="&#xc5;" horiz-adv-x="1208" d="M1188 -125h-447v78h367v1030q0 123 -72 221q152 -98 152 -301v-1028zM1063 0h-322v471h-299v-471h-319v983q0 109 62.5 194t162.5 117q-2 4 -2 17v164q0 68 48 115.5t116 47.5h164q68 0 116 -48t48 -115v-164v-17q100 -33 162.5 -117.5t62.5 -193.5v-983zM741 655v320 q0 63 -37.5 107t-91.5 44h-41q-53 0 -91 -44t-38 -107v-320h299zM676 1309v166h-168v-166h168zM963 1280q-33 25 -80 45v150q0 55 -27 104q106 -61 107 -184v-115zM694 346h-127v-471h-444v78h364v471h207v-78zM692 1001h-2h-82q-41 0 -41 -43v-258h-80v275q0 45 25 74.5 t59 29.5h41q62 0 80 -78zM629 1354h-76v73h76v-73z" />
<glyph unicode="&#xc6;" horiz-adv-x="1679" d="M1655 -125h-473q-96 0 -177 39t-122 113q100 -74 221 -74h471v231h80v-309zM1659 469h-436v-240q-35 4 -57.5 32t-22.5 67v219h436v231h80v-309zM1655 1001h-432v-178h-80v256h432v232h80v-310zM1530 0h-426q-135 0 -231.5 96.5t-96.5 231.5v143h-313v-471h-320v983 q0 137 95.5 232.5t230.5 95.5h1061v-185h-432v-348h436v-184h-436v-266q0 -63 36.5 -103.5t92.5 -40.5h303v-184zM776 655v471h-184q-53 0 -91 -44t-38 -107v-320h313zM729 346h-141v-471h-445v78h365v471h221v-78zM729 1001h-104q-37 0 -37 -38v-263h-80v275 q0 45 24.5 74.5t59.5 29.5h137v-78z" />
<glyph unicode="&#xc7;" horiz-adv-x="1187" d="M1188 -125h-277v-121q0 -68 -48 -116t-115 -48h-164v170h157v115h-49q-123 0 -235.5 52.5t-180.5 146.5q145 -121 338 -121h494v231h80v-309zM1188 776h-447v78h367v219q0 88 -47 158q127 -86 127 -236v-219zM1063 0h-449q-203 0 -347 144.5t-144 347.5v491 q0 137 96 232.5t232 95.5h374q98 0 168 -70t70 -168v-172h-322v225h-168q-53 0 -91 -44t-38 -107v-483q0 -129 85 -218.5t206 -89.5h328v-184zM694 1001h-88q-37 0 -37 -36v-551q0 -82 41 -148q-121 78 -121 226v483q0 45 25 74.5t59 29.5h121v-78z" />
<glyph unicode="&#xc8;" horiz-adv-x="1064" d="M727 1454h-201l-219 348h201zM1044 -125h-659q-121 0 -182 107q47 -29 104 -29h658v231h79v-309zM1044 469h-454v-240h-80v318h455v231h79v-309zM1044 1001h-454v-178h-80v256h455v232h79v-310zM920 0h-613q-68 0 -116 48t-48 116v1147h777v-185h-455v-348h455v-184h-455 v-410h455v-184z" />
<glyph unicode="&#xc9;" horiz-adv-x="1064" d="M1044 -125h-659q-121 0 -182 107q47 -29 104 -29h658v231h79v-309zM1044 469h-454v-240h-80v318h455v231h79v-309zM1044 1001h-454v-178h-80v256h455v232h79v-310zM920 0h-613q-68 0 -116 48t-48 116v1147h777v-185h-455v-348h455v-184h-455v-410h455v-184zM891 1802 l-219 -348h-201l219 348h201z" />
<glyph unicode="&#xca;" horiz-adv-x="1064" d="M1044 -125h-659q-121 0 -182 107q47 -29 104 -29h658v231h79v-309zM1044 469h-454v-240h-80v318h455v231h79v-309zM1044 1001h-454v-178h-80v256h455v232h79v-310zM920 0h-613q-68 0 -116 48t-48 116v1147h777v-185h-455v-348h455v-184h-455v-410h455v-184zM881 1475 h-203l-103 165l-106 -165h-203l221 348h177z" />
<glyph unicode="&#xcb;" horiz-adv-x="1064" d="M1044 -125h-659q-121 0 -182 107q47 -29 104 -29h658v231h79v-309zM1044 469h-454v-240h-80v318h455v231h79v-309zM1044 1001h-454v-178h-80v256h455v232h79v-310zM920 0h-613q-68 0 -116 48t-48 116v1147h777v-185h-455v-348h455v-184h-455v-410h455v-184zM457 1468 h-170v170h170v-170zM778 1468h-170v170h170v-170z" />
<glyph unicode="&#xcc;" horiz-adv-x="614" d="M512 1311h80v-1436h-447v78h367v1358zM467 0h-322v1311h322v-1311zM481 1454h-200l-220 348h201z" />
<glyph unicode="&#xcd;" horiz-adv-x="614" d="M512 1311h80v-1436h-447v78h367v1358zM467 0h-322v1311h322v-1311zM614 1802l-219 -348h-200l219 348h200z" />
<glyph unicode="&#xce;" horiz-adv-x="614" d="M512 1311h80v-1436h-447v78h367v1358zM467 0h-322v1311h322v-1311zM291 1468h-170v170h170v-170zM612 1468h-170v170h170v-170z" />
<glyph unicode="&#xcf;" horiz-adv-x="614" d="M512 1311h80v-1436h-447v78h367v1358zM467 0h-322v1311h322v-1311zM670 1475h-203l-102 165l-107 -165h-203l221 348h177z" />
<glyph unicode="&#xd0;" horiz-adv-x="1269" d="M702 528v234h78v-311h-172v-207q-37 -12 -78 -13h-2q2 135 2 297h172zM164 0v573h-164v185h164v553h489q203 0 347.5 -144.5t144.5 -347.5v-327q0 -205 -144.5 -348.5t-347.5 -143.5h-489zM530 1126h-47v-368h174v-185h-174v-389h47q121 0 207 89t86 219v327 q0 129 -86 218t-207 89zM1069 1157q98 -72 149.5 -181.5t51.5 -234.5v-258q0 -254 -178.5 -431t-432.5 -177h-495v80h489q221 0 379 156.5t158 380.5v327q0 188 -121 338zM530 803q0 279 -2 278h2q102 0 175 -75l30 -41q-59 37 -127 36v-198h-78z" />
<glyph unicode="&#xd1;" horiz-adv-x="1351" d="M1331 -125h-280q-127 0 -181 98q45 -20 101 -20h282v1358h78v-1436zM1206 0h-235q-100 0 -142 78l-364 737v-815h-322v1311h236q100 0 141 -78l365 -731v809h321v-1311zM840 694l-262 529q-27 57 -70 88q129 -6 188 -129l144 -291v-197zM590 -125h-447v78h369v665 l78 -157v-586zM1024 1438h-246q-70 0 -120 49t-50 121v6h-239v172h239q72 0 121 -50t49 -122v-6h246v-170z" />
<glyph unicode="&#xd2;" horiz-adv-x="1249" d="M760 1454h-201l-219 348h201zM1249 903v-586q0 -190 -136 -316t-329 -126h-254q-96 0 -178 38t-123 114q100 -74 222 -74h346q154 0 264 109.5t110 265.5v655q0 121 -73 221q151 -100 151 -301zM1124 328q0 -137 -95 -232.5t-232 -95.5h-346q-135 0 -231.5 95t-96.5 233 v655q0 135 96 231.5t232 96.5h346q137 0 232 -96.5t95 -231.5v-655zM805 334v641q0 63 -39 107t-92 44h-101q-53 0 -91 -44t-38 -107v-641q0 -63 38 -106.5t91 -43.5h101q55 0 93 43.5t38 106.5zM758 1001h-160q-29 0 -29 -34v-738q-33 2 -55 32t-22 73v641q0 45 23.5 74.5 t57.5 29.5h101q66 0 84 -78z" />
<glyph unicode="&#xd3;" horiz-adv-x="1249" d="M1249 903v-586q0 -190 -136 -316t-329 -126h-254q-96 0 -178 38t-123 114q100 -74 222 -74h346q154 0 264 109.5t110 265.5v655q0 121 -73 221q151 -100 151 -301zM1124 328q0 -137 -95 -232.5t-232 -95.5h-346q-135 0 -231.5 95t-96.5 233v655q0 135 96 231.5t232 96.5 h346q137 0 232 -96.5t95 -231.5v-655zM805 334v641q0 63 -39 107t-92 44h-101q-53 0 -91 -44t-38 -107v-641q0 -63 38 -106.5t91 -43.5h101q55 0 93 43.5t38 106.5zM758 1001h-160q-29 0 -29 -34v-738q-33 2 -55 32t-22 73v641q0 45 23.5 74.5t57.5 29.5h101q66 0 84 -78z M983 1802l-219 -348h-201l219 348h201z" />
<glyph unicode="&#xd4;" horiz-adv-x="1249" d="M1249 903v-586q0 -190 -136 -316t-329 -126h-254q-96 0 -178 38t-123 114q100 -74 222 -74h346q154 0 264 109.5t110 265.5v655q0 121 -73 221q151 -100 151 -301zM1124 328q0 -137 -95 -232.5t-232 -95.5h-346q-135 0 -231.5 95t-96.5 233v655q0 135 96 231.5t232 96.5 h346q137 0 232 -96.5t95 -231.5v-655zM805 334v641q0 63 -39 107t-92 44h-101q-53 0 -91 -44t-38 -107v-641q0 -63 38 -106.5t91 -43.5h101q55 0 93 43.5t38 106.5zM758 1001h-160q-29 0 -29 -34v-738q-33 2 -55 32t-22 73v641q0 45 23.5 74.5t57.5 29.5h101q66 0 84 -78z M952 1475h-202l-103 165l-106 -165h-203l221 348h176z" />
<glyph unicode="&#xd5;" horiz-adv-x="1249" d="M1249 903v-586q0 -190 -136 -316t-329 -126h-254q-96 0 -178 38t-123 114q100 -74 222 -74h346q154 0 264 109.5t110 265.5v655q0 121 -73 221q151 -100 151 -301zM1124 328q0 -137 -95 -232.5t-232 -95.5h-346q-135 0 -231.5 95t-96.5 233v655q0 135 96 231.5t232 96.5 h346q137 0 232 -96.5t95 -231.5v-655zM805 334v641q0 63 -39 107t-92 44h-101q-53 0 -91 -44t-38 -107v-641q0 -63 38 -106.5t91 -43.5h101q55 0 93 43.5t38 106.5zM758 1001h-160q-29 0 -29 -34v-738q-33 2 -55 32t-22 73v641q0 45 23.5 74.5t57.5 29.5h101q66 0 84 -78z M952 1438h-245q-70 0 -120 49t-50 121v6h-240v172h240q72 0 121 -50t49 -122v-6h245v-170z" />
<glyph unicode="&#xd6;" horiz-adv-x="1249" d="M569 1468h-170v170h170v-170zM891 1468h-170v170h170v-170zM1249 903v-586q0 -190 -136 -316t-329 -126h-254q-96 0 -178 38t-123 114q100 -74 222 -74h346q154 0 264 109.5t110 265.5v655q0 121 -73 221q151 -100 151 -301zM1124 328q0 -137 -95 -232.5t-232 -95.5h-346 q-135 0 -231.5 95t-96.5 233v655q0 135 96 231.5t232 96.5h346q137 0 232 -96.5t95 -231.5v-655zM805 334v641q0 63 -39 107t-92 44h-101q-53 0 -91 -44t-38 -107v-641q0 -63 38 -106.5t91 -43.5h101q55 0 93 43.5t38 106.5zM758 1001h-160q-29 0 -29 -34v-738q-33 2 -55 32 t-22 73v641q0 45 23.5 74.5t57.5 29.5h101q66 0 84 -78z" />
<glyph unicode="&#xd7;" horiz-adv-x="1024" d="M1065 254l-248 -244l-57 56l248 245zM1036 735l-225 -225l-57 55l225 226zM942 311l-182 -180l-252 252l-254 -252l-182 182l254 252l-254 254l180 180l254 -251l254 253l182 -182l-254 -254zM563 262l-227 -227l-55 57l227 227z" />
<glyph unicode="&#xd8;" horiz-adv-x="1249" d="M1249 983v-657q0 -190 -133 -320q-131 -131 -319 -131h-346q-41 0 -89 10q-27 -39 -26 -39l-68 45q16 20 58 82q66 -20 125 -20h346q156 0 264 108q109 113 108 267v655q0 100 -51 188q25 33 49 70l64 -43l-25 -35q43 -92 43 -180zM1124 328q0 -137 -95 -232.5 t-232 -95.5h-346q-77 0 -142 31l-51 -74l-135 90l61 90q-61 84 -61 191v655q0 135 96 231.5t232 96.5h346q74 0 143 -33l49 74l135 -90l-59 -91q59 -86 59 -188v-655zM805 334v448l-344 -522q33 -76 112 -76h101q55 0 93 43.5t38 106.5zM788 1049q-37 78 -114 77h-101 q-53 0 -91 -44t-38 -107v-445zM758 485l-168 -256h-17q-37 0 -59 29l244 371v-144zM700 1001h-98q-20 0 -26.5 -7t-6.5 -27v-168l-80 -117v293q0 45 25 74.5t59 29.5h101q35 0 59 -30q-2 -2 -7 -9l-12 -20z" />
<glyph unicode="&#xd9;" horiz-adv-x="1228" d="M1206 1311v-994q6 -184 -126 -313t-316 -129h-225q-205 0 -291 152q102 -74 223 -74h283q152 0 262 110.5t110 264.5v983h80zM1081 328q0 -137 -96 -232.5t-231 -95.5h-283q-135 0 -231.5 95t-96.5 233v983h322v-977q0 -63 38 -106.5t91 -43.5h37q53 0 91 43t38 107v977 h321v-983zM590 231q-35 2 -57.5 31t-22.5 72v977h80v-1080zM780 1454h-200l-220 348h201z" />
<glyph unicode="&#xda;" horiz-adv-x="1228" d="M1206 1311v-994q6 -184 -126 -313t-316 -129h-225q-205 0 -291 152q102 -74 223 -74h283q152 0 262 110.5t110 264.5v983h80zM1081 328q0 -137 -96 -232.5t-231 -95.5h-283q-135 0 -231.5 95t-96.5 233v983h322v-977q0 -63 38 -106.5t91 -43.5h37q53 0 91 43t38 107v977 h321v-983zM590 231q-35 2 -57.5 31t-22.5 72v977h80v-1080zM963 1802l-220 -348h-200l219 348h201z" />
<glyph unicode="&#xdb;" horiz-adv-x="1228" d="M1206 1311v-994q6 -184 -126 -313t-316 -129h-225q-205 0 -291 152q102 -74 223 -74h283q152 0 262 110.5t110 264.5v983h80zM1081 328q0 -137 -96 -232.5t-231 -95.5h-283q-135 0 -231.5 95t-96.5 233v983h322v-977q0 -63 38 -106.5t91 -43.5h37q53 0 91 43t38 107v977 h321v-983zM590 231q-35 2 -57.5 31t-22.5 72v977h80v-1080zM942 1475h-203l-102 165l-107 -165h-202l221 348h176z" />
<glyph unicode="&#xdc;" horiz-adv-x="1228" d="M569 1468h-170v170h170v-170zM891 1468h-170v170h170v-170zM1206 1311v-994q6 -184 -126 -313t-316 -129h-225q-205 0 -291 152q102 -74 223 -74h283q152 0 262 110.5t110 264.5v983h80zM1081 328q0 -137 -96 -232.5t-231 -95.5h-283q-135 0 -231.5 95t-96.5 233v983h322 v-977q0 -63 38 -106.5t91 -43.5h37q53 0 91 43t38 107v977h321v-983zM590 231q-35 2 -57.5 31t-22.5 72v977h80v-1080z" />
<glyph unicode="&#xdd;" horiz-adv-x="1187" d="M1188 840q0 -145 -91 -268t-231 -162v-535h-444v78h364v516q137 14 229.5 123.5t92.5 247.5v471h80v-471zM1063 840q0 -133 -94.5 -228.5t-227.5 -99.5v-512h-319v512q-133 4 -226.5 99.5t-93.5 228.5v471h322v-465q0 -63 38 -106.5t91 -43.5h59q53 0 91 43t38 107v465 h322v-471zM549 743q-35 2 -57.5 31t-22.5 72v465h80v-568zM375 412q-111 31 -166 127q72 -53 166 -70v-57zM913 1802l-219 -348h-200l219 348h200z" />
<glyph unicode="&#xde;" horiz-adv-x="1167" d="M1167 567q0 -184 -131 -318t-315 -128h-154v-246h-444v78h364v246h234q154 0 260 107.5t106 260.5v168q0 123 -71 223l43 -36q109 -113 108 -267v-88zM1042 573q0 -135 -95 -231t-232 -96h-273v-246h-319v1311h319v-248h273q137 0 232 -95.5t95 -232.5v-162zM723 582v147 q0 63 -38 106.5t-93 43.5h-150v-449h150q53 0 92 44.5t39 107.5zM674 754h-4h-103v-279h-80v356h105q31 0 53.5 -21t28.5 -56zM567 1108h-80v203h80v-203z" />
<glyph unicode="&#xdf;" horiz-adv-x="1290" d="M1290 328q0 -188 -133 -320.5t-319 -132.5h-179v78h179q154 0 264 109.5t110 265.5v247q0 195 -163 310v188q0 84 -48 158q125 -84 125 -238v-69q164 -137 164 -349v-247zM1165 328q0 -137 -95 -232.5t-232 -95.5h-179v184h37q55 0 113.5 43t58.5 101v247 q0 61 -35.5 102.5t-87.5 41.5h-40v407h-228v-1126h-295v635h-162v184h162v254q0 98 68.5 168t167.5 70h346q98 0 167.5 -70t69.5 -168v-213q76 -43 120 -118.5t44 -166.5v-247zM821 594h-116v78h40q29 0 50.5 -21.5t25.5 -56.5zM659 1001h-57v-1126h-420v78h342v1126h135 v-78zM137 510h-117v78h117v-78z" />
<glyph unicode="&#xe0;" horiz-adv-x="1105" d="M1085 -125h-741q-121 0 -182 107q47 -29 104 -29h740v866q0 59 -27 105q106 -61 106 -185v-864zM961 0h-695q-68 0 -116 48t-48 116v266q0 68 48.5 116t115.5 48h398v205h-517v184h650q68 0 116 -48t48 -116v-819zM664 184v226h-265v-226h265zM616 285h-92v-56h-80v133 h172v-77zM616 674h-469v78h469v-78zM707 1147h-201l-219 348h200z" />
<glyph unicode="&#xe1;" horiz-adv-x="1105" d="M1085 -125h-741q-121 0 -182 107q47 -29 104 -29h740v866q0 59 -27 105q106 -61 106 -185v-864zM961 0h-695q-68 0 -116 48t-48 116v266q0 68 48.5 116t115.5 48h398v205h-517v184h650q68 0 116 -48t48 -116v-819zM664 184v226h-265v-226h265zM616 285h-92v-56h-80v133 h172v-77zM616 674h-469v78h469v-78zM840 1495l-219 -348h-201l219 348h201z" />
<glyph unicode="&#xe2;" horiz-adv-x="1105" d="M1085 -125h-741q-121 0 -182 107q47 -29 104 -29h740v866q0 59 -27 105q106 -61 106 -185v-864zM961 0h-695q-68 0 -116 48t-48 116v266q0 68 48.5 116t115.5 48h398v205h-517v184h650q68 0 116 -48t48 -116v-819zM664 184v226h-265v-226h265zM616 285h-92v-56h-80v133 h172v-77zM616 674h-469v78h469v-78zM881 1147h-203l-103 166l-106 -166h-203l221 348h177z" />
<glyph unicode="&#xe3;" horiz-adv-x="1105" d="M881 1147h-246q-70 0 -120 49t-50 121v6h-240v172h240q72 0 121 -50t49 -122v-6h246v-170zM1085 -125h-741q-121 0 -182 107q47 -29 104 -29h740v866q0 59 -27 105q106 -61 106 -185v-864zM961 0h-695q-68 0 -116 48t-48 116v266q0 68 48.5 116t115.5 48h398v205h-517 v184h650q68 0 116 -48t48 -116v-819zM664 184v226h-265v-226h265zM616 285h-92v-56h-80v133h172v-77zM616 674h-469v78h469v-78z" />
<glyph unicode="&#xe4;" horiz-adv-x="1085" d="M1085 -125h-741q-121 0 -182 107q47 -29 104 -29h740v866q0 59 -27 105q106 -61 106 -185v-864zM961 0h-695q-68 0 -116 48t-48 116v266q0 68 48.5 116t115.5 48h398v205h-517v184h650q68 0 116 -48t48 -116v-819zM664 184v226h-265v-226h265zM616 285h-92v-56h-80v133 h172v-77zM616 674h-469v78h469v-78zM498 1141h-170v170h170v-170zM819 1141h-170v170h170v-170z" />
<glyph unicode="&#xe5;" horiz-adv-x="1105" d="M1085 -125h-741q-121 0 -182 107q47 -29 104 -29h740v866q0 59 -27 105q106 -61 106 -185v-864zM961 0h-695q-68 0 -116 48t-48 116v266q0 68 48.5 116t115.5 48h398v205h-517v184h650q68 0 116 -48t48 -116v-819zM664 184v226h-265v-226h265zM616 285h-92v-56h-80v133 h172v-77zM616 674h-469v78h469v-78zM819 1311q0 -68 -48 -116t-116 -48h-163q-68 0 -116 48t-48 116v164q0 68 48 115.5t116 47.5h163q68 0 116 -48t48 -115v-164zM657 1309v166h-168v-166h168z" />
<glyph unicode="&#xe6;" horiz-adv-x="1679" d="M1679 285h-587v-56h-2q-33 0 -54.5 28t-21.5 69v36h588v293q0 121 -74 224q25 -18 43 -37q109 -113 108 -267v-290zM1618 -125h-619q-106 0 -178 37q-72 -37 -182 -37h-293q-123 0 -182 107q47 -29 102 -29h373q94 0 178 45q90 -45 180 -45h541v231h80v-309zM1554 410 h-587v-84q0 -61 35.5 -101.5t87.5 -40.5h403v-184h-496q-96 0 -180 51q-80 -51 -178 -51h-373q-68 0 -116 48t-48 116v266q0 68 48.5 116t115.5 48h404v61q0 63 -35 105.5t-92 42.5h-398v180h494q94 0 178 -53q86 53 180 53h230q137 0 232 -95t95 -233v-245zM1257 594v61 q0 61 -35.5 102.5t-86.5 41.5h-45q-51 0 -87 -41t-36 -103v-61h290zM670 328v82h-271v-226h148q51 0 87 41.5t36 102.5zM1210 674h-80q-35 0 -38 -35h-78v16q0 41 21.5 69t54.5 28h45q29 0 50 -21.5t25 -56.5zM625 315q0 -31 -31 -30h-70v-56h-78v133h179v-47zM623 678h-478 v78h398q68 0 80 -78z" />
<glyph unicode="&#xe7;" horiz-adv-x="1044" d="M1044 530h-421v78h342v211q0 59 -27 105q106 -47 106 -179v-215zM983 -125h-190v-121q0 -68 -48.5 -116t-115.5 -48h-164v170h158v115h-127q-92 0 -170 39t-119 113q100 -74 223 -74h473v231h80v-309zM858 0h-428q-137 0 -232.5 95t-95.5 233v327q0 137 95.5 232.5 t232.5 95.5h326q68 0 116 -48t48 -116v-164h-297v144h-101q-51 0 -87 -41t-36 -103v-327q0 -61 36 -102.5t87 -41.5h336v-184zM575 670h-26q-25 0 -25 -29v-412h-2q-33 0 -55.5 29t-22.5 70v327q0 41 22.5 69t55.5 28h53v-82z" />
<glyph unicode="&#xe8;" d="M1065 -125h-567q-201 0 -291 152q100 -74 223 -74h555v231h80v-309zM1126 285h-602v-56h-2q-33 0 -55.5 29t-22.5 70v34h603v293q0 123 -72 224q152 -102 151 -293v-301zM940 0h-510q-137 0 -232.5 95t-95.5 233v327q0 137 95.5 232.5t232.5 95.5h244q137 0 232 -95 t95 -233v-245h-602v-82q0 -61 36 -102.5t87 -41.5h418v-184zM705 594v61q0 61 -36 102.5t-87 41.5h-60q-51 0 -87 -41t-36 -103v-61h306zM657 674h-96q-35 0 -35 -35h-82v16q0 41 22.5 69t55.5 28h60q29 0 50 -21.5t25 -56.5zM737 1147h-200l-220 348h201z" />
<glyph unicode="&#xe9;" d="M1065 -125h-567q-201 0 -291 152q100 -74 223 -74h555v231h80v-309zM1126 285h-602v-56h-2q-33 0 -55.5 29t-22.5 70v34h603v293q0 123 -72 224q152 -102 151 -293v-301zM940 0h-510q-137 0 -232.5 95t-95.5 233v327q0 137 95.5 232.5t232.5 95.5h244q137 0 232 -95 t95 -233v-245h-602v-82q0 -61 36 -102.5t87 -41.5h418v-184zM705 594v61q0 61 -36 102.5t-87 41.5h-60q-51 0 -87 -41t-36 -103v-61h306zM657 674h-96q-35 0 -35 -35h-82v16q0 41 22.5 69t55.5 28h60q29 0 50 -21.5t25 -56.5zM901 1495l-219 -348h-201l219 348h201z" />
<glyph unicode="&#xea;" d="M1065 -125h-567q-201 0 -291 152q100 -74 223 -74h555v231h80v-309zM1126 285h-602v-56h-2q-33 0 -55.5 29t-22.5 70v34h603v293q0 123 -72 224q152 -102 151 -293v-301zM940 0h-510q-137 0 -232.5 95t-95.5 233v327q0 137 95.5 232.5t232.5 95.5h244q137 0 232 -95 t95 -233v-245h-602v-82q0 -61 36 -102.5t87 -41.5h418v-184zM705 594v61q0 61 -36 102.5t-87 41.5h-60q-51 0 -87 -41t-36 -103v-61h306zM657 674h-96q-35 0 -35 -35h-82v16q0 41 22.5 69t55.5 28h60q29 0 50 -21.5t25 -56.5zM911 1147h-202l-103 166l-106 -166h-203 l221 348h176z" />
<glyph unicode="&#xeb;" d="M532 1141h-170v170h170v-170zM854 1141h-170v170h170v-170zM1065 -125h-567q-201 0 -291 152q100 -74 223 -74h555v231h80v-309zM1126 285h-602v-56h-2q-33 0 -55.5 29t-22.5 70v34h603v293q0 123 -72 224q152 -102 151 -293v-301zM940 0h-510q-137 0 -232.5 95 t-95.5 233v327q0 137 95.5 232.5t232.5 95.5h244q137 0 232 -95t95 -233v-245h-602v-82q0 -61 36 -102.5t87 -41.5h418v-184zM705 594v61q0 61 -36 102.5t-87 41.5h-60q-51 0 -87 -41t-36 -103v-61h306zM657 674h-96q-35 0 -35 -35h-82v16q0 41 22.5 69t55.5 28h60 q29 0 50 -21.5t25 -56.5z" />
<glyph unicode="&#xec;" horiz-adv-x="575" d="M461 1147h-201l-219 348h201zM549 -125h-422v78h342v1030h80v-1108zM424 0h-297v983h297v-983z" />
<glyph unicode="&#xed;" horiz-adv-x="575" d="M575 1495l-219 -348h-200l219 348h200zM549 -125h-422v78h342v1030h80v-1108zM424 0h-297v983h297v-983z" />
<glyph unicode="&#xee;" horiz-adv-x="575" d="M618 1147h-202l-103 166l-106 -166h-203l221 348h176zM549 -125h-422v78h342v1030h80v-1108zM424 0h-297v983h297v-983z" />
<glyph unicode="&#xef;" horiz-adv-x="575" d="M559 1141h-170v170h170v-170zM238 1141h-170v170h170v-170zM549 -125h-422v78h342v1030h80v-1108zM424 0h-297v983h297v-983z" />
<glyph unicode="&#xf0;" horiz-adv-x="1249" d="M1270 1001h-164v-673q0 -186 -133 -322.5t-320 -130.5h-153q-209 0 -293 152q100 -74 221 -74h225q152 0 265.5 110.5t109.5 264.5v751h164v232h78v-310zM1145 1126h-164v-798q0 -137 -95 -232.5t-233 -95.5h-225q-137 0 -231.5 95t-94.5 233v327q0 137 94.5 232.5 t231.5 95.5h256v143h-160v185h160v184h297v-184h164v-185zM684 328v471h-164q-51 0 -87 -41t-36 -103v-327q0 -61 36 -102.5t87 -41.5h41q51 0 87 41.5t36 102.5zM1106 1356h-78v139h78v-139zM639 1028h-113v51h113v-51zM639 674h-84q-33 0 -33 -35v-410h-2q-33 0 -54.5 29 t-21.5 70v327q0 41 21.5 69t54.5 28h119v-78z" />
<glyph unicode="&#xf1;" horiz-adv-x="1146" d="M1126 -125h-421v78h342v702q0 123 -72 224q152 -102 151 -291v-713zM1001 0h-296v655q0 61 -36 102.5t-87 41.5h-162v-799h-297v983h551q137 0 232 -95t95 -233v-655zM655 674h-110v-799h-422v78h342v799h117q27 0 48 -21.5t25 -56.5zM901 1147h-246q-70 0 -120 49 t-50 121v6h-239v172h239q72 0 121 -50t49 -122v-6h246v-170z" />
<glyph unicode="&#xf2;" d="M1126 328q0 -186 -131 -322q-135 -131 -321 -131h-185q-195 0 -282 152q100 -74 223 -74h244q158 0 264 110q109 104 109 265v327q0 123 -72 224q152 -92 151 -283v-268zM1001 328q0 -137 -95 -232.5t-232 -95.5h-244q-137 0 -232.5 95t-95.5 233v327q0 137 95.5 232.5 t232.5 95.5h244q137 0 232 -95t95 -233v-327zM705 328v327q0 61 -36 102.5t-87 41.5h-60q-51 0 -87 -41t-36 -103v-327q0 -61 36 -102.5t87 -41.5h60q51 0 87 41.5t36 102.5zM657 674h-102q-31 0 -31 -33v-412h-2q-33 0 -55.5 29t-22.5 70v327q0 41 22.5 69t55.5 28h60 q29 0 50 -21.5t25 -56.5zM707 1147h-201l-219 348h200z" />
<glyph unicode="&#xf3;" d="M1126 328q0 -186 -131 -322q-135 -131 -321 -131h-185q-195 0 -282 152q100 -74 223 -74h244q158 0 264 110q109 104 109 265v327q0 123 -72 224q152 -92 151 -283v-268zM1001 328q0 -137 -95 -232.5t-232 -95.5h-244q-137 0 -232.5 95t-95.5 233v327q0 137 95.5 232.5 t232.5 95.5h244q137 0 232 -95t95 -233v-327zM705 328v327q0 61 -36 102.5t-87 41.5h-60q-51 0 -87 -41t-36 -103v-327q0 -61 36 -102.5t87 -41.5h60q51 0 87 41.5t36 102.5zM657 674h-102q-31 0 -31 -33v-412h-2q-33 0 -55.5 29t-22.5 70v327q0 41 22.5 69t55.5 28h60 q29 0 50 -21.5t25 -56.5zM881 1495l-219 -348h-201l219 348h201z" />
<glyph unicode="&#xf4;" d="M1126 328q0 -186 -131 -322q-135 -131 -321 -131h-185q-195 0 -282 152q100 -74 223 -74h244q158 0 264 110q109 104 109 265v327q0 123 -72 224q152 -92 151 -283v-268zM1001 328q0 -137 -95 -232.5t-232 -95.5h-244q-137 0 -232.5 95t-95.5 233v327q0 137 95.5 232.5 t232.5 95.5h244q137 0 232 -95t95 -233v-327zM705 328v327q0 61 -36 102.5t-87 41.5h-60q-51 0 -87 -41t-36 -103v-327q0 -61 36 -102.5t87 -41.5h60q51 0 87 41.5t36 102.5zM657 674h-102q-31 0 -31 -33v-412h-2q-33 0 -55.5 29t-22.5 70v327q0 41 22.5 69t55.5 28h60 q29 0 50 -21.5t25 -56.5zM901 1147h-203l-102 166l-107 -166h-202l221 348h176z" />
<glyph unicode="&#xf5;" d="M922 1147h-246q-70 0 -120 49t-50 121v6h-240v172h240q72 0 121 -50t49 -122v-6h246v-170zM922 1147h-246q-70 0 -120 49t-50 121v6h-240v172h240q72 0 121 -50t49 -122v-6h246v-170zM922 1147h-246q-70 0 -120 49t-50 121v6h-240v172h240q72 0 121 -50t49 -122v-6h246 v-170zM1126 328q0 -186 -131 -322q-135 -131 -321 -131h-185q-195 0 -282 152q100 -74 223 -74h244q158 0 264 110q109 104 109 265v327q0 123 -72 224q152 -92 151 -283v-268zM1001 328q0 -137 -95 -232.5t-232 -95.5h-244q-137 0 -232.5 95t-95.5 233v327 q0 137 95.5 232.5t232.5 95.5h244q137 0 232 -95t95 -233v-327zM705 328v327q0 61 -36 102.5t-87 41.5h-60q-51 0 -87 -41t-36 -103v-327q0 -61 36 -102.5t87 -41.5h60q51 0 87 41.5t36 102.5zM657 674h-102q-31 0 -31 -33v-412h-2q-33 0 -55.5 29t-22.5 70v327 q0 41 22.5 69t55.5 28h60q29 0 50 -21.5t25 -56.5z" />
<glyph unicode="&#xf6;" d="M518 1141h-170v170h170v-170zM840 1141h-170v170h170v-170zM1126 328q0 -186 -131 -322q-135 -131 -321 -131h-185q-195 0 -282 152q100 -74 223 -74h244q158 0 264 110q109 104 109 265v327q0 123 -72 224q152 -92 151 -283v-268zM1001 328q0 -137 -95 -232.5 t-232 -95.5h-244q-137 0 -232.5 95t-95.5 233v327q0 137 95.5 232.5t232.5 95.5h244q137 0 232 -95t95 -233v-327zM705 328v327q0 61 -36 102.5t-87 41.5h-60q-51 0 -87 -41t-36 -103v-327q0 -61 36 -102.5t87 -41.5h60q51 0 87 41.5t36 102.5zM657 674h-102q-31 0 -31 -33 v-412h-2q-33 0 -55.5 29t-22.5 70v327q0 41 22.5 69t55.5 28h60q29 0 50 -21.5t25 -56.5z" />
<glyph unicode="&#xf7;" horiz-adv-x="1085" d="M1065 258h-246v-338h-450v80h372v336h246v311h78v-389zM940 385h-817v262h817v-262zM819 694h-78v289h78v-289zM694 47h-325v291h325v-291zM694 696h-325v287h325v-287zM324 258h-201v80h201v-80z" />
<glyph unicode="&#xf8;" d="M1124 328q6 -184 -131 -320.5t-319 -132.5h-246q-43 0 -76 8l-8 -10l-61 47l36 49q55 -16 109 -16h246q150 -4 262.5 109.5t107.5 265.5v327q0 104 -53 195l37 47l62 -47l-9 -10q43 -86 43 -185v-327zM999 328q0 -137 -94 -232.5t-231 -95.5h-246q-68 0 -125 25l-53 -70 l-139 106l55 70q-63 86 -64 197v327q0 137 94.5 232.5t231.5 95.5h246q68 0 125 -25l53 70l137 -104l-55 -72q66 -88 65 -197v-327zM705 328v221l-261 -336q33 -29 76 -29h62q51 0 87 41.5t36 102.5zM655 770q-33 29 -73 29h-62q-51 0 -87 -41t-36 -103v-221z" />
<glyph unicode="&#xf9;" d="M1106 328q0 -184 -134 -321.5t-319 -131.5h-143q-154 0 -266 109q-25 29 -35 43q100 -74 221 -74h223q154 0 264.5 110.5t110.5 264.5v655h78v-655zM981 328q0 -137 -95 -232.5t-233 -95.5h-223q-137 0 -232.5 95t-95.5 233v655h297v-655q0 -61 36 -102.5t87 -41.5h39 q51 0 87 41t36 103v655h297v-655zM524 229h-2q-33 0 -54.5 29t-21.5 70v655h78v-754zM686 1147h-201l-219 348h201z" />
<glyph unicode="&#xfa;" d="M1106 328q0 -184 -134 -321.5t-319 -131.5h-143q-154 0 -266 109q-25 29 -35 43q100 -74 221 -74h223q154 0 264.5 110.5t110.5 264.5v655h78v-655zM981 328q0 -137 -95 -232.5t-233 -95.5h-223q-137 0 -232.5 95t-95.5 233v655h297v-655q0 -61 36 -102.5t87 -41.5h39 q51 0 87 41t36 103v655h297v-655zM524 229h-2q-33 0 -54.5 29t-21.5 70v655h78v-754zM881 1495l-219 -348h-201l219 348h201z" />
<glyph unicode="&#xfb;" d="M1106 328q0 -184 -134 -321.5t-319 -131.5h-143q-154 0 -266 109q-25 29 -35 43q100 -74 221 -74h223q154 0 264.5 110.5t110.5 264.5v655h78v-655zM981 328q0 -137 -95 -232.5t-233 -95.5h-223q-137 0 -232.5 95t-95.5 233v655h297v-655q0 -61 36 -102.5t87 -41.5h39 q51 0 87 41t36 103v655h297v-655zM524 229h-2q-33 0 -54.5 29t-21.5 70v655h78v-754zM889 1147h-203l-102 166l-107 -166h-203l222 348h176z" />
<glyph unicode="&#xfc;" d="M1106 328q0 -184 -134 -321.5t-319 -131.5h-143q-154 0 -266 109q-25 29 -35 43q100 -74 221 -74h223q154 0 264.5 110.5t110.5 264.5v655h78v-655zM981 328q0 -137 -95 -232.5t-233 -95.5h-223q-137 0 -232.5 95t-95.5 233v655h297v-655q0 -61 36 -102.5t87 -41.5h39 q51 0 87 41t36 103v655h297v-655zM524 229h-2q-33 0 -54.5 29t-21.5 70v655h78v-754zM508 1141h-170v170h170v-170zM829 1141h-170v170h170v-170z" />
<glyph unicode="&#xfd;" horiz-adv-x="1146" d="M1126 -246q0 -119 -84 -204t-204 -85h-256v78h256q86 0 147.5 61.5t61.5 149.5v1229h79v-1229zM1001 -246q0 -68 -48 -116t-115 -48h-256v185h123v225h-254q-137 0 -232.5 95t-95.5 233v655h297v-655q0 -61 36 -102.5t87 -41.5h162v799h296v-1229zM545 229h-2 q-33 0 -55.5 29t-22.5 70v655h80v-754zM657 -125h-129q-156 0 -264 109l-37 43q100 -74 224 -74h206v-78zM881 1495l-219 -348h-201l219 348h201z" />
<glyph unicode="&#xfe;" d="M1126 330q0 -188 -133 -321.5t-319 -133.5h-131v-410h-420v78h340v410h211q154 0 263.5 110.5t109.5 264.5v327q0 123 -72 224l43 -37q109 -113 108 -267v-245zM1001 328q0 -137 -95 -232.5t-232 -95.5h-256v-410h-295v1905h295v-512h256q137 0 232 -95t95 -233v-327z M705 328v327q0 61 -36 102.5t-87 41.5h-164v-615h164q51 0 87 41.5t36 102.5zM657 674h-114v-445h-80v523h119q29 0 50 -21.5t25 -56.5zM543 1028h-80v467h80v-467z" />
<glyph unicode="&#xff;" horiz-adv-x="1146" d="M528 1141h-170v170h170v-170zM850 1141h-170v170h170v-170zM1126 -246q0 -119 -84 -204t-204 -85h-256v78h256q86 0 147.5 61.5t61.5 149.5v1229h79v-1229zM1001 -246q0 -68 -48 -116t-115 -48h-256v185h123v225h-254q-137 0 -232.5 95t-95.5 233v655h297v-655 q0 -61 36 -102.5t87 -41.5h162v799h296v-1229zM545 229h-2q-33 0 -55.5 29t-22.5 70v655h80v-754zM657 -125h-129q-156 0 -264 109l-37 43q100 -74 224 -74h206v-78z" />
<glyph unicode="&#x152;" horiz-adv-x="1720" d="M1700 -125h-570q-90 0 -167 33q-78 -33 -168 -33h-277q-201 0 -291 152q102 -74 224 -74h344q84 0 166 39q82 -39 167 -39h492v231h80v-309zM1688 469h-443v-238q-33 2 -56.5 32t-23.5 71v213h443v231h80v-309zM1700 1001h-455v-178h-80v256h455v232h80v-310zM1575 0 h-447q-90 0 -167 45q-78 -45 -166 -45h-344q-135 0 -231.5 95t-96.5 233v655q0 135 96 231.5t232 96.5h1124v-185h-455v-348h443v-184h-443v-260q0 -63 38 -106.5t93 -43.5h324v-184zM803 334v792h-230q-53 0 -91 -44t-38 -107v-641q0 -63 38 -106.5t91 -43.5h99 q55 0 93 43.5t38 106.5zM756 1001h-156q-31 0 -31 -36v-734q-35 2 -57.5 31t-22.5 72v641q0 45 25 74.5t59 29.5h183v-78z" />
<glyph unicode="&#x153;" horiz-adv-x="1710" d="M1710 285h-584v-56h-2q-33 0 -55 29t-22 70v34h583v293q0 123 -71 224q152 -104 151 -304v-290zM1657 -125h-625q-94 0 -180 35q-86 -35 -176 -35h-168q-201 0 -301 152q100 -74 223 -74h246q92 0 178 45q84 -45 178 -45h545v231h80v-309zM1585 410h-584v-82 q0 -61 36 -102.5t87 -41.5h408v-184h-500q-98 0 -178 51q-80 -51 -178 -51h-246q-137 0 -232.5 95t-95.5 233v327q0 137 95.5 232.5t232.5 95.5h246q94 0 178 -53q84 53 178 53h225q137 0 232.5 -95t95.5 -233v-245zM1288 594v61q0 61 -35.5 102.5t-87.5 41.5h-41 q-51 0 -87 -41t-36 -103v-61h287zM1241 674h-72q-39 0 -43 -35h-79v16q0 41 22.5 69t54.5 28h41q27 0 48.5 -21.5t27.5 -56.5zM707 328v327q0 61 -36 102.5t-87 41.5h-62q-51 0 -87 -41t-36 -103v-327q0 -61 36 -102.5t87 -41.5h62q51 0 87 41.5t36 102.5zM524 229h-2 q-33 0 -55.5 29t-22.5 70v327q0 41 22.5 69t55.5 28h62q27 0 48 -21.5t27 -56.5h-92q-43 0 -43 -41v-404z" />
<glyph unicode="&#x178;" horiz-adv-x="1187" d="M1188 840q0 -145 -91 -268t-231 -162v-535h-444v78h364v516q137 14 229.5 123.5t92.5 247.5v471h80v-471zM1063 840q0 -133 -94.5 -228.5t-227.5 -99.5v-512h-319v512q-133 4 -226.5 99.5t-93.5 228.5v471h322v-465q0 -63 38 -106.5t91 -43.5h59q53 0 91 43t38 107v465 h322v-471zM549 743q-35 2 -57.5 31t-22.5 72v465h80v-568zM375 412q-111 31 -166 127q72 -53 166 -70v-57zM547 1468h-170v170h170v-170zM868 1468h-170v170h170v-170z" />
<glyph unicode="&#x2c6;" horiz-adv-x="942" d="M778 1147h-203l-102 166l-106 -166h-203l221 348h176z" />
<glyph unicode="&#x2dc;" horiz-adv-x="942" d="M799 1147h-246q-70 0 -120 49t-50 121v6h-240v172h240q72 0 121 -50t49 -122v-6h246v-170z" />
<glyph unicode="&#x2000;" horiz-adv-x="911" />
<glyph unicode="&#x2001;" horiz-adv-x="1823" />
<glyph unicode="&#x2002;" horiz-adv-x="911" />
<glyph unicode="&#x2003;" horiz-adv-x="1823" />
<glyph unicode="&#x2004;" horiz-adv-x="607" />
<glyph unicode="&#x2005;" horiz-adv-x="455" />
<glyph unicode="&#x2006;" horiz-adv-x="303" />
<glyph unicode="&#x2007;" horiz-adv-x="303" />
<glyph unicode="&#x2008;" horiz-adv-x="227" />
<glyph unicode="&#x2009;" horiz-adv-x="364" />
<glyph unicode="&#x200a;" horiz-adv-x="101" />
<glyph unicode="&#x2010;" horiz-adv-x="716" d="M717 346h-615v78h535v252h80v-330zM592 471h-490v205h490v-205z" />
<glyph unicode="&#x2011;" horiz-adv-x="716" d="M717 346h-615v78h535v252h80v-330zM592 471h-490v205h490v-205z" />
<glyph unicode="&#x2013;" horiz-adv-x="1146" d="M1126 346h-1024v78h945v252h79v-330zM1001 471h-899v205h899v-205z" />
<glyph unicode="&#x2014;" horiz-adv-x="1658" d="M1659 346h-1557v78h1477v252h80v-330zM1534 471h-1432v205h1432v-205z" />
<glyph unicode="&#x2018;" horiz-adv-x="614" d="M655 858h-407l-25 78h326l-178 559h82zM485 983h-282l-162 512h281z" />
<glyph unicode="&#x2019;" horiz-adv-x="614" d="M696 1495l-200 -637h-414l24 78h330l176 559h84zM565 1495l-162 -512h-282l164 512h280z" />
<glyph unicode="&#x201a;" horiz-adv-x="614" d="M655 287l-256 -822h-438l25 78h354l231 744h84zM524 287l-217 -697h-307l219 697h305z" />
<glyph unicode="&#x201c;" horiz-adv-x="1085" d="M1126 858h-413l-25 78h330l-178 559h82zM954 983h-286l-162 512h285zM659 858h-411l-25 78h330l-178 559h82zM489 983h-286l-162 512h285z" />
<glyph unicode="&#x201d;" horiz-adv-x="1085" d="M1167 1495l-200 -637h-418l24 78h334l176 559h84zM1036 1495l-162 -512h-286l166 512h282zM700 1495l-200 -637h-418l24 78h334l176 559h84zM569 1495l-161 -512h-287l164 512h284z" />
<glyph unicode="&#x201e;" horiz-adv-x="1097" d="M655 287l-256 -822h-438l25 78h354l231 744h84zM524 287l-217 -697h-307l219 697h305zM1139 287l-256 -822h-439l25 78h354l232 744h84zM1008 287l-217 -697h-308l219 697h306z" />
<glyph unicode="&#x2022;" horiz-adv-x="614" d="M594 367h-451v77h371v375h80v-452zM469 492h-326v327h326v-327z" />
<glyph unicode="&#x2026;" horiz-adv-x="1617" d="M1096 -125h-451v78h371v334h80v-412zM971 0h-326v287h326v-287zM594 -125h-451v78h371v334h80v-412zM469 0h-326v287h326v-287zM1597 -125h-450v78h371v334h79v-412zM1473 0h-326v287h326v-287z" />
<glyph unicode="&#x202f;" horiz-adv-x="364" />
<glyph unicode="&#x2039;" horiz-adv-x="757" d="M788 221l-235 -254l-57 58l235 251zM760 815l-279 -285l-57 56l278 284zM668 276l-174 -184l-494 494l496 495l170 -182l-306 -313z" />
<glyph unicode="&#x203a;" horiz-adv-x="778" d="M846 504l-533 -533l-57 56l532 534zM750 586l-494 -494l-174 184l307 310l-305 313l170 182z" />
<glyph unicode="&#x205f;" horiz-adv-x="455" />
<glyph unicode="&#x20ac;" d="M1126 203h-417q-195 0 -281 151q102 -74 223 -73h396v231h79v-309zM1126 600h-381v-43h-2q-33 0 -55 28.5t-22 69.5v23h381v231h79v-309zM1126 1001h-342q-23 0 -31 -10t-8 -37h-79v29q0 41 22.5 68.5t54.5 27.5h304v232h79v-310zM1001 328h-350q-115 0 -203 69.5 t-114 175.5h-252v185h242v123h-242v184h252q27 106 115 176t202 70h350v-185h-258q-51 0 -86.5 -41t-35.5 -102v-74h380v-184h-380v-70q0 -61 35.5 -102t86.5 -41h258v-184zM340 449h-258v77h217q14 -38 41 -77z" />
<glyph unicode="&#x2122;" horiz-adv-x="1540" d="M1458 737h-194v391q0 74 -66 74h-63v-465h-193v465h-129v-465h-195v574h623q90 0 153.5 -63.5t63.5 -153.5v-357zM520 1182h-133v-445h-192v445h-134v129h459v-129z" />
<glyph horiz-adv-x="450" />
</font>
</defs>
</svg>
